osu file format v14

[General]
AudioFilename: audio.ogg
AudioLeadIn: 0
PreviewTime: 196194
Countdown: 0
SampleSet: Soft
StackLeniency: 0.7
Mode: 0
LetterboxInBreaks: 0
WidescreenStoryboard: 1

[Editor]
Bookmarks: 80996,90594,100196,119396,138596,148194,157794,176996,196196,215396,234596
DistanceSpacing: 1.3
BeatDivisor: 4
GridSize: 16
TimelineZoom: 2

[Metadata]
Title:dogs
TitleUnicode:dogs
Artist:nouns
ArtistUnicode:nouns
Creator:shime
Version:renumi's insane
Source:
Tags:renumi ralsei hewwo announcerf still bummed emo emotional experimental rock noise rock post-hardcore post hardcore post-punk english male vocals vocalist
BeatmapID:3883825
BeatmapSetID:1885919

[Difficulty]
HPDrainRate:5
CircleSize:3.8
OverallDifficulty:7
ApproachRate:8.7
SliderMultiplier:1.4
SliderTickRate:1

[Events]
//Background and Video events
0,0,"bg.jpg",0,0
//Break Periods
2,177199,195554
//Storyboard Layer 0 (Background)
//Storyboard Layer 1 (Fail)
//Storyboard Layer 2 (Pass)
//Storyboard Layer 3 (Foreground)
//Storyboard Layer 4 (Overlay)
//Storyboard Sound Samples

[TimingPoints]
80999,600,4,2,1,40,1,0
80999,-62.5,4,2,1,40,0,0
100199,-62.5,4,2,1,45,0,0
119399,300,4,2,1,55,1,0
119399,-109.89010989011,4,2,1,55,0,0
138599,-109.89010989011,4,2,1,55,0,0
138749,-123.456790123457,4,2,1,55,0,0
176999,-123.456790123457,4,2,1,60,0,0
177599,-123.456790123457,4,2,1,60,0,0
196199,-109.89010989011,4,2,1,70,0,1
215399,-109.89010989011,4,2,1,70,0,0
220199,-109.89010989011,4,2,1,70,0,1
224999,-109.89010989011,4,2,1,70,0,0
229799,-109.89010989011,4,2,1,70,0,1
234599,-109.89010989011,4,2,1,70,0,0

[Colours]
Combo1 : 169,190,205
Combo2 : 199,147,126
Combo3 : 215,204,113

[HitObjects]
281,114,80999,6,0,P|249:124|216:138,1,56,4|0,3:2|0:0,0:0:0:0:
106,266,81299,2,0,P|113:233|117:197,1,56
100,1,81599,2,0,L|126:121,1,112,8|2,0:0|0:3,0:0:0:0:
218,243,82049,2,0,L|230:104,1,112
342,212,82499,2,0,P|355:243|372:286,1,56
494,179,82799,1,8,0:0:0:0:
508,346,82949,2,0,P|461:363|391:307,1,112
321,261,83399,6,0,P|293:256|257:251,1,56,0|0,3:2|0:0,0:0:0:0:
113,213,83699,2,0,P|145:205|178:200,1,56
299,128,83999,1,8,0:0:0:0:
151,116,84149,1,0,0:0:0:0:
207,19,84299,1,2,0:3:0:0:
285,154,84449,2,0,P|343:144|412:133,1,112
475,287,84899,2,0,L|407:276,1,56
297,337,85199,1,8,0:0:0:0:
297,337,85799,6,0,P|270:330|234:324,1,56,4|0,3:2|0:0,0:0:0:0:
81,287,86099,2,0,P|101:262|123:244,1,56
337,294,86399,2,0,P|281:298|222:246,1,112,8|2,0:0|0:3,0:0:0:0:
142,132,86849,1,0,0:0:0:0:
133,138,87149,1,0,0:0:0:0:
235,84,87299,2,0,L|254:149,1,56
341,35,87599,1,8,0:0:0:0:
398,208,87749,2,0,P|408:150|426:83,1,112
388,216,88199,6,0,P|326:207|301:203,1,56,0|0,3:2|0:0,0:0:0:0:
214,252,88499,2,0,L|181:333,1,56
292,332,88799,2,0,B|334:317|334:317|402:317,1,112,8|2,0:0|0:3,0:0:0:0:
285,344,89249,2,0,P|229:342|191:298,1,112
297,169,89699,2,0,L|310:246,1,56
116,143,89999,1,8,0:0:0:0:
116,143,90599,5,4,3:2:0:0:
237,44,90749,1,0,0:0:0:0:
114,14,90899,2,0,B|85:7|85:7|38:3,1,56
195,138,91199,2,0,B|221:135|221:135|250:128,1,56,8|0,0:0|0:0,0:0:0:0:
366,21,91499,1,2,0:3:0:0:
402,164,91649,2,0,B|391:196|391:196|382:284,1,112
432,114,92099,2,0,L|450:213,1,56
404,310,92399,2,0,P|363:291|283:299,1,112,8|0,0:0|3:2,0:0:0:0:
188,364,92849,1,0,0:0:0:0:
95,279,92999,6,0,P|83:314|71:353,1,56,0|0,3:2|0:0,0:0:0:0:
201,214,93299,2,0,L|176:82,1,112,0|8,0:0|0:0,0:0:0:0:
59,174,93749,1,0,0:0:0:0:
240,222,93899,2,0,P|231:197|210:159,1,56,2|0,0:3|0:0,0:0:0:0:
60,38,94199,1,0,3:2:0:0:
209,69,94349,1,0,0:0:0:0:
71,148,94499,2,0,L|-5:138,1,56
233,253,94799,1,8,0:0:0:0:
233,253,95399,6,0,L|326:241,1,56,4|0,3:2|0:0,0:0:0:0:
412,190,95699,2,0,P|439:197|530:236,1,112,0|8,0:0|0:0,0:0:0:0:
386,294,96149,1,0,0:0:0:0:
316,160,96299,2,0,L|333:14,1,112,2|0,0:3|3:2,0:0:0:0:
433,173,96749,1,0,0:0:0:0:
288,245,96899,2,0,P|218:229|186:229,1,56
115,263,97199,1,8,0:0:0:0:
127,37,97499,1,0,3:2:0:0:
198,123,97649,1,0,0:0:0:0:
54,138,97799,6,0,P|19:143|-14:152,1,56,0|0,3:2|0:0,0:0:0:0:
139,254,98099,2,0,P|184:293|248:252,1,112,0|8,0:0|0:0,0:0:0:0:
307,178,98549,1,0,0:0:0:0:
263,276,98699,2,0,B|247:311|247:311|235:355,1,56,2|0,0:3|0:0,0:0:0:0:
405,187,98999,1,0,3:2:0:0:
440,295,99149,1,0,0:0:0:0:
492,129,99299,2,0,B|508:164|508:164|520:208,1,56
424,320,99599,1,8,0:0:0:0:
424,320,100199,6,0,P|375:311|282:297,1,112,4|2,3:2|0:0,0:0:0:0:
183,279,100649,2,0,L|102:294,2,56,2|8|0,0:0|0:0|0:0,0:0:0:0:
274,206,101099,1,2,0:3:0:0:
274,206,101249,2,0,L|285:61,1,112,2|0,0:3|0:0,0:0:0:0:
399,87,101699,2,0,P|410:137|416:170,1,56,2|2,0:0|0:0,0:0:0:0:
444,291,101999,1,8,0:0:0:0:
296,65,102299,1,0,3:2:0:0:
296,65,102449,1,0,0:0:0:0:
215,125,102599,6,0,P|144:147|71:126,1,112,0|2,3:2|0:0,0:0:0:0:
46,51,103049,2,0,P|89:2|106:-7,2,56,2|8|0,0:0|0:0|0:0,0:0:0:0:
30,189,103499,1,2,0:3:0:0:
30,189,103649,2,0,P|81:241|94:307,1,112,2|0,0:3|0:0,0:0:0:0:
180,379,104099,2,0,P|186:341|200:313,1,56,2|2,0:0|0:0,0:0:0:0:
328,244,104399,1,8,0:0:0:0:
337,246,104699,1,0,0:0:0:0:
344,248,104999,6,0,L|482:273,1,112,4|2,3:2|0:0,0:0:0:0:
482,159,105449,2,0,P|449:88|436:68,2,56,2|8|0,0:0|0:0|0:0,0:0:0:0:
309,160,105899,1,2,0:3:0:0:
309,160,106049,2,0,B|333:27,1,112,2|0,0:3|0:0,0:0:0:0:
194,76,106499,2,0,P|171:134|160:157,1,56,2|2,0:0|0:0,0:0:0:0:
27,178,106799,1,8,0:0:0:0:
286,188,107099,1,0,3:2:0:0:
286,188,107249,1,0,0:0:0:0:
276,300,107399,6,0,P|321:288|402:273,1,112,0|2,3:2|0:0,0:0:0:0:
487,326,107849,2,0,L|473:393,2,56,2|8|0,0:0|0:0|0:0,0:0:0:0:
411,141,108299,1,2,0:3:0:0:
512,176,108449,1,2,0:3:0:0:
452,258,108599,2,0,P|376:278|321:243,1,112,0|2,3:2|0:0,0:0:0:0:
277,161,109049,1,2,0:0:0:0:
220,278,109199,1,8,0:0:0:0:
220,278,109799,6,0,L|198:127,1,112,4|2,3:2|0:0,0:0:0:0:
106,71,110249,2,0,P|98:102|86:156,2,56,2|8|0,0:0|0:0|0:0,0:0:0:0:
236,57,110699,1,2,0:3:0:0:
236,57,110849,2,0,L|346:40,1,112,2|0,0:3|0:0,0:0:0:0:
422,116,111299,2,0,P|455:125|499:135,1,56,2|2,0:0|0:0,0:0:0:0:
458,3,111599,1,8,0:0:0:0:
433,253,111899,1,0,3:2:0:0:
433,253,112049,1,0,0:0:0:0:
337,191,112199,6,0,P|291:179|222:219,1,112,0|2,3:2|0:0,0:0:0:0:
139,261,112649,2,0,B|112:252|112:252|74:244,2,56,2|8|0,0:0|0:0|0:0,0:0:0:0:
244,340,113099,1,2,0:3:0:0:
244,340,113249,2,0,L|253:207,1,112,2|0,0:3|0:0,0:0:0:0:
251,59,113699,2,0,L|222:125,1,56,2|2,0:0|0:0,0:0:0:0:
58,155,113999,1,8,0:0:0:0:
51,155,114299,1,0,0:0:0:0:
43,155,114599,6,0,L|178:169,1,112,4|2,3:2|0:0,0:0:0:0:
251,228,115049,2,0,L|322:220,2,56,2|8|0,0:0|0:0|0:0,0:0:0:0:
306,86,115499,1,2,0:3:0:0:
306,86,115649,2,0,B|326:126|326:126|342:193,1,112,2|0,0:3|0:0,0:0:0:0:
364,328,116099,2,0,P|383:288|409:259,1,56,2|2,0:0|0:0,0:0:0:0:
506,207,116399,1,8,0:0:0:0:
512,216,116699,2,0,L|445:204,1,56,2|2,3:2|0:0,0:0:0:0:
262,172,116999,5,0,3:2:0:0:
273,174,117299,2,0,P|308:218|317:232,1,56,2|2,0:0|0:0,0:0:0:0:
358,350,117599,1,8,0:0:0:0:
348,346,117899,1,2,0:3:0:0:
401,258,118049,1,2,0:3:0:0:
269,290,118199,2,0,L|144:267,1,112,8|4,3:3|0:3,0:0:0:0:
45,194,118649,1,2,3:3:0:0:
81,317,118799,1,8,0:0:0:0:
120,121,118949,1,0,0:0:0:0:
120,121,119399,6,0,B|289:100,1,127.4,4|8,3:0|0:0,0:0:0:0:
342,16,119849,1,2,0:3:0:0:
334,157,119999,2,0,P|309:225|308:247,1,63.6999999999999,4|2,3:0|0:3,0:0:0:0:
512,276,120299,2,0,P|470:238|387:233,1,127.4,8|4,0:0|3:0,0:0:0:0:
341,333,120749,1,0,0:0:0:0:
227,255,120899,2,0,B|231:350,1,63.6999999999999,8|2,0:0|0:3,0:0:0:0:
129,202,121199,1,4,3:0:0:0:
30,280,121349,1,2,0:3:0:0:
41,137,121499,2,0,P|100:108|119:103,1,63.6999999999999,8|0,0:0|0:0,0:0:0:0:
229,118,121799,6,0,P|250:62|198:-4,1,127.4,4|8,3:0|0:0,0:0:0:0:
293,189,122249,2,0,P|255:195|216:206,2,63.6999999999999,2|4|2,0:3|3:0|0:3,0:0:0:0:
445,106,122699,2,0,B|412:101|412:101|354:18,1,127.4,8|4,0:0|3:0,0:0:0:0:
251,69,123149,1,8,3:0:0:0:
383,187,123299,2,0,B|382:224|382:224|371:272,1,63.6999999999999,10|8,0:0|0:0,0:0:0:0:
266,254,123599,1,6,3:0:0:0:
266,254,123749,1,8,3:0:0:0:
433,347,123899,1,10,0:0:0:0:
433,347,124049,1,4,3:0:0:0:
241,269,124199,6,0,B|211:264|211:264|187:268|187:268|106:257,1,127.4,4|8,3:0|0:0,0:0:0:0:
3,177,124649,1,2,0:3:0:0:
98,91,124799,2,0,B|124:72|124:72|160:52,1,63.6999999999999,4|2,3:0|0:3,0:0:0:0:
291,175,125099,2,0,P|263:126|302:60,1,127.4,8|4,0:0|3:0,0:0:0:0:
461,136,125549,1,0,0:0:0:0:
323,215,125699,2,0,L|333:132,1,63.6999999999999,8|2,0:0|0:3,0:0:0:0:
464,253,125999,2,0,L|487:331,1,63.6999999999999,4|2,3:0|0:3,0:0:0:0:
228,337,126299,2,0,P|245:306|268:270,1,63.6999999999999,8|0,0:0|0:0,0:0:0:0:
447,300,126599,6,0,P|414:326|329:283,1,127.4,4|8,3:0|0:0,0:0:0:0:
262,192,127049,2,0,B|293:177|293:177|356:164,2,63.6999999999999,2|4|2,0:3|3:0|0:3,0:0:0:0:
118,276,127499,2,0,B|132:243|132:243|145:142,1,127.4,8|4,0:0|3:0,0:0:0:0:
179,0,127949,1,8,3:0:0:0:
244,131,128099,2,0,L|268:215,1,63.6999999999999,10|8,0:0|0:0,0:0:0:0:
375,40,128399,5,6,3:0:0:0:
375,40,128549,1,8,3:0:0:0:
340,259,128699,1,10,0:0:0:0:
340,259,128849,1,4,3:0:0:0:
451,127,128999,6,0,P|473:235|478:272,1,127.4,4|8,3:0|0:0,0:0:0:0:
408,365,129449,1,2,0:3:0:0:
309,256,129599,2,0,L|225:245,1,63.6999999999999,4|2,3:0|0:3,0:0:0:0:
57,199,129899,2,0,B|107:182|107:182|124:165|124:165|186:141,2,127.4,8|4|8,0:0|3:0|0:0,0:0:0:0:
19,95,130649,1,2,0:3:0:0:
176,51,130799,1,4,3:0:0:0:
167,184,130949,1,2,0:3:0:0:
263,75,131099,2,0,B|275:108|275:108|283:167,1,63.6999999999999,8|0,0:0|0:0,0:0:0:0:
306,271,131399,6,0,P|352:229|420:255,1,127.4,4|8,3:0|0:0,0:0:0:0:
461,364,131849,2,0,B|431:360|431:360|385:349,2,63.6999999999999,2|4|2,0:3|3:0|0:3,0:0:0:0:
373,205,132299,2,0,P|339:211|310:223,1,63.6999999999999,8|0,0:0|0:0,0:0:0:0:
172,325,132599,1,4,3:0:0:0:
190,180,132749,1,8,3:0:0:0:
299,329,132899,2,0,P|248:279|231:272,1,63.6999999999999,10|8,0:0|0:0,0:0:0:0:
120,247,133199,5,6,3:0:0:0:
120,247,133349,1,8,3:0:0:0:
307,172,133499,1,10,0:0:0:0:
307,172,133649,1,4,3:0:0:0:
123,93,133799,6,0,B|62:78|62:78|-19:66,2,127.4,4|8|4,3:0|0:0|3:0,0:0:0:0:
243,121,134549,1,2,0:3:0:0:
202,18,134699,1,8,0:0:0:0:
193,27,134999,1,4,3:0:0:0:
178,188,135149,1,0,0:0:0:0:
334,165,135299,2,0,L|425:148,1,63.6999999999999,8|2,0:0|0:3,0:0:0:0:
456,310,135599,2,0,B|399:290|399:290|279:263,1,127.4,4|8,3:0|0:0,0:0:0:0:
229,337,136049,1,0,0:0:0:0:
147,168,136199,6,0,P|115:220|151:288,1,127.4,4|8,3:0|0:0,0:0:0:0:
257,209,136649,1,2,0:3:0:0:
117,118,136799,2,0,P|108:148|92:208,1,63.6999999999999,4|2,3:0|0:3,0:0:0:0:
237,24,137099,1,8,0:0:0:0:
232,36,137399,2,0,P|247:68|273:113,1,63.6999999999999,4|8,3:0|3:0,0:0:0:0:
494,109,137699,2,0,P|464:103|407:96,1,63.6999999999999,14|8,0:0|0:0,0:0:0:0:
352,199,137999,1,6,3:0:0:0:
342,34,138149,1,8,3:0:0:0:
247,183,138299,1,14,0:0:0:0:
415,87,138449,1,4,3:0:0:0:
372,228,138599,5,6,3:3:0:0:
372,228,138749,2,0,P|361:260|351:297,1,56.6999999999999,2|12,0:0|0:0,0:0:0:0:
246,384,139049,2,0,P|239:327|234:305,1,56.6999999999999,2|8,0:0|3:3,0:0:0:0:
138,235,139349,2,0,L|20:221,1,113.4,6|2,3:3|0:0,0:0:0:0:
160,212,139799,1,4,3:3:0:0:
239,328,139949,1,2,3:2:0:0:
234,333,140024,1,2,0:3:0:0:
229,338,140099,2,0,P|282:332|347:324,1,113.4,12|4,0:0|3:3,0:0:0:0:
429,216,140549,1,10,3:3:0:0:
434,221,140624,1,10,3:3:0:0:
438,227,140699,2,0,P|448:258|460:300,1,56.6999999999999,8|2,0:0|0:0,0:0:0:0:
294,207,140999,5,6,3:3:0:0:
294,207,141149,2,0,P|324:175|346:158,1,56.6999999999999,2|12,0:0|0:0,0:0:0:0:
200,60,141449,2,0,P|237:70|261:76,1,56.6999999999999,2|8,0:0|3:3,0:0:0:0:
461,52,141749,2,0,P|403:63|336:82,1,113.4,6|2,3:3|0:0,0:0:0:0:
212,153,142199,1,4,3:3:0:0:
337,189,142349,1,10,3:3:0:0:
166,236,142499,2,0,B|155:262|155:262|148:301,1,56.6999999999999,12|0,0:0|0:0,0:0:0:0:
343,278,142799,5,10,3:3:0:0:
343,278,142949,1,6,3:3:0:0:
231,144,143099,1,12,0:0:0:0:
231,144,143249,1,2,3:0:0:0:
78,192,143399,5,4,3:3:0:0:
78,192,143549,2,0,L|13:185,1,56.6999999999999,2|12,0:0|0:0,0:0:0:0:
219,248,143849,2,0,P|247:259|282:281,1,56.6999999999999,2|8,0:0|3:3,0:0:0:0:
159,110,144149,2,0,P|185:66|233:1,1,113.4,6|2,3:3|0:0,0:0:0:0:
265,162,144599,1,4,3:3:0:0:
386,101,144749,1,2,3:2:0:0:
391,106,144824,1,2,0:3:0:0:
396,111,144899,2,0,L|531:98,1,113.4,12|4,0:0|3:3,0:0:0:0:
385,206,145349,1,10,3:3:0:0:
379,209,145424,1,10,3:3:0:0:
375,215,145499,2,0,P|353:246|341:268,1,56.6999999999999,8|2,0:0|0:0,0:0:0:0:
282,367,145799,5,6,3:3:0:0:
282,367,145949,2,0,P|242:372|196:310,1,113.4,2|2,0:0|0:0,0:0:0:0:
163,164,146399,1,8,3:3:0:0:
60,258,146549,2,0,L|45:319,1,56.6999999999999,6|8,3:3|0:0,0:0:0:0:
212,216,146849,2,0,P|205:186|198:161,1,56.6999999999999,2|4,0:0|3:3,0:0:0:0:
110,60,147149,2,0,L|-21:41,1,113.4,10|0,3:3|0:0,0:0:0:0:
192,0,147599,5,4,3:3:0:0:
269,79,147749,1,2,3:2:0:0:
272,86,147824,1,2,0:3:0:0:
275,93,147899,2,0,P|307:85|341:80,1,56.6999999999999,8|10,0:0|3:3,0:0:0:0:
152,152,148199,5,4,3:3:0:0:
272,216,148349,1,10,3:3:0:0:
279,219,148424,1,10,3:3:0:0:
286,222,148499,2,0,P|278:255|273:288,1,56.6999999999999,12|2,0:0|0:0,0:0:0:0:
107,290,148799,2,0,P|79:294|51:300,1,56.6999999999999,8|6,3:3|3:3,0:0:0:0:
207,384,149099,2,0,P|201:356|195:329,1,56.6999999999999,8|2,0:0|0:0,0:0:0:0:
246,141,149399,1,4,3:3:0:0:
374,182,149549,2,0,L|435:170,1,56.6999999999999,2|12,0:0|0:0,0:0:0:0:
296,326,149849,2,0,P|314:289|330:264,1,56.6999999999999,2|8,0:0|3:3,0:0:0:0:
486,156,150149,2,0,P|426:159|369:122,1,113.4,6|2,3:3|0:0,0:0:0:0:
330,0,150599,5,4,3:3:0:0:
236,91,150749,1,2,3:2:0:0:
231,95,150824,1,2,0:3:0:0:
228,100,150899,2,0,B|165:92,1,56.6999999999999,12|10,0:0|3:3,0:0:0:0:
65,152,151199,1,4,3:3:0:0:
65,152,151274,1,4,3:3:0:0:
65,152,151349,1,10,3:3:0:0:
125,288,151499,2,0,B|132:261|132:261|151:218,1,56.6999999999999,8|2,0:0|0:0,0:0:0:0:
325,183,151799,2,0,P|286:187|256:191,1,56.6999999999999,4|10,3:3|3:3,0:0:0:0:
212,356,152099,2,0,P|239:359|267:362,1,56.6999999999999,12|0,0:0|0:0,0:0:0:0:
456,264,152399,5,10,3:3:0:0:
456,264,152549,1,6,3:3:0:0:
351,83,152699,1,12,0:0:0:0:
351,83,152849,1,2,3:0:0:0:
512,177,152999,5,4,3:3:0:0:
325,183,153149,2,0,B|315:311,1,113.4,2|2,0:0|0:0,0:0:0:0:
220,363,153599,1,4,3:3:0:0:
137,269,153749,1,2,3:2:0:0:
130,267,153824,1,2,0:3:0:0:
121,265,153899,2,0,P|75:258|44:256,1,56.6999999999999,12|10,0:0|3:3,0:0:0:0:
160,135,154199,1,4,3:3:0:0:
160,135,154274,1,4,3:3:0:0:
160,135,154349,1,10,3:3:0:0:
273,225,154499,2,0,L|277:306,1,56.6999999999999,8|2,0:0|0:0,0:0:0:0:
359,117,154799,1,8,3:3:0:0:
460,167,154949,2,0,P|474:208|483:238,1,56.6999999999999,6|8,3:3|0:0,0:0:0:0:
355,96,155249,1,2,0:0:0:0:
266,210,155399,5,6,3:3:0:0:
160,135,155549,2,0,P|123:129|85:126,1,56.6999999999999,2|12,0:0|0:0,0:0:0:0:
25,297,155849,2,0,P|51:291|87:280,1,56.6999999999999,2|8,0:0|3:3,0:0:0:0:
255,182,156149,2,0,P|220:223|214:235,1,56.6999999999999,6|8,3:3|0:0,0:0:0:0:
201,333,156449,1,2,0:0:0:0:
341,216,156599,1,4,3:3:0:0:
403,301,156749,1,2,3:2:0:0:
409,306,156824,1,2,0:3:0:0:
415,310,156899,2,0,B|446:306|446:306|485:306,1,56.6999999999999,8|4,0:0|3:3,0:0:0:0:
326,221,157199,5,4,3:3:0:0:
329,355,157349,1,2,3:2:0:0:
213,325,157499,1,8,0:0:0:0:
213,325,157649,1,10,3:3:0:0:
336,203,157799,6,0,P|330:175|314:128,1,56.6999999999999,0|4,3:3|3:3,0:0:0:0:
217,116,158099,2,0,P|223:88|239:41,1,56.6999999999999,12|10,0:0|3:3,0:0:0:0:
123,189,158399,2,0,P|117:161|101:114,1,56.6999999999999,4|12,3:3|3:3,0:0:0:0:
0,134,158699,2,0,P|6:106|22:59,1,56.6999999999999,8|0,0:0|0:0,0:0:0:0:
83,217,158999,2,0,P|135:196|191:204,2,113.4,4|12|4,3:3|0:0|3:3,0:0:0:0:
2,308,159749,1,12,3:3:0:0:
104,380,159899,2,0,L|164:369,1,56.6999999999999,8|2,0:0|0:3,0:0:0:0:
301,179,160199,5,4,3:3:0:0:
296,189,160499,2,0,L|306:268,1,56.6999999999999,12|8,0:0|3:3,0:0:0:0:
388,353,160799,1,4,3:3:0:0:
440,227,160949,2,0,P|471:216|505:210,2,56.6999999999999,14|10|2,3:3|0:0|0:3,0:0:0:0:
287,270,161399,1,4,3:3:0:0:
287,270,161549,1,4,3:3:0:0:
366,109,161699,1,12,0:0:0:0:
374,117,161999,1,4,3:3:0:0:
287,66,162149,2,0,P|240:67|206:76,1,56.6999999999999,14|10,3:3|0:0,0:0:0:0:
70,65,162449,1,2,0:3:0:0:
163,157,162599,6,0,L|147:222,1,56.6999999999999,6|2,3:2|0:3,0:0:0:0:
145,216,162824,1,2,0:0:0:0:
140,221,162899,2,0,P|94:211|66:210,1,56.6999999999999,10|0,0:0|0:0,0:0:0:0:
36,330,163199,2,0,L|111:319,1,56.6999999999999,6|2,3:2|0:3,0:0:0:0:
97,317,163424,1,2,0:0:0:0:
103,313,163499,2,0,L|158:321,1,56.6999999999999,8|2,0:0|0:0,0:0:0:0:
324,332,163799,1,6,3:2:0:0:
322,325,163874,1,2,0:0:0:0:
321,318,163949,1,2,0:3:0:0:
320,311,164024,1,2,0:0:0:0:
318,304,164099,2,0,P|325:262|332:230,1,56.6999999999999,8|2,0:0|0:3,0:0:0:0:
415,155,164399,1,6,3:2:0:0:
416,148,164474,1,2,0:3:0:0:
417,141,164549,1,0,0:0:0:0:
418,134,164624,1,2,0:3:0:0:
421,127,164699,2,0,P|414:85|401:30,1,85.0499999999998,8|2,0:0|0:3,0:0:0:0:
390,31,164999,6,0,P|384:60|378:103,1,56.6999999999999,6|0,3:2|0:0,0:0:0:0:
304,169,165299,2,0,P|270:158|241:151,1,56.6999999999999,8|0,0:0|0:0,0:0:0:0:
244,151,165524,1,2,0:0:0:0:
237,151,165599,2,0,P|200:157|174:167,1,56.6999999999999,6|2,3:2|0:3,0:0:0:0:
95,276,165899,1,8,0:0:0:0:
95,276,165974,1,2,0:3:0:0:
95,276,166049,1,0,0:0:0:0:
169,353,166199,1,4,3:2:0:0:
232,236,166349,1,2,3:2:0:0:
314,329,166499,2,0,L|324:398,1,56.6999999999999,8|0,0:0|0:0,0:0:0:0:
404,241,166799,1,6,3:2:0:0:
281,316,166949,1,2,3:0:0:0:
353,143,167099,1,10,0:0:0:0:
353,143,167249,1,2,3:0:0:0:
423,260,167399,6,0,P|453:269|481:282,1,56.6999999999999,4|4,3:3|3:3,0:0:0:0:
463,158,167699,2,0,P|490:142|518:130,1,56.6999999999999,12|10,0:0|3:3,0:0:0:0:
353,143,167999,2,0,P|323:152|295:165,1,56.6999999999999,4|12,3:3|3:3,0:0:0:0:
313,41,168299,2,0,P|285:25|257:13,1,56.6999999999999,8|0,0:0|0:0,0:0:0:0:
141,48,168599,2,0,P|121:89|148:153,2,113.4,4|12|4,3:3|0:0|3:3,0:0:0:0:
263,50,169349,1,12,3:3:0:0:
300,162,169499,2,0,L|295:228,1,56.6999999999999,8|2,0:0|0:3,0:0:0:0:
85,252,169799,5,4,3:3:0:0:
79,262,170099,2,0,L|158:246,1,56.6999999999999,12|8,0:0|3:3,0:0:0:0:
233,345,170399,1,4,3:3:0:0:
271,226,170549,2,0,P|294:199|321:179,2,56.6999999999999,14|10|2,3:3|0:0|0:3,0:0:0:0:
138,346,170999,1,4,3:3:0:0:
138,346,171149,1,4,3:3:0:0:
324,325,171299,1,12,0:0:0:0:
317,334,171599,1,4,3:3:0:0:
446,314,171749,2,0,B|448:284|448:284|444:252,1,56.7000013842774,14|10,3:3|0:0,0:0:0:0:
512,105,172049,1,2,0:3:0:0:
370,155,172199,6,0,P|336:151|293:143,1,56.6999999999999,6|2,3:2|0:3,0:0:0:0:
308,148,172424,1,2,0:0:0:0:
300,148,172499,2,0,P|251:170|223:178,1,56.6999999999999,10|0,0:0|0:0,0:0:0:0:
139,237,172799,2,0,P|135:203|127:160,1,56.6999999999999,6|2,3:2|0:3,0:0:0:0:
132,172,173024,1,2,0:0:0:0:
132,163,173099,2,0,P|154:114|162:86,1,56.6999999999999,8|2,0:0|0:0,0:0:0:0:
231,0,173399,1,6,3:2:0:0:
233,6,173474,1,2,0:0:0:0:
236,12,173549,1,2,0:3:0:0:
238,19,173624,1,2,0:0:0:0:
241,26,173699,2,0,P|247:57|254:105,1,56.6999999999999,8|2,0:0|0:3,0:0:0:0:
370,155,173999,1,6,3:2:0:0:
376,157,174074,1,2,0:3:0:0:
382,160,174149,1,0,0:0:0:0:
389,162,174224,1,2,0:3:0:0:
396,165,174299,2,0,P|427:171|496:181,1,85.0499999999998,8|2,0:0|0:3,0:0:0:0:
503,186,174599,6,0,L|494:266,1,56.6999999999999,6|0,3:2|0:0,0:0:0:0:
352,284,174899,2,0,L|361:364,1,56.6999999999999,8|0,0:0|0:0,0:0:0:0:
353,345,175124,1,2,0:0:0:0:
348,350,175199,2,0,L|279:342,1,56.6999999999999,6|2,3:2|0:3,0:0:0:0:
191,286,175499,1,8,0:0:0:0:
191,286,175574,1,2,0:3:0:0:
191,286,175649,1,0,0:0:0:0:
283,189,175799,1,4,3:2:0:0:
119,214,175949,1,2,3:2:0:0:
220,99,176099,2,0,B|246:87|293:73,1,56.6999999999999,8|0,0:0|0:0,0:0:0:0:
432,62,176399,1,6,3:2:0:0:
348,149,176549,1,2,3:0:0:0:
330,20,176699,1,10,0:0:0:0:
363,179,176849,1,2,3:0:0:0:
512,90,176999,1,4,0:0:0:0:
490,76,196199,6,0,P|441:85|410:93,1,63.6999999999999,4|0,3:2|0:0,0:0:0:0:
270,128,196499,1,8,3:2:0:0:
328,0,196649,1,0,0:0:0:0:
289,142,196799,2,0,P|240:133|209:125,1,63.6999999999999,2|0,3:2|3:2,0:0:0:0:
104,294,197099,1,8,3:2:0:0:
20,366,197249,1,0,0:0:0:0:
98,266,197399,2,0,P|154:241|233:235,1,127.400004276734,0|8,3:2|3:2,0:0:0:0:
311,312,197849,1,0,0:0:0:0:
294,153,197999,2,0,P|324:175|353:201,1,63.7000021383668,2|0,3:2|3:2,0:0:0:0:
421,336,198299,1,8,3:2:0:0:
411,344,198599,5,4,3:2:0:0:
497,262,198749,2,0,L|470:133,1,127.400004276734
312,17,199199,1,2,3:2:0:0:
319,7,199499,2,0,P|317:38|311:81,1,63.6999999999999,8|0,3:2|0:0,0:0:0:0:
121,109,199799,2,0,P|157:92|199:85,1,63.6999999999999,8|4,3:3|3:3,0:0:0:0:
372,232,200099,2,0,P|324:221|292:210,1,63.6999999999999,8|10,3:2|3:2,0:0:0:0:
166,199,200399,5,0,3:2:0:0:
166,199,200549,1,2,3:2:0:0:
25,159,200699,1,8,3:2:0:0:
138,58,200849,1,6,3:3:0:0:
195,192,200999,6,0,B|210:223|210:223|223:262,1,63.6999999999999,4|0,3:2|0:0,0:0:0:0:
432,267,201299,2,0,B|399:283|399:283|372:303,1,63.6999999999999,8|0,3:2|0:0,0:0:0:0:
142,309,201599,2,0,B|186:323|186:323|238:353,1,95.5500032075502,2|0,3:2|0:0,0:0:0:0:
237,352,201899,2,0,L|325:342,1,63.6999999999999,8|0,3:2|0:0,0:0:0:0:
372,203,202199,2,0,L|384:121,1,63.6999999999999,0|0,3:2|0:0,0:0:0:0:
470,273,202499,2,0,L|502:343,1,63.6999999999999,8|0,3:2|0:0,0:0:0:0:
276,275,202799,2,0,L|258:155,1,95.5500032075502,2|0,3:2|0:0,0:0:0:0:
260,168,203099,2,0,L|180:179,1,63.7000021383668,8|0,3:2|0:0,0:0:0:0:
0,62,203399,6,0,B|107:35,1,95.5500032075502,4|0,3:2|0:0,0:0:0:0:
102,36,203699,2,0,P|129:56|155:82,1,63.6999999999999,8|0,3:2|0:0,0:0:0:0:
321,153,203999,2,0,P|286:158|251:171,1,63.7000021383668,2|0,3:2|3:2,0:0:0:0:
125,270,204299,1,8,3:2:0:0:
115,280,204599,1,8,3:3:0:0:
158,147,204749,1,4,3:3:0:0:
223,262,204899,2,0,L|244:328,1,63.6999999999999,8|10,3:2|3:2,0:0:0:0:
396,196,205199,5,0,3:2:0:0:
396,196,205349,1,2,3:2:0:0:
275,278,205499,1,8,3:2:0:0:
439,316,205649,1,6,3:3:0:0:
372,169,205799,6,0,L|381:25,1,127.4,4|8,3:2|3:2,0:0:0:0:
474,106,206249,1,0,0:0:0:0:
294,7,206399,2,0,P|280:36|270:66,1,63.6999999999999,2|0,3:2|3:2,0:0:0:0:
279,190,206699,1,8,3:2:0:0:
347,284,206849,1,0,0:0:0:0:
261,193,206999,2,0,P|210:174|131:173,1,127.4,0|8,3:2|3:2,0:0:0:0:
8,187,207449,1,0,0:0:0:0:
128,45,207599,2,0,P|81:62|55:74,1,63.6999999999999,2|0,3:2|3:2,0:0:0:0:
131,280,207899,1,8,3:2:0:0:
123,290,208199,5,4,3:2:0:0:
238,301,208349,2,0,B|287:290|287:290|385:287,1,127.4
477,152,208799,1,2,3:2:0:0:
484,163,209099,2,0,L|515:81,1,63.6999999999999,8|0,3:2|0:0,0:0:0:0:
309,51,209399,2,0,L|341:129,1,63.7000021383668,8|4,3:3|3:3,0:0:0:0:
237,199,209699,2,0,L|175:210,1,63.6999999999999,8|10,3:2|3:2,0:0:0:0:
96,99,209999,5,0,3:2:0:0:
96,99,210149,1,2,3:2:0:0:
117,289,210299,1,8,3:2:0:0:
196,61,210449,1,6,3:3:0:0:
272,211,210599,6,0,B|283:245|283:245|293:288,1,63.6999999999999,4|0,3:2|0:0,0:0:0:0:
348,112,210899,2,0,B|374:105|374:105|408:94,1,63.6999999999999,8|0,3:2|0:0,0:0:0:0:
447,324,211199,2,0,P|408:302|348:276,1,95.5500032075502,2|0,3:2|0:0,0:0:0:0:
352,281,211499,2,0,L|279:270,1,63.6999999999999,8|0,3:2|0:0,0:0:0:0:
84,204,211799,2,0,P|126:187|153:179,1,63.7000021383668,0|0,3:2|0:0,0:0:0:0:
226,34,212099,2,0,P|242:74|251:105,1,63.7000021383668,8|0,3:2|0:0,0:0:0:0:
375,202,212399,2,0,L|497:190,1,95.5500032075502,2|0,3:2|0:0,0:0:0:0:
479,193,212699,2,0,P|486:163|493:131,1,63.7000021383668,8|0,3:2|0:0,0:0:0:0:
290,78,212999,6,0,P|248:96|184:132,1,95.5500032075502,4|0,3:2|0:0,0:0:0:0:
197,126,213299,2,0,L|126:114,1,63.7000021383668,8|0,3:2|0:0,0:0:0:0:
277,257,213599,2,0,P|291:285|306:333,1,63.7000021383668,2|0,3:2|3:2,0:0:0:0:
147,215,213899,1,8,3:2:0:0:
139,221,214199,1,8,3:3:0:0:
36,141,214349,1,4,3:3:0:0:
104,307,214499,2,0,B|77:322|77:322|47:331,1,63.6999999999999,8|10,3:2|3:2,0:0:0:0:
170,109,214799,5,0,3:2:0:0:
170,109,214949,1,2,3:2:0:0:
202,256,215099,1,8,3:2:0:0:
259,30,215249,1,6,3:3:0:0:
355,134,215399,6,0,P|375:177|377:272,1,127.4,0|12,3:3|0:0,0:0:0:0:
348,384,215849,1,10,3:3:0:0:
284,293,215999,2,0,B|327:275|327:275|408:265,1,127.4,4|8,3:3|0:0,0:0:0:0:
512,335,216449,1,0,0:0:0:0:
486,170,216599,2,0,B|448:161|448:161|426:163|426:163|395:153|348:151,1,127.4,4|12,3:3|0:0,0:0:0:0:
254,92,217049,1,10,3:3:0:0:
166,175,217199,2,0,P|156:216|147:262,1,63.6999999999999,4|12,3:3|3:3,0:0:0:0:
98,50,217499,1,8,0:0:0:0:
88,42,217799,5,4,3:3:0:0:
207,29,217949,2,0,P|237:82|264:153,1,127.4,4|8,3:3|3:3,0:0:0:0:
228,296,218399,1,4,3:3:0:0:
218,288,218699,2,0,P|246:247|260:237,1,63.6999999999999,10|2,0:0|0:3,0:0:0:0:
458,218,218999,1,4,3:3:0:0:
343,137,219149,1,4,3:3:0:0:
330,278,219299,2,0,L|350:349,1,63.6999999999999,12|8,0:0|3:3,0:0:0:0:
358,151,219599,1,4,3:3:0:0:
256,239,219749,1,14,3:3:0:0:
236,101,219899,2,0,L|253:40,1,63.6999999999999,10|2,0:0|0:3,0:0:0:0:
152,173,220199,6,0,P|96:190|75:191,1,63.6999999999999,6|2,3:2|3:3,0:0:0:0:
84,191,220424,1,2,3:2:0:0:
76,192,220499,2,0,P|38:236|26:262,1,63.6999999999999,10|0,3:2|3:2,0:0:0:0:
174,289,220799,2,0,P|230:306|251:307,1,63.6999999999999,6|2,3:2|3:3,0:0:0:0:
242,307,221024,1,2,3:2:0:0:
250,308,221099,2,0,P|288:352|300:378,1,63.6999999999999,8|2,3:2|3:2,0:0:0:0:
416,311,221399,1,6,3:2:0:0:
416,303,221474,1,2,3:2:0:0:
417,295,221549,1,2,3:3:0:0:
418,287,221624,1,2,3:2:0:0:
420,279,221699,2,0,P|450:240|460:231,1,63.6999999999999,8|2,3:2|3:3,0:0:0:0:
446,70,221999,1,6,3:2:0:0:
445,77,222074,1,2,3:3:0:0:
444,85,222149,1,0,3:0:0:0:
443,93,222224,1,2,3:3:0:0:
442,101,222299,2,0,P|412:140|374:175,1,95.5499999999999,8|2,3:2|3:3,0:0:0:0:
352,188,222599,6,0,L|272:176,1,63.6999999999999,6|0,3:2|0:0,0:0:0:0:
174,133,222899,2,0,P|145:165|129:187,1,63.6999999999999,8|0,0:0|0:0,0:0:0:0:
131,188,223124,1,2,3:2:0:0:
128,195,223199,2,0,L|116:270,1,63.6999999999999,6|2,3:2|3:3,0:0:0:0:
232,384,223499,2,0,L|222:309,1,63.6999999999999,8|0,3:2|3:2,0:0:0:0:
291,122,223799,1,4,3:2:0:0:
341,254,223949,1,2,3:2:0:0:
397,142,224099,2,0,B|431:143|431:143|479:149,1,63.6999999999999,8|0,0:0|0:0,0:0:0:0:
475,261,224399,1,6,3:2:0:0:
390,117,224549,1,2,3:0:0:0:
341,254,224699,2,0,B|307:253|307:253|259:247,1,63.6999999999999,10|2,3:2|3:0,0:0:0:0:
149,275,224999,6,0,P|103:232|123:155,1,127.4,0|12,3:3|0:0,0:0:0:0:
141,48,225449,1,10,3:3:0:0:
266,53,225599,2,0,B|294:76|294:76|315:168,1,127.4,4|8,3:3|0:0,0:0:0:0:
334,299,226049,1,0,0:0:0:0:
446,238,226199,2,0,P|404:209|307:205,1,127.4,4|12,3:3|0:0,0:0:0:0:
236,289,226649,1,10,3:3:0:0:
111,243,226799,2,0,P|97:274|88:317,1,63.6999999999999,4|12,3:3|3:3,0:0:0:0:
198,168,227099,1,8,0:0:0:0:
191,178,227399,5,4,3:3:0:0:
330,199,227549,2,0,P|323:163|277:69,1,127.4,4|8,3:3|3:3,0:0:0:0:
136,43,227999,1,4,3:3:0:0:
129,54,228299,2,0,P|179:56|195:44,1,63.6999999999999,10|2,0:0|0:3,0:0:0:0:
351,0,228599,1,4,3:3:0:0:
277,106,228749,1,4,3:3:0:0:
436,52,228899,2,0,B|448:84|448:84|458:138,1,63.6999999999999,12|8,0:0|3:3,0:0:0:0:
458,265,229199,1,4,3:3:0:0:
311,220,229349,2,0,B|316:191|316:191|328:159,2,63.6999999999999,14|10|2,3:3|0:0|0:3,0:0:0:0:
249,338,229799,6,0,P|195:327|166:323,1,63.6999999999999,6|2,3:2|3:3,0:0:0:0:
180,325,230024,1,2,3:2:0:0:
173,325,230099,2,0,P|141:330|111:337,1,63.6999999999999,10|0,3:2|3:2,0:0:0:0:
0,261,230399,2,0,P|36:219|54:196,1,63.6999999999999,6|2,3:2|3:3,0:0:0:0:
45,207,230624,1,2,3:2:0:0:
49,201,230699,2,0,P|59:171|69:141,1,63.6999999999999,8|2,3:2|3:2,0:0:0:0:
142,34,230999,1,6,3:2:0:0:
149,36,231074,1,2,3:2:0:0:
157,37,231149,1,2,3:3:0:0:
165,39,231224,1,2,3:2:0:0:
173,40,231299,2,0,P|207:47|238:56,1,63.7000021383668,8|2,3:2|3:3,0:0:0:0:
331,148,231599,1,6,3:2:0:0:
338,146,231674,1,2,3:3:0:0:
346,145,231749,1,0,3:0:0:0:
354,143,231824,1,2,3:3:0:0:
362,142,231899,2,0,P|396:135|462:124,1,95.5499999999999,8|2,3:2|3:3,0:0:0:0:
490,111,232199,6,0,P|514:148|528:180,1,63.6999999999999,6|0,3:2|0:0,0:0:0:0:
438,288,232499,2,0,P|390:253|362:240,1,63.6999999999999,8|0,0:0|0:0,0:0:0:0:
380,248,232724,1,2,3:2:0:0:
373,244,232799,2,0,L|294:233,1,63.6999999999999,6|2,3:2|3:3,0:0:0:0:
93,272,233099,2,0,L|174:257,1,63.6999999999999,8|0,3:2|3:2,0:0:0:0:
274,154,233399,1,4,3:2:0:0:
213,328,233549,1,2,3:2:0:0:
131,157,233699,2,0,B|138:125|138:125|149:90,1,63.6999999999999,8|0,0:0|0:0,0:0:0:0:
279,9,233999,1,6,3:2:0:0:
147,183,234149,1,2,3:0:0:0:
364,96,234299,2,0,B|374:125|374:125|381:157,1,63.6999999999999,10|2,3:2|3:0,0:0:0:0:
