osu file format v14

[General]
AudioFilename: audio.mp3
AudioLeadIn: 0
PreviewTime: 75800
Countdown: 0
SampleSet: Drum
StackLeniency: 0.5
Mode: 0
LetterboxInBreaks: 0
WidescreenStoryboard: 1

[Editor]
Bookmarks: 379,1959,63625,119591
DistanceSpacing: 0.8
BeatDivisor: 4
GridSize: 32
TimelineZoom: 1.32

[Metadata]
Title:amBROsius
TitleUnicode:amBROsius
Artist:noumenon
ArtistUnicode:noumenon
Creator:squirrelpascals
Version:traces of my indiscrepancies
Source:
Tags:noise math rock instrumental prog progressive Party Mathematics
BeatmapID:2260875
BeatmapSetID:1080681

[Difficulty]
HPDrainRate:7
CircleSize:6
OverallDifficulty:9
ApproachRate:8.5
SliderMultiplier:1.7
SliderTickRate:2

[Events]
//Background and Video events
0,0,"atavali_tony_do.jpg",0,0
//Break Periods
//Storyboard Layer 0 (Background)
//Storyboard Layer 1 (Fail)
//Storyboard Layer 2 (Pass)
//Storyboard Layer 3 (Foreground)
//Storyboard Layer 4 (Overlay)
//Storyboard Sound Samples

[TimingPoints]
379,352.941176470588,4,3,1,50,1,0
467,-100,4,3,1,5,0,0
555,-100,4,3,1,50,0,0
731,428.571428571429,4,3,1,50,1,0
731,-200,4,3,1,50,0,0
945,-200,4,3,1,30,0,0
1159,400,4,3,1,50,1,0
1959,402.684563758389,4,3,1,50,1,0
1959,-66.6666666666667,4,3,1,50,0,0
2261,-66.6666666666667,4,3,1,5,0,0
2361,-66.6666666666667,4,3,1,50,0,0
2663,-66.6666666666667,4,3,1,5,0,0
2764,385.852090032154,4,3,1,50,1,0
2764,-66.6666666666667,4,3,1,50,0,0
3340,-66.6666666666667,4,3,1,5,0,0
3536,388.349514563107,4,3,1,50,1,0
5089,-66.6666666666667,4,3,1,50,0,0
5380,-66.6666666666667,4,3,1,5,0,0
5477,-66.6666666666667,4,3,1,50,0,0
5769,-66.6666666666667,4,3,1,5,0,0
5866,-66.6666666666667,4,3,1,50,0,0
6642,393.44262295082,4,3,1,50,1,0
7428,383.386581469649,4,3,1,50,1,0
8196,392.156862745098,4,3,1,50,1,0
8196,-66.6666666666667,4,3,1,50,0,0
8294,-66.6666666666667,4,3,1,5,0,0
8392,-66.6666666666667,4,3,1,50,0,0
8490,-66.6666666666667,4,3,1,5,0,0
8588,-66.6666666666667,4,3,1,50,0,0
8784,-66.6666666666667,4,3,1,5,0,0
8980,-66.6666666666667,4,3,1,50,0,0
9274,-66.6666666666667,4,3,1,5,0,0
9372,-66.6666666666667,4,3,1,50,0,0
9960,443.62292051756,4,3,1,50,1,0
10070,-100,4,3,1,5,0,0
10182,372.670807453417,4,3,1,50,1,0
10182,-66.6666666666667,4,3,1,50,0,0
10275,-66.6666666666667,4,3,1,5,0,0
10368,-66.6666666666667,4,3,1,50,0,0
10461,-66.6666666666667,4,3,1,5,0,0
10554,-66.6666666666667,4,3,1,50,0,0
10647,-66.6666666666667,4,3,1,5,0,0
10741,-66.6666666666667,4,3,1,50,0,0
10834,-66.6666666666667,4,3,1,5,0,0
10927,422.535211267606,4,3,1,50,1,0
10927,-66.6666666666667,4,3,1,50,0,0
11350,389.61038961039,4,3,1,50,1,0
11350,-66.6666666666667,4,3,1,50,0,0
11447,-66.6666666666667,4,3,1,5,0,0
11544,-66.6666666666667,4,3,1,50,0,0
11641,-66.6666666666667,4,3,1,5,0,0
11739,-66.6666666666667,4,3,1,50,0,0
12226,-66.6666666666667,4,3,1,5,0,0
12323,-66.6666666666667,4,3,1,50,0,0
12420,-66.6666666666667,4,3,1,5,0,0
12518,-66.6666666666667,4,3,1,50,0,0
13005,-66.6666666666667,4,3,1,5,0,0
13102,-66.6666666666667,4,3,1,50,0,0
13199,-66.6666666666667,4,3,1,5,0,0
13297,-66.6666666666667,4,3,1,50,0,0
13687,402.684563758389,4,3,1,35,1,0
14089,-133.333333333333,4,3,1,35,0,0
14156,-133.333333333333,4,3,1,50,0,0
14492,398.671096345515,4,3,1,5,1,0
14691,-50,4,3,1,50,0,0
14791,-50,4,3,1,5,0,0
14890,-50,4,3,1,50,0,0
14990,-50,4,3,1,5,0,0
15090,-50,4,3,1,50,0,0
15190,-50,4,3,1,5,0,0
15289,422.535211267606,4,3,1,50,1,0
15289,-66.6666666666667,4,3,1,50,0,0
15711,375,4,3,1,50,1,0
15711,-66.6666666666667,4,3,1,50,0,0
16086,398.671096345515,4,3,1,50,1,0
16883,-66.6666666666667,4,3,1,50,0,0
16983,-66.6666666666667,4,3,1,5,0,0
17082,-66.6666666666667,4,3,1,50,0,0
17182,-66.6666666666667,4,3,1,5,0,0
17282,-66.6666666666667,4,3,1,50,0,0
17382,-66.6666666666667,4,3,1,5,0,0
17481,-66.6666666666667,4,3,1,50,0,0
17581,-66.6666666666667,4,3,1,5,0,0
17681,428.571428571429,4,3,1,50,1,0
18109,399.334442595674,4,3,1,50,1,0
18109,-66.6666666666667,4,3,1,50,0,0
18608,-66.6666666666667,4,3,1,5,0,0
18708,-66.6666666666667,4,3,1,50,0,0
18807,-66.6666666666667,4,3,1,5,0,0
18907,-66.6666666666667,4,3,1,50,0,0
19307,399.334442595674,4,3,1,50,1,0
19307,-66.6666666666667,4,3,1,50,0,0
19406,-66.6666666666667,4,3,1,5,0,0
19506,-66.6666666666667,4,3,1,50,0,0
19605,-66.6666666666667,4,3,1,5,0,0
19706,-66.6666666666667,4,3,1,50,0,0
19805,-66.6666666666667,4,3,1,5,0,0
19906,-66.6666666666667,4,3,1,50,0,0
20005,-66.6666666666667,4,3,1,5,0,0
20105,-66.6666666666667,4,3,1,50,0,0
20204,-66.6666666666667,4,3,1,5,0,0
20305,-66.6666666666667,4,3,1,50,0,0
20404,-66.6666666666667,4,3,1,5,0,0
20505,-66.6666666666667,4,3,1,50,0,0
20604,-66.6666666666667,4,3,1,5,0,0
20704,-66.6666666666667,4,3,1,50,0,0
20803,-66.6666666666667,4,3,1,5,0,0
20904,406.779661016949,4,3,1,50,1,0
20904,-50,4,3,1,50,0,0
23344,-66.6666666666667,4,3,1,50,0,0
23446,-66.6666666666667,4,3,1,5,0,0
23548,-66.6666666666667,4,3,1,50,0,0
23650,-66.6666666666667,4,3,1,5,0,0
23751,-66.6666666666667,4,3,1,50,0,0
23853,-66.6666666666667,4,3,1,5,0,0
23954,-66.6666666666667,4,3,1,50,0,0
24158,437.956204379563,4,3,1,5,1,0
24595,404.721753794266,4,3,1,50,1,0
24595,-50,4,3,1,50,0,0
24999,-66.6666666666667,4,3,1,50,0,0
25100,-66.6666666666667,4,3,1,5,0,0
25202,-66.6666666666667,4,3,1,50,0,0
25303,-66.6666666666667,4,3,1,5,0,0
25404,-66.6666666666667,4,3,1,50,0,0
25809,397.350993377484,4,3,1,50,1,0
25809,-66.6666666666667,4,3,1,50,0,0
25908,-66.6666666666667,4,3,1,5,0,0
26007,-66.6666666666667,4,3,1,50,0,0
26106,-66.6666666666667,4,3,1,5,0,0
26206,-66.6666666666667,4,3,1,50,0,0
26305,-66.6666666666667,4,3,1,5,0,0
26405,-66.6666666666667,4,3,1,50,0,0
26504,-66.6666666666667,4,3,1,5,0,0
26603,-66.6666666666667,4,3,1,50,0,0
26702,-66.6666666666667,4,3,1,5,0,0
26802,-66.6666666666667,4,3,1,50,0,0
26901,-66.6666666666667,4,3,1,5,0,0
27001,-66.6666666666667,4,3,1,50,0,0
27100,-66.6666666666667,4,3,1,5,0,0
27199,-66.6666666666667,4,3,1,50,0,0
27298,-66.6666666666667,4,3,1,5,0,0
27398,402.684563758389,4,3,1,50,1,0
27398,-66.6666666666667,4,3,1,50,0,0
27700,-66.6666666666667,4,3,1,5,0,0
27800,-66.6666666666667,4,3,1,50,0,0
28203,428.571428571428,4,3,1,50,1,0
28203,-66.6666666666667,4,3,1,50,0,0
28524,-66.6666666666667,4,3,1,5,0,0
28631,377.358490566038,4,3,1,50,1,0
29008,394.736842105263,4,3,1,50,1,0
29008,-66.6666666666667,4,3,1,50,0,0
29106,-66.6666666666667,4,3,1,5,0,0
29205,-66.6666666666667,4,3,1,50,0,0
29303,-66.6666666666667,4,3,1,5,0,0
29402,-66.6666666666667,4,3,1,50,0,0
29600,-50,4,3,1,50,0,0
30586,-133.333333333333,4,3,1,35,0,0
32954,382.165605095541,4,3,1,35,1,0
33336,360.902255639098,4,3,1,35,1,0
33336,-133.333333333333,4,3,1,35,0,0
33697,393.44262295082,4,3,1,35,1,0
33697,-133.333333333333,4,3,1,35,0,0
33795,-133.333333333333,4,3,1,5,0,0
33893,-133.333333333333,4,3,1,35,0,0
36549,-133.333333333333,4,3,1,5,0,0
36647,-133.333333333333,4,3,1,35,0,0
36746,-133.333333333333,4,3,1,5,0,0
36844,384.615384615385,5,3,1,35,1,0
36844,-133.333333333333,4,3,1,35,0,0
38190,-133.333333333333,4,3,1,5,0,0
38286,-133.333333333333,4,3,1,35,0,0
39536,397.350993377483,5,3,1,50,1,0
39536,-66.6666666666667,4,3,1,50,0,0
39734,-66.6666666666667,4,3,1,5,0,0
39933,-66.6666666666667,4,3,1,50,0,0
40131,-66.6666666666667,4,3,1,5,0,0
40330,397.350993377483,5,3,1,50,1,0
40330,-66.6666666666667,4,3,1,50,0,0
40429,-66.6666666666667,4,3,1,5,0,0
40528,-66.6666666666667,4,3,1,50,0,0
40727,-66.6666666666667,4,3,1,35,0,0
40926,-133.333333333333,4,3,1,35,0,0
41820,-133.333333333333,4,3,1,5,0,0
41919,-66.6666666666667,4,3,1,50,0,0
42217,-66.6666666666667,4,3,1,5,0,0
42316,372.670807453416,4,3,1,50,1,0
42316,-66.6666666666667,4,3,1,50,0,0
42502,-66.6666666666667,4,3,1,5,0,0
42875,387.096774193548,4,3,1,50,1,0
43068,387.096774193548,4,3,1,50,1,0
43455,-66.6666666666667,4,3,1,50,0,0
43551,-66.6666666666667,4,3,1,5,0,0
43648,-66.6666666666667,4,3,1,50,0,0
43938,-66.6666666666667,4,3,1,5,0,0
44035,-66.6666666666667,4,3,1,50,0,0
44229,392.156862745098,4,3,1,50,1,0
44425,-66.6666666666667,4,3,1,50,0,0
44523,-66.6666666666667,4,3,1,5,0,0
44621,-66.6666666666667,4,3,1,50,0,0
44719,-66.6666666666667,4,3,1,5,0,0
44817,-66.6666666666667,4,3,1,50,0,0
45013,-50,4,3,1,50,0,0
45307,-50,4,3,1,5,0,0
45405,397.350993377483,4,3,1,50,1,0
45405,-50,4,3,1,50,0,0
45703,-50,4,3,1,5,0,0
45802,382.165605095542,4,3,1,50,1,0
46184,389.61038961039,4,3,1,50,1,0
46184,-66.6666666666667,4,3,1,50,0,0
46671,-66.6666666666667,4,3,1,5,0,0
46768,-66.6666666666667,4,3,1,50,0,0
47352,400,4,3,1,50,1,0
47752,-133.333333333333,4,3,1,50,0,0
47818,-133.333333333333,4,3,1,35,0,0
47952,-133.333333333333,4,3,1,50,0,0
48152,388.349514563107,4,3,1,50,1,0
48152,-66.6666666666667,4,3,1,50,0,0
48443,-66.6666666666667,4,3,1,5,0,0
48540,-66.6666666666667,4,3,1,50,0,0
48831,-66.6666666666667,4,3,1,5,0,0
48928,387.722132471729,4,3,1,50,1,0
49315,-66.6666666666667,4,3,1,50,0,0
49606,-66.6666666666667,4,3,1,5,0,0
49703,-66.6666666666667,4,3,1,50,0,0
49897,-66.6666666666667,4,3,1,5,0,0
49994,-66.6666666666667,4,3,1,50,0,0
50479,392.156862745098,4,3,1,50,1,0
50871,-133.333333333333,4,3,1,50,0,0
50936,-133.333333333333,4,3,1,35,0,0
51067,-133.333333333333,4,3,1,50,0,0
51263,-50,4,3,1,50,0,0
51558,-50,4,3,1,5,0,0
51656,428.571428571429,4,3,1,50,1,0
51656,-50,4,3,1,50,0,0
51977,-50,4,3,1,5,0,0
52084,373.831775700935,4,3,1,50,1,0
52084,-66.6666666666667,4,3,1,50,0,0
52832,379.746835443038,4,3,1,50,1,0
52832,-66.6666666666667,4,3,1,50,0,0
53116,-66.6666666666667,4,3,1,5,0,0
53211,-66.6666666666667,4,3,1,50,0,0
53495,-66.6666666666667,4,3,1,5,0,0
53591,382.775119617225,4,3,1,50,1,0
54069,-66.6666666666667,4,3,1,50,0,0
54260,-66.6666666666667,4,3,1,5,0,0
54356,-50,4,3,1,50,0,0
54643,-50,4,3,1,5,0,0
54739,406.779661016949,4,3,1,50,1,0
54739,-50,4,3,1,50,0,0
55044,-50,4,3,1,5,0,0
55146,358.208955223881,3,3,1,50,1,0
55146,-50,3,3,1,50,0,0
55504,382.775119617225,3,3,1,50,1,0
55504,-66.6666666666667,3,3,1,50,0,0
56173,-66.6666666666667,3,3,1,5,0,0
56269,382.775119617225,3,3,1,50,1,0
56269,-66.6666666666667,3,3,1,50,0,0
56364,-66.6666666666667,3,3,1,5,0,0
56460,-66.6666666666667,3,3,1,50,0,0
56556,-66.6666666666667,3,3,1,5,0,0
56651,-66.6666666666667,3,3,1,50,0,0
56747,-66.6666666666667,3,3,1,5,0,0
56843,-66.6666666666667,3,3,1,50,0,0
56938,-66.6666666666667,3,3,1,5,0,0
57034,-66.6666666666667,3,3,1,50,0,0
57130,-66.6666666666667,3,3,1,5,0,0
57225,-66.6666666666667,3,3,1,50,0,0
57321,-66.6666666666667,3,3,1,5,0,0
57418,408.163265306122,4,3,1,50,1,0
57418,-66.6666666666667,4,3,1,50,0,0
58234,377.358490566038,4,3,1,50,1,0
58234,-66.6666666666667,4,3,1,50,0,0
59649,-66.6666666666667,4,3,1,5,0,0
59743,-66.6666666666667,4,3,1,50,0,0
60120,377.358490566038,4,3,1,50,1,0
60371,-100,4,3,1,35,0,0
60498,396.039603960396,4,3,1,50,1,0
60498,-50,4,3,1,50,0,0
60795,-50,4,3,1,5,0,0
60894,-50,4,3,1,50,0,0
61191,-50,4,3,1,5,0,0
61290,396.039603960396,3,3,1,50,1,0
61290,-50,3,3,1,50,0,0
61686,-66.6666666666667,3,3,1,50,0,0
61785,-66.6666666666667,3,3,1,5,0,0
61884,-66.6666666666667,3,3,1,50,0,0
62082,396.039603960396,3,3,1,50,1,0
62280,-66.6666666666667,3,3,1,30,0,0
62379,-66.6666666666667,3,3,1,50,0,0
62478,371.517027863777,3,3,1,50,1,0
62478,-66.6666666666667,3,3,1,50,0,0
62851,387.096774193548,3,3,1,50,1,0
62851,-66.6666666666667,3,3,1,50,0,0
62947,-66.6666666666667,3,3,1,5,0,0
63044,-66.6666666666667,3,3,1,50,0,0
63141,-66.6666666666667,3,3,1,5,0,0
63238,-66.6666666666667,3,3,1,50,0,0
63625,355.029585798816,4,3,1,50,1,0
63625,-133.333333333333,4,3,1,50,0,0
63713,-133.333333333333,4,3,1,5,0,0
63802,-133.333333333333,4,3,1,50,0,0
64335,413.793103448275,4,3,1,50,1,0
65162,379.746835443038,4,3,1,50,1,0
65351,-50,4,3,1,50,0,0
65446,-50,4,3,1,5,0,0
65541,-50,4,3,1,50,0,0
65636,-50,4,3,1,5,0,0
65731,-50,4,3,1,50,0,0
65826,-50,4,3,1,5,0,0
65921,-50,4,3,1,50,0,0
66016,-50,4,3,1,5,0,0
66111,-50,4,3,1,50,0,0
66206,-50,4,3,1,5,0,0
66301,-50,4,3,1,50,0,0
66396,-50,4,3,1,5,0,0
66491,-50,4,3,1,50,0,0
66586,-50,4,3,1,5,0,0
66680,393.442622950819,4,3,1,50,1,0
67073,374.999999999999,4,3,1,50,1,0
67448,408.163265306122,4,3,1,50,1,0
67856,397.350993377483,4,3,1,50,1,0
68253,393.442622950819,4,3,1,50,1,0
68449,-50,4,3,1,50,0,0
68547,-50,4,3,1,5,0,0
68646,-50,4,3,1,50,0,0
68744,-50,4,3,1,5,0,0
68842,-50,4,3,1,50,0,0
68940,-50,4,3,1,5,0,0
69039,-50,4,3,1,50,0,0
69137,-50,4,3,1,5,0,0
69236,-50,4,3,1,50,0,0
69334,-50,4,3,1,5,0,0
69433,-50,4,3,1,50,0,0
69531,-50,4,3,1,5,0,0
69630,-50,4,3,1,50,0,0
69728,-50,4,3,1,5,0,0
69826,-200,4,3,1,50,0,0
70416,-200,4,3,3,50,0,0
70613,-200,4,3,2,50,0,0
70810,-200,4,3,1,50,0,0
71203,-200,4,3,1,5,0,0
71400,383.386581469648,4,3,1,50,1,0
71400,-200,4,3,1,50,0,0
71975,-200,4,3,3,50,0,0
72166,-200,4,3,2,50,0,0
72358,-200,4,3,1,50,0,0
72741,-200,4,3,1,5,0,0
72933,378.548895899053,4,3,1,50,1,0
72933,-200,4,3,1,50,0,0
73690,-200,4,3,2,50,0,0
73879,-200,4,3,1,50,0,0
74068,399.999999999999,4,3,1,50,1,0
74467,363.636363636363,4,3,1,50,1,0
74467,-200,4,3,1,50,0,0
75921,348.837209302325,4,3,1,50,1,0
75921,-50,4,3,1,50,0,0
76008,-50,4,3,1,5,0,0
76095,-50,4,3,1,50,0,0
76618,408.163265306122,4,3,1,50,1,0
77026,365.853658536585,4,3,1,50,1,0
77026,-133.333333333333,4,3,1,50,0,0
77392,387.096774193548,4,3,1,50,1,0
77585,-50,4,3,1,50,0,0
77682,-50,4,3,1,5,0,0
77779,-50,4,3,1,50,0,0
77876,-50,4,3,1,5,0,0
77972,-50,4,3,1,50,0,0
78069,-50,4,3,1,5,0,0
78166,-50,4,3,1,50,0,0
78263,-50,4,3,1,5,0,0
78359,-50,4,3,1,50,0,0
78456,-50,4,3,1,5,0,0
78553,-50,4,3,1,50,0,0
78650,-50,4,3,1,5,0,0
78746,-50,4,3,1,50,0,0
78843,-50,4,3,1,5,0,0
78939,377.358490566037,4,3,1,50,1,0
78939,-133.333333333333,4,3,1,50,0,0
80637,-50,4,3,1,50,0,0
80731,-50,4,3,1,5,0,0
80825,-50,4,3,1,50,0,0
80919,-50,4,3,1,5,0,0
81014,-50,4,3,1,50,0,0
81108,-50,4,3,1,5,0,0
81203,-50,4,3,1,50,0,0
81297,-50,4,3,1,5,0,0
81391,-50,4,3,1,50,0,0
81485,-50,4,3,1,5,0,0
81580,399.999999999999,4,3,1,50,1,0
81580,-50,4,3,1,50,0,0
81680,-50,4,3,1,5,0,0
81780,-50,4,3,1,50,0,0
81880,-50,4,3,1,5,0,0
81980,363.636363636363,4,3,1,50,1,0
82707,-133.333333333333,4,3,1,50,0,0
83070,374.999999999999,4,3,1,50,1,0
83070,-133.333333333333,4,3,1,50,0,0
83445,389.610389610389,4,3,1,50,1,0
83639,-50,4,3,1,50,0,0
83737,-50,4,3,1,5,0,0
83834,-50,4,3,1,50,0,0
83932,-50,4,3,1,5,0,0
84029,-50,4,3,1,50,0,0
84127,-50,4,3,1,5,0,0
84224,-50,4,3,1,50,0,0
84322,-50,4,3,1,5,0,0
84419,-50,4,3,1,50,0,0
84517,-50,4,3,1,5,0,0
84613,-50,4,3,1,50,0,0
84711,-50,4,3,1,5,0,0
84808,-50,4,3,1,50,0,0
84906,-50,4,3,1,5,0,0
85003,357.142857142857,4,3,1,50,1,0
85717,365.853658536585,4,3,1,50,1,0
85717,-133.333333333333,4,3,1,50,0,0
86082,387.096774193548,4,3,1,50,1,0
86082,-133.333333333333,4,3,1,50,0,0
86662,-50,4,3,1,50,0,0
86759,-50,4,3,1,5,0,0
86856,392.156862745097,4,3,1,50,1,0
86856,-50,4,3,1,50,0,0
86954,-50,4,3,1,5,0,0
87052,-50,4,3,1,50,0,0
87150,-50,4,3,1,5,0,0
87248,-50,4,3,1,50,0,0
87346,-50,4,3,1,5,0,0
87444,-50,4,3,1,50,0,0
87542,-50,4,3,1,5,0,0
87640,-50,4,3,1,50,0,0
87738,-50,4,3,1,5,0,0
87836,-50,4,3,1,50,0,0
87934,-50,4,3,1,5,0,0
88032,374.999999999999,4,3,1,50,1,0
88032,-200,4,3,1,50,0,0
88594,-200,4,3,3,50,0,0
88782,-200,4,3,2,50,0,0
88969,-200,4,3,1,50,0,0
89344,-200,4,3,1,5,0,0
89534,377.358490566037,4,3,1,50,1,0
89534,-199.401794616152,4,3,1,50,0,0
90100,-200,4,3,3,50,0,0
90288,-199.401794616152,4,3,2,50,0,0
90477,-199.401794616152,4,3,1,50,0,0
90854,-199.401794616152,4,3,1,5,0,0
91041,394.736842105262,4,3,1,50,1,0
91041,-200,4,3,1,50,0,0
91830,357.142857142857,4,3,1,50,1,0
91830,-200,4,3,1,50,0,0
92187,372.670807453416,4,3,1,50,1,0
92559,377.358490566037,4,3,1,50,1,0
92559,-333.333333333333,4,3,1,50,0,0
93692,382.165605095541,4,3,1,50,1,0
94075,367.421922841396,4,3,1,50,1,0
94075,-200,4,3,1,50,0,0
94626,-200,4,3,3,50,0,0
94809,-200,4,3,2,50,0,0
94993,-200,4,3,1,50,0,0
95360,-200,4,3,1,5,0,0
95544,-200,4,3,1,50,0,0
96095,-200,4,3,3,50,0,0
96279,-200,4,3,2,50,0,0
96463,-200,4,3,1,50,0,0
96830,-200,4,3,1,5,0,0
97014,-200,4,3,1,50,0,0
97749,-200,4,3,2,50,0,0
97932,-200,4,3,1,50,0,0
98484,384.615384615385,4,3,1,35,1,0
98484,-333.333333333333,4,3,1,35,0,0
99060,-333.333333333333,4,3,1,35,0,0
99253,363.636363636364,4,3,1,35,1,0
99253,-333.333333333333,4,3,1,35,0,0
99980,384.615384615385,4,3,1,35,1,0
99980,-400,4,3,1,35,0,0
100364,-400,4,3,2,35,0,0
100941,-400,4,3,1,35,0,0
101133,363.636363636364,4,3,1,35,1,0
101496,359.281437125749,4,3,1,35,1,0
101496,-400,4,3,1,35,0,0
101855,-400,4,3,2,35,0,0
102394,-400,4,3,1,35,0,0
102573,362.537764350454,4,3,1,35,1,0
102935,362.537764350454,4,3,1,35,1,0
102935,-400,4,3,1,35,0,0
103298,-400,4,3,2,35,0,0
103841,-400,4,3,1,35,0,0
104387,364.741641337386,4,3,1,35,1,0
104387,-400,4,3,1,35,0,0
104934,-400,4,3,2,35,0,0
105298,-400,4,3,1,5,0,0
105481,-400,4,3,1,35,0,0
105845,361.990950226244,4,3,1,35,1,0
105845,-400,4,3,1,35,0,0
106206,-400,4,3,2,35,0,0
106749,-400,4,3,1,35,0,0
107293,352.941176470589,4,3,1,35,1,0
107293,-400,4,3,1,35,0,0
107645,-400,4,3,2,35,0,0
108175,-400,4,3,1,35,0,0
108704,357.142857142858,4,3,1,35,1,0
108704,-400,4,3,1,35,0,0
109239,-400,4,3,2,35,0,0
109596,-400,4,3,1,5,0,0
109775,-400,4,3,1,35,0,0
110134,361.44578313253,4,3,1,35,1,0
110134,-400,4,3,1,35,0,0
110676,-400,4,3,2,35,0,0
111037,-400,4,3,1,5,0,0
111218,-400,4,3,1,35,0,0
111579,366.97247706422,4,3,1,35,1,0
111579,-400,4,3,1,35,0,0
111945,-400,4,3,2,35,0,0
112496,-400,4,3,1,35,0,0
112679,389.610389610389,4,3,1,35,1,0
113068,348.837209302325,4,3,1,35,1,0
113068,-400,4,3,1,35,0,0
113416,-400,4,3,2,35,0,0
113940,-400,4,3,1,35,0,0
114114,390.243902439024,4,3,1,35,1,0
114505,364.741641337386,4,3,1,35,1,0
114505,-400,4,3,1,35,0,0
115052,-400,4,3,2,35,0,0
115416,-400,4,3,1,5,0,0
115599,-400,4,3,1,35,0,0
115963,370.37037037037,4,3,1,35,1,0
115963,-400,4,3,1,35,0,0
116518,-400,4,3,2,35,0,0
116888,-400,4,3,1,5,0,0
117074,-400,4,3,1,35,0,0
117445,372.670807453417,4,3,1,35,1,0
117445,-400,4,3,1,35,0,0
117817,-400,4,3,2,35,0,0
118190,351.906158357772,4,3,1,35,1,0
118190,-400,4,3,1,35,0,0
118542,335.195530726257,4,3,1,35,1,0
118877,357.142857142858,4,3,1,35,1,0
118877,-400,4,3,1,35,0,0
119234,-400,4,3,2,35,0,0
119412,-400,4,3,1,35,0,0
119591,342.857142857143,4,3,1,35,1,0
119591,-200,4,3,1,40,0,0
120276,331.491712707183,4,3,1,40,1,0
120276,-133.333333333333,4,3,1,40,0,0
121601,-200,4,3,1,40,0,0
122927,344.827586206897,4,3,1,40,1,0
122927,-133.333333333333,4,3,1,40,0,0
123444,-133.333333333333,4,3,1,5,0,0
123616,312.5,4,3,1,40,1,0
123616,-133.333333333333,4,3,1,40,0,0
124241,328.767123287671,4,3,1,40,1,0
124241,-200,4,3,1,40,0,0
125556,-133.333333333333,4,3,1,40,0,0
126542,-200,4,3,1,40,0,0
127528,-250,4,3,1,40,0,0
128186,333.333333333333,4,3,1,40,1,0
128186,-133.333333333333,4,3,1,40,0,0
129519,-200,4,3,1,40,0,0
130852,339.943342776204,4,3,1,40,1,0
130852,-133.333333333333,4,3,1,40,0,0
131361,-133.333333333333,4,3,1,5,0,0
131531,-133.333333333333,4,3,1,40,0,0
131872,346.820809248555,4,3,1,40,1,0
132219,341.394025604552,4,3,1,40,1,0
132219,-200,4,3,1,40,0,0
133584,-133.333333333333,4,3,1,40,0,0
134096,-133.333333333333,4,3,1,5,0,0
134267,-133.333333333333,4,3,1,40,0,0
134950,335.195530726257,4,3,1,40,1,0
134950,-200,4,3,1,40,0,0
135955,338.983050847457,4,3,1,40,1,0
136293,348.837209302325,4,3,1,40,1,0
136293,-133.333333333333,4,3,1,40,0,0
137688,333.333333333333,4,3,1,40,1,0
137688,-200,4,3,1,40,0,0
139020,342.857142857143,4,3,1,40,1,0
139020,-133.333333333333,4,3,1,40,0,0
140391,-200,4,3,1,40,0,0
141420,-100,4,3,1,40,0,0
141677,-100,4,3,1,5,0,0
141762,339.943342776204,4,3,1,40,1,0
141762,-133.333333333333,4,3,1,40,0,0
143971,-133.333333333333,4,3,1,5,0,0
144141,-133.333333333333,4,3,1,40,0,0
144311,-133.333333333333,4,3,1,5,0,0
144481,355.029585798817,4,3,1,40,1,0
144481,-133.333333333333,4,3,1,40,0,0
145191,344.827586206897,4,3,1,40,1,0
145880,337.078651685393,4,3,1,40,1,0
145880,-133.333333333333,4,3,1,40,0,0
146048,-133.333333333333,4,3,1,5,0,0
146217,-133.333333333333,4,3,1,40,0,0
147228,352.941176470588,4,3,1,40,1,0
147228,-133.333333333333,4,3,1,40,0,0
147933,340.909090909091,4,3,1,40,1,0
147933,-133.333333333333,4,3,1,40,0,0
148614,344.827586206897,4,3,1,40,1,0
148614,-133.333333333333,4,3,1,40,0,0
149994,337.078651685393,4,3,1,40,1,0
149994,-133.333333333333,4,3,1,40,0,0
151005,357.142857142857,4,3,1,40,1,0
151362,322.580645161291,4,3,1,40,1,0
151362,-133.333333333333,4,3,1,40,0,0
151684,345.323741007195,4,3,1,40,1,0
152029,-133.333333333333,4,3,1,40,0,0
152721,349.854227405248,4,3,1,50,1,0
152983,-100,4,3,1,5,0,0
153070,-100,4,3,1,50,0,0
153333,-100,4,3,1,5,0,0
153420,-100,4,3,1,50,0,0
153683,-100,4,3,1,5,0,0
153770,-100,4,3,1,50,0,0
154032,-100,4,3,1,5,0,0
154119,-100,4,3,1,50,0,0
154382,-100,4,3,1,5,0,0
154469,-100,4,3,1,50,0,0
154732,-100,4,3,1,5,0,0
154819,-100,4,3,1,50,0,0
155082,-100,4,3,1,5,0,0
155169,-100,4,3,1,50,0,0
155432,-100,4,3,1,5,0,0
155519,-100,4,3,1,50,0,0
155782,-100,4,3,1,5,0,0
155869,-100,4,3,1,50,0,0
156132,-100,4,3,1,5,0,0
156219,-100,4,3,1,50,0,0
156481,-100,4,3,1,5,0,0
156568,-100,4,3,1,50,0,0
156831,-100,4,3,1,5,0,0
156918,-100,4,3,1,50,0,0
157181,-100,4,3,1,5,0,0
157268,-100,4,3,1,50,0,0
157531,-100,4,3,1,5,0,0
157618,-100,4,3,1,50,0,0
157881,-100,4,3,1,5,0,0
157968,-100,4,3,1,50,0,0
158231,-100,4,3,1,5,0,0
158318,359.281437125749,4,3,1,50,1,0
158318,-100,4,3,1,50,0,0
158587,-100,4,3,1,5,0,0
158677,-100,4,3,1,50,0,0
158946,-100,4,3,1,5,0,0
159036,-100,4,3,1,50,0,0
159305,-100,4,3,1,5,0,0
159395,-100,4,3,1,50,0,0
159664,-100,4,3,1,5,0,0
159755,347.826086956522,4,3,1,50,1,0
160015,-100,4,3,1,5,0,0
160102,-100,4,3,1,50,0,0
160363,-100,4,3,1,5,0,0
160450,-100,4,3,1,50,0,0
160711,-100,4,3,1,5,0,0
160798,-100,4,3,1,50,0,0
161059,-100,4,3,1,5,0,0
161146,-100,4,3,1,50,0,0
161407,-100,4,3,1,5,0,0
161494,-100,4,3,1,50,0,0
161755,-100,4,3,1,5,0,0
161841,-95.2380952380952,4,3,1,50,0,0
162102,-95.2380952380952,4,3,1,5,0,0
162189,-90.9090909090909,4,3,1,50,0,0
162450,-90.9090909090909,4,3,1,5,0,0
162537,338.983050847458,4,3,1,50,1,0
162537,-76.9230769230769,4,3,1,50,0,0
162791,-76.9230769230769,4,3,1,5,0,0
162875,-62.5,4,3,1,50,0,0
163130,-62.5,4,3,1,5,0,0
163214,-55.5555555555556,4,3,1,50,0,0
163469,-55.5555555555556,4,3,1,5,0,0
163553,-45.4545454545455,4,3,1,50,0,0
163810,-45.4545454545455,4,3,1,5,0,0
163892,324.324324324325,4,3,1,50,1,0
164378,-200,4,3,5,50,0,0
165189,319.148936170213,4,3,5,50,1,0
165189,-200,4,3,5,50,0,0
165508,-200,4,3,5,30,0,0
165667,-200,4,3,5,50,0,0
166465,331.491712707183,4,3,1,50,1,0
166465,-200,4,3,1,50,0,0
166958,-200,4,3,5,50,0,0
167459,-200,4,3,1,50,0,0
167625,-200,4,3,5,50,0,0
168122,-200,4,3,5,30,0,0
168288,318.725099601594,4,3,1,50,1,0
168288,-200,4,3,5,50,0,0
168766,338.983050847458,4,3,5,50,1,0
169104,352.941176470589,4,3,1,50,1,1
169104,-200,6,3,1,50,0,1
169633,-200,6,3,1,5,0,1
169809,-200,6,3,1,50,0,1
170338,-200,6,3,1,5,0,1
170515,341.880341880342,4,3,1,50,1,1
170515,-200,6,3,1,50,0,1
171027,-200,6,3,1,5,0,1
171198,-66.6666666666667,6,3,1,50,0,1
171369,-66.6666666666667,6,3,1,5,0,1
171540,319.148936170213,4,3,1,50,1,1
171540,-66.6666666666667,6,3,1,50,0,1
171699,-66.6666666666667,6,3,1,5,0,1
171859,-66.6666666666667,6,3,1,50,0,1
172018,-66.6666666666667,6,3,1,5,0,1
172178,342.857142857143,4,3,1,50,1,1
172178,-266.666666666667,6,3,1,50,0,1
172863,-266.666666666667,6,3,1,5,0,1
173206,355.029585798817,4,3,1,50,1,1
173206,-200,6,3,1,50,0,1
173738,-200,6,3,1,5,0,1
173919,340.909090909091,4,3,1,50,1,1
173919,-66.6666666666667,6,3,1,50,0,1
174089,-66.6666666666667,6,3,1,5,0,1
174259,-66.6666666666667,6,3,1,50,0,1
174429,-66.6666666666667,6,3,1,5,0,1
174600,340.909090909091,6,3,1,50,1,1
174600,-66.6666666666667,6,3,1,50,0,1
174770,-66.6666666666667,6,3,1,5,0,1
174940,-266.666666666667,6,3,1,50,0,1
175623,-266.666666666667,6,3,1,5,0,1
175964,347.826086956522,4,3,1,50,1,1
175964,-200,6,3,1,50,0,1
176485,-200,6,3,1,5,0,1
176659,-66.6666666666667,6,3,1,50,0,1
176833,-66.6666666666667,6,3,1,5,0,1
177007,-66.6666666666667,6,3,1,50,0,1
177181,-66.6666666666667,6,3,1,5,0,1
177355,-66.6666666666667,6,3,1,50,0,1
177529,-66.6666666666667,6,3,1,5,0,1
177703,-66.6666666666667,6,3,1,50,0,1
177877,-66.6666666666667,6,3,1,5,0,1
178050,-66.6666666666667,6,3,1,50,0,1
178224,-66.6666666666667,6,3,1,5,0,1
178398,-66.6666666666667,6,3,1,50,0,1
178572,-66.6666666666667,6,3,1,5,0,1
178746,-66.6666666666667,6,3,1,50,0,1
178920,-66.6666666666667,6,3,1,5,0,1
179094,-66.6666666666667,6,3,1,50,0,1
179268,-66.6666666666667,6,3,1,5,0,1
179442,-66.6666666666667,6,3,1,50,0,1
179616,-66.6666666666667,6,3,1,5,0,1
179790,-66.6666666666667,6,3,1,50,0,1
179964,-66.6666666666667,6,3,1,5,0,1
180137,-66.6666666666667,6,3,1,50,0,1
180311,-66.6666666666667,6,3,1,5,0,1
180485,-66.6666666666667,6,3,1,50,0,1
180659,-66.6666666666667,6,3,1,5,0,1
180833,329.67032967033,4,3,1,50,1,1
180833,-266.666666666667,6,3,1,50,0,1
181822,340.909090909091,4,3,1,50,1,1
181822,-66.6666666666667,6,3,1,50,0,1
181992,-66.6666666666667,6,3,1,5,0,1
182162,-200,6,3,1,50,0,1
182674,-200,6,3,1,5,0,1
182844,348.837209302326,4,3,1,50,1,1
182844,-66.6666666666667,6,3,1,50,0,1
183018,-66.6666666666667,6,3,1,5,0,1
183192,-66.6666666666667,6,3,1,50,0,1
183366,-66.6666666666667,6,3,1,5,0,1
183541,357.142857142857,4,3,1,50,1,1
183541,-200,6,3,1,50,0,1
184076,-200,6,3,1,5,0,1
184255,346.820809248555,4,3,1,50,1,1
184255,-200,6,3,1,50,0,1
184775,-200,6,3,1,5,0,1
184948,344.827586206897,4,3,1,50,1,1
184948,-66.6666666666667,6,3,1,50,0,1
185120,-66.6666666666667,6,3,1,5,0,1
185292,-66.6666666666667,6,3,1,50,0,1
185464,-66.6666666666667,6,3,1,5,0,1
185637,344.827586206897,6,3,1,50,1,1
185637,-66.6666666666667,6,3,1,50,0,1
185809,-66.6666666666667,6,3,1,5,0,1
185982,-66.6666666666667,6,3,1,50,0,1
186154,-66.6666666666667,6,3,1,5,0,1
186327,337.078651685393,4,3,1,50,1,1
186327,-263.157894736842,6,3,1,50,0,1
187338,324.324324324324,4,3,1,50,1,1
187338,-66.6666666666667,6,3,1,50,0,1
187500,-66.6666666666667,6,3,1,5,0,1
187662,342.857142857143,4,3,1,50,1,1
187662,-200,6,3,1,50,0,1
188176,-200,6,3,1,5,0,1
188347,342.857142857143,6,3,1,50,1,1
188347,-66.6666666666667,6,3,1,50,0,1
188519,-66.6666666666667,6,3,1,5,0,1
188690,-66.6666666666667,6,3,1,50,0,1
188862,-66.6666666666667,6,3,1,5,0,1
189033,357.142857142857,4,3,1,50,1,1
189033,-200,6,3,1,50,0,1
189568,-200,6,3,1,5,0,1
189747,357.142857142857,6,3,1,50,1,1
189747,-66.6666666666667,6,3,1,50,0,1
189925,-66.6666666666667,6,3,1,5,0,1
190104,-66.6666666666667,6,3,1,50,0,1
190282,-66.6666666666667,6,3,1,5,0,1
190461,-33.3333333333333,6,3,1,50,0,1
190818,370.370370370371,4,3,1,50,1,1
191188,370.370370370371,6,3,1,50,1,1
191188,-200,6,3,1,50,0,1
191743,-200,6,3,1,5,0,1
191929,-200,6,3,1,50,0,1
192484,-200,6,3,1,5,0,1
192669,-200,6,3,1,50,0,1
193224,-200,6,3,1,5,0,1
193410,350.877192982456,4,3,1,50,1,1
193410,-66.6666666666667,6,3,1,50,0,1
193585,-66.6666666666667,6,3,1,5,0,1
193760,-66.6666666666667,6,3,1,50,0,1
193935,-66.6666666666667,6,3,1,5,0,1
194111,-66.6666666666667,6,3,1,50,0,1
194286,-66.6666666666667,6,3,1,5,0,1
194462,370.370370370371,4,3,1,50,1,1
194462,-133.333333333333,6,3,1,50,0,1
195573,357.142857142857,4,3,1,50,1,1
195573,-200,6,3,1,50,0,1
196108,-200,6,3,1,5,0,1
196287,-66.6666666666667,6,3,1,50,0,1
196465,-66.6666666666667,6,3,1,5,0,1
196644,-66.6666666666667,6,3,1,50,0,1
196822,-66.6666666666667,6,3,1,5,0,1
197001,-66.6666666666667,6,3,1,50,0,1
197179,-66.6666666666667,6,3,1,5,0,1
197358,363.636363636364,4,3,1,50,1,1
197358,-133.333333333333,6,3,1,50,0,1
198448,363.636363636364,6,3,1,50,1,1
198448,-200,6,3,1,50,0,1
198994,-200,6,3,1,5,0,1
199176,-66.6666666666667,6,3,1,50,0,1
199358,-66.6666666666667,6,3,1,5,0,1
199539,-66.6666666666667,6,3,1,50,0,1
199721,-66.6666666666667,6,3,1,5,0,1
199903,352.941176470588,4,3,1,50,1,1
199903,-66.6666666666667,6,3,1,50,0,1
200079,-66.6666666666667,6,3,1,5,0,1
200255,-66.6666666666667,6,3,1,50,0,1
200431,-66.6666666666667,6,3,1,5,0,1
200608,-66.6666666666667,6,3,1,50,0,1
200784,-66.6666666666667,6,3,1,5,0,1
200961,-66.6666666666667,6,3,1,50,0,1
201137,-66.6666666666667,6,3,1,5,0,1
201314,364.741641337386,4,3,1,50,1,1
201314,-66.6666666666667,6,3,1,50,0,1
201496,-66.6666666666667,6,3,1,5,0,1
201678,-66.6666666666667,6,3,1,50,0,1
201860,-66.6666666666667,6,3,1,5,0,1
202043,-66.6666666666667,6,3,1,50,0,1
202225,-66.6666666666667,6,3,1,5,0,1
202408,-66.6666666666667,6,3,1,50,0,1
202590,-66.6666666666667,6,3,1,5,0,1
202772,-66.6666666666667,6,3,1,50,0,1
202954,-66.6666666666667,6,3,1,5,0,1
203137,-66.6666666666667,6,3,1,50,0,1
203319,-66.6666666666667,6,3,1,5,0,1
203502,342.857142857143,4,3,1,50,1,1
203502,-266.666666666667,6,3,1,50,0,1
204187,377.358490566038,4,3,1,50,1,1
204564,-66.6666666666667,6,3,1,50,0,1
204753,-66.6666666666667,6,3,1,5,0,1
204941,352.941176470588,4,3,1,50,1,1
204941,-200,6,3,1,50,0,1
205470,-200,6,3,1,5,0,1
205646,363.636363636364,4,3,1,50,1,1
205646,-66.6666666666667,6,3,1,50,0,1
205827,-66.6666666666667,6,3,1,5,0,1
206009,-66.6666666666667,6,3,1,50,0,1
206190,-66.6666666666667,6,3,1,5,0,1
206373,-200,6,3,1,50,0,1
206918,-200,6,3,1,5,0,1
207100,-200,6,3,1,50,0,1
207645,-200,6,3,1,5,0,1
207827,370.370370370371,4,3,1,50,1,1
207827,-66.6666666666667,6,3,1,50,0,1
208012,-66.6666666666667,6,3,1,5,0,1
208197,-66.6666666666667,6,3,1,50,0,1
208382,-66.6666666666667,6,3,1,5,0,1
208567,352.941176470588,4,3,1,50,1,1
208567,-66.6666666666667,6,3,1,50,0,1
208743,-66.6666666666667,6,3,1,5,0,1
208919,-66.6666666666667,6,3,1,50,0,1
209095,-66.6666666666667,6,3,1,5,0,1
209272,-266.666666666667,6,3,1,50,0,1
209978,359.281437125749,4,3,1,50,1,1
210337,-66.6666666666667,6,3,1,50,0,1
210516,-66.6666666666667,6,3,1,5,0,1
210696,346.820809248555,4,3,1,50,1,1
210696,-200,6,3,1,50,0,1
211216,-200,6,3,1,5,0,1
211389,346.820809248555,6,3,1,50,1,1
211389,-66.6666666666667,6,3,1,50,0,1
211563,-66.6666666666667,6,3,1,5,0,1
211736,-66.6666666666667,6,3,1,50,0,1
211910,-66.6666666666667,6,3,1,5,0,1
212083,359.281437125749,4,3,1,50,1,1
212083,-200,6,3,1,50,0,1
212621,-200,6,3,1,5,0,1
212801,346.820809248555,4,3,1,50,1,1
212801,-66.6666666666667,6,3,1,50,0,1
212974,-66.6666666666667,6,3,1,5,0,1
213147,392.156862745098,4,3,1,50,1,1
213147,-66.6666666666667,6,3,1,50,0,1
213343,-66.6666666666667,6,3,1,5,0,1
213539,-34.4827586206897,6,3,1,50,0,0
214323,728.376327769348,4,3,1,50,1,0
214414,-100,4,3,1,5,0,0
223063,689.655172413793,4,3,1,5,1,0
225476,615.384615384615,4,3,1,25,1,0
225783,750,4,3,1,25,1,0
225783,-250,4,3,1,25,0,0
227283,707.964601769912,4,3,1,25,1,0
227991,743.034055727554,4,3,1,25,1,0
227991,-250,4,3,1,25,0,0
229105,720.720720720721,4,3,1,25,1,0
229105,-250,4,3,1,25,0,0
230907,731.707317073171,4,3,1,25,1,0
230907,-250,4,3,1,25,0,0
233102,740.740740740741,4,3,1,25,1,0
233842,-250,4,3,1,25,0,0
234583,712.166172106825,4,3,1,25,1,0
234672,-100,4,3,1,5,0,0
236897,623.376623376623,4,3,1,25,1,0
237520,794.176042356056,4,3,1,25,1,0
237520,-259.201658890617,4,3,1,25,0,0
240299,-259.201658890617,4,3,1,5,0,0
240597,-250,4,3,1,25,0,0
240696,710.059171597633,4,3,1,25,1,0
240696,-400,4,3,1,25,0,0
243181,-400,4,3,1,5,0,0
243447,-400,4,3,1,25,0,0
243536,1420.11834319527,4,3,1,25,1,0
243536,-966.370313103981,4,3,1,25,0,0
248683,-966.370313103981,4,3,1,10,0,0
249038,-966.370313103981,4,3,1,5,0,0
253476,-966.370313103981,4,3,1,8,0,0
253654,-966.370313103981,4,3,1,11,0,0
253831,-966.370313103981,4,3,1,14,0,0
254009,-966.370313103981,4,3,1,17,0,0
254186,-966.370313103981,4,3,1,20,0,0
254364,-966.370313103981,4,3,1,23,0,0
254541,-966.370313103981,4,3,1,26,0,0
254719,-966.370313103981,4,3,1,29,0,0
254808,-1000,4,3,1,5,0,0

[Colours]
Combo1 : 186,103,124
Combo2 : 189,81,57
Combo3 : 133,133,133
Combo4 : 230,217,102
Combo5 : 140,96,137
SliderTrackOverride : 147,60,60

[HitObjects]
497,308,379,6,0,B|506:293|506:293|512:250,1,42.5,6|0,0:0|0:0,0:0:0:0:
361,332,555,1,0,0:0:0:0:
387,357,643,1,2,0:1:0:0:
414,381,731,2,0,L|468:385,1,42.5,8|8,0:1|0:1,0:0:0:0:
255,300,1159,6,0,B|251:348|251:348|244:369|244:369|248:390,1,85,6|0,0:0|0:0,0:0:0:0:
364,243,1559,2,0,B|369:289|369:289|368:311|368:311|377:330,1,85,6|0,0:0|0:0,0:0:0:0:
183,314,1959,6,0,B|113:291|113:291|49:290|49:290|17:273|17:273|-21:279,1,191.250007295609,8|0,0:0|0:0,0:0:0:0:
206,126,2361,2,0,B|217:107|217:107|228:205|228:205|250:227|250:227|261:270,1,191.250007295609,8|0,0:0|0:0,0:0:0:0:
38,85,2764,2,0,B|11:12|11:12|-17:-5|-17:-5|63:2|63:2|115:-18|115:-18|202:-8|202:-8|232:59,1,382.500014591218,8|0,0:0|0:0,0:0:0:0:
308,97,3536,37,8,0:2:0:0:
358,131,3730,1,0,0:0:0:0:
496,63,3924,1,8,0:2:0:0:
482,1,4118,1,0,0:0:0:0:
473,185,4312,1,8,0:2:0:0:
508,240,4506,1,0,0:0:0:0:
429,306,4701,1,8,0:2:0:0:
488,329,4895,1,0,0:0:0:0:
349,360,5089,6,0,B|353:369|353:369|381:383|381:383|314:374|314:374|267:350|267:350|219:359,1,191.250007295609,8|0,0:0|0:0,0:0:0:0:
394,236,5477,2,0,B|391:216|391:216|380:194|380:194|468:253|468:253|498:245|498:245|508:249,1,191.250007295609,8|0,0:0|0:0,0:0:0:0:
276,224,5866,2,0,B|283:194|283:194|268:160|268:160|272:112|272:112|275:108|275:108|284:38|284:38|262:76|262:76|233:90,2,255.000009727478,8|8|8,0:0|0:0|0:2,0:0:0:0:
232,309,6838,5,0,0:0:0:0:
141,313,7035,1,8,0:2:0:0:
48,384,7232,1,0,0:0:0:0:
0,240,7428,37,8,0:2:0:0:
23,276,7619,1,0,0:0:0:0:
0,252,7811,1,8,0:2:0:0:
20,286,8003,1,0,0:0:0:0:
10,147,8196,2,0,B|21:150|21:150|43:139|43:139|94:139,1,63.7500024318696,8|0,0:0|0:0,0:0:0:0:
223,96,8392,2,0,B|210:101|210:101|150:80,1,63.7500024318696,0|0,0:0|0:0,0:0:0:0:
0,130,8588,2,0,B|23:120|23:120|51:1,1,127.500004863739,8|0,0:0|0:0,0:0:0:0:
266,31,8980,6,0,B|280:24|280:24|287:-1|287:-1|332:78|332:78|328:110|328:110|345:163,1,191.250007295609,8|0,0:0|0:0,0:0:0:0:
243,259,9372,2,0,B|198:280|198:280|119:273|119:273|86:264|86:264|134:282|134:282|172:327,1,255.000009727478,8|8,0:0|0:2,0:0:0:0:
491,344,9960,2,0,B|502:336|502:336|518:296,1,42.5,0|0,0:0|0:0,0:0:0:0:
426,373,10182,6,0,B|409:368|409:368|394:334|394:334|383:320,1,63.7500024318696,8|0,0:0|0:0,0:0:0:0:
360,270,10368,2,0,B|357:250|357:250|371:223|371:223|370:201,1,63.7500024318696
349,149,10554,2,0,B|363:132|363:132|370:98|370:98|391:71,1,63.7500024318696,8|0,0:0|0:0,0:0:0:0:
418,46,10741,2,0,B|436:47|436:47|492:3,1,63.7500024318696
320,0,10927,2,0,B|309:12|309:12|181:60,1,127.500004863739,8|2,0:0|0:0,0:0:0:0:
501,204,11350,38,0,B|484:212|484:212|450:207|450:207|425:213,1,63.75,8|0,0:0|0:0,0:0:0:0:
377,223,11544,2,0,B|335:206|335:206|316:216,1,63.7500024318696
254,215,11739,2,0,B|243:226|243:226|199:221|199:221|138:178,1,127.500004863739,8|2,0:0|0:0,0:0:0:0:
14,12,12129,6,0,B|33:17|33:17|59:65,1,63.7500024318696,8|0,0:0|0:0,0:0:0:0:
115,72,12324,2,0,B|121:83|121:83|149:95|149:95|169:123,1,63.7500024318696,0|0,0:0|0:0,0:0:0:0:
224,108,12518,2,0,L|349:167,1,127.500004863739,8|2,0:0|0:0,0:0:0:0:
225,368,12908,6,0,B|242:370|242:370|290:338,1,63.7500024318696,8|0,0:0|0:0,0:0:0:0:
344,341,13103,2,0,B|344:329|344:329|388:276,1,63.7500024318696,0|0,0:0|0:0,0:0:0:0:
438,271,13298,2,0,B|458:274|458:274|500:249|500:249|514:159,1,127.500004863739,8|2,0:0|0:0,0:0:0:0:
458,16,13687,37,2,0:1:0:0:
447,17,13754,1,2,0:1:0:0:
433,17,13821,1,2,0:1:0:0:
422,21,13888,1,8,0:1:0:0:
407,24,13955,1,8,0:1:0:0:
392,26,14022,1,8,0:1:0:0:
368,46,14089,5,2,0:0:0:0:
364,56,14156,2,0,B|351:67|351:67|293:87|293:87|284:124,1,106.250004053116,2|0,0:0|0:0,0:0:0:0:
19,83,14691,6,0,B|15:71|15:71|20:57|20:57|10:-20,1,85,4|0,0:0|0:0,0:0:0:0:
115,103,14890,2,0,B|125:110|125:110|135:156|135:156|159:191,1,85,4|0,0:0|0:0,0:0:0:0:
68,250,15090,2,0,B|64:271|64:271|30:304|30:304|39:338,1,85,0|0,0:0|0:0,0:0:0:0:
121,376,15289,38,0,B|146:377|146:377|195:359|195:359|227:361|227:361|277:342,1,127.500004863739,4|0,0:2|0:0,0:0:0:0:
512,184,15711,2,0,B|480:170|480:170|462:174|462:174|411:168|411:168|361:141,1,127.500004863739,10|0,0:0|0:0,0:0:0:0:
419,347,16086,5,8,0:0:0:0:
496,378,16286,1,0,0:0:0:0:
381,222,16484,1,8,0:0:0:0:
310,240,16684,1,0,0:0:0:0:
237,97,16883,6,0,B|222:88|222:88|196:83|196:83|169:71,1,63.7500024318696,8|0,0:0|0:0,0:0:0:0:
308,109,17083,2,0,B|288:106|288:106|239:128,1,63.7500024318696,0|0,0:0|0:0,0:0:0:0:
447,56,17282,2,0,B|443:44|443:44|432:29|432:29|429:-9,1,63.7500024318696,8|0,0:0|0:0,0:0:0:0:
484,132,17482,2,0,B|489:117|489:117|474:43,1,63.7500024318696,0|0,0:0|0:0,0:0:0:0:
400,219,18109,38,0,B|391:232|391:232|328:249|328:249|318:275|318:275|289:321,1,127.500004863739,8|0,0:0|0:0,0:0:0:0:
53,204,18508,2,0,B|56:197|56:197|66:186|66:186|71:140,1,63.7500024318696,8|0,0:0|0:0,0:0:0:0:
3,54,18708,2,0,B|11:73|11:73|-4:132,1,63.7500024318696,0|0,0:0|0:0,0:0:0:0:
31,221,18907,2,0,B|57:264|57:264|53:281|53:281|60:373,1,127.500004863739,10|0,0:0|0:0,0:0:0:0:
222,384,19307,22,0,B|228:373|228:373|248:359|248:359|274:313,1,63.7500024318696,8|0,0:0|0:0,0:0:0:0:
279,274,19506,2,0,B|275:260|275:260|289:198,1,63.7500024318696,0|0,0:0|0:0,0:0:0:0:
283,147,19706,2,0,B|286:134|286:134|281:102|281:102|249:60,1,63.7500024318696,8|0,0:0|0:0,0:0:0:0:
237,32,19906,2,0,B|225:30|225:30|195:13|195:13|169:12,1,63.7500024318696,0|0,0:0|0:0,0:0:0:0:
3,17,20105,38,0,B|19:21|19:21|44:50|44:50|83:66,1,63.7500024318696,8|0,0:0|0:0,0:0:0:0:
166,193,20305,2,0,B|169:180|169:180|125:121,1,63.7500024318696,0|0,0:0|0:0,0:0:0:0:
9,33,20505,2,0,B|26:64|26:64|41:73|41:73|58:100,1,63.7500024318696,8|0,0:0|0:0,0:0:0:0:
157,208,20704,2,0,B|148:195|148:195|123:176|123:176|102:133,1,63.7500024318696,0|0,0:0|0:0,0:0:0:0:
93,383,20904,6,2,B|87:365|87:365|59:343|59:343|33:301|33:301|31:290|31:290|-5:236,1,170,4|0,0:2|0:0,0:0:0:0:
186,298,21310,2,0,B|190:273|190:273|165:242|165:242|162:188|162:188|150:118,1,170,8|0,0:0|0:0,0:0:0:0:
332,303,21717,2,0,B|331:282|331:282|352:241|352:241|353:178|353:178|366:132,1,170,8|0,0:0|0:0,0:0:0:0:
419,382,22124,2,0,B|423:365|423:365|452:345|452:345|481:308|481:308|483:289|483:289|492:281|492:281|522:250,1,170,8|0,0:0|0:0,0:0:0:0:
408,0,22531,5,4,0:2:0:0:
512,125,22734,1,0,0:0:0:0:
313,75,22937,1,8,0:0:0:0:
343,231,23141,1,0,0:0:0:0:
210,78,23344,2,0,B|202:93|202:93|202:107|202:107|183:151,1,63.7500024318696,4|0,0:2|0:0,0:0:0:0:
150,222,23548,2,0,B|139:224|139:224|130:253|130:253|100:306,1,63.7500024318696
140,9,23751,2,0,B|125:6|125:6|64:47,1,63.7500024318696,8|0,0:0|0:0,0:0:0:0:
0,98,23954,2,0,B|-15:121|-15:121|-11:173|-11:173|18:202|18:202|17:262,1,127.500004863739,0|0,0:0|0:0,0:0:0:0:
142,378,24595,38,0,B|158:360|158:360|203:366|203:366|284:349|284:349|300:322,1,170,4|0,0:2|0:0,0:0:0:0:
512,194,24999,2,0,B|471:165|471:165|436:181,1,63.7500024318696,8|0,0:0|0:0,0:0:0:0:
397,149,25202,2,0,B|381:150|381:150|349:128|349:128|334:108,1,63.7500024318696,0|0,0:0|0:0,0:0:0:0:
289,86,25404,2,0,B|277:66|277:66|212:54|212:54|169:22,1,127.500004863739,10|0,0:0|0:0,0:0:0:0:
26,261,25809,6,0,B|31:248|31:248|17:214|17:214|12:157,1,63.7500024318696,8|0,0:0|0:0,0:0:0:0:
0,69,26007,2,0,B|6:55|6:55|0:-4,1,63.7500024318696,0|0,0:0|0:0,0:0:0:0:
46,283,26206,2,0,B|55:285|55:285|71:207,1,63.7500024318696,10|0,0:0|0:0,0:0:0:0:
106,119,26405,2,0,B|105:113|105:113|108:97|108:97|116:85|116:85|124:40,1,63.7500024318696,0|0,0:0|0:0,0:0:0:0:
267,252,26603,6,8,B|252:266|252:266|217:277|217:277|193:303,1,63.7500024318696,8|0,0:0|0:0,0:0:0:0:
383,275,26802,2,0,B|392:287|392:287|470:303,1,63.7500024318696,0|0,0:0|0:0,0:0:0:0:
248,281,27001,2,0,B|232:287|232:287|212:308|212:308|172:327,1,63.7500024318696,10|0,0:0|0:0,0:0:0:0:
394,301,27199,2,0,B|406:316|406:316|429:328|429:328|462:361,1,63.7500024318696,0|0,0:0|0:0,0:0:0:0:
277,371,27398,38,0,B|253:352|253:352|245:296|245:296|248:282|248:282|235:222|235:222|234:173,1,191.250007295609,4|0,0:0|0:0,0:0:0:0:
344,143,27800,1,2,0:0:0:0:
378,115,27901,1,2,0:0:0:0:
392,78,28002,1,2,0:0:0:0:
418,51,28102,1,2,0:0:0:0:
416,10,28203,6,0,B|443:38|443:38|449:103|449:103|456:110|456:110|464:158|464:158|447:207,1,191.250007295609,4|0,0:0|0:0,0:0:0:0:
169,127,28631,1,2,0:0:0:0:
135,97,28725,1,2,0:0:0:0:
95,97,28819,1,2,0:0:0:0:
54,81,28914,1,2,0:0:0:0:
36,43,29008,6,0,B|28:50|28:50|25:73|25:73|17:95|17:95|14:131,1,63.7500024318696,4|0,0:2|0:0,0:0:0:0:
12,264,29205,2,0,B|28:261|28:261|66:206,1,63.7500024318696,0|0,0:0|0:0,0:0:0:0:
109,118,29402,1,10,0:0:0:0:
147,377,29600,38,0,B|166:358|166:358|175:362|175:362|243:367|243:367|282:359|282:359|314:366,2,170,0|8|0,0:0|0:0|0:0,0:0:0:0:
325,296,30192,1,10,0:0:0:0:
422,342,30389,1,0,0:0:0:0:
512,192,30586,5,4,0:2:0:0:
491,128,30784,2,0,B|499:114|499:114|495:101|495:101|500:45,2,63.7500024318696,0|8|0,0:0|0:2|0:0,0:0:0:0:
444,218,31376,2,0,B|435:210|435:210|402:211|402:211|378:200,1,63.7500024318696,8|0,0:2|0:0,0:0:0:0:
339,157,31771,2,0,B|325:154|325:154|286:101,1,63.7500024318696,8|0,0:2|0:0,0:0:0:0:
334,27,32165,5,8,0:2:0:0:
244,14,32363,1,0,0:0:0:0:
152,0,32560,2,0,B|144:20|144:20|148:29|148:29|144:70,1,63.7500024318696,8|0,0:2|0:0,0:0:0:0:
122,193,32954,37,8,0:2:0:0:
235,141,33145,1,0,0:0:0:0:
229,155,33336,2,0,B|215:148|215:148|176:154|176:154|151:143,1,63.7500024318696,8|0,0:2|0:0,0:0:0:0:
43,23,33697,6,0,B|39:31|39:31|42:39|42:39|39:55,1,31.8750012159348,8|0,0:0|0:0,0:0:0:0:
11,109,33893,2,0,B|16:117|16:117|16:137|16:137|25:167|25:167|23:189,2,63.7500024318696,0|8|0,0:0|0:2|0:0,0:0:0:0:
106,197,34483,2,0,B|119:194|119:194|163:218,1,63.7500024318696,8|0,0:2|0:0,0:0:0:0:
16,245,34877,5,8,0:2:0:0:
7,321,35074,1,0,0:0:0:0:
66,372,35270,2,0,B|83:377|83:377|156:354,1,63.7500024318696,8|0,0:2|0:0,0:0:0:0:
284,236,35664,37,8,0:2:0:0:
218,274,35860,2,0,B|214:290|214:290|231:321|231:321|234:343,1,63.7500024318696,0|8,0:0|0:2,0:0:0:0:
466,370,36254,5,0,0:0:0:0:
418,304,36451,2,0,B|407:307|407:307|399:306|399:306|376:311,1,31.8750012159348,8|0,0:2|0:0,0:0:0:0:
380,316,36647,2,0,B|369:313|369:313|361:314|361:314|334:316,1,31.8750012159348
512,154,36844,5,4,0:2:0:0:
460,99,37036,2,0,B|456:87|456:87|446:75|446:75|432:27,2,63.7500024318696,0|8|0,0:0|0:2|0:0,0:0:0:0:
408,207,37613,2,0,B|410:199|410:199|400:181|400:181|355:171,1,63.7500024318696,8|0,0:2|0:0,0:0:0:0:
282,212,37997,37,8,0:2:0:0:
279,223,38094,2,0,B|267:218|267:218|262:220|262:220|226:214,1,31.8750012159348
204,169,38286,2,0,B|186:157|186:157|180:128|180:128|181:122|181:122|171:56,1,95.6250036478044,0|0,0:0|0:0,0:0:0:0:
94,16,38767,5,8,0:2:0:0:
49,74,38959,1,0,0:0:0:0:
171,65,39151,2,0,B|175:76|175:76|171:97|171:97|171:137,1,63.7500024318696,8|0,0:2|0:0,0:0:0:0:
108,285,39536,6,0,B|119:277|119:277|90:259|90:259|44:249|44:249|-4:207,1,127.500004863739,8|0,0:0|0:0,0:0:0:0:
273,383,39933,2,0,B|276:356|276:356|289:346|289:346|309:291|309:291|299:248,1,127.500004863739,8|0,0:0|0:0,0:0:0:0:
481,74,40330,2,0,B|494:83|494:83|498:120|498:120|527:149,1,63.7500024318696,4|0,0:2|0:0,0:0:0:0:
490,191,40528,2,0,B|485:203|485:203|471:219|471:219|477:237|477:237|482:286|482:286|501:316,1,127.500004863739,0|8,0:0|0:2,0:0:0:0:
340,371,40926,37,0,0:0:0:0:
268,373,41124,1,8,0:2:0:0:
334,363,41323,1,0,0:0:0:0:
254,336,41522,1,8,0:2:0:0:
236,258,41720,2,0,B|233:247|233:247|238:213,1,31.8750012159348,0|0,0:0|0:0,0:0:0:0:
358,109,41919,6,0,B|357:94|357:94|380:76|380:76|390:13|390:13|407:-21|407:-21|357:25,1,191.250007295609,8|0,0:0|0:0,0:0:0:0:
279,44,42316,2,0,B|269:58|269:58|201:65|201:65|141:101,1,127.500004863739,8|0,0:0|0:0,0:0:0:0:
33,223,42875,5,0,0:1:0:0:
16,180,42971,1,2,0:1:0:0:
50,219,43068,2,0,B|66:229|66:229|95:233|121:235|121:235|109:246,1,85,8|8,0:1|0:1,0:0:0:0:
152,363,43455,38,0,B|142:351|142:351|124:345|124:345|62:313,1,63.7500024318696,10|0,0:0|0:0,0:0:0:0:
218,384,43648,1,0,0:0:0:0:
353,206,43842,6,0,B|351:195|351:195|361:182|361:182|365:121,1,63.7500024318696,10|0,0:0|0:0,0:0:0:0:
428,241,44035,2,0,B|418:258|418:258|396:273|396:273|391:319|391:319|387:329|387:329|415:375,1,127.500004863739,0|0,0:0|0:0,0:0:0:0:
84,81,44425,6,0,B|71:77|71:77|31:92|31:92|-4:89,1,63.7500024318696,10|0,0:0|0:0,0:0:0:0:
186,64,44621,2,0,B|198:55|198:55|276:91,1,63.7500024318696,10|0,0:0|0:0,0:0:0:0:
60,19,44817,1,0,0:0:0:0:
87,199,45013,38,0,B|102:191|102:191|116:164|116:164|106:293|106:293|120:298|120:298|133:377,1,255,4|0,0:0|0:0,0:0:0:0:
344,151,45405,2,0,B|379:157|379:157|391:162|391:162|446:98|446:98|463:42|463:42|473:60|473:60|543:91,1,255,4|0,0:0|0:0,0:0:0:0:
512,195,45802,5,2,0:0:0:0:
504,256,45897,1,2,0:0:0:0:
463,301,45993,1,2,0:0:0:0:
472,348,46088,1,2,0:0:0:0:
509,376,46184,6,0,B|481:363|481:363|433:372|433:372|400:367|400:367|353:335,1,127.500004863739,8|0,0:0|0:0,0:0:0:0:
192,281,46573,2,0,B|175:282|175:282|167:295|167:295|121:316,1,63.7500024318696,8|0,0:0|0:0,0:0:0:0:
50,328,46768,2,0,B|33:322|33:322|-10:362,1,63.7500024318696,0|2,0:0|0:0,0:0:0:0:
62,252,46963,2,0,B|52:226|52:226|56:181|56:181|62:157|62:157|49:108,1,127.500004863739,2|0,0:0|0:0,0:0:0:0:
1,12,47352,37,8,0:0:0:0:
129,75,47552,1,0,0:0:0:0:
168,67,47652,1,0,0:0:0:0:
210,58,47752,2,0,B|212:66|212:66|209:72|209:72|208:91,1,21.2500008106232,2|2,0:0|0:0,0:0:0:0:
251,183,47952,1,0,0:0:0:0:
302,133,48152,6,0,B|315:117|315:117|347:112|347:112|387:6|387:6|396:11|396:11|451:28,1,191.250007295609,4|0,0:0|0:0,0:0:0:0:
496,156,48540,2,0,B|503:169|503:169|522:183|522:183|496:257|496:257|456:278|456:278|459:295|459:295|478:327,1,191.250007295609,4|0,0:0|0:0,0:0:0:0:
350,376,48928,5,2,0:0:0:0:
306,371,49024,1,2,0:0:0:0:
272,343,49121,1,2,0:0:0:0:
230,364,49218,1,2,0:0:0:0:
185,362,49315,38,0,B|165:351|165:351|135:368|135:368|74:357|74:357|25:271,1,191.250007295609,4|0,0:0|0:0,0:0:0:0:
0,163,49703,2,0,B|7:144|7:144|21:136|21:136|39:60|39:60|61:85,1,127.500004863739,8|0,0:0|0:0,0:0:0:0:
137,157,49994,1,2,0:0:0:0:
130,186,50091,2,0,B|116:200|116:200|201:187|201:187|224:158,1,127.500004863739,2|0,0:0|0:0,0:0:0:0:
372,96,50479,5,8,0:0:0:0:
357,0,50675,1,0,0:0:0:0:
487,51,50871,2,0,B|485:58|485:58|486:65|486:65|483:77,1,21.2500008106232,2|2,0:0|0:0,0:0:0:0:
468,188,51067,1,0,0:0:0:0:
332,292,51263,6,0,B|310:301|310:301|317:314|317:314|387:336|387:336|395:342|395:342|475:324|475:324|502:352|502:352|541:371,1,255,4|0,0:0|0:0,0:0:0:0:
160,299,51656,2,0,B|154:283|154:283|166:263|166:263|162:227|162:227|99:196|99:196|70:114|70:114|37:95,1,255,4|0,0:0|0:0,0:0:0:0:
9,210,52084,37,8,0:0:0:0:
0,277,52208,1,2,0:2:0:0:
34,334,52333,2,0,B|77:343|77:343|98:357|98:357|76:390,1,85.0000032424928,0|10,0:0|0:0,0:0:0:0:
208,358,52582,6,0,B|219:348|219:348|224:310|224:310|263:268,1,85.0000032424928,2|0,0:2|0:0,0:0:0:0:
317,162,52832,6,0,B|350:156|350:156|403:172|403:172|484:177|484:177|465:160,1,191.250007295609,8|0,0:0|0:0,0:0:0:0:
494,109,53211,1,10,0:0:0:0:
357,0,53401,2,0,B|348:11|348:11|323:25|323:25|312:59,1,63.7500024318696,0|0,0:0|0:0,0:0:0:0:
249,43,53591,37,8,0:0:0:0:
176,71,53718,1,2,0:2:0:0:
108,33,53846,1,0,0:0:0:0:
36,66,53973,5,10,0:0:0:0:
36,66,54069,2,0,B|43:83|43:83|43:124|43:124|47:133|47:133|51:168|51:168|4:135,1,127.500004863739,2|0,0:2|0:0,0:0:0:0:
25,251,54356,6,0,B|42:259|42:259|86:258|86:258|156:279|156:279|190:320|190:320|203:325|203:325|199:366|199:366|173:350,1,255,4|0,0:0|0:0,0:0:0:0:
400,309,54739,2,0,B|422:315|422:315|435:287|435:287|431:244|431:244|426:240|426:240|458:166|458:166|514:146|514:146|509:177,1,255,4|0,0:0|0:0,0:0:0:0:
512,220,55146,37,8,0:0:0:0:
437,139,55325,1,0,0:0:0:0:
467,1,55504,2,0,B|443:14|443:14|444:20|444:20|371:11|371:11|320:27,1,127.500004863739,10|0,0:0|0:0,0:0:0:0:
206,69,55886,5,8,0:0:0:0:
129,20,56078,2,0,B|123:27|123:27|92:43|92:43|76:77,1,63.7500024318696
52,116,56269,2,0,B|56:130|56:130|43:163|43:163|39:189,1,63.7500024318696,10|0,0:0|0:0,0:0:0:0:
45,240,56460,2,0,B|53:254|53:254|57:282|57:282|95:316,1,63.7500024318696
198,329,56651,6,0,B|192:341|192:341|177:352|177:352|159:418,1,63.7500024318696,8|0,0:0|0:0,0:0:0:0:
324,305,56843,2,0,B|332:316|332:316|349:324|349:324|387:380,1,63.7500024318696
184,302,57034,2,0,B|180:318|180:318|146:362,1,63.7500024318696,10|0,0:0|0:0,0:0:0:0:
339,286,57225,2,0,B|351:296|351:296|384:313|384:313|392:351,1,63.7500024318696
191,367,57418,38,0,B|201:313|201:313|191:299|191:299|183:230|183:230|177:222|177:222|170:160|170:160|153:188|153:188|150:235,2,255.000009727478,4|4|8,0:0|0:0|0:0,0:0:0:0:
282,343,58359,2,0,B|312:364|312:364|351:369|351:369|372:358,1,85.0000032424928,2|0,0:2|0:0,0:0:0:0:
426,308,58611,5,10,0:0:0:0:
508,354,58737,2,0,B|514:330|514:330|501:298|501:298|508:285|508:285|518:256,1,85.0000032424928,2|0,0:2|0:0,0:0:0:0:
512,174,58988,6,0,B|496:171|496:171|480:160|480:160|427:158|427:158|381:116,1,127.500004863739,4|0,0:0|0:0,0:0:0:0:
164,33,59366,2,0,B|168:43|168:43|176:57|176:57|121:47|121:47|98:15|98:15|87:18|87:18|42:22|42:22|22:37,1,191.250007295609,4|0,0:0|0:0,0:0:0:0:
18,97,59743,37,8,0:0:0:0:
60,159,59869,1,2,0:2:0:0:
126,129,59995,1,0,0:0:0:0:
192,180,60120,5,10,0:0:0:0:
166,252,60245,2,0,B|162:263|162:263|142:272|142:272|128:299,1,56.6666666666667,2|0,0:2|0:0,0:0:0:0:
16,368,60498,6,0,B|8:353|8:353|35:356|35:356|79:349|79:349|152:375|152:375|213:357|213:357|243:318,1,255,4|0,0:0|0:0,0:0:0:0:
381,249,60894,2,0,B|399:238|399:238|415:197|415:197|400:328|400:328|376:350|376:350|353:393,1,255,4|0,0:0|0:0,0:0:0:0:
287,236,61290,37,2,0:0:0:0:
282,193,61389,1,2,0:0:0:0:
299,151,61488,1,2,0:0:0:0:
293,105,61587,1,2,0:0:0:0:
302,59,61686,2,0,B|314:56|314:56|333:45|333:45|362:49,1,63.7500024318696,4|0,0:0|0:0,0:0:0:0:
420,22,61884,2,0,B|447:25|447:25|511:4|511:4|501:13|501:13|489:36,1,127.500004863739,0|8,0:0|0:0,0:0:0:0:
185,57,62280,6,0,B|178:46|178:46|178:30|178:30|173:25|173:25|148:-17,1,63.7500024318696,2|2,0:0|0:0,0:0:0:0:
124,88,62478,2,0,B|117:106|117:106|93:118|93:118|64:173|64:173|81:206,1,127.500004863739,10|0,0:0|0:0,0:0:0:0:
144,364,62851,6,0,B|155:366|155:366|218:337,1,63.7500024318696,8|0,0:0|0:0,0:0:0:0:
266,343,63044,2,0,B|275:349|275:349|306:340|306:340|371:356,1,63.7500024318696,0|0,0:0|0:0,0:0:0:0:
385,318,63238,2,0,B|394:331|394:331|461:313|461:313|494:319|494:319|508:336,1,127.500004863739,2|0,0:0|0:0,0:0:0:0:
512,126,63625,38,0,B|511:135|511:135|506:146|506:146|502:182,1,31.8750012159348,4|0,0:0|0:0,0:0:0:0:
465,56,63802,1,8,0:1:0:0:
456,59,63891,1,2,0:1:0:0:
445,65,63980,2,0,B|437:74|437:74|443:105|443:105|437:134,1,63.7500024318696,8|8,0:1|0:0,0:0:0:0:
369,87,64335,1,8,0:0:0:0:
279,121,64541,1,0,0:0:0:0:
157,58,64748,6,0,B|141:63|141:63|113:56|113:56|93:7|93:7|92:-6|92:-6|86:-8|86:-8|56:-2|56:-2|24:16,1,170,10|0,0:0|0:0,0:0:0:0:
36,197,65351,6,0,B|47:199|47:199|60:207|60:207|101:199|101:199|153:176,1,85,4|0,0:0|0:0,0:0:0:0:
198,165,65541,2,0,B|225:160|225:160|268:183|268:183|285:219,1,85,4|0,0:0|0:0,0:0:0:0:
352,220,65731,2,0,B|353:232|353:232|393:262|393:262|412:321,1,85,4|0,0:0|0:0,0:0:0:0:
446,369,65921,38,0,B|432:374|432:374|387:363|387:363|336:386,1,85,4|0,0:0|0:0,0:0:0:0:
169,375,66111,2,0,B|194:372|194:372|232:360|232:360|251:365,1,85,4|0,0:0|0:0,0:0:0:0:
440,361,66301,2,0,B|424:359|424:359|398:351|398:351|373:354|373:354|291:325,1,85,4|0,0:0|0:0,0:0:0:0:
159,312,66491,2,0,B|177:306|177:306|247:337,1,85,4|0,0:0|0:0,0:0:0:0:
464,298,66680,5,6,0:0:0:0:
508,247,66876,1,8,0:1:0:0:
510,251,66975,1,2,0:1:0:0:
512,256,67073,1,8,0:1:0:0:
445,233,67260,1,8,0:0:0:0:
444,134,67448,6,0,B|457:141|457:141|476:143|476:143|498:152|498:152|512:183,1,85,8|0,0:0|0:0,0:0:0:0:
420,103,67856,2,0,B|385:113|385:113|367:62|367:62|371:51|371:51|375:20|375:20|340:-4,1,170,10|0,0:0|0:0,0:0:0:0:
198,12,68449,38,0,B|189:24|189:24|183:65|183:65|188:109,1,85,4|0,0:0|0:0,0:0:0:0:
170,179,68646,2,0,B|159:216|159:216|132:237|132:237|115:259,1,85,4|0,0:0|0:0,0:0:0:0:
76,317,68843,2,0,B|66:326|66:326|26:332|26:332|-2:350,1,85,4|0,0:0|0:0,0:0:0:0:
177,384,69039,6,0,B|186:367|186:367|181:319|181:319|185:284,1,85,4|0,0:0|0:0,0:0:0:0:
161,129,69236,2,0,B|167:140|167:140|170:178|170:178|197:250,1,85,4|0,0:0|0:0,0:0:0:0:
213,368,69433,2,0,B|203:332|203:332|214:293|214:293|211:270,1,85,4|0,0:0|0:0,0:0:0:0:
236,96,69630,2,0,B|224:110|224:110|215:202,1,85,4|0,0:0|0:0,0:0:0:0:
339,320,69826,6,0,B|351:329|351:329|466:340|466:340|491:350|491:350|508:324|508:324|503:262|503:262|518:205,1,297.5,4|0,0:2|0:0,0:0:0:0:
349,33,71400,2,0,B|198:23|198:23|116:3|116:3|77:25|77:25|92:40,1,297.5,4|0,0:2|0:0,0:0:0:0:
0,125,72933,2,0,B|2:141|2:141|29:196|29:196|20:226|20:226|21:253,2,127.5,4|0|0,0:2|0:0|0:0,0:0:0:0:
128,170,74467,2,0,B|171:190|171:190|252:196|252:196|277:194|277:194|260:222,1,170,8|8,0:2|0:2,0:0:0:0:
343,202,75376,37,0,0:0:0:0:
348,186,75467,1,8,0:1:0:0:
342,159,75557,1,2,0:1:0:0:
370,1,75921,6,0,B|368:-10|368:-10|350:6|350:6|353:38|353:38|333:90,1,85,6|0,0:0|0:0,0:0:0:0:
277,85,76095,1,8,0:1:0:0:
257,131,76182,1,2,0:1:0:0:
264,178,76269,1,8,0:1:0:0:
350,278,76444,5,8,0:0:0:0:
414,257,76618,1,8,0:0:0:0:
449,363,76822,1,0,0:0:0:0:
492,307,77026,2,0,B|512:293|512:293|507:251|507:251|524:206|524:206|500:219,1,127.500004863739,10|0,0:0|0:0,0:0:0:0:
338,384,77585,38,0,B|325:376|325:376|299:325|299:325|279:306,1,85,4|0,0:0|0:0,0:0:0:0:
234,246,77779,2,0,B|214:242|214:242|190:217|190:217|131:201,1,85,4|0,0:0|0:0,0:0:0:0:
80,178,77972,2,0,B|65:182|65:182|20:165|20:165|-10:175,1,85,4|0,0:0|0:0,0:0:0:0:
160,11,78166,6,0,B|165:23|165:23|149:64|149:64|148:111,1,85,4|0,0:0|0:0,0:0:0:0:
117,244,78359,2,0,B|115:228|115:228|143:187|143:187|155:134,1,85,4|0,0:0|0:0,0:0:0:0:
233,4,78553,2,0,B|221:18|221:18|203:27|203:27|177:65,1,85,4|0,0:0|0:0,0:0:0:0:
137,227,78746,2,0,B|154:220|154:220|162:185|162:185|177:158,1,85,4|0,0:0|0:0,0:0:0:0:
308,125,78939,5,6,0:0:0:0:
385,78,79127,1,8,0:1:0:0:
397,70,79222,1,2,0:1:0:0:
405,55,79316,1,8,0:1:0:0:
470,45,79505,1,8,0:0:0:0:
512,177,79693,38,0,B|502:170|502:170|481:171|481:171|437:138,1,63.7500024318696,8|0,0:0|0:0,0:0:0:0:
499,256,80071,2,0,B|509:274|509:274|520:285|520:285|531:340|531:340|495:383,1,127.500004863739,10|0,0:0|0:0,0:0:0:0:
300,383,80637,6,0,B|296:370|296:370|280:364|280:364|258:308,1,85,4|0,0:0|0:0,0:0:0:0:
242,230,80825,2,0,B|248:219|248:219|246:199|246:199|263:123,1,85,4|0,0:0|0:0,0:0:0:0:
279,65,81014,2,0,B|293:56|293:56|316:19|316:19|372:-3,1,85,4|0,0:0|0:0,0:0:0:0:
412,141,81203,6,0,B|398:144|398:144|386:138|386:138|303:127,1,85,4|0,0:0|0:0,0:0:0:0:
158,81,81391,2,0,B|169:94|169:94|215:103|215:103|261:126,1,85,4|0,0:0|0:0,0:0:0:0:
419,158,81580,2,0,B|407:156|407:156|371:175|371:175|314:181,1,85,4|0,0:0|0:0,0:0:0:0:
132,120,81780,2,0,B|143:113|143:113|190:125|190:125|216:125,1,85,4|0,0:0|0:0,0:0:0:0:
327,252,81980,37,6,0:0:0:0:
255,305,82161,1,8,0:1:0:0:
241,314,82252,1,2,0:1:0:0:
234,325,82343,1,8,0:1:0:0:
256,384,82525,1,8,0:0:0:0:
155,369,82707,6,0,B|140:370|140:370|109:358|109:358|71:364,1,63.7500024318696,8|0,0:0|0:0,0:0:0:0:
0,334,83070,2,0,B|6:344|6:344|40:318|40:318|46:279|46:279|42:274|42:274|35:235,1,127.500004863739,10|0,0:0|0:0,0:0:0:0:
135,126,83639,6,0,B|147:125|147:125|170:106|170:106|261:67,1,85,4|0,0:0|0:0,0:0:0:0:
277,55,83834,2,0,B|288:64|288:64|381:59,1,85,4|0,0:0|0:0,0:0:0:0:
434,74,84029,2,0,B|453:73|453:73|494:92|494:92|560:90,1,85,4|0,0:0|0:0,0:0:0:0:
499,223,84224,38,0,B|485:208|485:208|473:202|473:202|416:136,1,85,4|0,0:0|0:0,0:0:0:0:
333,23,84419,2,0,B|335:35|335:35|364:64|364:64|378:92,1,85,4|0,0:0|0:0,0:0:0:0:
472,248,84613,2,0,B|474:233|474:233|437:199|437:199|412:148,1,85,4|0,0:0|0:0,0:0:0:0:
276,29,84808,2,0,B|297:35|297:35|376:123,1,85,4|0,0:0|0:0,0:0:0:0:
352,246,85003,5,6,0:0:0:0:
416,320,85181,1,8,0:1:0:0:
431,326,85270,1,2,0:1:0:0:
442,336,85360,1,8,0:1:0:0:
366,377,85538,1,8,0:0:0:0:
238,373,85717,6,0,B|243:361|243:361|231:337|231:337|219:293,1,63.7500024318696,8|0,0:0|0:0,0:0:0:0:
327,190,86082,2,0,B|315:199|315:199|285:195|285:195|255:205|255:205|239:240|239:240|225:248,1,127.500004863739,10|0,0:0|0:0,0:0:0:0:
0,382,86662,38,0,B|23:377|23:377|64:353|64:353|80:316,1,85,4|0,0:0|0:0,0:0:0:0:
104,272,86856,2,0,B|103:251|103:251|112:235|112:235|127:151,1,85,4|0,0:0|0:0,0:0:0:0:
135,115,87052,2,0,B|125:106|125:106|117:60|117:60|94:23,1,85,4|0,0:0|0:0,0:0:0:0:
263,127,87248,6,0,B|258:116|258:116|231:112|231:112|160:61,1,85,4|0,0:0|0:0,0:0:0:0:
14,3,87444,2,0,B|30:-1|30:-1|117:54,1,85,4|0,0:0|0:0,0:0:0:0:
258,134,87640,2,0,B|242:134|242:134|198:109|198:109|155:99,1,85,4|0,0:0|0:0,0:0:0:0:
2,26,87836,2,0,B|13:31|13:31|55:32|55:32|116:92,1,85,4|0,0:0|0:0,0:0:0:0:
205,250,88032,6,0,B|216:262|216:262|342:285|342:285|416:378|416:378|461:388,1,297.5,4|0,0:2|0:0,0:0:0:0:
507,172,89534,2,0,B|495:157|495:157|474:72|474:72|378:8|378:8|339:29|339:29|295:34,1,298.392500273187,4|0,0:2|0:0,0:0:0:0:
233,110,91041,2,0,B|222:103|222:103|197:103|197:103|134:93|134:93|111:66,1,127.5,4|0,0:2|0:0,0:0:0:0:
51,80,91830,2,0,B|49:57|49:57|59:44|59:44|67:12|67:12|65:-7,1,85,8|0,0:2|0:0,0:0:0:0:
59,183,92559,38,0,B|59:189|59:189|47:214|47:214|49:227|49:227|53:236,3,50.9999984436036,8|8|8|8,0:2|0:2|0:2|0:2,0:0:0:0:
179,356,94075,6,0,B|196:362|196:362|352:332|352:332|374:320|374:320|356:390|356:390|327:380,1,297.5,4|0,0:2|0:0,0:0:0:0:
122,238,95544,2,0,B|116:233|116:233|107:208|107:208|118:138|118:138|73:33|73:33|58:37|58:37|-17:12,1,297.5,4|0,0:2|0:0,0:0:0:0:
182,33,97014,2,0,B|217:16|217:16|271:23|271:23|292:12|292:12|305:10,2,127.5,4|0|0,0:2|0:0|0:0,0:0:0:0:
384,91,98484,54,0,B|403:93|403:93|423:102|423:102|446:137,1,76.4999976654053,8|0,0:0|0:0,0:0:0:0:
488,90,99253,2,0,B|495:80|495:80|494:62|494:62|501:35,1,50.9999984436036,8|0,0:2|0:2,0:0:0:0:
469,235,99980,6,0,B|477:238|477:238|486:254|486:254|517:281,2,63.75,8|0|8,0:0|0:0|0:2,0:0:0:0:
337,361,101496,2,0,B|320:373|320:373|304:375|304:375|276:385,2,63.75,8|0|8,0:0|0:0|0:2,0:0:0:0:
182,238,102935,6,0,B|159:220|159:220|156:210|156:210|143:187,2,63.75,8|0|8,0:0|0:0|0:2,0:0:0:0:
258,305,104387,2,0,B|275:294|275:294|282:280|282:280|289:276,1,42.5,8|8,0:0|0:2,0:0:0:0:
305,238,104934,2,0,B|311:231|311:231|313:208|313:208|308:192,1,42.5,0|0,0:0|0:0,0:0:0:0:
291,159,105481,1,8,0:2:0:0:
195,27,105845,38,0,B|180:18|180:18|169:21|169:21|131:16,2,63.75,8|0|8,0:0|0:0|0:2,0:0:0:0:
343,49,107293,2,0,B|360:14|360:14|369:7|369:7|389:10,2,63.75,8|0|8,0:0|0:0|0:2,0:0:0:0:
401,104,108704,6,0,B|399:117|399:117|416:134|416:134|420:146,1,42.5,8|8,0:0|0:2,0:0:0:0:
437,181,109239,2,0,B|444:193|444:193|469:199|469:199|477:195,1,42.5,0|0,0:0|0:0,0:0:0:0:
512,191,109775,1,8,0:2:0:0:
417,277,110134,2,0,B|410:285|410:285|387:288|387:288|373:296,1,42.5,8|8,0:0|0:2,0:0:0:0:
338,307,110676,2,0,B|336:319|336:319|318:339|318:339|317:350,1,42.5,0|0,0:0|0:0,0:0:0:0:
318,384,111218,1,8,0:2:0:0:
177,366,111579,6,0,B|144:361|144:361|124:362|124:362|111:359,2,63.75,8|0|8,0:0|0:0|0:2,0:0:0:0:
59,291,113069,2,0,B|22:297|22:297|8:306|8:306|-4:311,2,63.75,8|0|8,0:0|0:0|0:2,0:0:0:0:
83,198,114505,38,0,B|86:187|86:187|80:178|80:178|75:158,1,42.5,8|8,0:0|0:2,0:0:0:0:
65,116,115052,2,0,B|72:101|72:101|68:88|68:88|70:70,1,42.5
55,35,115599,1,8,0:2:0:0:
200,0,115963,2,0,B|196:15|196:15|186:28|186:28|181:37,1,42.5,8|8,0:0|0:2,0:0:0:0:
176,79,116518,2,0,B|181:90|181:90|176:111|176:111|177:123,1,42.5
154,160,117074,1,8,0:2:0:0:
340,100,117445,6,0,B|354:95|354:95|379:91|379:91|400:76,1,63.75,8|0,0:0|0:0,0:0:0:0:
406,35,118190,1,8,0:2:0:0:
455,140,118542,1,8,0:2:0:0:
509,256,118877,6,0,B|495:271|495:271|493:296|493:296|496:306|496:306|493:316,1,63.75,8|0,0:0|0:0,0:0:0:0:
338,367,119591,2,0,B|349:373|349:373|391:377|391:377|410:376|410:376|419:384,1,85,2|8,0:0|0:2,0:0:0:0:
20,337,120276,38,0,B|41:344|41:344|94:284|94:284|91:230|91:230|96:223|96:223|87:173|87:173|48:119,1,255.000009727478,4|8,0:2|0:2,0:0:0:0:
147,0,121270,1,0,0:0:0:0:
147,0,121436,1,0,0:0:0:0:
290,42,121601,2,0,B|309:48|309:48|390:37,1,85,10|0,0:0|0:0,0:0:0:0:
366,122,122099,1,2,0:0:0:0:
432,132,122264,2,0,B|450:133|450:133|470:145|470:145|517:155,1,85,8|0,0:2|0:0,0:0:0:0:
437,378,122927,6,0,B|427:372|427:372|396:370|396:370|329:321|329:321|332:285|332:285|317:243,1,191.250007295609,4|0,0:2|0:0,0:0:0:0:
296,189,123616,2,0,B|294:151|294:151|304:139|304:139|312:81|312:81|304:54,1,127.500004863739,8|0,0:2|0:0,0:0:0:0:
363,19,124084,5,0,0:0:0:0:
155,1,124241,2,0,B|143:17|143:17|141:37|141:37|119:68|119:68|107:74,1,85,10|0,0:0|0:0,0:0:0:0:
27,134,124734,1,2,0:0:0:0:
22,48,124898,2,0,B|32:60|32:60|35:101|35:101|40:106|40:106|48:137,1,85,8|0,0:2|0:0,0:0:0:0:
19,352,125556,38,0,B|48:357|48:357|56:362|56:362|113:360|113:360|171:314|171:314|236:306|236:306|271:321,1,255.000009727478,4|8,0:2|0:2,0:0:0:0:
290,368,126377,1,2,0:0:0:0:
256,304,126542,2,0,B|261:272|261:272|269:261,1,42.5,0|0,0:0|0:0,0:0:0:0:
415,350,126871,6,0,B|428:358|428:358|480:352|480:352|518:325|518:325|506:354,1,127.5,10|2,0:0|0:0,0:0:0:0:
482,201,127528,2,0,B|488:213|488:213|486:235|486:235|493:269,1,68,8|0,0:2|0:0,0:0:0:0:
503,16,128186,6,0,B|487:63|487:63|401:105|401:105|353:88|353:88|310:96|310:96|277:92,1,255.000009727478,4|8,0:2|0:2,0:0:0:0:
32,21,129186,1,0,0:0:0:0:
32,21,129352,1,0,0:0:0:0:
130,132,129519,2,0,B|143:143|143:143|148:175|148:175|163:215,1,85,10|0,0:0|0:0,0:0:0:0:
133,70,130019,1,2,0:0:0:0:
88,205,130186,2,0,B|85:220|85:220|69:246|69:246|67:272|67:272|73:287,1,85,8|0,0:2|0:0,0:0:0:0:
297,381,130852,38,0,B|288:382|288:382|267:391|267:391|308:354|308:354|362:346|362:346|404:319,1,191.250007295609,4|0,0:2|0:0,0:0:0:0:
466,311,131531,1,8,0:2:0:0:
508,151,131872,1,0,0:0:0:0:
508,151,132045,1,0,0:0:0:0:
389,71,132219,2,0,B|378:65|378:65|359:25|359:25|359:12|359:12|343:-13,1,85,10|0,0:0|0:0,0:0:0:0:
251,39,132731,1,2,0:0:0:0:
271,136,132901,2,0,B|274:126|274:126|277:93|277:93|268:71|268:71|273:54,1,85,8|0,0:2|0:0,0:0:0:0:
28,109,133584,6,0,B|37:136|37:136|48:141|48:141|84:196|84:196|80:257|80:257|57:296,1,191.250007295609,4|0,0:2|0:0,0:0:0:0:
7,314,134267,2,0,B|42:308|42:308|117:333|117:333|126:351,1,127.500004863739,8|0,0:2|0:0,0:0:0:0:
181,382,134779,1,0,0:0:0:0:
318,287,134950,6,0,B|329:274|329:274|325:255|325:255|328:220|328:220|334:202,1,85,10|0,0:0|0:0,0:0:0:0:
396,180,135452,1,2,0:0:0:0:
389,115,135620,2,0,B|391:90|391:90|384:58|384:58|391:37|391:37|414:34,1,85,8|0,0:2|0:0,0:0:0:0:
148,4,136293,38,0,B|126:11|126:11|89:81|89:81|93:93|93:93|106:173|106:173|127:204|127:204|124:240,1,255.000009727478,4|8,0:2|0:2,0:0:0:0:
192,365,137339,1,0,0:0:0:0:
192,365,137513,1,0,0:0:0:0:
346,353,137688,2,0,B|365:351|365:351|374:353|374:353|401:325|401:325|435:318,1,85,10|0,0:0|0:0,0:0:0:0:
458,372,138188,1,2,0:0:0:0:
489,237,138354,2,0,B|503:244|503:244|513:273|513:273|501:323,1,85,8|0,0:2|0:0,0:0:0:0:
497,48,139020,22,0,B|488:36|488:36|458:105|458:105|460:116|460:116|403:158|403:158|335:149|335:149|305:160,1,255.000009727478,4|8,0:2|0:2,0:0:0:0:
94,196,140048,1,0,0:0:0:0:
94,196,140220,1,0,0:0:0:0:
17,96,140391,2,0,B|13:87|13:87|18:67|18:67|10:28|10:28|15:-3,1,85,10|0,0:0|0:0,0:0:0:0:
81,25,140905,2,0,B|106:25|106:25|131:38,1,42.5,2|8,0:0|0:2,0:0:0:0:
128,41,141420,38,0,B|148:43|148:43|178:18|178:18|224:7|224:7|262:15,1,127.5,2|0,0:2|0:0,0:0:0:0:
402,47,141762,2,0,B|409:70|409:70|390:130|390:130|397:131|397:131|429:193|429:193|495:219|495:219|513:255,1,255.000009727478,4|8,0:2|0:0,0:0:0:0:
469,374,142781,1,0,0:0:0:0:
469,374,142951,1,0,0:0:0:0:
307,368,143121,2,0,B|299:359|299:359|279:349|279:349|247:299|247:299|206:262,1,127.500004863739,10|0,0:0|0:0,0:0:0:0:
169,317,143631,1,2,0:0:0:0:
122,247,143801,2,0,B|128:231|128:231|122:205|122:205|128:176,1,63.7500024318696,8|0,0:0|0:0,0:0:0:0:
137,102,144141,2,0,B|150:98|150:98|177:43,1,63.7500024318696
313,10,144481,6,0,B|334:8|334:8|347:13|347:13|455:0,2,127.500004863739,8|0|8,0:0|0:0|0:0,0:0:0:0:
287,112,145535,1,0,0:0:0:0:
438,157,145880,2,0,B|448:172|448:172|447:186|447:186|458:239,1,63.7500024318696,10|0,0:0|0:0,0:0:0:0:
380,288,146217,2,0,B|369:291|369:291|376:218,1,63.7500024318696,0|2,0:0|0:0,0:0:0:0:
484,362,146554,2,0,B|489:367|489:367|508:377|508:377|471:377|471:377|424:366|424:366|393:372,1,127.500004863739,8|0,0:0|0:0,0:0:0:0:
180,383,147228,6,0,B|170:372|170:372|167:337|167:337|130:295|130:295|89:286,1,127.500004863739,4|0,0:2|0:0,0:0:0:0:
56,131,147933,2,0,B|44:159|44:159|28:165|28:165|11:200|11:200|22:270,1,127.500004863739,8|0,0:0|0:0,0:0:0:0:
83,295,148444,1,0,0:0:0:0:
280,267,148614,38,0,B|296:259|296:259|330:263|330:263|408:250,1,127.500004863739,10|0,0:0|0:0,0:0:0:0:
453,210,149131,1,2,0:0:0:0:
384,94,149303,2,0,B|370:80|370:80|368:128|368:128|369:153|369:153|365:162|365:162|362:214,1,127.500004863739,8|0,0:0|0:0,0:0:0:0:
4,35,149994,6,0,B|15:40|15:40|51:37|51:37|100:47|100:47|120:83,1,127.500004863739,4|0,0:2|0:0,0:0:0:0:
315,16,150668,2,0,B|319:2|319:2|296:11|296:11|266:45|266:45|272:75|272:75|264:112,1,127.500004863739,8|0,0:0|0:0,0:0:0:0:
219,132,151183,1,0,0:0:0:0:
56,210,151362,6,0,B|53:246|53:246|66:263|66:263|81:360,1,127.500004863739,10|0,0:0|0:0,0:0:0:0:
28,378,151856,1,2,0:0:0:0:
160,343,152029,2,0,B|175:355|175:355|200:353|200:353|255:363|255:363|282:397,1,127.500004863739,8|0,0:0|0:0,0:0:0:0:
484,375,152721,38,0,B|473:362|473:362|463:342|463:342|406:315|406:315|346:310,1,127.5,8|0,0:0|0:0,0:0:0:0:
512,256,153070,2,0,B|497:252|497:252|481:239|481:239|411:234|411:234|359:255,1,127.5,8|0,0:0|0:0,0:0:0:0:
482,141,153420,2,0,B|473:141|473:141|444:131|444:131|389:160|389:160|344:200,1,127.5,8|0,0:0|0:0,0:0:0:0:
411,39,153770,2,0,B|390:48|390:48|373:50|373:50|337:94|337:94|312:155,1,127.5,8|0,0:0|0:0,0:0:0:0:
15,13,154120,6,0,B|26:11|26:11|53:1|53:1|115:8|115:8|169:36,1,127.5,8|0,0:0|0:0,0:0:0:0:
20,142,154470,2,0,B|33:133|33:133|44:116|44:116|107:93|107:93|164:94,1,127.5,8|0,0:0|0:0,0:0:0:0:
69,258,154820,2,0,B|75:242|75:242|78:220|78:220|174:147,1,127.5,8|0,0:0|0:0,0:0:0:0:
159,350,155169,2,0,B|159:332|159:332|153:310|153:310|190:251|190:251|201:197,1,127.5,8|0,0:0|0:0,0:0:0:0:
394,44,155519,6,0,B|412:38|412:38|464:36|464:36|495:12|495:12|518:9,1,127.5,4|0,0:2|0:0,0:0:0:0:
312,138,155869,2,0,B|292:129|292:129|235:140|235:140|208:116|208:116|176:125,1,127.5,8|0,0:0|0:0,0:0:0:0:
420,201,156219,2,0,B|436:199|436:199|463:209|463:209|521:189|521:189|555:197,1,127.5,8|0,0:0|0:0,0:0:0:0:
277,312,156569,2,0,B|256:307|256:307|200:333|200:333|172:328|172:328|144:335,1,127.5,8|0,0:0|0:0,0:0:0:0:
437,382,156919,38,0,B|461:366|461:366|467:347|467:347|496:305|496:305|540:284,1,127.5,8|0,0:0|0:0,0:0:0:0:
381,318,157269,2,0,B|395:301|395:301|394:273|394:273|403:229|403:229|420:201,1,127.5,8|0,0:0|0:0,0:0:0:0:
295,282,157618,2,8,B|298:256|298:256|286:232|286:232|278:179|278:179|281:158,1,127.5,8|0,0:0|0:0,0:0:0:0:
206,270,157968,2,0,B|195:249|195:249|176:236|176:236|147:190|147:190|147:157,1,127.5,8|0,0:0|0:0,0:0:0:0:
0,0,158318,6,8,B|3:17|3:17|20:40|20:40|29:93|29:93|44:125,1,127.5,4|0,0:2|0:0,0:0:0:0:
20,25,158677,2,0,B|25:41|25:41|44:65|44:65|67:122|67:122|92:146,1,127.5,8|0,0:0|0:0,0:0:0:0:
41,48,159036,2,0,B|48:63|48:63|68:78|68:78|113:129|113:129|120:160,1,127.5,8|0,0:0|0:0,0:0:0:0:
71,64,159395,2,0,B|76:75|76:75|101:90|101:90|143:135|143:135|185:157,1,127.5,8|0,0:0|0:0,0:0:0:0:
104,76,159755,2,0,B|126:85|126:85|148:107|148:107|185:136|185:136|233:147,1,127.5,8|0,0:0|0:0,0:0:0:0:
141,85,160102,2,8,B|163:91|163:91|215:128|215:128|273:153,1,127.5,8|0,0:0|0:0,0:0:0:0:
176,90,160450,2,8,B|192:103|192:103|239:118|239:118|280:121|280:121|316:138,1,127.5,8|0,0:0|0:0,0:0:0:0:
210,92,160798,2,8,B|237:100|237:100|289:104|289:104|297:101|297:101|357:112,1,127.5,8|0,0:0|0:0,0:0:0:0:
110,379,161146,6,8,B|122:363|122:363|125:351|125:351|145:296|145:296|156:288|156:288|163:264,1,127.5,4|0,0:0|0:0,0:0:0:0:
108,374,161494,2,8,B|126:341|126:341|145:278|145:278|161:252,1,127.5,4|0,0:0|0:0,0:0:0:0:
106,367,161841,2,8,B|107:350|107:350|123:311|123:311|132:260|132:260|156:225,1,133.874995914459,4|0,0:0|0:0,0:0:0:0:
104,359,162189,2,8,B|113:341|113:341|113:329|113:329|118:258|118:258|126:247|126:247|137:218,1,140.25000428009,4|0,0:0|0:0,0:0:0:0:
101,354,162537,2,0,B|115:311|115:311|109:214|109:214|125:186,1,165.749992412568,4|0,0:2|0:0,0:0:0:0:
99,346,162875,2,0,B|97:326|97:326|107:276|107:276|98:218|98:218|112:179|112:179|103:143,1,204,4|0,0:2|0:0,0:0:0:0:
93,331,163214,2,0,B|79:311|79:311|96:226|96:226|76:148|76:148|36:108,1,229.499992996216,4|0,0:2|0:0,0:0:0:0:
89,321,163553,2,0,B|118:281|118:281|127:178|127:178|117:117|117:117|128:110|128:110|170:43,1,280.500008560181,4|0,0:2|0:0,0:0:0:0:
0,192,163892,37,8,0:0:0:0:
49,121,164378,2,0,B|77:140|77:140|86:137|86:137|145:153,1,85,8|8,0:0|0:2,0:0:0:0:
141,135,165027,1,8,0:0:0:0:
216,217,165189,2,0,B|230:221|230:221|264:201|264:201|275:162,1,85,2|8,0:0|0:0,0:0:0:0:
305,117,165667,1,2,0:0:0:0:
379,198,165827,2,0,B|404:205|404:205|421:204|421:204|453:216|453:216|464:228,1,85,8|0,0:0|0:0,0:0:0:0:
512,169,166465,6,0,B|498:177|498:177|451:182|451:182|406:203|406:203|372:200,1,127.5,8|8,0:0|0:0,0:0:0:0:
292,207,167293,2,0,B|296:216|296:216|301:222|301:222|300:240|300:240|304:255,2,42.5,8|8|8,0:2|0:2|0:0,0:0:0:0:
226,135,167790,2,0,B|170:117|170:117|164:131|164:131|148:150,1,85,2|8,0:0|0:0,0:0:0:0:
99,230,168288,5,2,0:0:0:0:
176,209,168447,2,0,B|189:210|189:210|206:198|206:198|242:187|242:187|256:192,1,85,2|0,0:1|0:0,0:0:0:0:
416,378,169104,6,0,B|466:366|497:343|514:298,1,127.5,4|0,0:2|0:0,0:0:0:0:
121,56,169809,2,0,B|91:18|57:7|11:1,1,127.5,4|0,0:2|0:0,0:0:0:0:
263,384,170515,2,0,B|292:356|325:330|383:332,1,127.5,4|0,0:2|0:0,0:0:0:0:
446,0,171198,6,0,B|454:-1|463:4|463:4|554:96,1,127.500004863739,4|0,0:0|0:0,0:0:0:0:
408,68,171540,2,0,B|415:70|422:78|422:78|469:198,1,127.500004863739,4|0,0:0|0:0,0:0:0:0:
280,162,171859,2,0,B|288:166|287:177|287:177|275:306,1,127.500004863739,4|0,0:0|0:0,0:0:0:0:
3,230,172178,2,0,B|-5:237|-5:245|-5:245|14:365,1,127.500004863739,4|0,0:2|0:0,0:0:0:0:
73,384,173206,38,0,B|79:376|80:368|80:368|60:247,1,127.5,4|0,0:2|0:0,0:0:0:0:
3,230,173919,2,0,B|20:200|17:150|-31:95,1,127.500004863739,4|0,0:0|0:0,0:0:0:0:
89,155,174259,2,0,B|113:130|123:81|91:15,1,127.500004863739,4|0,0:0|0:0,0:0:0:0:
234,100,174600,2,0,B|267:90|300:53|305:-19,1,127.500004863739,4|0,0:0|0:0,0:0:0:0:
512,265,174940,2,0,B|473:300|415:312|396:283,1,127.500004863739,4|0,0:2|0:0,0:0:0:0:
469,241,175964,6,0,B|518:257|562:306|521:346,1,127.5,4|0,0:2|0:0,0:0:0:0:
463,362,176659,2,0,B|367:376|367:376|337:392,1,127.500004863739,4|0,0:0|0:0,0:0:0:0:
88,354,177007,2,0,B|115:370|115:370|211:382,1,127.500004863739,4|0,0:0|0:0,0:0:0:0:
467,290,177355,2,0,B|373:262|373:262|339:263,1,127.500004863739,4|0,0:0|0:0,0:0:0:0:
47,190,177703,2,0,B|57:222|57:222|118:295,1,127.500004863739,4|0,0:0|0:0,0:0:0:0:
502,221,178050,2,0,B|428:155|428:155|397:142,1,127.500004863739,4|0,0:0|0:0,0:0:0:0:
24,0,178398,2,0,B|12:24|12:24|25:123,1,127.500004863739,4|0,0:0|0:0,0:0:0:0:
432,120,178746,6,0,B|490:146|490:146|427:152,1,127.500004863739,4|0,0:0|0:0,0:0:0:0:
192,88,179094,2,0,B|154:37|154:37|212:63,1,127.500004863739,4|0,0:0|0:0,0:0:0:0:
475,207,179442,2,0,B|492:267|492:267|420:260,1,127.500004863739,4|0,0:0|0:0,0:0:0:0:
136,70,179790,2,0,B|139:6|139:6|205:37,1,127.500004863739,4|0,0:0|0:0,0:0:0:0:
476,334,180137,2,0,B|435:383|435:383|366:361,1,127.500004863739,4|0,0:0|0:0,0:0:0:0:
82,33,180485,2,0,B|122:-17|122:-17|191:5,1,127.500004863739,4|0,0:0|0:0,0:0:0:0:
181,233,180833,38,0,B|175:239|161:244|161:244|47:224,1,127.500004863739,4|2,0:2|0:2,0:0:0:0:
43,249,181657,1,0,0:0:0:0:
362,38,181822,6,0,B|396:98|425:64|463:129,1,127.500004863739,4|0,0:0|0:0,0:0:0:0:
150,346,182162,2,0,B|116:286|87:320|49:255,1,127.500004863739,4|0,0:2|0:0,0:0:0:0:
46,188,182844,6,0,B|74:205|110:188|118:140|96:89,1,127.500004863739,4|0,0:0|0:0,0:0:0:0:
266,376,183192,2,0,B|257:353|290:330|334:347|368:392,1,127.500004863739,4|0,0:0|0:0,0:0:0:0:
417,30,183541,2,0,B|407:51|450:71|493:40|506:-2,1,127.5,4|0,0:2|0:0,0:0:0:0:
512,284,184255,38,0,B|458:269|435:224|440:204|469:184,1,127.5,4|0,0:2|0:0,0:0:0:0:
496,122,184948,6,0,B|463:77|408:74|408:74|358:132,1,127.500004863739,4|0,0:0|0:0,0:0:0:0:
192,303,185292,2,0,B|173:356|119:372|119:372|56:329,1,127.500004863739,4|0,0:0|0:0,0:0:0:0:
8,203,185637,6,0,P|74:210|148:231,1,127.500004863739,4|0,0:0|0:0,0:0:0:0:
427,308,185982,2,0,P|472:371|532:400,1,127.500004863739,4|0,0:0|0:0,0:0:0:0:
197,0,186327,2,0,P|221:48|240:131,1,129.199998422852,4|2,0:2|0:2,0:0:0:0:
221,113,187169,1,0,0:0:0:0:
413,32,187338,38,0,B|399:15|416:-9|460:-13|532:13,1,127.500004863739,4|0,0:0|0:0,0:0:0:0:
75,110,187662,2,0,B|83:117|78:141|25:157|-25:88,1,127.5,4|0,0:2|0:0,0:0:0:0:
40,166,188347,6,0,B|44:164|61:159|76:184|110:271,1,127.500004863739,4|0,0:0|0:0,0:0:0:0:
197,97,188690,2,0,B|198:96|217:97|222:126|222:220,1,127.500004863739,4|0,0:0|0:0,0:0:0:0:
504,296,189033,2,0,B|507:298|519:309|506:332|471:364|429:384,1,127.5,4|0,0:2|0:0,0:0:0:0:
167,384,189747,6,4,B|115:385|121:321|62:305|32:368,1,127.500004863739,4|0,0:0|0:0,0:0:0:0:
512,128,190104,2,0,B|505:140|474:163|483:120|536:97|501:31,1,127.500004863739,4|0,0:0|0:0,0:0:0:0:
301,355,190461,38,0,B|303:368|287:382|287:382|322:381|366:379|501:238|330:65|214:264|311:87|263:32|316:8|335:10|335:10|330:15|333:35,1,510.000019454957,6|2,0:0|0:2,0:0:0:0:
403,83,191003,1,0,0:0:0:0:
0,118,191188,6,0,B|37:95|81:97|129:110|90:152,1,127.5,4|0,0:2|0:0,0:0:0:0:
252,367,191928,2,0,B|284:396|328:401|377:397|346:349,1,127.5,4|0,0:2|0:0,0:0:0:0:
350,36,192669,2,0,B|368:-2|408:-22|456:-36|444:18,1,127.5,4|0,0:2|0:0,0:0:0:0:
512,168,193410,6,0,B|488:167|447:181|416:262,1,127.500004863739,4|0,0:0|0:0,0:0:0:0:
396,80,193760,2,0,B|373:89|342:119|348:205,1,127.500004863739,4|0,0:0|0:0,0:0:0:0:
160,0,194111,2,0,B|143:17|128:58|170:133,1,127.500004863739,4|0,0:0|0:0,0:0:0:0:
2,300,194462,2,0,B|2:324|19:363|102:389,2,127.500004863739,4|0|8,0:2|0:0|0:2,0:0:0:0:
81,299,195573,38,0,B|143:320|166:359|165:387,1,127.5,4|0,0:2|0:0,0:0:0:0:
244,382,196287,2,0,P|295:365|382:361,1,127.500004863739,4|0,0:0|0:0,0:0:0:0:
13,278,196644,2,0,P|60:331|127:362,1,127.500004863739,4|0,0:0|0:0,0:0:0:0:
0,0,197001,2,0,P|25:47|44:132,1,127.500004863739,4|0,0:0|0:0,0:0:0:0:
409,266,197358,2,0,P|398:318|358:396,2,127.500004863739,4|0|0,0:2|0:0|0:0,0:0:0:0:
409,0,198448,6,0,B|412:56|432:93|457:121,1,127.5,4|0,0:2|0:0,0:0:0:0:
322,17,199176,2,0,B|264:-2|264:-2|191:47,1,127.500004863739,4|0,0:0|0:0,0:0:0:0:
95,24,199539,2,0,B|54:45|54:45|-40:13,1,127.500004863739,4|0,0:0|0:0,0:0:0:0:
309,9,199903,2,0,B|251:38|251:38|237:122,1,127.500004863739,4|0,0:0|0:0,0:0:0:0:
78,248,200255,2,0,B|65:295|65:295|-5:341,1,127.500004863739,4|0,0:0|0:0,0:0:0:0:
297,0,200608,2,0,B|282:57|282:57|327:131,1,127.500004863739,4|0,0:0|0:0,0:0:0:0:
339,293,200961,2,0,B|374:314|374:314|410:399,1,127.500004863739,4|0,0:0|0:0,0:0:0:0:
256,366,201314,6,0,B|199:373|181:368|126:325,1,127.500004863739,4|0,0:0|0:0,0:0:0:0:
238,269,201678,2,0,B|295:262|313:267|368:310,1,127.500004863739,4|0,0:0|0:0,0:0:0:0:
109,355,202043,2,0,B|55:346|35:316|58:257,1,127.500004863739,4|0,0:0|0:0,0:0:0:0:
384,178,202408,2,0,B|438:187|458:217|435:276,1,127.500004863739,4|0,0:0|0:0,0:0:0:0:
10,208,202772,2,0,B|-8:185|-21:152|-5:133|28:136|65:156,1,127.500004863739,4|0,0:0|0:0,0:0:0:0:
479,330,203137,2,0,B|497:352|510:385|493:404|460:401|423:381,1,127.500004863739,4|0,0:0|0:0,0:0:0:0:
399,119,203502,38,0,P|427:66|433:-12,1,127.500004863739,4|2,0:2|0:2,0:0:0:0:
449,16,204375,1,0,0:0:0:0:
153,4,204564,6,0,B|153:0|148:-5|148:-5|114:6|138:31|122:67|84:91,1,127.500004863739,4|0,0:0|0:0,0:0:0:0:
34,381,204941,2,0,B|38:386|42:389|42:389|74:382|61:342|74:313|117:297,1,127.5,4|0,0:2|0:0,0:0:0:0:
183,309,205646,6,0,B|234:329|263:353|270:403,1,127.500004863739,4|0,0:0|0:0,0:0:0:0:
119,19,206009,2,0,B|77:31|44:14|5:-22,1,127.500004863739,4|0,0:0|0:0,0:0:0:0:
397,352,206373,2,0,B|436:336|471:350|513:385,1,127.5,4|0,0:2|0:0,0:0:0:0:
421,325,207100,38,0,B|384:314|370:270|379:215,1,127.5,4|0,0:2|0:0,0:0:0:0:
392,144,207827,6,0,B|404:136|416:135|416:135|521:157,1,127.500004863739,4|0,0:0|0:0,0:0:0:0:
122,223,208197,2,0,B|113:234|102:239|102:239|-3:254,1,127.500004863739,4|0,0:0|0:0,0:0:0:0:
341,321,208567,6,0,P|393:339|457:395,1,127.500004863739,4|0,0:0|0:0,0:0:0:0:
4,183,208919,2,0,P|59:215|121:222,1,127.500004863739,4|0,0:0|0:0,0:0:0:0:
410,36,209272,2,0,P|485:8|530:-31,1,127.500004863739,4|2,0:2|0:2,0:0:0:0:
512,12,210157,1,0,0:0:0:0:
233,0,210337,38,0,B|220:5|217:13|217:13|185:128,1,127.500004863739,4|0,0:0|0:0,0:0:0:0:
278,384,210696,2,0,B|291:379|294:371|294:371|326:256,1,127.500004863739,4|0,0:2|0:0,0:0:0:0:
248,288,211389,6,0,B|233:260|163:271|114:336,1,127.500004863739,4|0,0:0|0:0,0:0:0:0:
28,0,211736,2,0,B|1:32|60:71|140:55,1,127.500004863739,4|0,0:0|0:0,0:0:0:0:
412,374,212083,2,0,B|413:404|475:399|514:341,1,127.5,4|0,0:2|0:0,0:0:0:0:
98,287,212801,6,0,B|89:295|88:303|65:347|39:303|0:268|-24:348,1,127.500004863739,4|0,0:0|0:0,0:0:0:0:
357,18,213147,2,0,B|356:26|341:-19|307:17|266:37|242:-32,1,127.500004863739,4|0,0:0|0:0,0:0:0:0:
512,279,213539,38,0,B|518:278|518:278|534:267|534:267|536:329|504:391|334:403|434:201|303:239|229:337|230:420|182:388|182:388|192:391|211:368,1,493.000015045166,6|0,0:0|0:0,0:0:0:0:
25,0,214323,1,4,0:2:0:0:
256,192,214414,12,0,225131,0:0:0:0:
384,181,225476,53,0,0:0:0:0:
395,184,225783,2,0,B|400:194|400:194|395:230|395:230|401:240|401:240|399:255,2,68,2|0|2,0:2|0:0|0:2,0:0:0:0:
477,267,227991,2,0,B|480:260|480:260|510:247,2,34,2|0|2,0:2|0:0|0:2,0:0:0:0:
453,326,229105,6,0,B|450:336|450:336|414:348|414:348|373:349|373:349|360:356,1,102
138,348,230907,38,0,B|161:365|161:365|165:381,2,34,2|0|2,0:2|0:0|0:2,0:0:0:0:
74,317,232004,2,0,B|66:311|66:311|74:292|74:292|66:256|66:256|69:232|69:232|77:244,1,102,2|0,0:2|0:0,0:0:0:0:
179,195,233842,6,0,B|188:201|188:201|208:204|208:204|214:210,2,34,2|0|2,0:2|0:0|0:2,0:0:0:0:
256,192,234672,12,0,236897,0:0:0:0:
299,4,237416,5,0,0:0:0:0:
306,11,237520,2,0,B|320:16|320:16|347:89|347:89|356:92|356:92|353:174|353:174|355:180|355:180|342:201|342:201|330:194,1,229.5,2|0,0:2|0:0,0:0:0:0:
440,171,240597,53,0,0:0:0:0:
429,175,240696,2,0,B|428:188|428:188|467:234|467:234|464:262|464:262|468:269|468:269|460:297|460:297|449:304,1,148.75,2|0,0:2|0:0,0:0:0:0:
510,349,243447,53,0,0:0:0:0:
501,351,243536,2,0,B|496:363|496:363|492:363|492:363|473:378|473:378|467:379|467:379|463:395,1,63.75,2|0,0:2|0:0,0:0:0:0:
256,192,249039,12,0,254897,0:0:0:0:
