osu file format v14

[General]
AudioFilename: audio.mp3
AudioLeadIn: 0
PreviewTime: 75800
Countdown: 0
SampleSet: Drum
StackLeniency: 0.5
Mode: 0
LetterboxInBreaks: 0
WidescreenStoryboard: 1

[Editor]
Bookmarks: 1959,30586,42875,99980,120276,152721,163892,173206,243536,248684
DistanceSpacing: 1
BeatDivisor: 4
GridSize: 32
TimelineZoom: 3.349999

[Metadata]
Title:amBROsius
TitleUnicode:amBROsius
Artist:noumenon
ArtistUnicode:noumenon
Creator:squirrelpascals
Version:normal
Source:
Tags:noise math rock instrumental prog progressive Party Mathematics
BeatmapID:2301381
BeatmapSetID:1080681

[Difficulty]
HPDrainRate:4
CircleSize:3
OverallDifficulty:4
ApproachRate:5.5
SliderMultiplier:1.2
SliderTickRate:1

[Events]
//Background and Video events
0,0,"atavali_tony_do.jpg",0,0
//Break Periods
//Storyboard Layer 0 (Background)
//Storyboard Layer 1 (Fail)
//Storyboard Layer 2 (Pass)
//Storyboard Layer 3 (Foreground)
//Storyboard Layer 4 (Overlay)
//Storyboard Sound Samples

[TimingPoints]
379,352.941176470588,4,3,1,50,1,0
731,428.571428571429,4,3,1,50,1,0
945,-100,4,3,1,30,0,0
1159,400,4,3,1,50,1,0
1959,402.684563758389,4,3,1,50,1,0
1959,-100,4,3,1,50,0,0
2764,385.852090032154,4,3,1,50,1,0
3536,388.349514563107,4,3,1,50,1,0
6642,393.44262295082,4,3,1,50,1,0
7428,383.386581469649,4,3,1,50,1,0
8196,392.156862745098,4,3,1,50,1,0
9960,443.62292051756,4,3,1,50,1,0
10182,372.670807453417,4,3,1,50,1,0
10927,422.535211267606,4,3,1,50,1,0
11350,389.61038961039,4,3,1,50,1,0
13687,402.684563758389,4,3,1,35,1,0
14089,-100,4,3,1,35,0,0
14156,-100,4,3,1,50,0,0
14492,398.671096345515,4,3,1,50,1,0
15289,422.535211267606,4,3,1,50,1,0
15711,375,4,3,1,50,1,0
16086,398.671096345515,4,3,1,50,1,0
17681,428.571428571429,4,3,1,50,1,0
18109,399.334442595674,4,3,1,50,1,0
19307,399.334442595674,4,3,1,50,1,0
20904,406.779661016949,4,3,1,50,1,0
24158,437.956204379563,4,3,1,5,1,0
24595,404.721753794266,4,3,1,50,1,0
25809,397.350993377484,4,3,1,50,1,0
27398,402.684563758389,4,3,1,50,1,0
28203,428.571428571428,4,3,1,50,1,0
28631,377.358490566038,4,3,1,50,1,0
29008,394.736842105263,4,3,1,50,1,0
30586,-100,4,3,1,35,0,0
30980,-100,4,3,2,35,0,0
31375,-100,4,3,1,35,0,0
32559,-100,4,3,2,35,0,0
32757,-100,4,3,1,35,0,0
32954,382.165605095541,4,3,1,35,1,0
33336,360.902255639098,4,3,1,35,1,0
33697,393.44262295082,4,3,1,35,1,0
34090,-100,4,3,2,35,0,0
34483,-100,4,3,1,35,0,0
35664,-100,4,3,2,35,0,0
35860,-100,4,3,1,35,0,0
36844,384.615384615385,5,3,1,35,1,0
39536,397.350993377483,5,3,1,50,1,0
40330,397.350993377483,5,3,1,50,1,0
41919,-100,5,3,1,50,0,0
42316,372.670807453416,4,3,1,50,1,0
42875,387.096774193548,4,3,1,50,1,0
43068,387.096774193548,4,3,1,50,1,0
44229,392.156862745098,4,3,1,50,1,0
45405,397.350993377483,4,3,1,50,1,0
45603,-100,4,3,1,25,0,0
45802,382.165605095542,4,3,1,50,1,0
45802,-100,4,3,1,50,0,0
46184,389.61038961039,4,3,1,50,1,0
47352,400,4,3,1,50,1,0
48152,388.349514563107,4,3,1,50,1,0
48928,387.722132471729,4,3,1,50,1,0
50479,392.156862745098,4,3,1,50,1,0
51656,428.571428571429,4,3,1,50,1,0
52084,373.831775700935,4,3,1,50,1,0
52832,379.746835443038,4,3,1,50,1,0
53591,382.775119617225,4,3,1,50,1,0
54739,406.779661016949,4,3,1,50,1,0
55146,358.208955223881,3,3,1,50,1,0
55504,382.775119617225,3,3,1,50,1,0
56269,382.775119617225,3,3,1,50,1,0
57418,408.163265306122,4,3,1,50,1,0
58234,377.358490566038,4,3,1,50,1,0
60120,377.358490566038,4,3,1,50,1,0
60498,396.039603960396,4,3,1,50,1,0
60498,-100,4,3,1,50,0,0
61290,396.039603960396,3,3,1,50,1,0
62082,396.039603960396,3,3,1,50,1,0
62478,371.517027863777,3,3,1,50,1,0
62851,387.096774193548,3,3,1,50,1,0
63625,355.029585798816,4,3,1,50,1,0
64335,413.793103448275,4,3,1,50,1,0
65162,379.746835443038,4,3,1,50,1,0
66680,393.442622950819,4,3,1,50,1,0
67073,374.999999999999,4,3,1,50,1,0
67448,408.163265306122,4,3,1,50,1,0
67856,397.350993377483,4,3,1,50,1,0
68253,393.442622950819,4,3,1,50,1,0
71400,383.386581469648,4,3,1,50,1,0
71400,-100,4,3,1,50,0,0
72933,378.548895899053,4,3,1,50,1,0
72933,-100,4,3,1,50,0,0
73690,-100,4,3,2,50,0,0
74068,399.999999999999,4,3,1,50,1,0
74467,363.636363636363,4,3,1,50,1,0
74467,-100,4,3,1,50,0,0
75921,348.837209302325,4,3,1,50,1,0
76618,408.163265306122,4,3,1,50,1,0
77026,365.853658536585,4,3,1,50,1,0
77392,387.096774193548,4,3,1,50,1,0
78939,377.358490566037,4,3,1,50,1,0
81580,399.999999999999,4,3,1,50,1,0
81980,363.636363636363,4,3,1,50,1,0
83070,374.999999999999,4,3,1,50,1,0
83445,389.610389610389,4,3,1,50,1,0
85003,357.142857142857,4,3,1,50,1,0
85717,365.853658536585,4,3,1,50,1,0
86082,387.096774193548,4,3,1,50,1,0
86856,392.156862745097,4,3,1,50,1,0
88032,374.999999999999,4,3,1,50,1,0
89534,377.358490566037,4,3,1,50,1,0
91041,394.736842105262,4,3,1,50,1,0
91830,357.142857142857,4,3,1,50,1,0
92187,372.670807453416,4,3,1,50,1,0
92559,377.358490566037,4,3,1,50,1,0
93692,382.165605095541,4,3,1,50,1,0
94075,367.421922841396,4,3,1,50,1,0
98484,384.615384615385,4,3,1,35,1,0
98484,-125,4,3,1,35,0,0
99060,-125,4,3,1,35,0,0
99253,363.636363636364,4,3,1,35,1,0
99980,384.615384615385,4,3,1,35,1,0
99980,-125,4,3,2,35,0,0
101133,363.636363636364,4,3,1,35,1,0
101133,-125,4,3,2,35,0,0
101496,359.281437125749,4,3,1,35,1,0
101496,-125,4,3,2,35,0,0
102573,362.537764350454,4,3,1,35,1,0
102573,-125,4,3,2,35,0,0
102935,362.537764350454,4,3,1,35,1,0
102935,-125,4,3,2,35,0,0
104387,364.741641337386,4,3,1,35,1,0
104387,-125,4,3,2,35,0,0
105845,361.990950226244,4,3,1,35,1,0
105845,-125,4,3,2,35,0,0
107293,352.941176470589,4,3,1,35,1,0
107293,-125,4,3,2,35,0,0
108704,357.142857142858,4,3,1,35,1,0
108704,-125,4,3,2,35,0,0
110134,361.44578313253,4,3,1,35,1,0
110134,-125,4,3,2,35,0,0
111579,366.97247706422,4,3,1,35,1,0
111579,-125,4,3,2,35,0,0
112679,389.610389610389,4,3,1,35,1,0
113068,348.837209302325,4,3,1,35,1,0
113068,-125,4,3,2,35,0,0
114114,390.243902439024,4,3,1,35,1,0
114505,364.741641337386,4,3,1,35,1,0
114505,-125,4,3,2,35,0,0
115963,370.37037037037,4,3,1,35,1,0
115963,-125,4,3,2,35,0,0
117445,372.670807453417,4,3,1,35,1,0
117445,-125,4,3,2,35,0,0
118190,351.906158357772,4,3,1,35,1,0
118542,335.195530726257,4,3,1,35,1,0
118542,-125,4,3,2,35,0,0
118877,357.142857142858,4,3,1,35,1,0
118877,-125,4,3,2,35,0,0
119591,342.857142857143,4,3,1,35,1,0
119591,-125,4,3,1,40,0,0
120276,331.491712707183,4,3,1,40,1,0
122927,344.827586206897,4,3,1,40,1,0
123616,312.5,4,3,1,40,1,0
124241,328.767123287671,4,3,1,40,1,0
128186,333.333333333333,4,3,1,40,1,0
130852,339.943342776204,4,3,1,40,1,0
131872,346.820809248555,4,3,1,40,1,0
132219,341.394025604552,4,3,1,40,1,0
134950,335.195530726257,4,3,1,40,1,0
135955,338.983050847457,4,3,1,40,1,0
136293,348.837209302325,4,3,1,40,1,0
137688,333.333333333333,4,3,1,40,1,0
139020,342.857142857143,4,3,1,40,1,0
141762,339.943342776204,4,3,1,40,1,0
144481,355.029585798817,4,3,1,40,1,0
145191,344.827586206897,4,3,1,40,1,0
145880,337.078651685393,4,3,1,40,1,0
147228,352.941176470588,4,3,1,40,1,0
147933,340.909090909091,4,3,1,40,1,0
148614,344.827586206897,4,3,1,40,1,0
149994,337.078651685393,4,3,1,40,1,0
151005,357.142857142857,4,3,1,40,1,0
151362,322.580645161291,4,3,1,40,1,0
151684,345.323741007195,4,3,1,40,1,0
152721,349.854227405248,4,3,1,50,1,0
152721,-90.9090909090909,4,3,1,50,0,0
158318,359.281437125749,4,3,1,50,1,0
158318,-90.9090909090909,4,3,1,50,0,0
159755,347.826086956522,4,3,1,50,1,0
159755,-90.9090909090909,4,3,1,50,0,0
162537,338.983050847458,4,3,1,50,1,0
162537,-83.3333333333333,4,3,1,50,0,0
163892,324.324324324325,4,3,1,50,1,0
163892,-111.111111111111,4,3,1,50,0,0
164378,-111.111111111111,4,3,5,50,0,0
165189,319.148936170213,4,3,5,50,1,0
165189,-111.111111111111,4,3,5,50,0,0
165508,-111.111111111111,4,3,5,30,0,0
165667,-111.111111111111,4,3,5,50,0,0
166465,331.491712707183,4,3,1,50,1,0
166465,-111.111111111111,4,3,1,50,0,0
167293,-111.111111111111,4,3,5,50,0,0
168288,318.725099601594,4,3,1,50,1,0
168288,-111.111111111111,4,3,5,50,0,0
168766,338.983050847458,4,3,5,50,1,0
169104,352.941176470589,4,3,1,50,1,1
169104,-100,6,3,1,50,0,1
169633,-100,6,3,1,30,0,1
169809,-100,6,3,1,50,0,1
170339,-100,6,3,1,30,0,1
170515,341.880341880342,4,3,1,50,1,1
171540,319.148936170213,4,3,1,50,1,1
172178,342.857142857143,4,3,1,50,1,1
173206,355.029585798817,4,3,1,50,1,1
173919,340.909090909091,4,3,1,50,1,1
174600,340.909090909091,6,3,1,50,1,1
175964,347.826086956522,4,3,1,50,1,1
180833,329.67032967033,4,3,1,50,1,1
181822,340.909090909091,4,3,1,50,1,1
182674,-100,6,3,1,30,0,1
182844,348.837209302326,4,3,1,50,1,1
183541,357.142857142857,4,3,1,50,1,1
184076,-100,6,3,1,30,0,1
184255,346.820809248555,4,3,1,50,1,1
184775,-100,6,3,1,30,0,1
184948,344.827586206897,4,3,1,50,1,1
185637,344.827586206897,6,3,1,50,1,1
186327,337.078651685393,4,3,1,50,1,1
187338,324.324324324324,4,3,1,50,1,1
187662,342.857142857143,4,3,1,50,1,1
188176,-100,6,3,1,30,0,1
188347,342.857142857143,6,3,1,50,1,1
189033,357.142857142857,4,3,1,50,1,1
189747,357.142857142857,6,3,1,50,1,1
189925,-100,6,3,1,30,0,1
190104,-100,6,3,1,50,0,1
190282,-100,6,3,1,30,0,1
190461,-100,6,3,1,50,0,1
190818,370.370370370371,4,3,1,50,1,1
191188,370.370370370371,6,3,1,50,1,1
191743,-100,6,3,1,30,0,1
191928,-100,6,3,1,50,0,1
192484,-100,6,3,1,30,0,1
192669,-100,6,3,1,50,0,1
193410,350.877192982456,4,3,1,50,1,1
194462,370.370370370371,4,3,1,50,1,1
195573,357.142857142857,4,3,1,50,1,1
197358,363.636363636364,4,3,1,50,1,1
198448,363.636363636364,6,3,1,50,1,1
199903,352.941176470588,4,3,1,50,1,1
201314,364.741641337386,4,3,1,50,1,1
203502,342.857142857143,4,3,1,50,1,1
204187,377.358490566038,4,3,1,50,1,1
204941,352.941176470588,4,3,1,50,1,1
205470,-100,6,3,1,30,0,1
205646,363.636363636364,4,3,1,50,1,1
207100,-100,4,3,1,50,0,1
207827,370.370370370371,4,3,1,50,1,1
208567,352.941176470588,4,3,1,50,1,1
209978,359.281437125749,4,3,1,50,1,1
210696,346.820809248555,4,3,1,50,1,1
211216,-100,6,3,1,30,0,1
211389,346.820809248555,6,3,1,50,1,1
212083,359.281437125749,4,3,1,50,1,1
212801,346.820809248555,4,3,1,50,1,1
212974,-100,6,3,1,30,0,1
213147,392.156862745098,4,3,1,50,1,1
213343,-100,6,3,1,30,0,1
213539,-100,4,3,1,50,0,1
214323,728.376327769348,4,3,1,50,1,0
214687,-100,4,3,1,5,0,0
223063,689.655172413793,4,3,1,5,1,0
225476,615.384615384615,4,3,1,25,1,0
225783,750,4,3,1,25,1,0
225783,-100,4,3,1,25,0,0
227283,707.964601769912,4,3,1,25,1,0
227991,743.034055727554,4,3,1,25,1,0
229105,720.720720720721,4,3,1,25,1,0
230907,731.707317073171,4,3,1,25,1,0
233102,740.740740740741,4,3,1,25,1,0
234583,712.166172106825,4,3,1,25,1,0
234939,-100,4,3,1,5,0,0
236897,623.376623376623,4,3,1,25,1,0
237520,794.176042356056,4,3,1,25,1,0
237520,-100,4,3,1,25,0,0
240696,710.059171597633,4,3,1,25,1,0
243536,1420.11834319527,4,3,1,25,1,0
248683,-100,4,3,1,10,0,0
249038,-100,4,3,1,5,0,0
253476,-100,4,3,1,8,0,0
253654,-100,4,3,1,11,0,0
253831,-100,4,3,1,14,0,0
254009,-100,4,3,1,17,0,0
254186,-100,4,3,1,20,0,0
254364,-100,4,3,1,23,0,0
254541,-100,4,3,1,26,0,0
254719,-100,4,3,1,29,0,0
254808,-100,4,3,1,5,0,0

[Colours]
Combo1 : 186,103,124
Combo2 : 189,81,57
Combo3 : 133,133,133
Combo4 : 230,217,102
Combo5 : 140,96,137
SliderTrackOverride : 147,60,60

[HitObjects]
247,248,379,6,0,B|296:248|296:248|327:265,1,60,6|0,0:0|0:0,0:0:0:0:
328,296,731,2,0,B|327:311|327:311|349:338|349:338|360:364,1,60,8|8,0:1|0:1,0:0:0:0:
412,367,1159,1,6,0:0:0:0:
477,266,1559,1,6,0:0:0:0:
488,144,1959,6,0,B|466:114|466:114|469:96|469:96|463:56|463:56|474:16,2,120,8|8|8,0:0|0:0|0:0,0:0:0:0:
255,71,3536,2,0,B|214:57|214:57|181:65|181:65|127:67,1,120,8|8,0:2|0:2,0:0:0:0:
84,93,4118,1,0,0:0:0:0:
84,93,4312,2,0,B|54:121|54:121|52:166|52:166|37:199,1,120,8|8,0:2|0:2,0:0:0:0:
28,316,5089,6,0,B|45:348|45:348|102:365|102:365|130:383,2,120,8|8|8,0:0|0:0|0:0,0:0:0:0:
142,278,6254,1,8,0:0:0:0:
258,250,6642,2,0,B|296:261|296:261|316:288|316:288|362:323,1,120,8|8,0:2|0:2,0:0:0:0:
409,351,7232,1,0,0:0:0:0:
409,351,7428,2,0,B|432:360|432:360|472:386,2,60,8|0|8,0:2|0:0|0:2,0:0:0:0:
472,249,8196,38,0,B|506:219|506:219|512:190,2,60,8|0|8,0:0|0:0|0:0,0:0:0:0:
417,143,8980,1,8,0:0:0:0:
314,205,9372,2,0,B|287:216|287:216|271:267|271:267|274:274|274:274|252:326|252:326|220:345,1,180,8|0,0:0|0:0,0:0:0:0:
155,352,10182,6,0,B|131:343|131:343|85:337,1,60,8|0,0:0|0:0,0:0:0:0:
60,290,10554,2,0,B|35:299|35:299|20:309|20:309|0:313,2,60,8|0|8,0:0|0:0|0:0,0:0:0:0:
155,217,11350,6,0,B|179:226|179:226|194:236|194:236|215:240,2,60,8|0|8,0:0|0:0|0:0,0:0:0:0:
95,112,12129,2,0,B|70:101|70:101|55:92|55:92|33:89,2,60,8|0|8,0:0|0:0|0:0,0:0:0:0:
201,55,12908,2,0,B|199:33|199:33|190:17|190:17|182:-5,2,60,8|0|8,0:0|0:0|0:0,0:0:0:0:
317,52,13687,2,0,B|343:53|343:53|354:42|354:42|368:45|368:45|387:30|387:30|414:30|414:30|453:18,1,120,2|2,0:1|0:0,0:0:0:0:
499,192,14691,37,4,0:0:0:0:
499,192,14890,2,0,B|488:235|488:235|497:265,1,60,4|0,0:0|0:0,0:0:0:0:
479,305,15289,2,0,B|448:321|448:321|410:365|410:365|365:361,1,120,4|10,0:2|0:0,0:0:0:0:
269,335,16086,6,0,B|225:348|225:348|200:325,1,60,8|0,0:0|0:0,0:0:0:0:
160,312,16484,2,0,B|136:279|136:279|94:286,1,60,8|0,0:0|0:0,0:0:0:0:
88,229,16883,2,0,B|67:239|67:239|50:239|50:239|24:251,2,60,8|0|8,0:0|0:0|0:0,0:0:0:0:
86,169,17481,1,0,0:0:0:0:
193,13,18109,6,0,B|223:23|223:23|239:90|239:90|265:127,1,120,8|8,0:0|0:0,0:0:0:0:
303,133,18708,1,0,0:0:0:0:
357,157,18907,1,10,0:0:0:0:
466,206,19307,38,0,B|489:187|489:187|501:181|501:181|520:160,2,60,8|0|8,0:0|0:0|0:0,0:0:0:0:
469,265,19906,1,0,0:0:0:0:
472,325,20105,2,0,B|484:340|484:340|487:356|487:356|510:391,2,60,8|0|8,0:0|0:0|0:0,0:0:0:0:
412,314,20704,1,0,0:0:0:0:
354,300,20904,6,0,L|329:228,1,60,4|0,0:2|0:0,0:0:0:0:
275,234,21310,2,0,L|286:157,1,60,8|0,0:0|0:0,0:0:0:0:
224,164,21717,2,0,L|197:91,2,60,4|0|8,0:2|0:0|0:0,0:0:0:0:
116,217,22531,6,0,L|43:194,1,60,4|0,0:2|0:0,0:0:0:0:
24,149,22937,2,0,L|90:113,1,60,8|0,0:0|0:0,0:0:0:0:
87,61,23344,2,0,L|72:-6,2,60,4|0|8,0:2|0:0|0:0,0:0:0:0:
146,71,23954,1,0,0:0:0:0:
233,239,24595,38,0,B|207:245|207:245|165:278|165:278|147:285|147:285|111:312,1,120,4|8,0:2|0:0,0:0:0:0:
112,354,25202,2,0,B|70:344|70:344|37:318,2,60,0|10|0,0:0|0:0|0:0,0:0:0:0:
171,367,25809,6,0,B|187:377|187:377|249:357|249:357|304:367,1,120,8|10,0:0|0:0,0:0:0:0:
396,323,26603,2,0,B|409:339|409:339|426:348|426:348|446:371,2,60,8|0|10,0:0|0:0|0:0,0:0:0:0:
380,264,27199,1,0,0:0:0:0:
381,199,27398,6,0,B|389:181|389:181|373:142|373:142|305:101,1,120,4|2,0:0|0:0,0:0:0:0:
220,158,28203,2,0,B|164:141|164:141|138:108|138:108|141:88,1,120,4|2,0:0|0:0,0:0:0:0:
226,12,29008,38,0,B|306:10|306:10|331:3|331:3|361:3,1,120,4|10,0:2|0:0,0:0:0:0:
397,31,29600,1,0,0:0:0:0:
450,58,29797,2,0,B|469:50|469:50|481:40|481:40|514:31,2,60,8|0|10,0:0|0:0|0:0,0:0:0:0:
445,118,30389,1,0,0:0:0:0:
441,178,30586,6,0,B|429:277|429:277|402:335|402:335|398:358|398:358|328:391,1,240,4|8,0:2|0:2,0:0:0:0:
232,356,31771,1,8,0:2:0:0:
232,356,32165,2,0,B|209:327|209:327|192:324|192:324|146:302|146:302|58:325,1,180,8|0,0:2|0:0,0:0:0:0:
16,302,32954,2,0,B|2:281|2:281|21:225|21:225|19:173,1,120,8|8,0:2|0:2,0:0:0:0:
18,77,33697,6,0,B|47:75|47:75|145:124|145:124|180:125|180:125|187:135|187:135|265:119,1,240,8|8,0:0|0:2,0:0:0:0:
317,25,34877,2,0,B|343:29|343:29|382:59,1,60,8|0,0:2|0:0,0:0:0:0:
423,77,35270,2,0,B|433:113|433:113|395:192|395:192|400:232|400:232|416:215,1,180,8|0,0:2|0:2,0:0:0:0:
468,234,36057,2,0,B|462:282|462:282|492:333|492:333|480:371,1,120,8|8,0:2|0:2,0:0:0:0:
366,376,36844,38,0,L|318:338,1,60,4|0,0:2|0:0,0:0:0:0:
260,349,37228,2,0,B|242:340|242:340|245:299|245:299|230:232,1,120,8|8,0:2|0:2,0:0:0:0:
297,140,37997,2,0,B|301:131|301:131|271:77|271:77|273:50,1,90,8|2,0:2|0:2,0:0:0:0:
192,16,38574,2,0,B|146:31|146:31|133:50,1,60,0|8,0:0|0:2,0:0:0:0:
85,65,38959,2,0,B|74:50|74:50|42:42|42:42|24:27,2,60,0|8|0,0:0|0:2|0:0,0:0:0:0:
74,122,39536,6,0,L|49:264,2,120,8|8|4,0:0|0:0|0:2,0:0:0:0:
120,159,40528,1,0,0:0:0:0:
218,227,40926,6,0,B|224:217|224:217|256:202|256:202|278:176,2,60,0|8|0,0:0|0:2|0:0,0:0:0:0:
210,286,41522,2,0,B|218:308|218:308|234:322|234:322|244:349,1,60,8|0,0:2|0:0,0:0:0:0:
289,369,41919,2,0,L|428:340,1,120,8|8,0:0|0:0,0:0:0:0:
489,192,42875,37,2,0:1:0:0:
489,192,43068,2,0,B|497:163|497:163|460:136,1,60,8|8,0:1|0:1,0:0:0:0:
419,117,43455,2,0,L|397:49,1,60,10|0,0:0|0:0,0:0:0:0:
340,54,43842,5,10,0:0:0:0:
340,54,44035,2,0,L|268:13,1,60,0|0,0:0|0:0,0:0:0:0:
241,62,44425,5,10,0:0:0:0:
241,62,44621,2,0,L|160:84,1,60,10|0,0:0|0:0,0:0:0:0:
145,124,45013,2,0,L|12:108,1,120,4|4,0:0|0:0,0:0:0:0:
10,233,45802,38,0,B|0:251|0:251|3:277|3:277|-6:301,1,60,2|2,0:0|0:0,0:0:0:0:
14,345,46184,2,0,B|68:379|68:379|103:361|103:361|127:360,1,120,8|8,0:0|0:0,0:0:0:0:
179,354,46768,2,0,B|198:339|198:339|210:296,1,60,0|2,0:0|0:0,0:0:0:0:
120,213,47352,6,0,B|115:174|115:174|86:145|86:145|71:83,1,120,8|2,0:0|0:0,0:0:0:0:
65,47,47952,1,0,0:0:0:0:
127,40,48152,2,0,B|160:47|160:47|201:9|201:9|242:-5,1,120,4|4,0:0|0:0,0:0:0:0:
345,11,48928,6,0,B|350:26|350:26|348:50|348:50|353:73,1,60,2|2,0:0|0:0,0:0:0:0:
370,126,49315,2,0,B|394:131|394:131|452:112|452:112|501:117,2,120,4|8|2,0:0|0:0|0:0,0:0:0:0:
317,155,50285,1,0,0:0:0:0:
275,194,50479,38,0,B|268:222|268:222|293:252,1,60,8|0,0:0|0:0,0:0:0:0:
301,304,50871,2,0,B|321:321|321:321|326:332|326:332|360:362,1,60,2|0,0:0|0:0,0:0:0:0:
396,375,51263,2,0,B|420:358|420:358|440:257,1,120,4|4,0:0|0:0,0:0:0:0:
461,133,52084,6,0,B|491:125|491:125|505:117,2,40,8|2|0,0:0|0:2|0:0,0:0:0:0:
438,99,52457,2,0,B|458:77|458:77|466:53,2,40,10|2|0,0:0|0:2|0:0,0:0:0:0:
401,83,52832,6,0,B|366:76|366:76|331:96|331:96|259:106,1,120,8|10,0:0|0:0,0:0:0:0:
171,73,53591,38,0,B|175:60|175:60|168:24,2,40,8|2|0,0:0|0:2|0:0,0:0:0:0:
152,108,53973,1,10,0:0:0:0:
78,203,54356,6,0,B|81:229|81:229|67:280|67:280|90:337,1,120,4|4,0:0|0:0,0:0:0:0:
198,351,55146,2,0,B|236:365|236:365|265:400,2,60,8|0|10,0:0|0:0|0:0,0:0:0:0:
181,293,55696,1,0,0:0:0:0:
195,174,56078,6,0,B|237:159|237:159|279:166,1,60,0|10,0:0|0:0,0:0:0:0:
301,195,56460,1,0,0:0:0:0:
349,230,56651,2,0,B|338:244|338:244|333:298,2,60,8|0|10,0:0|0:0|0:0,0:0:0:0:
458,258,57418,38,0,B|468:243|468:243|471:203|471:203|491:166|491:166|477:127,1,120,4|4,0:0|0:0,0:0:0:0:
399,51,58234,6,0,B|402:34|402:34|422:5,2,40,8|2|0,0:0|0:2|0:0,0:0:0:0:
360,63,58611,2,0,B|337:53|337:53|328:38,2,40,10|2|0,0:0|0:2|0:0,0:0:0:0:
342,99,58988,6,0,B|354:120|354:120|349:167|349:167|362:230,1,120,4|4,0:0|0:0,0:0:0:0:
354,334,59743,38,0,B|367:343|367:343|401:391,2,40,8|2|0,0:0|0:2|0:0,0:0:0:0:
313,333,60120,1,10,0:0:0:0:
199,317,60498,6,0,B|134:300|134:300|124:285|124:285|95:262,1,120,4|4,0:0|0:0,0:0:0:0:
57,150,61290,6,0,B|37:162|37:162|1:169,2,60,2|2|4,0:0|0:0|0:0,0:0:0:0:
83,96,61884,1,0,0:0:0:0:
189,41,62280,37,2,0:0:0:0:
237,82,62478,2,0,B|277:104|277:104|326:100,1,60,10|0,0:0|0:0,0:0:0:0:
348,90,62851,2,0,L|367:12,2,60,8|0|2,0:0|0:0|0:0,0:0:0:0:
322,221,63625,6,0,B|299:226|299:226|239:266,2,60,4|8|8,0:0|0:1|0:1,0:0:0:0:
379,237,64157,1,8,0:0:0:0:
429,248,64335,2,0,L|464:179,2,60,8|0|10,0:0|0:0|0:0,0:0:0:0:
276,362,65351,5,4,0:0:0:0:
216,356,65541,2,0,L|160:312,1,60,4|4,0:0|0:0,0:0:0:0:
108,315,65921,1,4,0:0:0:0:
58,280,66111,1,4,0:0:0:0:
76,222,66301,1,4,0:0:0:0:
67,162,66491,1,4,0:0:0:0:
20,128,66680,37,6,0:0:0:0:
195,75,67260,1,8,0:0:0:0:
195,75,67448,2,0,B|194:53|194:53|217:6,2,60,8|0|10,0:0|0:0|0:0,0:0:0:0:
276,235,68450,5,4,0:0:0:0:
323,271,68647,2,0,L|396:261,1,60,4|4,0:0|0:0,0:0:0:0:
440,276,69040,1,4,0:0:0:0:
486,244,69237,1,4,0:0:0:0:
480,184,69434,1,4,0:0:0:0:
509,131,69630,1,4,0:0:0:0:
478,79,69827,6,0,B|458:51|458:51|400:37|400:37|384:24|384:24|314:37|314:37|238:18,1,240,4|8,0:2|0:2,0:0:0:0:
59,166,71400,2,0,B|130:191|130:191|156:174|156:174|257:180|257:180|304:207,1,240,4|8,0:2|0:2,0:0:0:0:
453,371,72933,2,0,B|424:376|424:376|389:355|389:355|258:340|258:340|211:369,1,240,4|8,0:2|0:2,0:0:0:0:
115,354,74068,1,0,0:0:0:0:
115,354,74467,2,0,B|36:189|36:189|43:139|43:139|60:138|60:138|116:77|116:77|147:64,1,360,8|0,0:2|0:0,0:0:0:0:
267,53,75921,38,0,B|262:30|262:30|238:-8,2,60,6|8|8,0:0|0:1|0:1,0:0:0:0:
284,110,76444,1,8,0:0:0:0:
262,156,76618,2,0,L|192:176,2,60,8|0|10,0:0|0:0|0:0,0:0:0:0:
404,57,77585,5,4,0:0:0:0:
451,93,77779,2,0,L|468:183,1,60,4|4,0:0|0:0,0:0:0:0:
469,211,78166,1,4,0:0:0:0:
435,260,78359,1,4,0:0:0:0:
458,315,78553,1,4,0:0:0:0:
401,334,78746,1,4,0:0:0:0:
359,378,78939,5,6,0:0:0:0:
249,242,79505,1,8,0:0:0:0:
249,242,79693,2,0,B|261:225|261:225|268:151,2,60,8|0|10,0:0|0:0|0:0,0:0:0:0:
98,341,80637,37,4,0:0:0:0:
54,299,80825,2,0,L|61:221,1,60,4|4,0:0|0:0,0:0:0:0:
37,183,81203,1,4,0:0:0:0:
42,123,81391,1,4,0:0:0:0:
93,99,81580,1,4,0:0:0:0:
125,48,81780,1,4,0:0:0:0:
187,26,81980,5,6,0:0:0:0:
318,156,82525,1,8,0:0:0:0:
318,156,82707,2,0,L|301:220,2,60,8|0|10,0:0|0:0|0:0,0:0:0:0:
421,17,83639,5,4,0:0:0:0:
466,56,83834,2,0,L|473:135,1,60,4|4,0:0|0:0,0:0:0:0:
443,169,84224,1,4,0:0:0:0:
478,217,84419,1,4,0:0:0:0:
443,265,84613,1,4,0:0:0:0:
432,326,84808,1,4,0:0:0:0:
479,370,85003,37,6,0:0:0:0:
305,346,85538,1,8,0:0:0:0:
305,346,85717,2,0,B|290:361|290:361|242:382,2,60,8|0|10,0:0|0:0|0:0,0:0:0:0:
321,166,86662,5,4,0:0:0:0:
289,115,86856,2,0,L|209:104,1,60,4|4,0:0|0:0,0:0:0:0:
181,71,87248,1,4,0:0:0:0:
148,121,87444,1,4,0:0:0:0:
88,130,87640,1,4,0:0:0:0:
68,186,87836,1,4,0:0:0:0:
83,245,88032,6,0,B|91:284|91:284|78:316|78:316|172:358|172:358|247:347,1,240,4|8,0:2|0:2,0:0:0:0:
467,297,89534,2,0,B|429:250|429:250|432:226|432:226|400:110|400:110|425:61,1,240,4|8,0:2|0:2,0:0:0:0:
200,0,91041,2,0,B|197:26|197:26|205:71|205:71|184:72|184:72|84:116|84:116|48:103,1,240,4|8,0:2|0:2,0:0:0:0:
24,216,92187,1,0,0:0:0:0:
24,216,92559,38,0,B|41:246|41:246|109:289|109:289|225:285|225:285|228:294|228:294|351:355,1,360,8|8,0:2|0:2,0:0:0:0:
455,350,94075,6,8,B|468:302|468:302|441:272|441:272|413:173|413:173|418:119,1,240,4|8,0:2|0:2,0:0:0:0:
213,4,95544,2,0,B|199:35|199:35|211:75|211:75|186:155|186:155|229:227,1,240,4|8,0:2|0:2,0:0:0:0:
28,358,97014,2,0,B|10:326|10:326|31:268|31:268|9:152|9:152|24:119,1,240,4|8,0:2|0:2,0:0:0:0:
96,39,98116,1,0,0:0:0:0:
96,39,98484,6,0,B|120:60|120:60|211:66|211:66|234:86,1,144,8|2,0:0|0:2,0:0:0:0:
397,146,99616,1,0,0:2:0:0:
397,146,99980,2,0,B|413:103|413:103|445:93|445:93|472:57|472:57|476:18,2,144,8|0|8,0:0|0:0|0:2,0:0:0:0:
391,242,101496,2,0,B|387:270|387:270|314:322|314:322|300:359,1,144,8|0,0:0|0:0,0:0:0:0:
162,353,102573,1,8,0:2:0:0:
162,353,102935,38,0,B|140:375|140:375|82:362|82:362|13:380,2,144,8|0|8,0:0|0:0|0:2,0:0:0:0:
141,259,104387,2,0,B|134:234|134:234|76:202|76:202|42:144,1,144,8|0,0:0|0:0,0:0:0:0:
63,13,105481,5,8,0:2:0:0:
63,13,105845,2,0,B|102:35|102:35|122:32|122:32|173:44|173:44|210:37,1,144,8|0,0:0|0:0,0:0:0:0:
310,139,106930,1,8,0:2:0:0:
310,139,107294,2,0,B|263:157|263:157|254:167|254:167|195:171|195:171|161:194,1,144,8|0,0:0|0:0,0:0:0:0:
249,307,108351,1,8,0:2:0:0:
249,307,108704,6,0,B|265:349|265:349|266:362|266:362|325:381|325:381|357:371,2,144,8|0|8,0:0|0:0|0:2,0:0:0:0:
316,239,110134,2,0,B|330:197|330:197|379:176|379:176|397:176|397:176|438:151,1,144,8|0,0:0|0:0,0:0:0:0:
505,44,111218,1,8,0:2:0:0:
505,44,111579,38,0,B|474:23|474:23|420:36|420:36|406:31|406:31|360:30,1,144,8|0,0:0|0:0,0:0:0:0:
241,89,112679,1,8,0:2:0:0:
241,89,113068,2,0,B|197:120|197:120|179:113|179:113|129:107|129:107|108:88,1,144,8|0,0:0|0:0,0:0:0:0:
46,222,114114,1,8,0:2:0:0:
46,222,114505,6,0,B|27:228|27:228|7:254|7:254|27:360,2,144,8|0|8,0:0|0:0|0:2,0:0:0:0:
130,267,115963,2,0,B|158:278|158:278|183:321|183:321|219:344|219:344|261:345,1,144,8|0,0:0|0:0,0:0:0:0:
386,369,117073,1,8,0:2:0:0:
386,369,117445,6,0,B|430:361|430:361|447:362|447:362|475:313|475:313|504:298,1,144,8|0,0:0|0:0,0:0:0:0:
370,214,118542,1,8,0:2:0:0:
370,214,118877,2,0,B|393:194|393:194|402:194|402:194|419:88,1,144,8|0,0:0|0:0,0:0:0:0:
424,41,119591,2,0,B|407:22|407:22|332:6,1,96,2|8,0:0|0:2,0:0:0:0:
216,18,120276,38,0,B|199:29|199:29|181:54|181:54|93:76|93:76|51:127|51:127|46:161,1,240,4|8,0:2|0:2,0:0:0:0:
59,277,121270,2,0,B|102:290|102:290|125:308,1,60,0|0,0:0|0:0,0:0:0:0:
127,357,121601,2,0,B|235:373|235:373|278:367|278:367|318:377,2,180,10|2|0,0:0|0:0|0:0,0:0:0:0:
146,243,122927,6,0,B|183:253|183:253|307:184|307:184|347:190|347:190|375:210,1,240,4|8,0:2|0:2,0:0:0:0:
459,271,123928,2,0,B|481:254|481:254|496:212,1,60
502,167,124241,1,10,0:0:0:0:
470,25,124734,2,0,B|424:24|424:24|374:7|374:7|358:11|358:11|289:-2,1,180,2|0,0:0|0:0,0:0:0:0:
203,77,125556,6,0,B|168:86|168:86|121:68|121:68|39:96|39:96|25:176,1,240,4|8,0:2|0:2,0:0:0:0:
3,215,126377,2,0,B|25:214|25:214|84:238|84:238|125:229,1,120,2|0,0:0|0:0,0:0:0:0:
171,257,126871,2,0,B|206:278|206:278|234:335|234:335|234:349|234:349|308:382,2,180,10|2|0,0:0|0:0|0:0,0:0:0:0:
116,362,128186,38,0,B|146:370|146:370|275:339|275:339|307:294|307:294|300:260,1,240,4|8,0:2|0:2,0:0:0:0:
275,156,129186,2,0,B|293:139|293:139|303:87,1,60,0|0,0:0|0:0,0:0:0:0:
314,46,129519,1,10,0:0:0:0:
477,0,130019,2,0,B|489:54|489:54|477:83|477:83|467:191,1,180,2|0,0:0|0:0,0:0:0:0:
506,287,130852,6,0,B|473:346|473:346|456:340|456:340|360:358|360:358|283:330,1,240,4|8,0:2|0:2,0:0:0:0:
199,289,131872,2,0,B|160:301|160:301|139:319,1,60,0|0,0:0|0:0,0:0:0:0:
93,345,132219,2,0,B|70:348|70:348|39:306|39:306|25:192,2,180,10|2|0,0:0|0:0|0:0,0:0:0:0:
199,289,133584,6,0,B|212:248|212:248|178:196|178:196|179:184|179:184|146:130|146:130|143:60,1,240,4|8,0:2|0:2,0:0:0:0:
249,13,134608,2,0,B|268:8|268:8|325:23,1,60,0|0,0:0|0:0,0:0:0:0:
363,43,134950,1,10,0:0:0:0:
404,217,135452,2,0,B|417:240|417:240|478:257|478:257|515:295|515:295|485:346,1,180,2|0,0:0|0:0,0:0:0:0:
389,374,136293,38,0,B|350:347|350:347|303:343|303:343|240:287|240:287|221:205,1,240,4|8,0:2|0:2,0:0:0:0:
248,109,137339,2,0,B|263:125|263:125|317:138,1,60,0|0,0:0|0:0,0:0:0:0:
362,137,137688,2,0,B|394:114|394:114|404:118|404:118|472:109|472:109|513:55,2,180,10|2|0,0:0|0:0|0:0,0:0:0:0:
309,33,139020,6,0,B|262:17|262:17|244:25|244:25|160:17|160:17|119:62|119:62|82:75,1,240,4|8,0:2|0:2,0:0:0:0:
47,180,140048,2,0,B|38:170|38:170|6:160|6:160|-12:136,2,60,0|0|10,0:0|0:0|0:0,0:0:0:0:
98,352,140905,2,0,B|139:364|139:364|141:350|141:350|181:294|181:294|263:331,1,180,2|2,0:0|0:2,0:0:0:0:
345,357,141762,6,0,B|372:330|372:330|387:251|387:251|421:231|421:231|451:188|451:188|490:174,2,240,4|8|10,0:2|0:0|0:0,0:0:0:0:
272,261,143461,2,0,B|255:243|255:243|203:221,1,60,0|2,0:0|0:0,0:0:0:0:
163,242,143801,2,0,B|148:223|148:223|144:169|144:169|112:109,1,120,8|0,0:0|0:0,0:0:0:0:
99,19,144481,38,0,B|50:35|50:35|31:79|31:79|8:100,2,120,8|0|8,0:0|0:0|0:0,0:0:0:0:
214,51,145535,1,0,0:0:0:0:
333,79,145880,2,0,B|357:83|357:83|394:49|394:49|427:38|427:38|454:56,2,120,10|0|8,0:0|0:0|0:0,0:0:0:0:
299,194,146891,1,0,0:0:0:0:
269,304,147228,6,0,B|282:330|282:330|347:353|347:353|393:348,1,120,4|0,0:2|0:0,0:0:0:0:
479,294,147933,2,0,B|465:274|465:274|406:250|406:250|375:207,1,120,8|0,0:0|0:0,0:0:0:0:
314,130,148614,2,0,B|326:104|326:104|331:34|331:34|349:7,2,120,10|0|8,0:0|0:0|0:0,0:0:0:0:
195,147,149648,1,0,0:0:0:0:
195,147,149994,6,0,B|166:153|166:153|128:193|128:193|90:187,1,120,4|0,0:2|0:0,0:0:0:0:
30,87,150668,2,0,B|48:61|48:61|82:64|82:64|152:38,1,120,8|0,0:0|0:0,0:0:0:0:
264,59,151362,1,10,0:0:0:0:
264,59,151684,2,0,B|324:43|324:43|339:33|339:33|397:32,2,120,0|8|0,0:0|0:0|0:0,0:0:0:0:
165,145,152721,38,0,L|16:169,2,132.00000402832,8|8|8,0:0|0:0|0:0,0:0:0:0:
290,186,153770,1,8,0:0:0:0:
415,227,154120,2,0,L|501:98,2,132.00000402832,8|8|8,0:0|0:0|0:0,0:0:0:0:
340,336,155169,1,8,0:0:0:0:
208,329,155519,6,0,B|143:354|143:354|58:355,1,132.00000402832,4|8,0:2|0:0,0:0:0:0:
26,226,156219,2,0,B|83:184|83:184|158:168,1,132.00000402832,8|8,0:0|0:0,0:0:0:0:
266,218,156919,2,0,B|293:174|293:174|309:82,2,132.00000402832,8|8|8,0:0|0:0|0:0,0:0:0:0:
143,267,157968,1,8,0:0:0:0:
52,175,158318,6,0,B|24:148|24:148|14:97|14:97|28:43,1,132.00000402832,4|8,0:2|0:0,0:0:0:0:
147,7,159036,2,0,B|184:36|184:36|239:47|239:47|285:31,1,132.00000402832,8|8,0:0|0:0,0:0:0:0:
385,104,159755,2,0,B|425:79|425:79|468:69|468:69|516:80,2,132.00000402832,8|8|8,0:0|0:0|0:0,0:0:0:0:
370,235,160798,1,8,0:0:0:0:
486,305,161146,38,0,B|481:334|481:334|461:362|461:362|428:376|428:376|389:377,1,132.00000402832,4|4,0:0|0:0,0:0:0:0:
272,328,161841,2,0,B|263:301|263:301|235:278|235:278|197:271|197:271|155:283,1,132.00000402832,4|4,0:0|0:0,0:0:0:0:
55,368,162537,2,0,B|27:358|27:358|0:331|0:331|-8:287|-8:287|5:242,1,143.999995605469,4|4,0:2|0:2,0:0:0:0:
128,190,163214,2,0,B|159:190|159:190|200:170|200:170|219:142|219:142|225:107,1,143.999995605469,4|4,0:2|0:2,0:0:0:0:
298,0,163892,6,8,L|458:29,1,161.999995056153
465,244,165027,1,8,0:0:0:0:
465,244,165189,2,0,L|428:363,1,107.999996704102,2|8,0:0|0:0,0:0:0:0:
380,333,165667,2,0,B|362:280|362:280|400:162,1,161.999995056153,2|0,0:0|0:0,0:0:0:0:
311,114,166465,6,0,L|35:160,1,269.999991760254,8|8,0:0|0:2,0:0:0:0:
63,269,167625,37,8,0:0:0:0:
63,269,167790,2,0,B|72:303|72:303|176:376,1,161.999995056153,2|2,0:0|0:0,0:0:0:0:
212,336,168447,2,0,L|182:219,1,107.999996704102,2|0,0:1|0:0,0:0:0:0:
157,119,169104,38,0,B|149:70|185:-2|296:61,1,180,4|0,0:2|0:0,0:0:0:0:
321,12,169809,2,0,B|340:63|389:99|475:38,1,180,4|0,0:2|0:0,0:0:0:0:
503,93,170515,2,0,B|524:111|549:164|487:213,1,120,4|0,0:2|0:0,0:0:0:0:
466,314,171198,5,4,0:0:0:0:
363,236,171540,1,4,0:0:0:0:
246,215,171859,1,4,0:0:0:0:
140,250,172178,2,0,B|111:281|69:288|8:241|37:147|124:85|159:42|58:-5|36:18,1,360,4|4,0:2|0:2,0:0:0:0:
1,260,173919,38,0,B|56:269|81:287|97:357,1,120,4|4,0:0|0:0,0:0:0:0:
203,366,174600,1,4,0:0:0:0:
304,302,174940,2,0,B|329:279|343:247|277:231|291:156|385:101|476:126|446:170|476:208|548:174|500:113,1,360,4|4,0:2|0:2,0:0:0:0:
289,12,176659,5,4,0:0:0:0:
170,28,177007,1,4,0:0:0:0:
126,139,177355,2,0,B|154:167|160:189|152:233|127:252,1,120,4|4,0:0|0:0,0:0:0:0:
243,292,178050,2,0,B|251:320|258:352|301:375|346:368,1,120,4|4,0:0|0:0,0:0:0:0:
410,285,178746,6,0,B|434:242|482:260|509:250|513:194|513:201,2,120,4|4|4,0:0|0:0|0:0,0:0:0:0:
335,190,179790,1,4,0:0:0:0:
266,92,180137,2,0,B|242:49|194:67|167:57|163:1|163:8,2,120,4|4|4,0:0|0:0|0:2,0:0:0:0:
506,100,181492,38,0,P|516:139|518:175,1,60,2|0,0:2|0:0,0:0:0:0:
502,218,181822,1,4,0:0:0:0:
443,322,182162,2,0,B|419:349|378:370|352:311|317:279|257:308,1,180,4|0,0:2|0:0,0:0:0:0:
231,330,182844,6,0,B|218:356|186:375|119:370,1,120,4|4,0:0|0:0,0:0:0:0:
44,284,183541,2,0,B|104:238|106:183|79:132|47:105,1,180,4|0,0:2|0:0,0:0:0:0:
20,84,184255,6,0,B|48:14|93:-9|157:10|182:36,1,180,4|0,0:2|0:0,0:0:0:0:
216,51,184948,2,0,B|246:82|270:99|339:87,1,120,4|4,0:0|0:0,0:0:0:0:
433,40,185637,2,0,B|471:34|465:74|479:110|512:128,2,120,4|4|4,0:0|0:0|0:2,0:0:0:0:
369,267,187001,38,0,B|344:279|331:291|320:313,1,60,2|0,0:2|0:0,0:0:0:0:
295,360,187338,1,4,0:0:0:0:
183,341,187662,2,0,B|156:305|148:299|106:305|60:305|52:263|67:232,1,180,4|0,0:2|0:0,0:0:0:0:
42,179,188347,6,0,B|57:156|63:136|55:98|36:57,2,120,4|4|4,0:0|0:0|0:2,0:0:0:0:
273,243,189747,2,0,B|304:245|306:245|327:271,1,60,4|0,0:0|0:0,0:0:0:0:
383,277,190104,2,0,B|395:291|402:295|421:304|450:295,1,60,4|0,0:0|0:0,0:0:0:0:
488,268,190461,2,0,B|518:239|493:217|479:189|507:132,1,120,6|2,0:0|0:2,0:0:0:0:
443,46,191188,6,0,B|428:29|405:14|340:-6|280:65,1,180,4|0,0:2|0:0,0:0:0:0:
265,117,191928,2,0,B|298:141|314:177|258:238|198:225,1,180,4|0,0:2|0:0,0:0:0:0:
159,178,192669,2,0,B|144:131|116:105|56:131,1,120,4|0,0:2|0:0,0:0:0:0:
0,232,193410,38,0,B|-17:258|5:292|15:316|15:320|-2:346,2,120,4|4|4,0:0|0:0|0:0,0:0:0:0:
110,259,194462,2,0,B|145:270|154:282|124:337|215:379|340:347|273:187|368:198|423:228,1,360,4|4,0:2|0:2,0:0:0:0:
494,0,196287,6,0,B|435:3|434:49|389:55,1,120,4|4,0:0|0:0,0:0:0:0:
273,57,197001,1,4,0:0:0:0:
196,146,197358,2,0,B|151:177|136:233|226:237|201:330|79:407|6:344|25:274,1,360,4|4,0:2|0:2,0:0:0:0:
249,359,199175,5,4,0:0:0:0:
359,313,199538,1,4,0:0:0:0:
479,342,199903,2,0,B|507:313|515:261|447:232,1,120,4|4,0:0|0:0,0:0:0:0:
356,187,200608,2,0,B|321:166|300:118|358:72,1,120,4|4,0:0|0:0,0:0:0:0:
434,12,201314,38,0,B|464:24|481:44|479:83|514:100,2,120,4|4|4,0:0|0:0|0:0,0:0:0:0:
322,57,202408,1,4,0:0:0:0:
209,98,202772,2,0,B|189:51|152:38|101:62,2,120,4|4|4,0:0|0:0|0:2,0:0:0:0:
144,306,204187,6,0,B|161:333|180:340|200:344,1,60,2|0,0:2|0:0,0:0:0:0:
248,355,204564,1,4,0:0:0:0:
375,340,204941,2,0,B|434:318|395:264|437:188|479:213,1,180,4|0,0:2|0:0,0:0:0:0:
509,164,205646,6,0,B|504:109|470:89|408:106,1,120,4|4,0:0|0:0,0:0:0:0:
331,28,206373,2,0,B|322:91|294:116|259:130|208:117|194:98,1,180,4|0,0:2|0:0,0:0:0:0:
160,148,207100,38,0,B|102:143|115:95|41:92|9:151|41:183,1,180,4|0,0:2|0:0,0:0:0:0:
31,234,207827,2,0,B|57:266|64:295|17:367,1,120,4|4,0:0|0:0,0:0:0:0:
153,372,208567,2,0,B|202:372|199:340|247:330|292:354,2,120,4|4|4,0:0|0:0|0:2,0:0:0:0:
301,189,209978,6,0,B|336:184|347:173|356:163,1,60,2|0,0:2|0:0,0:0:0:0:
388,115,210337,1,4,0:0:0:0:
316,13,210696,2,0,B|280:15|271:43|255:70|203:89|133:76,1,180,4|0,0:2|0:0,0:0:0:0:
110,39,211389,5,4,0:0:0:0:
69,151,211735,1,4,0:0:0:0:
115,257,212083,2,0,B|177:253|213:279|202:337,1,120,4|0,0:2|0:0,0:0:0:0:
320,356,212801,38,0,B|335:337|343:333|380:332,1,60,4|0,0:0|0:0,0:0:0:0:
424,323,213147,2,0,B|448:328|464:318|495:290,1,60,4|0,0:0|0:0,0:0:0:0:
492,246,213539,2,0,B|456:204|479:182|517:176|492:116,1,120,6|0,0:0|0:0,0:0:0:0:
413,14,214323,5,4,0:2:0:0:
256,192,214687,12,0,223063,0:0:0:0:
328,126,225476,21,0,0:0:0:0:
377,114,225783,2,0,B|382:87|382:87|421:58|421:58|427:21|427:21|421:4,2,120,2|0|2,0:2|0:0|0:2,0:0:0:0:
355,236,227991,2,0,B|311:229|311:229|285:238,2,60,2|0|2,0:2|0:0|0:2,0:0:0:0:
411,247,229105,2,0,B|486:343|486:343|471:340|471:340|429:357,1,180
311,337,230907,6,0,B|269:327|269:327|249:331,1,60,2|0,0:2|0:0,0:0:0:0:
196,351,231638,1,2,0:2:0:0:
196,351,232004,2,0,B|170:306|170:306|155:307|155:307|96:289|96:289|60:246,1,180,2|0,0:2|0:0,0:0:0:0:
140,157,233842,6,0,B|181:164|181:164|199:178,2,60,2|0|2,0:2|0:0|0:2,0:0:0:0:
256,192,234939,12,0,236897,0:0:0:0:
380,365,237520,38,0,B|385:341|385:341|436:313|436:313|445:279|445:279|438:274|438:274|458:138|458:138|402:57,1,360,2|0,0:2|0:0,0:0:0:0:
272,16,240696,6,0,B|250:24|250:24|209:126|209:126|219:138|219:138|136:155|136:155|80:114|80:114|34:119|34:119|26:140,1,360,2|0,0:2|0:0,0:0:0:0:
16,282,243536,6,0,B|75:290|75:290|87:297|87:297|160:298|160:298|172:304|172:304|291:322|291:322|315:308|315:308|378:319|378:319|394:354|394:354|422:363,1,435,2|0,0:2|0:0,0:0:0:0:
256,192,249038,12,0,254896,0:0:0:0:
