osu file format v14

[General]
AudioFilename: audio.mp3
AudioLeadIn: 0
PreviewTime: 75800
Countdown: 0
SampleSet: Drum
StackLeniency: 0.5
Mode: 0
LetterboxInBreaks: 0
WidescreenStoryboard: 1

[Editor]
Bookmarks: 1959,30586,42875,99980,120276,152721,163892,173206,243536,248684
DistanceSpacing: 1
BeatDivisor: 4
GridSize: 32
TimelineZoom: 4.14

[Metadata]
Title:amBROsius
TitleUnicode:amBROsius
Artist:noumenon
ArtistUnicode:noumenon
Creator:squirrelpascals
Version:insane
Source:
Tags:noise math rock instrumental prog progressive Party Mathematics
BeatmapID:2262260
BeatmapSetID:1080681

[Difficulty]
HPDrainRate:6
CircleSize:5
OverallDifficulty:8
ApproachRate:8.5
SliderMultiplier:1.3
SliderTickRate:1

[Events]
//Background and Video events
0,0,"atavali_tony_do.jpg",0,0
//Break Periods
//Storyboard Layer 0 (Background)
//Storyboard Layer 1 (Fail)
//Storyboard Layer 2 (Pass)
//Storyboard Layer 3 (Foreground)
//Storyboard Layer 4 (Overlay)
//Storyboard Sound Samples

[TimingPoints]
379,352.941176470588,4,3,1,50,1,0
731,428.571428571429,4,3,1,50,1,0
731,-200,4,3,1,50,0,0
945,-200,4,3,1,30,0,0
1159,400,4,3,1,50,1,0
1959,402.684563758389,4,3,1,50,1,0
1959,-66.6666666666667,4,3,1,50,0,0
2261,-66.6666666666667,4,3,1,5,0,0
2361,-66.6666666666667,4,3,1,50,0,0
2663,-66.6666666666667,4,3,1,5,0,0
2764,385.852090032154,4,3,1,50,1,0
2764,-133.333333333333,4,3,1,50,0,0
3149,-66.6666666666667,4,3,1,5,0,0
3536,388.349514563107,4,3,1,50,1,0
5089,-66.6666666666667,4,3,1,50,0,0
5380,-66.6666666666667,4,3,1,5,0,0
5477,-66.6666666666667,4,3,1,50,0,0
5769,-66.6666666666667,4,3,1,5,0,0
5866,-66.6666666666667,4,3,1,50,0,0
6642,393.44262295082,4,3,1,50,1,0
7428,383.386581469649,4,3,1,50,1,0
8196,392.156862745098,4,3,1,50,1,0
8196,-66.6666666666667,4,3,1,50,0,0
8294,-66.6666666666667,4,3,1,5,0,0
8392,-66.6666666666667,4,3,1,50,0,0
8490,-66.6666666666667,4,3,1,5,0,0
8588,-66.6666666666667,4,3,1,50,0,0
9176,-66.6666666666667,4,3,1,5,0,0
9372,-66.6666666666667,4,3,1,50,0,0
9960,443.62292051756,4,3,1,50,1,0
10126,-100,4,3,1,5,0,0
10182,372.670807453417,4,3,1,50,1,0
10182,-66.6666666666667,4,3,1,50,0,0
10275,-66.6666666666667,4,3,1,5,0,0
10368,-66.6666666666667,4,3,1,50,0,0
10461,-66.6666666666667,4,3,1,5,0,0
10554,-66.6666666666667,4,3,1,50,0,0
10647,-66.6666666666667,4,3,1,5,0,0
10741,-66.6666666666667,4,3,1,50,0,0
10834,-66.6666666666667,4,3,1,5,0,0
10927,422.535211267606,4,3,1,50,1,0
10927,-66.6666666666667,4,3,1,50,0,0
11350,389.61038961039,4,3,1,50,1,0
11350,-66.6666666666667,4,3,1,50,0,0
13687,402.684563758389,4,3,1,35,1,0
14089,-100,4,3,1,35,0,0
14156,-100,4,3,1,50,0,0
14492,398.671096345515,4,3,1,5,1,0
14691,-50,4,3,1,50,0,0
15289,422.535211267606,4,3,1,50,1,0
15289,-50,4,3,1,50,0,0
15711,375,4,3,1,50,1,0
15711,-50,4,3,1,50,0,0
16086,398.671096345515,4,3,1,50,1,0
16883,-50,4,3,1,50,0,0
17681,428.571428571429,4,3,1,50,1,0
18109,399.334442595674,4,3,1,50,1,0
18109,-50,4,3,1,50,0,0
19307,399.334442595674,4,3,1,50,1,0
19307,-50,4,3,1,50,0,0
20904,406.779661016949,4,3,1,50,1,0
20904,-50,4,3,1,50,0,0
24158,437.956204379563,4,3,1,5,1,0
24595,404.721753794266,4,3,1,50,1,0
24595,-50,4,3,1,50,0,0
25809,397.350993377484,4,3,1,50,1,0
26603,-66.6666666666667,4,3,1,50,0,0
27398,402.684563758389,4,3,1,50,1,0
27398,-50,4,3,1,50,0,0
28203,428.571428571428,4,3,1,50,1,0
28203,-50,4,3,1,50,0,0
28631,377.358490566038,4,3,1,50,1,0
29008,394.736842105263,4,3,1,50,1,0
29008,-66.6666666666667,4,3,1,50,0,0
30586,-133.333333333333,4,3,1,35,0,0
32954,382.165605095541,4,3,1,35,1,0
32954,-133.333333333333,4,3,1,35,0,0
33336,360.902255639098,4,3,1,35,1,0
33697,393.44262295082,4,3,1,35,1,0
36844,384.615384615385,5,3,1,35,1,0
38190,-100,5,3,1,20,0,0
38286,-100,5,3,1,35,0,0
39536,397.350993377483,5,3,1,50,1,0
39536,-50,5,3,1,50,0,0
39734,-50,5,3,1,5,0,0
39933,-50,5,3,1,50,0,0
40131,-50,5,3,1,5,0,0
40330,397.350993377483,5,3,1,50,1,0
40429,-100,5,3,1,5,0,0
40528,-100,5,3,1,50,0,0
40926,-100,5,3,1,50,0,0
41919,-50,5,3,1,50,0,0
42217,-50,5,3,1,5,0,0
42316,372.670807453416,4,3,1,50,1,0
42316,-50,4,3,1,50,0,0
42502,-50,4,3,1,5,0,0
42875,387.096774193548,4,3,1,50,1,0
43068,387.096774193548,4,3,1,50,1,0
43455,-66.6666666666667,4,3,1,50,0,0
44229,392.156862745098,4,3,1,50,1,0
44425,-66.6666666666667,4,3,1,50,0,0
44523,-66.6666666666667,4,3,1,5,0,0
44621,-66.6666666666667,4,3,1,50,0,0
45307,-66.6666666666667,4,3,1,5,0,0
45405,397.350993377483,4,3,1,50,1,0
45405,-66.6666666666667,4,3,1,50,0,0
45802,382.165605095542,4,3,1,50,1,0
46184,389.61038961039,4,3,1,50,1,0
46184,-66.6666666666667,4,3,1,50,0,0
46671,-66.6666666666667,4,3,1,5,0,0
46768,-66.6666666666667,4,3,1,50,0,0
47352,400,4,3,1,50,1,0
47818,-133.333333333333,4,3,1,35,0,0
47952,-133.333333333333,4,3,1,50,0,0
48152,388.349514563107,4,3,1,50,1,0
48152,-66.6666666666667,4,3,1,50,0,0
48443,-66.6666666666667,4,3,1,5,0,0
48540,-66.6666666666667,4,3,1,50,0,0
48928,387.722132471729,4,3,1,50,1,0
49315,-66.6666666666667,4,3,1,50,0,0
49606,-66.6666666666667,4,3,1,5,0,0
49703,-66.6666666666667,4,3,1,50,0,0
49897,-66.6666666666667,4,3,1,5,0,0
49994,-66.6666666666667,4,3,1,50,0,0
50479,392.156862745098,4,3,1,50,1,0
50871,-66.6666666666667,4,3,1,50,0,0
50936,-133.333333333333,4,3,1,35,0,0
51067,-66.6666666666667,4,3,1,50,0,0
51558,-66.6666666666667,4,3,1,5,0,0
51656,428.571428571429,4,3,1,50,1,0
51656,-66.6666666666667,4,3,1,50,0,0
52084,373.831775700935,4,3,1,50,1,0
52084,-66.6666666666667,4,3,1,50,0,0
52832,379.746835443038,4,3,1,50,1,0
52832,-66.6666666666667,4,3,1,50,0,0
53116,-66.6666666666667,4,3,1,5,0,0
53211,-66.6666666666667,4,3,1,50,0,0
53591,382.775119617225,4,3,1,50,1,0
53591,-66.6666666666667,4,3,1,50,0,0
54165,-66.6666666666667,4,3,1,5,0,0
54356,-66.6666666666667,4,3,1,50,0,0
54643,-66.6666666666667,4,3,1,5,0,0
54739,406.779661016949,4,3,1,50,1,0
54739,-66.6666666666667,4,3,1,50,0,0
54942,-66.6666666666667,4,3,1,5,0,0
55146,358.208955223881,3,3,1,50,1,0
55504,382.775119617225,3,3,1,50,1,0
55504,-66.6666666666667,3,3,1,50,0,0
55695,-66.6666666666667,3,3,1,5,0,0
55886,-66.6666666666667,3,3,1,50,0,0
56173,-66.6666666666667,3,3,1,5,0,0
56269,382.775119617225,3,3,1,50,1,0
56269,-66.6666666666667,3,3,1,50,0,0
56364,-66.6666666666667,3,3,1,5,0,0
56460,-66.6666666666667,3,3,1,50,0,0
56556,-66.6666666666667,3,3,1,5,0,0
56651,-66.6666666666667,3,3,1,50,0,0
57418,408.163265306122,4,3,1,50,1,0
57418,-66.6666666666667,4,3,1,50,0,0
57724,-66.6666666666667,4,3,1,5,0,0
57826,-66.6666666666667,4,3,1,50,0,0
58030,-66.6666666666667,4,3,1,5,0,0
58234,377.358490566038,4,3,1,50,1,0
58234,-66.6666666666667,4,3,1,50,0,0
59271,-66.6666666666667,4,3,1,5,0,0
59366,-66.6666666666667,4,3,1,50,0,0
59743,-66.6666666666667,4,3,1,50,0,0
60120,377.358490566038,4,3,1,50,1,0
60120,-66.6666666666667,4,3,1,50,0,0
60371,-100,4,3,1,35,0,0
60498,396.039603960396,4,3,1,50,1,0
60498,-66.6666666666667,4,3,1,50,0,0
60795,-66.6666666666667,4,3,1,5,0,0
60894,-66.6666666666667,4,3,1,50,0,0
61290,396.039603960396,3,3,1,50,1,0
61686,-66.6666666666667,3,3,1,50,0,0
62082,396.039603960396,3,3,1,50,1,0
62280,-100,3,3,1,30,0,0
62379,-100,3,3,1,50,0,0
62478,371.517027863777,3,3,1,50,1,0
62478,-66.6666666666667,3,3,1,50,0,0
62851,387.096774193548,3,3,1,50,1,0
63238,-66.6666666666667,3,3,1,50,0,0
63625,355.029585798816,4,3,1,50,1,0
64335,413.793103448275,4,3,1,50,1,0
65162,379.746835443038,4,3,1,50,1,0
65351,-66.6666666666667,4,3,1,50,0,0
65446,-66.6666666666667,4,3,1,5,0,0
65541,-66.6666666666667,4,3,1,50,0,0
65636,-66.6666666666667,4,3,1,5,0,0
65731,-66.6666666666667,4,3,1,50,0,0
65826,-66.6666666666667,4,3,1,5,0,0
65921,-66.6666666666667,4,3,1,50,0,0
66016,-66.6666666666667,4,3,1,5,0,0
66111,-66.6666666666667,4,3,1,50,0,0
66206,-66.6666666666667,4,3,1,5,0,0
66301,-66.6666666666667,4,3,1,50,0,0
66680,393.442622950819,4,3,1,50,1,0
67073,374.999999999999,4,3,1,50,1,0
67448,408.163265306122,4,3,1,50,1,0
67856,397.350993377483,4,3,1,50,1,0
68253,393.442622950819,4,3,1,50,1,0
68449,-66.6666666666667,4,3,1,50,0,0
68548,-66.6666666666667,4,3,1,5,0,0
68646,-66.6666666666667,4,3,1,50,0,0
68744,-66.6666666666667,4,3,1,5,0,0
68842,-66.6666666666667,4,3,1,50,0,0
68940,-66.6666666666667,4,3,1,5,0,0
69039,-66.6666666666667,4,3,1,50,0,0
69137,-66.6666666666667,4,3,1,5,0,0
69236,-66.6666666666667,4,3,1,50,0,0
69334,-66.6666666666667,4,3,1,5,0,0
69433,-66.6666666666667,4,3,1,50,0,0
69826,-133.333333333333,4,3,1,50,0,0
70613,-200,4,3,2,50,0,0
71006,-133.333333333333,4,3,1,5,0,0
71400,383.386581469648,4,3,1,50,1,0
71400,-133.333333333333,4,3,1,50,0,0
72166,-133.333333333333,4,3,2,50,0,0
72550,-133.333333333333,4,3,1,5,0,0
72933,378.548895899053,4,3,1,50,1,0
72933,-133.333333333333,4,3,1,50,0,0
73500,-133.333333333333,4,3,2,50,0,0
74068,399.999999999999,4,3,1,50,1,0
74467,363.636363636363,4,3,1,50,1,0
74467,-133.333333333333,4,3,1,50,0,0
75921,348.837209302325,4,3,1,50,1,0
75921,-66.6666666666667,4,3,1,50,0,0
76618,408.163265306122,4,3,1,50,1,0
77026,365.853658536585,4,3,1,50,1,0
77392,387.096774193548,4,3,1,50,1,0
77585,-66.6666666666667,4,3,1,50,0,0
77682,-66.6666666666667,4,3,1,5,0,0
77779,-66.6666666666667,4,3,1,50,0,0
77876,-66.6666666666667,4,3,1,5,0,0
77972,-66.6666666666667,4,3,1,50,0,0
78069,-66.6666666666667,4,3,1,5,0,0
78166,-66.6666666666667,4,3,1,50,0,0
78263,-66.6666666666667,4,3,1,5,0,0
78359,-66.6666666666667,4,3,1,50,0,0
78456,-66.6666666666667,4,3,1,5,0,0
78553,-66.6666666666667,4,3,1,50,0,0
78939,377.358490566037,4,3,1,50,1,0
80637,-66.6666666666667,4,3,1,50,0,0
80731,-66.6666666666667,4,3,1,5,0,0
80825,-66.6666666666667,4,3,1,50,0,0
80919,-66.6666666666667,4,3,1,5,0,0
81014,-66.6666666666667,4,3,1,50,0,0
81108,-66.6666666666667,4,3,1,5,0,0
81203,-66.6666666666667,4,3,1,50,0,0
81297,-66.6666666666667,4,3,1,5,0,0
81391,-66.6666666666667,4,3,1,50,0,0
81485,-66.6666666666667,4,3,1,5,0,0
81580,399.999999999999,4,3,1,50,1,0
81580,-66.6666666666667,4,3,1,50,0,0
81980,363.636363636363,4,3,1,50,1,0
83070,374.999999999999,4,3,1,50,1,0
83445,389.610389610389,4,3,1,50,1,0
83639,-66.6666666666667,4,3,1,50,0,0
83737,-66.6666666666667,4,3,1,5,0,0
83834,-66.6666666666667,4,3,1,50,0,0
83932,-66.6666666666667,4,3,1,5,0,0
84029,-66.6666666666667,4,3,1,50,0,0
84127,-66.6666666666667,4,3,1,5,0,0
84224,-66.6666666666667,4,3,1,50,0,0
84322,-66.6666666666667,4,3,1,5,0,0
84419,-66.6666666666667,4,3,1,50,0,0
84517,-66.6666666666667,4,3,1,5,0,0
84613,-66.6666666666667,4,3,1,50,0,0
85003,357.142857142857,4,3,1,50,1,0
85717,365.853658536585,4,3,1,50,1,0
86082,387.096774193548,4,3,1,50,1,0
86662,-66.6666666666667,4,3,1,50,0,0
86757,-66.6666666666667,4,3,1,5,0,0
86856,392.156862745097,4,3,1,50,1,0
86856,-66.6666666666667,4,3,1,50,0,0
86954,-66.6666666666667,4,3,1,5,0,0
87052,-66.6666666666667,4,3,1,50,0,0
87150,-66.6666666666667,4,3,1,5,0,0
87248,-66.6666666666667,4,3,1,50,0,0
87346,-66.6666666666667,4,3,1,5,0,0
87444,-66.6666666666667,4,3,1,50,0,0
87542,-66.6666666666667,4,3,1,5,0,0
87640,-66.6666666666667,4,3,1,50,0,0
88032,374.999999999999,4,3,1,50,1,0
88032,-133.333333333333,4,3,1,50,0,0
88782,-133.333333333333,4,3,2,50,0,0
89157,-133.333333333333,4,3,1,5,0,0
89534,377.358490566037,4,3,1,50,1,0
89534,-133.333333333333,4,3,1,50,0,0
90288,-133.333333333333,4,3,2,50,0,0
90666,-133.333333333333,4,3,1,5,0,0
91041,394.736842105262,4,3,1,50,1,0
91041,-133.333333333333,4,3,1,50,0,0
91830,357.142857142857,4,3,1,50,1,0
91830,-133.333333333333,4,3,1,50,0,0
92187,372.670807453416,4,3,1,50,1,0
92559,377.358490566037,4,3,1,50,1,0
92559,-133.333333333333,4,3,1,50,0,0
93692,382.165605095541,4,3,1,50,1,0
94075,367.421922841396,4,3,1,50,1,0
94075,-133.333333333333,4,3,1,50,0,0
94809,-133.333333333333,4,3,2,50,0,0
95177,-133.333333333333,4,3,1,5,0,0
95544,-133.333333333333,4,3,1,50,0,0
96279,-133.333333333333,4,3,2,50,0,0
96646,-133.333333333333,4,3,1,5,0,0
97014,-133.333333333333,4,3,1,50,0,0
97749,-133.333333333333,4,3,2,50,0,0
98484,384.615384615385,4,3,1,35,1,0
98484,-200,4,3,1,35,0,0
99253,363.636363636364,4,3,1,35,1,0
99980,384.615384615385,4,3,1,35,1,0
99980,-285.714285714286,4,3,2,35,0,0
101133,363.636363636364,4,3,1,35,1,0
101496,359.281437125749,4,3,1,35,1,0
101496,-285.714285714286,4,3,2,35,0,0
102573,362.537764350454,4,3,1,35,1,0
102935,362.537764350454,4,3,1,35,1,0
102935,-285.714285714286,4,3,2,35,0,0
104387,364.741641337386,4,3,1,35,1,0
104387,-285.714285714286,4,3,2,35,0,0
105845,361.990950226244,4,3,1,35,1,0
105845,-285.714285714286,4,3,2,35,0,0
107293,352.941176470589,4,3,1,35,1,0
107293,-285.714285714286,4,3,2,35,0,0
108704,357.142857142858,4,3,1,35,1,0
108704,-285.714285714286,4,3,2,35,0,0
109239,-285.714285714286,4,3,2,35,0,0
109596,-285.714285714286,4,3,2,5,0,0
109774,-285.714285714286,4,3,2,35,0,0
110134,361.44578313253,4,3,1,35,1,0
110134,-285.714285714286,4,3,2,35,0,0
110676,-285.714285714286,4,3,2,35,0,0
111037,-285.714285714286,4,3,2,5,0,0
111218,-285.714285714286,4,3,2,35,0,0
111579,366.97247706422,4,3,1,35,1,0
111579,-285.714285714286,4,3,2,35,0,0
112679,389.610389610389,4,3,1,35,1,0
113068,348.837209302325,4,3,1,35,1,0
113068,-285.714285714286,4,3,2,35,0,0
114114,390.243902439024,4,3,1,35,1,0
114505,364.741641337386,4,3,1,35,1,0
114505,-285.714285714286,4,3,2,35,0,0
115963,370.37037037037,4,3,1,35,1,0
115963,-285.714285714286,4,3,2,35,0,0
116518,-285.714285714286,4,3,2,35,0,0
116888,-285.714285714286,4,3,1,35,0,0
117074,-285.714285714286,4,3,2,35,0,0
117445,372.670807453417,4,3,1,35,1,0
117445,-285.714285714286,4,3,2,35,0,0
118004,-273.972602739726,4,3,2,35,0,0
118190,351.906158357772,4,3,1,35,1,0
118365,-285.714285714286,4,3,1,35,0,0
118542,335.195530726257,4,3,1,35,1,0
118542,-285.714285714286,4,3,2,35,0,0
118877,357.142857142858,4,3,1,35,1,0
118877,-285.714285714286,4,3,2,35,0,0
119591,342.857142857143,4,3,1,35,1,0
119591,-133.333333333333,4,3,1,40,0,0
120276,331.491712707183,4,3,1,40,1,0
120276,-133.333333333333,4,3,1,40,0,0
122927,344.827586206897,4,3,1,40,1,0
122927,-133.333333333333,4,3,1,40,0,0
123616,312.5,4,3,1,40,1,0
123928,-133.333333333333,4,3,1,40,0,0
124241,328.767123287671,4,3,1,40,1,0
124241,-133.333333333333,4,3,1,40,0,0
128186,333.333333333333,4,3,1,40,1,0
128186,-133.333333333333,4,3,1,40,0,0
130852,339.943342776204,4,3,1,40,1,0
130852,-133.333333333333,4,3,1,40,0,0
131872,346.820809248555,4,3,1,40,1,0
131872,-133.333333333333,4,3,1,40,0,0
132219,341.394025604552,4,3,1,40,1,0
132219,-133.333333333333,4,3,1,40,0,0
134950,335.195530726257,4,3,1,40,1,0
134950,-133.333333333333,4,3,1,40,0,0
135955,338.983050847457,4,3,1,40,1,0
136293,348.837209302325,4,3,1,40,1,0
136293,-133.333333333333,4,3,1,40,0,0
137688,333.333333333333,4,3,1,40,1,0
137688,-133.333333333333,4,3,1,40,0,0
139020,342.857142857143,4,3,1,40,1,0
139020,-133.333333333333,4,3,1,40,0,0
141762,339.943342776204,4,3,1,40,1,0
141762,-133.333333333333,4,3,1,40,0,0
142271,-133.333333333333,4,3,1,5,0,0
142441,-133.333333333333,4,3,1,40,0,0
144481,355.029585798817,4,3,1,40,1,0
145191,344.827586206897,4,3,1,40,1,0
145880,337.078651685393,4,3,1,40,1,0
147228,352.941176470588,4,3,1,40,1,0
147933,340.909090909091,4,3,1,40,1,0
148614,344.827586206897,4,3,1,40,1,0
149994,337.078651685393,4,3,1,40,1,0
151005,357.142857142857,4,3,1,40,1,0
151362,322.580645161291,4,3,1,40,1,0
151523,-100,4,3,1,5,0,0
151684,345.323741007195,4,3,1,40,1,0
152721,349.854227405248,4,3,1,50,1,0
152983,-100,4,3,1,5,0,0
153070,-100,4,3,1,50,0,0
153333,-100,4,3,1,5,0,0
153420,-100,4,3,1,50,0,0
153683,-100,4,3,1,5,0,0
153770,-100,4,3,1,50,0,0
154033,-100,4,3,1,5,0,0
154120,-100,4,3,1,50,0,0
154383,-100,4,3,1,5,0,0
154470,-100,4,3,1,50,0,0
154733,-100,4,3,1,5,0,0
154820,-100,4,3,1,50,0,0
155083,-100,4,3,1,5,0,0
155169,-100,4,3,1,50,0,0
155432,-100,4,3,1,5,0,0
155519,-66.6666666666667,4,3,1,50,0,0
158318,359.281437125749,4,3,1,50,1,0
158318,-100,4,3,1,50,0,0
158587,-100,4,3,1,5,0,0
158677,-100,4,3,1,50,0,0
158946,-100,4,3,1,5,0,0
159036,-100,4,3,1,50,0,0
159305,-100,4,3,1,5,0,0
159395,-100,4,3,1,50,0,0
159664,-100,4,3,1,5,0,0
159755,347.826086956522,4,3,1,50,1,0
159755,-100,4,3,1,50,0,0
160015,-100,4,3,1,5,0,0
160102,-100,4,3,1,50,0,0
160362,-100,4,3,1,5,0,0
160450,-100,4,3,1,50,0,0
161407,-100,4,3,1,5,0,0
161494,-100,4,3,1,50,0,0
161755,-100,4,3,1,5,0,0
161842,-100,4,3,1,50,0,0
162102,-100,4,3,1,5,0,0
162189,-100,4,3,1,50,0,0
162450,-100,4,3,1,5,0,0
162537,338.983050847458,4,3,1,50,1,0
162537,-66.6666666666667,4,3,1,50,0,0
162706,-66.6666666666667,4,3,1,35,0,0
162875,-66.6666666666667,4,3,1,50,0,0
163044,-66.6666666666667,4,3,1,35,0,0
163214,-66.6666666666667,4,3,1,50,0,0
163383,-66.6666666666667,4,3,1,35,0,0
163553,-66.6666666666667,4,3,1,50,0,0
163808,-66.6666666666667,4,3,1,5,0,0
163892,324.324324324325,4,3,1,50,1,0
163892,-100,4,3,1,50,0,0
164378,-200,4,3,5,50,0,0
165189,319.148936170213,4,3,5,50,1,0
165189,-200,4,3,5,50,0,0
165508,-200,4,3,5,30,0,0
165667,-200,4,3,5,50,0,0
166465,331.491712707183,4,3,1,50,1,0
166465,-200,4,3,1,50,0,0
166962,-200,4,3,5,50,0,0
167459,-200,4,3,1,50,0,0
167625,-200,4,3,5,50,0,0
168288,318.725099601594,4,3,1,50,1,0
168288,-200,4,3,5,50,0,0
168766,338.983050847458,4,3,5,50,1,0
169104,352.941176470589,4,3,1,50,1,1
169104,-200,6,3,1,50,0,1
169633,-200,6,3,1,5,0,1
169809,-200,6,3,1,50,0,1
170338,-200,6,3,1,5,0,1
170515,341.880341880342,4,3,1,50,1,1
170515,-200,6,3,1,50,0,1
171027,-200,6,3,1,5,0,1
171198,-100,6,3,1,50,0,1
171369,-100,6,3,1,5,0,1
171540,319.148936170213,4,3,1,50,1,1
171699,-100,6,3,1,5,0,1
171859,-100,6,3,1,50,0,1
172018,-100,6,3,1,5,0,1
172178,342.857142857143,4,3,1,50,1,1
172178,-200,6,3,1,50,0,1
172863,-200,6,3,1,5,0,1
173206,355.029585798817,4,3,1,50,1,1
173206,-160,6,3,1,50,0,1
173738,-160,6,3,1,5,0,1
173919,340.909090909091,4,3,1,50,1,1
173919,-100,6,3,1,50,0,1
174089,-100,6,3,1,5,0,1
174259,-100,6,3,1,50,0,1
174429,-100,6,3,1,5,0,1
174600,340.909090909091,6,3,1,50,1,1
174600,-100,6,3,1,50,0,1
174770,-100,6,3,1,5,0,1
174941,-200,6,3,1,50,0,1
175623,-200,6,3,1,5,0,1
175964,347.826086956522,4,3,1,50,1,1
175964,-160,6,3,1,50,0,1
176485,-160,6,3,1,5,0,1
176659,-100,6,3,1,50,0,1
176833,-100,6,3,1,5,0,1
177007,-100,6,3,1,50,0,1
177181,-100,6,3,1,5,0,1
177355,-100,6,3,1,50,0,1
177529,-100,6,3,1,5,0,1
177703,-100,6,3,1,50,0,1
177877,-100,6,3,1,5,0,1
178050,-100,6,3,1,50,0,1
178224,-100,6,3,1,5,0,1
178398,-100,6,3,1,50,0,1
178572,-100,6,3,1,5,0,1
178746,-76.9230769230769,6,3,1,50,0,1
178920,-76.9230769230769,6,3,1,5,0,1
179094,-76.9230769230769,6,3,1,50,0,1
179268,-76.9230769230769,6,3,1,5,0,1
179442,-76.9230769230769,6,3,1,50,0,1
179616,-76.9230769230769,6,3,1,5,0,1
179790,-76.9230769230769,6,3,1,50,0,1
179964,-76.9230769230769,6,3,1,5,0,1
180137,-76.9230769230769,6,3,1,50,0,1
180311,-76.9230769230769,6,3,1,5,0,1
180485,-76.9230769230769,6,3,1,50,0,1
180659,-76.9230769230769,6,3,1,5,0,1
180833,329.67032967033,4,3,1,50,1,1
180833,-160,6,3,1,50,0,1
181822,340.909090909091,4,3,1,50,1,1
181992,-100,6,3,1,5,0,1
182162,-160,6,3,1,50,0,1
182674,-160,6,3,1,5,0,1
182844,348.837209302326,4,3,1,50,1,1
182844,-100,6,3,1,50,0,1
183018,-100,6,3,1,5,0,1
183192,-100,6,3,1,50,0,1
183366,-100,6,3,1,5,0,1
183541,357.142857142857,4,3,1,50,1,1
183541,-133.333333333333,6,3,1,50,0,1
183898,-133.333333333333,6,3,1,5,0,1
184255,346.820809248555,4,3,1,50,1,1
184255,-160,6,3,1,50,0,1
184775,-160,6,3,1,5,0,1
184948,344.827586206897,4,3,1,50,1,1
184948,-100,6,3,1,50,0,1
185120,-100,6,3,1,5,0,1
185292,-100,6,3,1,50,0,1
185464,-100,6,3,1,5,0,1
185637,344.827586206897,6,3,1,50,1,1
185637,-100,6,3,1,50,0,1
185809,-100,6,3,1,5,0,1
185982,-100,6,3,1,50,0,1
186154,-100,6,3,1,5,0,1
186327,337.078651685393,4,3,1,50,1,1
186327,-200,6,3,1,50,0,1
187338,324.324324324324,4,3,1,50,1,1
187500,-100,6,3,1,5,0,1
187662,342.857142857143,4,3,1,50,1,1
187662,-160,6,3,1,50,0,1
188176,-160,6,3,1,5,0,1
188347,342.857142857143,6,3,1,50,1,1
188347,-100,6,3,1,50,0,1
188519,-100,6,3,1,5,0,1
188690,-100,6,3,1,50,0,1
188862,-100,6,3,1,5,0,1
189033,357.142857142857,4,3,1,50,1,1
189033,-133.333333333333,6,3,1,50,0,1
189390,-133.333333333333,6,3,1,5,0,1
189747,357.142857142857,6,3,1,50,1,1
189747,-100,6,3,1,50,0,1
189925,-100,6,3,1,5,0,1
190104,-100,6,3,1,50,0,1
190282,-100,6,3,1,5,0,1
190461,-66.6666666666667,6,3,1,50,0,1
190818,370.370370370371,4,3,1,50,1,1
191188,370.370370370371,6,3,1,50,1,1
191188,-200,6,3,1,50,0,1
191743,-200,6,3,1,5,0,1
191929,-200,6,3,1,50,0,1
192484,-200,6,3,1,5,0,1
192669,-200,6,3,1,50,0,1
193224,-200,6,3,1,5,0,1
193410,350.877192982456,4,3,1,50,1,1
193410,-100,6,3,1,50,0,1
193585,-100,6,3,1,5,0,1
193760,-100,6,3,1,50,0,1
193935,-100,6,3,1,5,0,1
194111,-100,6,3,1,50,0,1
194286,-100,6,3,1,5,0,1
194462,370.370370370371,4,3,1,50,1,1
194462,-133.333333333333,6,3,1,50,0,1
195573,357.142857142857,4,3,1,50,1,1
195573,-200,6,3,1,50,0,1
196108,-200,6,3,1,5,0,1
196287,-100,6,3,1,50,0,1
196465,-100,6,3,1,5,0,1
196644,-100,6,3,1,50,0,1
196822,-100,6,3,1,5,0,1
197001,-100,6,3,1,50,0,1
197179,-100,6,3,1,5,0,1
197358,363.636363636364,4,3,1,50,1,1
197358,-200,6,3,1,50,0,1
198448,363.636363636364,6,3,1,50,1,1
198448,-160,6,3,1,50,0,1
198994,-160,6,3,1,5,0,1
199176,-100,6,3,1,50,0,1
199358,-100,6,3,1,5,0,1
199539,-100,6,3,1,50,0,1
199721,-100,6,3,1,5,0,1
199903,352.941176470588,4,3,1,50,1,1
199903,-100,6,3,1,50,0,1
200079,-100,6,3,1,5,0,1
200255,-100,6,3,1,50,0,1
200431,-100,6,3,1,5,0,1
200608,-100,6,3,1,50,0,1
200784,-100,6,3,1,5,0,1
200961,-100,6,3,1,50,0,1
201137,-100,6,3,1,5,0,1
201314,364.741641337386,4,3,1,50,1,1
201314,-76.9230769230769,6,3,1,50,0,1
201496,-76.9230769230769,6,3,1,5,0,1
201678,-76.9230769230769,6,3,1,50,0,1
201860,-76.9230769230769,6,3,1,5,0,1
202043,-76.9230769230769,6,3,1,50,0,1
202225,-76.9230769230769,6,3,1,5,0,1
202408,-76.9230769230769,6,3,1,50,0,1
202590,-76.9230769230769,6,3,1,5,0,1
202772,-76.9230769230769,6,3,1,50,0,1
202954,-76.9230769230769,6,3,1,5,0,1
203137,-76.9230769230769,6,3,1,50,0,1
203319,-76.9230769230769,6,3,1,5,0,1
203502,342.857142857143,4,3,1,50,1,1
203502,-160,6,3,1,50,0,1
204187,377.358490566038,4,3,1,50,1,1
204753,-100,6,3,1,5,0,1
204941,352.941176470588,4,3,1,50,1,1
204941,-160,6,3,1,50,0,1
205470,-160,6,3,1,5,0,1
205646,363.636363636364,4,3,1,50,1,1
205827,-100,6,3,1,5,0,1
206009,-100,6,3,1,50,0,1
206191,-100,6,3,1,5,0,1
206373,-133.333333333333,6,3,1,50,0,1
206736,-133.333333333333,6,3,1,5,0,1
207100,-160,6,3,1,50,0,1
207646,-160,6,3,1,5,0,1
207827,370.370370370371,4,3,1,50,1,1
207827,-100,6,3,1,50,0,1
208012,-100,6,3,1,5,0,1
208197,-100,6,3,1,50,0,1
208382,-100,6,3,1,5,0,1
208567,352.941176470588,4,3,1,50,1,1
208567,-100,6,3,1,50,0,1
208743,-100,6,3,1,5,0,1
208919,-100,6,3,1,50,0,1
209095,-100,6,3,1,5,0,1
209272,-200,6,3,1,50,0,1
209978,359.281437125749,4,3,1,50,1,1
210516,-100,6,3,1,5,0,1
210696,346.820809248555,4,3,1,50,1,1
210696,-160,6,3,1,50,0,1
211216,-160,6,3,1,5,0,1
211389,346.820809248555,6,3,1,50,1,1
211389,-100,6,3,1,50,0,1
211563,-100,6,3,1,5,0,1
211736,-100,6,3,1,50,0,1
211910,-100,6,3,1,5,0,1
212083,359.281437125749,4,3,1,50,1,1
212083,-133.333333333333,6,3,1,50,0,1
212621,-133.333333333333,6,3,1,5,0,1
212801,346.820809248555,4,3,1,50,1,1
212974,-100,6,3,1,5,0,1
213147,392.156862745098,4,3,1,50,1,1
213343,-100,6,3,1,5,0,1
213539,-66.6666666666667,6,3,1,50,0,1
213931,-66.6666666666667,6,3,1,5,0,1
214323,728.376327769348,4,3,1,50,1,0
214414,-100,4,3,1,5,0,0
223063,689.655172413793,4,3,1,5,1,0
225476,615.384615384615,4,3,1,25,1,0
225783,750,4,3,1,25,1,0
225783,-200,4,3,1,25,0,0
227283,707.964601769912,4,3,1,25,1,0
227991,743.034055727554,4,3,1,25,1,0
229105,720.720720720721,4,3,1,25,1,0
229105,-200,4,3,1,25,0,0
230907,731.707317073171,4,3,1,25,1,0
232004,-200,4,3,1,25,0,0
233102,740.740740740741,4,3,1,25,1,0
233842,-200,4,3,1,25,0,0
234583,712.166172106825,4,3,1,25,1,0
234672,-100,4,3,1,5,0,0
236897,623.376623376623,4,3,1,25,1,0
237520,794.176042356056,4,3,1,25,1,0
237520,-200,4,3,1,25,0,0
240299,-200,4,3,1,5,0,0
240696,710.059171597633,4,3,1,25,1,0
240696,-200,4,3,1,25,0,0
243181,-200,4,3,1,5,0,0
243536,1420.11834319527,4,3,1,25,1,0
243536,-500,4,3,1,25,0,0
248683,-966.370313103981,4,3,1,10,0,0
249038,-966.370313103981,4,3,1,5,0,0
253476,-966.370313103981,4,3,1,8,0,0
253654,-966.370313103981,4,3,1,11,0,0
253831,-966.370313103981,4,3,1,14,0,0
254009,-966.370313103981,4,3,1,17,0,0
254186,-966.370313103981,4,3,1,20,0,0
254364,-966.370313103981,4,3,1,23,0,0
254541,-966.370313103981,4,3,1,26,0,0
254719,-966.370313103981,4,3,1,29,0,0
254808,-1000,4,3,1,5,0,0

[Colours]
Combo1 : 186,103,124
Combo2 : 189,81,57
Combo3 : 133,133,133
Combo4 : 230,217,102
Combo5 : 140,96,137
SliderTrackOverride : 147,60,60

[HitObjects]
462,85,379,6,0,L|468:10,1,65,6|0,0:0|0:0,0:0:0:0:
432,111,643,1,2,0:1:0:0:
439,132,731,6,0,B|431:140|431:140|419:165,1,32.5,8|8,0:1|0:1,0:0:0:0:
319,58,1159,5,6,0:0:0:0:
299,137,1359,1,0,0:0:0:0:
141,7,1559,1,6,0:0:0:0:
164,140,1759,1,0,0:0:0:0:
28,181,1959,38,0,B|41:238|41:238|22:307|22:307|24:344,1,146.250005578995,8|0,0:0|0:0,0:0:0:0:
111,358,2361,2,0,B|116:347|116:347|107:325|107:325|189:356|189:356|224:347,1,146.250005578995,8|0,0:0|0:0,0:0:0:0:
301,339,2764,6,0,L|389:381,1,97.50000371933,8|0,0:0|0:0,0:0:0:0:
389,381,3536,5,8,0:2:0:0:
400,284,3730,1,0,0:0:0:0:
481,230,3924,1,8,0:2:0:0:
492,133,4118,1,0,0:0:0:0:
419,62,4312,1,8,0:2:0:0:
352,86,4506,1,0,0:0:0:0:
416,72,4701,1,8,0:2:0:0:
349,96,4895,1,0,0:0:0:0:
318,164,5089,38,0,B|305:183|305:183|309:117|309:117|282:44,1,146.250005578995,8|0,0:0|0:0,0:0:0:0:
221,13,5477,2,0,B|126:0|126:0|124:26|124:26|101:66,1,146.250005578995,8|0,0:0|0:0,0:0:0:0:
138,124,5866,6,0,B|202:154|202:154|217:230|217:230|258:283,1,195.00000743866,8|8,0:0|0:0,0:0:0:0:
245,267,6642,5,8,0:2:0:0:
375,371,6838,1,0,0:0:0:0:
435,304,7035,1,8,0:2:0:0:
341,285,7232,1,0,0:0:0:0:
265,377,7428,1,8,0:2:0:0:
246,384,7619,1,0,0:0:0:0:
271,359,7811,1,8,0:2:0:0:
252,366,8003,1,0,0:0:0:0:
158,373,8196,38,0,B|146:378|146:378|77:369,1,48.750001859665,8|0,0:0|0:0,0:0:0:0:
38,301,8392,2,0,B|51:295|51:295|100:316,1,48.750001859665,0|0,0:0|0:0,0:0:0:0:
165,359,8588,1,8,0:0:0:0:
169,348,8980,6,0,B|175:297|175:297|180:284|180:284|170:213,1,97.50000371933,8|0,0:0|0:0,0:0:0:0:
52,139,9372,2,0,B|49:143|49:143|45:164|45:164|20:111|20:111|15:26|15:26|-9:-10,1,195.00000743866,8|8,0:0|0:2,0:0:0:0:
116,26,9960,2,0,B|130:29|130:29|170:21,1,48.75,0|0,0:0|0:0,0:0:0:0:
170,21,10182,6,0,B|180:38|180:38|177:47|177:47|180:76,1,48.750001859665,8|0,0:0|0:0,0:0:0:0:
261,34,10368,2,0,B|256:49|256:49|257:61|257:61|250:97,1,48.750001859665
383,92,10554,2,0,B|368:59|368:59|356:53,1,48.750001859665,8|0,0:0|0:0,0:0:0:0:
445,53,10741,2,0,B|443:24|443:24|449:14|449:14|450:6,1,48.750001859665
509,148,10927,2,0,B|496:155|496:155|445:151|445:151|415:185,1,97.50000371933,8|2,0:0|0:0,0:0:0:0:
353,357,11349,37,8,0:0:0:0:
330,213,11544,1,0,0:0:0:0:
354,343,11739,2,0,B|360:328|360:328|363:287|363:287|397:234,1,97.50000371933,8|2,0:0|0:0,0:0:0:0:
195,342,12129,5,8,0:0:0:0:
207,183,12324,1,0,0:0:0:0:
181,329,12518,2,0,B|188:319|188:319|167:269|167:269|164:226,1,97.50000371933,8|2,0:0|0:0,0:0:0:0:
40,325,12908,5,8,0:0:0:0:
9,163,13103,1,0,0:0:0:0:
27,313,13298,2,0,B|27:273|27:273|45:241|45:241|51:194,1,97.50000371933,8|2,0:0|0:0,0:0:0:0:
45,81,13687,38,0,L|22:69,2,21.6666666666667,2|2|2,0:1|0:1|0:1,0:0:0:0:
21,48,13888,2,0,L|-4:53,2,21.6666666666667,8|8|8,0:1|0:1|0:1,0:0:0:0:
87,10,14089,1,2,0:0:0:0:
96,21,14156,6,0,B|116:30|116:30|179:36|179:36|192:71,1,108.333333333333,2|0,0:0|0:0,0:0:0:0:
211,155,14691,6,0,B|217:181|217:181|190:223|190:223|180:307,2,130,4|4|0,0:0|0:0|0:0,0:0:0:0:
311,11,15289,2,0,B|328:17|328:17|399:3|399:3|484:20,1,130,4|0,0:2|0:0,0:0:0:0:
511,150,15711,2,0,B|501:160|501:160|429:152|429:152|368:114,1,130,10|0,0:0|0:0,0:0:0:0:
432,251,16086,37,8,0:0:0:0:
464,344,16285,1,0,0:0:0:0:
374,380,16484,1,8,0:0:0:0:
268,341,16684,1,0,0:0:0:0:
156,360,16883,6,0,B|147:369|147:369|61:375|61:375|16:389,2,130,8|0|8,0:0|0:0|0:0,0:0:0:0:
127,252,17481,1,0,0:0:0:0:
129,275,18109,6,0,B|143:256|143:256|132:231|132:231|115:112,1,130,8|0,0:0|0:0,0:0:0:0:
43,0,18508,2,0,B|40:26|40:26|6:86|6:86|9:107|9:107|4:145,2,130,8|0|10,0:0|0:0|0:0,0:0:0:0:
150,58,19107,1,0,0:0:0:0:
292,0,19307,38,0,B|309:-6|309:-6|367:11|367:11|440:2,1,130,8|0,0:0|0:0,0:0:0:0:
500,168,19706,2,0,B|525:178|525:178|493:108|493:108|488:64,1,130,8|0,0:0|0:0,0:0:0:0:
377,109,20105,1,8,0:0:0:0:
363,200,20305,1,0,0:0:0:0:
381,297,20505,1,8,0:0:0:0:
349,384,20704,1,0,0:0:0:0:
185,352,20904,6,0,B|140:362|140:362|76:364|76:364|59:373,1,130,4|0,0:2|0:0,0:0:0:0:
195,238,21310,2,0,B|204:259|204:259|196:322|196:322|204:365,1,130,8|0,0:0|0:0,0:0:0:0:
77,211,21717,2,0,B|111:225|111:225|184:220|184:220|208:210,1,130,8|0,0:0|0:0,0:0:0:0:
62,355,22124,2,0,B|53:333|53:333|62:270|62:270|52:226,1,130,8|0,0:0|0:0,0:0:0:0:
131,103,22531,5,4,0:2:0:0:
179,171,22734,1,0,0:0:0:0:
270,124,22937,1,8,0:0:0:0:
220,31,23141,1,0,0:0:0:0:
95,107,23344,37,4,0:2:0:0:
172,197,23547,1,0,0:0:0:0:
302,128,23750,1,8,0:0:0:0:
217,0,23954,1,0,0:0:0:0:
183,88,24595,6,0,B|198:100|198:100|271:106|271:106|335:150,1,130,4|0,0:2|0:0,0:0:0:0:
512,63,24999,1,8,0:0:0:0:
369,0,25202,1,0,0:0:0:0:
417,121,25404,2,0,B|418:141|418:141|446:197|446:197|436:268,1,130,10|0,0:0|0:0,0:0:0:0:
401,374,25809,5,8,0:0:0:0:
302,333,26007,1,0,0:0:0:0:
204,384,26206,1,10,0:0:0:0:
108,372,26405,1,0,0:0:0:0:
29,261,26603,37,8,0:0:0:0:
7,372,26802,1,0,0:0:0:0:
31,352,27001,1,10,0:0:0:0:
16,233,27199,1,0,0:0:0:0:
135,212,27398,6,0,B|169:234|169:234|264:227|264:227|315:159|315:159|381:169,1,260,4|2,0:0|0:0,0:0:0:0:
441,157,27901,1,2,0:0:0:0:
441,157,28002,1,2,0:0:0:0:
441,157,28102,1,2,0:0:0:0:
460,171,28203,6,0,B|495:139|495:139|505:33|505:33|436:11|436:11|397:41,1,260,4|2,0:0|0:0,0:0:0:0:
308,15,28725,1,2,0:0:0:0:
308,15,28819,1,2,0:0:0:0:
308,15,28914,1,2,0:0:0:0:
322,32,29008,38,0,B|317:58|317:58|340:100|340:100|347:149,2,97.50000371933,4|0|10,0:2|0:0|0:0,0:0:0:0:
198,26,29600,2,0,B|178:36|178:36|131:41|131:41|106:65,1,97.50000371933,0|8,0:0|0:0,0:0:0:0:
0,125,29994,2,0,B|10:134|10:134|72:140|72:140|116:174,1,97.50000371933,0|10,0:0|0:0,0:0:0:0:
151,227,30389,1,0,0:0:0:0:
107,382,30586,5,4,0:2:0:0:
49,332,30784,2,0,B|40:319|40:319|35:296|35:296|24:280,2,48.750001859665,0|8|0,0:0|0:2|0:0,0:0:0:0:
107,382,31376,2,0,B|121:387|121:387|158:374,1,48.750001859665,8|0,0:2|0:0,0:0:0:0:
218,333,31771,2,0,B|226:323|226:323|279:344,1,48.750001859665,8|0,0:2|0:0,0:0:0:0:
342,367,32165,5,8,0:2:0:0:
390,315,32363,2,0,B|388:304|388:304|392:282|392:282|386:260,1,48.750001859665,0|8,0:0|0:2,0:0:0:0:
509,332,32758,37,0,0:0:0:0:
487,259,32954,2,0,B|479:248|479:248|484:201,2,48.750001859665,8|0|8,0:2|0:0|0:2,0:0:0:0:
500,193,33516,1,0,0:0:0:0:
510,108,33696,5,8,0:0:0:0:
420,16,33893,1,0,0:0:0:0:
495,40,34090,2,0,B|480:43|480:43|445:30|445:30|419:37,1,65,8|0,0:2|0:0,0:0:0:0:
307,63,34483,2,0,B|319:59|319:59|335:3,2,65,8|0|8,0:2|0:0|0:2,0:0:0:0:
167,102,35074,5,0,0:0:0:0:
227,57,35270,2,0,B|212:67|212:67|193:121,1,65,8|0,0:2|0:0,0:0:0:0:
267,194,35664,37,8,0:2:0:0:
333,167,35860,2,0,B|338:179|338:179|339:210|339:210|353:243,1,65,0|8,0:0|0:2,0:0:0:0:
416,305,36254,5,0,0:0:0:0:
324,338,36451,1,8,0:2:0:0:
233,371,36647,1,0,0:0:0:0:
125,375,36844,5,4,0:2:0:0:
125,375,37036,2,0,B|129:355|129:355|122:321|122:321|138:301,2,65,0|8|0,0:0|0:2|0:0,0:0:0:0:
34,314,37613,2,0,B|41:264|41:264|23:240,1,65,8|0,0:2|0:0,0:0:0:0:
91,171,37997,37,8,0:2:0:0:
87,162,38094,1,0,0:0:0:0:
77,152,38190,1,0,0:0:0:0:
107,179,38286,2,0,B|114:141|114:141|138:112|138:112|163:103,1,97.5,0|0,0:0|0:0,0:0:0:0:
268,93,38767,5,8,0:2:0:0:
227,2,38959,1,0,0:0:0:0:
330,18,39151,2,0,B|319:28|319:28|316:45|316:45|303:81,1,65,8|0,0:2|0:0,0:0:0:0:
123,76,39536,6,0,B|108:89|108:89|27:77|27:77|-15:86,1,130,8|0,0:0|0:0,0:0:0:0:
162,208,39933,2,0,B|180:196|180:196|182:191|182:191|256:203|256:203|308:185,1,130,8|0,0:0|0:0,0:0:0:0:
409,276,40330,38,0,B|416:282|416:282|426:319,1,32.5,4|0,0:2|0:0,0:0:0:0:
504,222,40528,2,0,B|502:240|502:240|497:249|497:249|494:304,1,65,0|8,0:0|0:2,0:0:0:0:
401,375,40926,2,0,B|386:371|386:371|346:379|346:379|317:367,2,65,0|8|0,0:0|0:2|0:0,0:0:0:0:
492,312,41522,1,8,0:2:0:0:
504,211,41720,1,0,0:0:0:0:
434,116,41919,6,0,B|412:98|412:98|404:98|404:98|344:86|344:86|288:50|288:50|246:44,1,195,8|0,0:0|0:0,0:0:0:0:
329,25,42316,2,0,B|339:15|339:15|423:9|423:9|460:-8,1,130,8|0,0:0|0:0,0:0:0:0:
419,187,42875,5,2,0:1:0:0:
384,200,42971,1,2,0:1:0:0:
348,212,43068,1,8,0:1:0:0:
256,175,43261,1,8,0:1:0:0:
167,288,43455,38,0,B|183:295|183:295|212:380,1,97.50000371933,10|0,0:0|0:0,0:0:0:0:
47,222,43842,2,0,B|42:203|42:203|55:156|55:156|48:114,2,97.50000371933,10|0|0,0:0|0:0|0:0,0:0:0:0:
110,344,44425,2,0,B|102:352|102:352|89:357|89:357|68:374,1,48.750001859665,10|0,0:0|0:0,0:0:0:0:
167,288,44621,2,0,B|186:299|186:299|234:305|234:305|238:305|238:305|258:323,1,97.5,10|0,0:0|0:0,0:0:0:0:
351,379,45013,6,0,B|378:329|378:329|433:290|433:290|468:286,1,146.250005578995,4|0,0:0|0:0,0:0:0:0:
512,341,45405,2,0,B|525:324|525:324|533:264|533:264|484:189|484:189|490:149,1,195.00000743866,4|2,0:0|0:0,0:0:0:0:
499,71,45897,5,2,0:0:0:0:
499,71,45993,1,2,0:0:0:0:
499,71,46088,1,2,0:0:0:0:
512,92,46184,2,0,B|516:104|516:104|477:97|477:97|461:99|461:99|415:91,1,97.50000371933,8|0,0:0|0:0,0:0:0:0:
255,67,46573,38,0,B|264:58|264:58|312:50,1,48.750001859665,8|0,0:0|0:0,0:0:0:0:
375,35,46768,2,0,B|377:17|377:17|341:-8,1,48.750001859665,0|2,0:0|0:0,0:0:0:0:
247,57,46963,2,0,B|254:76|254:76|248:89|248:89|239:168,1,97.50000371933,2|0,0:0|0:0,0:0:0:0:
229,264,47352,5,8,0:0:0:0:
99,138,47552,1,0,0:0:0:0:
99,138,47652,1,0,0:0:0:0:
99,138,47752,2,0,B|106:152|106:152|109:174,1,21.6666666666667,2|2,0:0|0:0,0:0:0:0:
117,241,47952,1,0,0:0:0:0:
9,341,48152,6,0,B|-11:314|-11:314|54:337|54:337|70:338|70:338|125:375,1,146.250005578995,4|0,0:0|0:0,0:0:0:0:
167,368,48540,2,0,B|172:367|172:367|196:375|196:375|290:337|290:337|371:355,1,195.00000743866,4|2,0:0|0:0,0:0:0:0:
441,348,49024,1,2,0:0:0:0:
441,348,49121,1,2,0:0:0:0:
441,348,49218,1,2,0:0:0:0:
458,358,49315,38,0,B|477:366|477:366|521:306|521:306|494:237,1,146.250005578995,4|0,0:0|0:0,0:0:0:0:
512,164,49703,2,0,B|497:156|497:156|488:206|488:206|454:251,1,97.50000371933,8|0,0:0|0:0,0:0:0:0:
383,217,49994,1,2,0:0:0:0:
383,217,50091,2,0,B|367:212|367:212|352:215|352:215|271:207,1,97.50000371933,2|0,0:0|0:0,0:0:0:0:
146,138,50478,5,8,0:0:0:0:
255,123,50675,1,0,0:0:0:0:
167,11,50871,2,0,B|178:14|178:14|183:12|183:12|218:20,1,32.5000012397767,2|2,0:0|0:0,0:0:0:0:
309,33,51067,1,0,0:0:0:0:
498,46,51263,6,0,B|504:33|504:33|513:26|513:26|451:46|451:46|436:81|436:81|417:99,1,146.250005578995,4|0,0:0|0:0,0:0:0:0:
460,157,51656,2,0,B|480:163|480:163|507:208|507:208|506:244,1,97.50000371933,4|0,0:0|0:0,0:0:0:0:
430,371,52084,37,8,0:0:0:0:
436,300,52208,2,0,B|432:288|432:288|388:257,1,65.0000024795533,2|0,0:2|0:0,0:0:0:0:
318,324,52457,1,10,0:0:0:0:
255,284,52582,2,0,B|242:281|242:281|193:304,1,65.0000024795533,2|0,0:2|0:0,0:0:0:0:
75,368,52832,6,0,B|103:340|103:340|112:258|112:258|72:218,1,146.250005578995,8|0,0:0|0:0,0:0:0:0:
36,203,53211,2,0,B|21:212|21:212|12:264|12:264|-12:289,1,97.50000371933,10|0,0:0|0:0,0:0:0:0:
6,110,53591,5,8,0:0:0:0:
79,95,53718,1,2,0:2:0:0:
140,138,53846,1,0,0:0:0:0:
212,129,53973,1,10,0:0:0:0:
218,134,54069,2,0,B|287:174,1,48.750001859665,2|0,0:2|0:0,0:0:0:0:
464,43,54356,38,0,B|471:34|471:34|492:21|492:21|416:32|416:32|366:18,1,146.250005578995,4|0,0:0|0:0,0:0:0:0:
314,3,54739,2,0,B|303:-4|303:-4|289:46|289:46|254:74,1,97.50000371933,4|0,0:0|0:0,0:0:0:0:
126,23,55146,5,8,0:0:0:0:
21,71,55325,1,0,0:0:0:0:
125,47,55504,2,0,B|136:64|136:64|127:112|127:112|145:148,1,97.50000371933,10|0,0:0|0:0,0:0:0:0:
237,245,55886,5,8,0:0:0:0:
237,245,56078,2,0,B|221:251|221:251|157:238,1,48.750001859665
132,284,56269,2,0,B|121:278|121:278|95:285|95:285|76:299,1,48.750001859665,10|0,0:0|0:0,0:0:0:0:
50,351,56460,2,0,B|47:364|47:364|5:391,1,48.750001859665
170,379,56651,37,8,0:0:0:0:
303,346,56843,1,0,0:0:0:0:
180,361,57034,2,0,B|197:356|197:356|246:366|246:366|313:355,1,97.50000371933,10|0,0:0|0:0,0:0:0:0:
423,345,57418,6,0,B|443:360|443:360|423:293|423:293|430:225,1,146.250005578995,4|0,0:0|0:0,0:0:0:0:
507,191,57826,2,0,B|486:179|486:179|508:267,1,97.50000371933,4|0,0:0|0:0,0:0:0:0:
364,129,58234,5,8,0:0:0:0:
307,92,58359,2,0,B|289:90|289:90|260:103|260:103|232:103,1,65.0000024795533,2|0,0:2|0:0,0:0:0:0:
402,38,58611,1,10,0:0:0:0:
465,13,58737,2,0,B|481:6|481:6|560:20,1,65.0000024795533,2|0,0:2|0:0,0:0:0:0:
512,139,58988,38,0,B|497:155|497:155|486:210|486:210|449:222|449:222|423:247,1,146.250005578995,4|0,0:0|0:0,0:0:0:0:
365,274,59366,2,0,B|354:266|354:266|306:263|306:263|244:247,1,97.50000371933,4|0,0:0|0:0,0:0:0:0:
118,342,59743,5,8,0:0:0:0:
112,259,59869,1,2,0:2:0:0:
186,296,59995,1,0,0:0:0:0:
107,348,60120,1,10,0:0:0:0:
75,364,60245,2,0,B|59:361|59:361|-13:386,1,65.0000024795533,2|0,0:2|0:0,0:0:0:0:
6,238,60498,6,0,B|12:227|12:227|4:175|4:175|45:133|45:133|55:99,1,146.250005578995,4|0,0:0|0:0,0:0:0:0:
23,42,60894,2,0,B|43:34|43:34|129:47|129:47|228:24,1,195.00000743866,4|2,0:0|0:0,0:0:0:0:
301,16,61389,37,2,0:0:0:0:
301,16,61488,1,2,0:0:0:0:
301,16,61587,1,2,0:0:0:0:
318,29,61686,2,0,B|342:28|342:28|375:53|375:53|385:95,2,97.50000371933,4|0|8,0:0|0:0|0:0,0:0:0:0:
225,138,62280,5,2,0:0:0:0:
213,174,62379,1,2,0:0:0:0:
202,208,62478,2,0,B|198:222|198:222|223:248|223:248|234:306,1,97.50000371933,10|0,0:0|0:0,0:0:0:0:
376,346,62851,5,8,0:0:0:0:
254,384,63044,1,0,0:0:0:0:
267,368,63238,2,0,B|281:374|281:374|333:369|333:369|387:381,1,97.50000371933,2|0,0:0|0:0,0:0:0:0:
482,350,63625,37,4,0:0:0:0:
458,282,63802,1,8,0:1:0:0:
458,282,63891,1,2,0:1:0:0:
458,282,63980,1,8,0:1:0:0:
503,220,64157,1,8,0:0:0:0:
464,150,64335,1,8,0:0:0:0:
390,139,64541,1,0,0:0:0:0:
493,55,64748,6,0,B|503:42|503:42|477:27|477:27|416:36|416:36|378:25,1,130,10|0,0:0|0:0,0:0:0:0:
282,19,65351,6,0,B|284:30|284:30|289:35|289:35|289:67,1,48.750001859665,4|0,0:0|0:0,0:0:0:0:
189,2,65541,2,0,B|185:15|185:15|192:63,1,48.750001859665,4|0,0:0|0:0,0:0:0:0:
198,150,65731,2,0,B|202:161|202:161|205:165|205:165|205:204,1,48.750001859665,4|2,0:0|0:0,0:0:0:0:
308,170,65921,2,0,B|299:179|299:179|293:230,1,48.750001859665,4|0,0:0|0:0,0:0:0:0:
295,305,66111,2,0,B|305:314|305:314|305:322|305:322|310:369,1,48.750001859665,4|0,0:0|0:0,0:0:0:0:
208,329,66301,2,0,B|202:364|202:364|164:388|164:388|134:380,1,97.50000371933,4|4,0:0|0:0,0:0:0:0:
13,330,66680,37,6,0:0:0:0:
73,281,66876,1,8,0:1:0:0:
73,281,66975,1,2,0:1:0:0:
73,281,67073,1,8,0:1:0:0:
149,290,67260,1,8,0:0:0:0:
179,359,67448,1,8,0:0:0:0:
252,373,67652,1,0,0:0:0:0:
343,356,67856,6,0,B|365:343|365:343|430:336|430:336|420:359|420:359|426:380,1,130,10|0,0:0|0:0,0:0:0:0:
512,218,68449,6,0,B|500:216|500:216|452:176,1,48.750001859665,4|0,0:0|0:0,0:0:0:0:
442,308,68646,2,0,B|430:291|430:291|427:283|427:283|402:262,1,48.750001859665,4|0,0:0|0:0,0:0:0:0:
339,206,68843,2,0,B|335:196|335:196|284:171,1,48.750001859665,4|0,0:0|0:0,0:0:0:0:
397,123,69039,2,0,B|391:112|391:112|386:110|386:110|348:76,1,48.750001859665,4|0,0:0|0:0,0:0:0:0:
279,33,69236,2,0,B|274:25|274:25|225:7,1,48.750001859665,4|0,0:0|0:0,0:0:0:0:
200,106,69433,2,0,B|196:92|196:92|173:79|173:79|114:11,1,97.50000371933,4|4,0:0|0:0,0:0:0:0:
0,0,69826,38,0,B|40:25|40:25|63:122|63:122|28:177|28:177|30:184|30:184|24:279,1,292.50001115799,4|0,0:2|0:0,0:0:0:0:
127,377,71400,2,0,B|82:358|82:358|174:354|174:354|184:349|184:349|254:340|254:340|324:358,1,292.50001115799,4|0,0:2|0:0,0:0:0:0:
467,324,72933,2,0,B|487:289|487:289|477:230|477:230|498:178,2,146.250005578995,4|0|0,0:2|0:0|0:0,0:0:0:0:
391,284,74467,2,0,L|179:309,1,195.00000743866,8|8,0:2|0:2,0:0:0:0:
207,384,75376,5,0,0:0:0:0:
207,384,75467,1,8,0:1:0:0:
207,384,75557,1,2,0:1:0:0:
45,341,75921,6,0,B|42:314|42:314|29:305|29:305|10:251,1,97.50000371933,6|8,0:0|0:1,0:0:0:0:
17,256,76182,1,2,0:1:0:0:
22,259,76269,1,8,0:1:0:0:
2,182,76444,1,8,0:0:0:0:
52,126,76618,1,8,0:0:0:0:
61,49,76822,1,0,0:0:0:0:
131,4,77026,38,0,B|163:-5|163:-5|223:9|223:9|234:10|234:10|190:32,1,130,10|0,0:0|0:0,0:0:0:0:
219,121,77585,6,0,B|237:141|237:141|247:148|247:148|257:177,1,48.750001859665,4|0,0:0|0:0,0:0:0:0:
313,68,77779,2,0,B|315:82|315:82|339:129,1,48.750001859665,4|0,0:0|0:0,0:0:0:0:
389,188,77972,2,0,B|392:197|392:197|408:213|408:213|429:252,1,48.750001859665,4|0,0:0|0:0,0:0:0:0:
304,262,78166,2,0,B|315:265|315:265|359:303,1,48.750001859665,4|0,0:0|0:0,0:0:0:0:
411,358,78359,2,0,B|422:370|422:370|460:394,1,48.750001859665,4|0,0:0|0:0,0:0:0:0:
495,307,78553,2,0,B|510:301|510:301|526:242|526:242|514:211,1,97.50000371933,4|4,0:0|0:0,0:0:0:0:
476,112,78939,5,6,0:0:0:0:
401,54,79127,1,8,0:1:0:0:
380,43,79222,1,2,0:1:0:0:
353,40,79316,1,8,0:1:0:0:
308,127,79505,1,8,0:0:0:0:
230,153,79693,1,8,0:0:0:0:
203,242,79882,1,0,0:0:0:0:
130,279,80071,38,0,B|116:295|116:295|111:326|111:326|106:335|106:335|99:372|99:372|76:332,1,130,10|0,0:0|0:0,0:0:0:0:
18,213,80637,6,0,B|27:207|27:207|41:208|41:208|69:204,1,48.750001859665,4|0,0:0|0:0,0:0:0:0:
38,104,80825,2,0,B|50:96|50:96|100:103,1,48.750001859665,4|0,0:0|0:0,0:0:0:0:
191,67,81014,2,0,B|202:69|202:69|226:61|226:61|238:61,1,48.750001859665,4|0,0:0|0:0,0:0:0:0:
178,182,81203,2,0,B|193:185|193:185|225:178,1,48.750001859665,4|0,0:0|0:0,0:0:0:0:
327,163,81391,2,0,B|352:162|352:162|389:143,1,48.750001859665,4|0,0:0|0:0,0:0:0:0:
351,40,81580,2,0,B|363:45|363:45|416:36|416:36|455:61,1,97.50000371933,4|4,0:0|0:0,0:0:0:0:
497,200,81980,5,6,0:0:0:0:
464,287,82161,1,8,0:1:0:0:
445,293,82252,1,2,0:1:0:0:
428,293,82343,1,8,0:1:0:0:
347,286,82525,1,8,0:0:0:0:
311,361,82707,1,8,0:0:0:0:
230,374,82889,1,0,0:0:0:0:
159,295,83070,38,0,B|145:282|145:282|160:279|160:279|220:289|220:289|278:275,1,130,10|0,0:0|0:0,0:0:0:0:
362,250,83639,6,0,B|355:234|355:234|347:229|347:229|320:202,1,48.750001859665,4|0,0:0|0:0,0:0:0:0:
438,146,83834,2,0,B|424:146|424:146|383:126,1,48.750001859665,4|0,0:0|0:0,0:0:0:0:
302,73,84029,2,0,B|295:63|295:63|242:42,1,48.750001859665,4|0,0:0|0:0,0:0:0:0:
243,173,84224,2,0,B|232:166|232:166|229:160|229:160|179:133,1,48.750001859665,4|0,0:0|0:0,0:0:0:0:
116,101,84419,2,0,B|105:105|105:105|51:98,1,48.750001859665,4|0,0:0|0:0,0:0:0:0:
138,0,84613,2,0,B|112:-11|112:-11|93:-2|93:-2|30:5,1,97.50000371933,4|4,0:0|0:0,0:0:0:0:
3,163,85003,5,6,0:0:0:0:
76,229,85181,1,8,0:1:0:0:
65,247,85270,1,2,0:1:0:0:
61,269,85360,1,8,0:1:0:0:
76,349,85538,1,8,0:0:0:0:
155,380,85717,2,0,B|168:385|168:385|230:376,1,65,8|0,0:0|0:0,0:0:0:0:
342,351,86082,38,0,B|359:357|359:357|366:364|366:364|361:313|361:313|312:265,1,130,10|0,0:0|0:0,0:0:0:0:
177,299,86662,6,0,B|189:285|189:285|203:242,1,48.750001859665,4|0,0:0|0:0,0:0:0:0:
97,234,86856,2,0,B|102:199|102:199|123:169,1,48.750001859665,4|0,0:0|0:0,0:0:0:0:
167,88,87052,2,0,B|178:85|178:85|217:52,1,48.750001859665,4|0,0:0|0:0,0:0:0:0:
256,183,87248,2,0,B|261:175|261:175|273:172|273:172|304:152,1,48.750001859665,4|0,0:0|0:0,0:0:0:0:
385,125,87444,2,0,B|398:121|398:121|475:128,1,48.750001859665,4|0,0:0|0:0,0:0:0:0:
338,0,87640,2,0,B|365:11|365:11|377:8|377:8|452:12,1,97.50000371933,4|4,0:0|0:0,0:0:0:0:
512,174,88032,6,0,B|532:241|532:241|495:348|495:348|480:342|480:342|426:383|426:383|392:385,1,292.50001115799,4|0,0:2|0:0,0:0:0:0:
219,378,89534,2,0,B|139:343|139:343|139:337|139:337|29:359|29:359|10:301|10:301|17:269,1,292.50001115799,4|0,0:2|0:0,0:0:0:0:
100,167,91041,2,0,B|105:112|105:112|120:91|120:91|98:19,1,146.250005578995,4|0,0:2|0:0,0:0:0:0:
27,0,91830,2,0,B|15:73|15:73|-10:101,1,97.50000371933,8|0,0:2|0:0,0:0:0:0:
100,189,92559,38,0,B|172:215|172:215|188:243,3,97.50000371933,8|8|8|8,0:2|0:2|0:2|0:2,0:0:0:0:
239,44,94075,2,0,B|314:35|314:35|327:39|327:39|419:-3|419:-3|451:8|451:8|468:88,1,292.50001115799,4|0,0:2|0:0,0:0:0:0:
495,229,95544,2,0,B|438:237|438:237|424:242|424:242|379:243|379:243|341:165|341:165|276:150|276:150|250:165,1,292.50001115799,4|0,0:2|0:0,0:0:0:0:
234,330,97014,2,0,B|176:320|176:320|153:324|153:324|15:301|15:301|28:322|28:322|93:334,1,292.50001115799,4|0,0:2|0:0,0:0:0:0:
230,362,98484,6,0,B|305:341|305:341|332:351,1,97.5,8|0,0:0|0:0,0:0:0:0:
328,366,99253,1,8,0:2:0:0:
408,357,99616,1,0,0:2:0:0:
436,234,99980,6,0,B|416:207|416:207|410:187|410:187|397:175,2,68.2499979171754,8|0|8,0:0|0:0|0:2,0:0:0:0:
490,139,101496,2,0,B|512:94|512:94|513:74,2,68.2499979171754,8|0|8,0:0|0:0|0:2,0:0:0:0:
424,25,102935,2,0,B|392:15|392:15|382:17|382:17|354:7,2,68.2499979171754,8|0|8,0:0|0:0|0:2,0:0:0:0:
388,132,104387,2,0,B|376:143|376:143|358:148|358:148|324:170,2,68.2499979171754,8|0|8,0:0|0:0|0:2,0:0:0:0:
263,62,105845,38,0,B|261:47|261:47|236:15|236:15|230:-2,2,68.2499979171754,8|0|8,0:0|0:0|0:2,0:0:0:0:
206,150,107293,2,0,B|155:161|155:161|136:173,2,68.2499979171754,8|0|8,0:0|0:0|0:2,0:0:0:0:
346,237,108704,6,0,B|356:219|356:219|365:212|365:212|382:196,1,45.4999986114502,8|8,0:0|0:2,0:0:0:0:
405,186,109239,2,0,B|396:205|396:205|389:210|389:210|378:223,1,45.4999986114502,0|0,0:0|0:0,0:0:0:0:
391,288,109775,1,8,0:2:0:0:
287,339,110134,2,0,B|253:330|253:330|234:336,1,45.4999986114502,8|8,0:0|0:2,0:0:0:0:
219,357,110676,2,0,B|230:359|230:359|269:356,1,45.4999986114502,0|0,0:0|0:0,0:0:0:0:
327,384,111218,1,8,0:2:0:0:
219,253,111579,6,0,B|223:225|223:225|232:216|232:216|241:182,2,68.2499979171754,8|0|8,0:0|0:0|0:2,0:0:0:0:
133,338,113069,2,0,B|92:362|92:362|87:376|87:376|81:388,2,68.2499979171754,8|0|8,0:0|0:0|0:2,0:0:0:0:
25,226,114505,2,0,B|26:254|26:254|30:263|30:263|33:294,2,68.2499979171754,8|0|8,0:0|0:0|0:2,0:0:0:0:
60,110,115963,2,0,B|70:80|70:80|64:61,1,45.4999986114502,8|8,0:0|0:2,0:0:0:0:
49,27,116518,2,0,B|53:39|53:39|49:66|49:66|52:94,1,68.2499979171754,0|8,0:0|0:2,0:0:0:0:
215,82,117445,38,0,B|245:63|245:63|253:53,1,45.4999986114502,8|8,0:0|0:2,0:0:0:0:
264,19,118004,2,0,B|253:32|253:32|223:44|223:44|212:67,1,68.2499979171754,0|8,0:0|0:2,0:0:0:0:
341,151,118877,2,0,B|367:160|367:160|381:161|381:161|413:173,1,68.2499979171754,8|0,0:0|0:0,0:0:0:0:
508,180,119591,6,0,B|446:166|446:166|414:192,1,97.50000371933,2|8,0:0|0:2,0:0:0:0:
213,366,120276,2,0,B|186:345|186:345|157:261|157:261|203:180,1,195.00000743866,4|8,0:2|0:2,0:0:0:0:
203,198,121270,2,0,B|216:200|216:200|276:173,1,48.750001859665,0|0,0:0|0:0,0:0:0:0:
322,151,121601,2,0,B|425:172|425:172|464:223,1,146.250005578995,10|2,0:0|0:0,0:0:0:0:
424,283,122264,2,0,B|405:284|405:284|390:276|390:276|324:259,1,97.50000371933,8|0,0:2|0:0,0:0:0:0:
189,119,122927,6,0,B|158:78|158:78|156:64|156:64|115:17|115:17|44:8,1,195.00000743866,4|8,0:2|0:2,0:0:0:0:
41,7,123928,2,0,B|17:33|17:33|13:48,1,48.750001859665,0|0,0:0|0:0,0:0:0:0:
0,127,124241,2,0,B|56:185|56:185|85:203|85:203|77:252,1,146.250005578995,10|2,0:0|0:0,0:0:0:0:
68,316,124898,2,0,B|29:342|29:342|11:348|11:348|-4:386,1,97.50000371933,8|0,0:2|0:0,0:0:0:0:
232,369,125556,38,0,B|251:362|251:362|344:371|344:371|349:364|349:364|422:312,1,195.00000743866,4|8,0:2|0:2,0:0:0:0:
420,254,126377,1,2,0:0:0:0:
420,254,126542,2,0,B|382:241|382:241|355:255,1,48.750001859665,0|0,0:0|0:0,0:0:0:0:
473,182,126871,2,0,B|499:153|499:153|508:68|508:68|478:89,1,146.250005578995,10|2,0:0|0:0,0:0:0:0:
427,26,127528,2,0,B|412:16|412:16|313:34,1,97.50000371933,8|0,0:2|0:0,0:0:0:0:
115,14,128186,6,0,B|95:68|95:68|106:125|106:125|102:141|102:141|124:216,1,195,4|8,0:2|0:2,0:0:0:0:
127,205,129186,2,0,B|143:210|143:210|194:202,1,48.750001859665,0|0,0:0|0:0,0:0:0:0:
249,240,129519,2,0,B|261:255|261:255|248:325|248:325|278:381,1,146.250005578995,10|2,0:0|0:0,0:0:0:0:
356,360,130186,2,0,B|374:354|374:354|400:296|400:296|432:286,1,97.50000371933,8|0,0:2|0:0,0:0:0:0:
508,132,130852,6,0,B|497:106|497:106|499:96|499:96|422:32|422:32|348:42,1,195.00000743866,4|8,0:2|0:2,0:0:0:0:
361,48,131872,2,0,B|352:59|352:59|309:71,1,48.750001859665,0|0,0:0|0:0,0:0:0:0:
250,18,132219,2,0,B|170:-8|170:-8|147:4|147:4|130:61,1,146.250005578995,10|2,0:0|0:0,0:0:0:0:
182,107,132901,2,0,B|186:120|186:120|170:190|170:190|181:213,1,97.50000371933,8|0,0:2|0:0,0:0:0:0:
5,366,133584,38,0,B|36:371|36:371|147:354|147:354|183:364|183:364|174:383,1,195.00000743866,4|8,0:2|0:2,0:0:0:0:
183,380,134608,2,0,B|199:385|199:385|244:378,1,48.750001859665,0|0,0:0|0:0,0:0:0:0:
312,358,134950,2,0,B|328:352|328:352|349:285|349:285|389:268|389:268|414:278,1,146.250005578995,10|2,0:0|0:0,0:0:0:0:
482,247,135620,2,0,B|500:255|500:255|511:344,1,97.50000371933,8|0,0:2|0:0,0:0:0:0:
310,179,136293,6,0,B|288:163|288:163|271:79|271:79|222:49|222:49|194:54,1,195.00000743866,4|8,0:2|0:2,0:0:0:0:
195,47,137339,2,0,B|188:14|188:14|193:-3,1,48.750001859665,0|0,0:0|0:0,0:0:0:0:
294,0,137688,2,0,B|410:31|410:31|447:20,1,146.250005578995,10|2,0:0|0:0,0:0:0:0:
503,68,138354,2,0,B|515:79|515:79|505:133|505:133|516:171,1,97.50000371933,8|0,0:2|0:0,0:0:0:0:
435,330,139020,6,0,B|409:344|409:344|313:337|313:337|269:358|269:358|265:398,1,195.00000743866,4|8,0:2|0:2,0:0:0:0:
260,384,140048,2,0,B|225:377|225:377|197:387,1,48.750001859665,0|0,0:0|0:0,0:0:0:0:
132,359,140391,2,0,B|106:346|106:346|98:263|98:263|75:223,1,146.250005578995,10|2,0:0|0:0,0:0:0:0:
1,215,141077,2,0,B|-10:156|-10:156|-2:146|-2:146|6:121,1,97.50000371933,8|2,0:2|0:2,0:0:0:0:
156,22,141762,38,0,B|192:13|192:13|269:30|269:30|305:26,1,146.250005578995,4|0,0:2|0:0,0:0:0:0:
378,1,142441,2,0,B|379:33|379:33|368:53|368:53|363:99,1,97.50000371933,8|0,0:0|0:0,0:0:0:0:
413,162,142951,1,0,0:0:0:0:
419,169,143121,2,0,B|432:183|432:183|487:118,1,97.50000371933,10|0,0:0|0:0,0:0:0:0:
512,230,143631,1,2,0:0:0:0:
464,297,143801,2,0,B|459:310|459:310|429:324|429:324|391:378,1,97.50000371933,8|0,0:0|0:0,0:0:0:0:
170,358,144481,6,0,B|100:346|100:346|86:339|86:339|21:366,1,130,8|0,0:0|0:0,0:0:0:0:
249,243,145191,2,0,B|266:250|266:250|348:245|348:245|375:284,1,130,8|0,0:0|0:0,0:0:0:0:
99,173,145880,2,0,B|90:153|90:153|100:88|100:88|89:25,1,130,10|0,0:0|0:0,0:0:0:0:
16,0,146385,1,2,0:0:0:0:
16,0,146554,2,0,B|22:13|22:13|2:139,1,130,8|0,0:0|0:0,0:0:0:0:
207,159,147228,6,0,B|234:170|234:170|278:159|278:159|308:81,1,130,4|0,0:2|0:0,0:0:0:0:
464,3,147933,2,0,B|448:14|448:14|382:11|382:11|349:65,1,130,8|0,0:0|0:0,0:0:0:0:
371,134,148444,1,0,0:0:0:0:
476,199,148614,38,0,B|492:208|492:208|512:334,1,130,10|0,0:0|0:0,0:0:0:0:
367,376,149131,1,2,0:0:0:0:
387,384,149303,2,0,B|411:372|411:372|432:296|432:296|425:241,1,130,8|0,0:0|0:0,0:0:0:0:
239,228,149994,6,0,B|218:238|218:238|143:231|143:231|117:265,1,130,4|0,0:2|0:0,0:0:0:0:
0,110,150668,2,0,B|12:118|12:118|73:117|73:117|103:163,1,130,8|0,0:0|0:0,0:0:0:0:
61,231,151183,1,0,0:0:0:0:
73,363,151362,6,0,B|119:359|119:359|131:363|131:363|151:357,1,65,10|0,0:0|0:0,0:0:0:0:
244,343,151684,2,0,B|236:331|236:331|202:323|202:323|170:296,1,65,0|2,0:0|0:0,0:0:0:0:
73,363,152029,1,8,0:0:0:0:
59,371,152374,1,0,0:0:0:0:
511,264,152721,38,0,B|453:256|453:256|440:247|440:247|417:249,1,97.5,8|0,0:0|0:0,0:0:0:0:
333,378,153070,2,0,B|341:328|341:328|356:307|356:307|358:286,1,97.5,8|0,0:0|0:0,0:0:0:0:
216,220,153420,2,0,B|268:226|268:226|289:235|289:235|312:233,1,97.5,8|0,0:0|0:0,0:0:0:0:
393,104,153769,2,0,B|385:150|385:150|369:172|369:172|371:196,1,97.5,8|0,0:0|0:0,0:0:0:0:
142,93,154120,6,0,B|140:72|140:72|120:24|120:24|120:-25,1,97.5,8|0,0:0|0:0,0:0:0:0:
198,133,154469,2,0,B|220:136|220:136|262:122|262:122|321:123,1,97.5,8|0,0:0|0:0,0:0:0:0:
150,182,154819,2,0,B|150:203|150:203|173:234|173:234|171:300,1,97.5,8|0,0:0|0:0,0:0:0:0:
93,143,155169,2,0,B|70:139|70:139|22:153|22:153|-24:133,1,97.5,8|0,0:0|0:0,0:0:0:0:
68,363,155519,6,0,B|100:357|100:357|270:243,2,195.00000743866,4|8|8,0:2|0:0|0:0,0:0:0:0:
480,348,156569,1,8,0:0:0:0:
322,181,156919,38,0,B|288:173|288:173|152:39,2,195.00000743866,8|8|8,0:0|0:0|0:0,0:0:0:0:
30,138,157969,1,8,0:0:0:0:
279,0,158318,6,0,B|324:9|324:9|353:38|353:38|358:62,1,97.5,4|0,0:2|0:0,0:0:0:0:
512,81,158677,2,0,B|473:73|473:73|430:90|430:90|419:120,1,97.5,8|0,0:0|0:0,0:0:0:0:
252,122,159036,2,0,B|300:116|300:116|338:130|338:130|360:157,1,97.5,8|0,0:0|0:0,0:0:0:0:
511,177,159395,2,0,B|474:170|474:170|430:184|430:184|403:212,1,97.5,8|0,0:0|0:0,0:0:0:0:
260,262,159755,2,0,B|298:238|298:238|330:230|330:230|363:235,1,97.5,8|0,0:0|0:0,0:0:0:0:
509,258,160102,2,0,B|480:260|480:260|436:289|436:289|423:315,1,97.5,8|0,0:0|0:0,0:0:0:0:
353,350,160450,2,0,B|346:363|346:363|293:389|293:389|211:383,1,130,8|8,0:0|0:0,0:0:0:0:
0,316,161146,6,0,B|65:330|65:330|94:355,1,97.5,4|0,0:0|0:0,0:0:0:0:
166,384,161494,2,0,B|95:386|95:386|68:368,1,97.5,4|0,0:0|0:0,0:0:0:0:
6,217,161841,2,0,B|74:255|74:255|88:277,1,97.5,4|0,0:0|0:0,0:0:0:0:
161,377,162189,2,0,B|87:356|87:356|70:322,1,97.5,4|0,0:0|0:0,0:0:0:0:
20,89,162537,38,0,B|23:110|23:110|84:182,1,97.50000371933,4|0,0:2|0:0,0:0:0:0:
155,363,162875,2,0,B|112:302|112:302|114:255,1,97.50000371933,4|0,0:2|0:0,0:0:0:0:
112,13,163214,2,0,B|95:12|95:12|123:126,1,97.50000371933,4|0,0:2|0:0,0:0:0:0:
152,348,163553,2,0,B|133:235|133:235|149:204,1,146.250005578995,4|0,0:2|0:0,0:0:0:0:
235,171,163892,5,8,0:0:0:0:
322,140,164378,2,0,B|367:118|367:118|361:139,1,65,8|8,0:0|0:2,0:0:0:0:
332,269,165027,1,8,0:0:0:0:
322,276,165189,2,0,B|309:284|309:284|315:227,1,65,2|8,0:0|0:0,0:0:0:0:
400,209,165667,1,2,0:0:0:0:
466,216,165827,2,0,B|519:221|519:221|511:209,1,65,8|0,0:0|0:0,0:0:0:0:
426,109,166465,6,0,B|431:122|431:122|348:93,2,97.5,8|8|8,0:0|0:0|0:2,0:0:0:0:
351,25,167625,1,8,0:0:0:0:
284,45,167790,2,0,B|205:68|205:68|219:43,1,97.5,2|2,0:0|0:0,0:0:0:0:
258,169,168447,38,0,B|265:160|265:160|276:221,1,65,2|0,0:1|0:0,0:0:0:0:
0,384,169104,38,0,B|46:374|21:333|76:322,1,97.5,4|0,0:2|0:0,0:0:0:0:
115,81,169809,2,0,B|162:79|146:127|195:127,1,97.5,4|0,0:2|0:0,0:0:0:0:
259,369,170515,2,0,B|304:375|296:322|348:332,1,97.5,4|0,0:2|0:0,0:0:0:0:
508,337,171198,6,0,B|523:355|499:355|448:340,1,65,4|0,0:0|0:0,0:0:0:0:
308,236,171540,2,0,B|294:252|318:252|374:231,1,65,4|0,0:0|0:0,0:0:0:0:
508,126,171859,2,0,B|528:133|505:145|451:141,1,65,4|0,0:0|0:0,0:0:0:0:
297,74,172178,2,0,B|287:95|309:97|375:62|381:3,1,130,4|0,0:2|0:0,0:0:0:0:
303,10,173206,38,0,B|317:-6|298:-13|225:0|198:46,1,121.875004649162,4|0,0:2|0:0,0:0:0:0:
120,3,173919,6,0,B|106:10|96:27|94:65,1,65,4|0,0:0|0:0,0:0:0:0:
73,302,174259,2,0,B|63:296|53:279|58:238,1,65,4|0,0:0|0:0,0:0:0:0:
192,69,174600,2,0,B|182:80|179:100|193:136,1,65,4|0,0:0|0:0,0:0:0:0:
241,384,174941,2,0,B|226:370|224:325|272:261,1,130,4|0,0:2|0:0,0:0:0:0:
348,216,175964,6,0,B|342:201|338:192|309:207|324:239|368:267|352:306,1,121.875,4|0,0:2|0:0,0:0:0:0:
320,366,176659,2,0,B|302:388|290:392|251:382,1,65,4|0,0:0|0:0,0:0:0:0:
0,355,177007,2,0,B|19:333|31:329|57:339,1,65,4|0,0:0|0:0,0:0:0:0:
280,315,177355,2,0,B|253:325|241:322|212:294,1,65,4|0,0:0|0:0,0:0:0:0:
0,175,177703,2,0,B|27:165|39:168|57:189,1,65,4|0,0:0|0:0,0:0:0:0:
268,250,178050,2,0,B|242:238|235:227|234:187,1,65,4|0,0:0|0:0,0:0:0:0:
96,0,178398,2,0,B|123:12|130:23|128:50,1,65,4|0,0:0|0:0,0:0:0:0:
261,105,178746,38,0,B|278:111|303:108|300:92|329:81|342:102|365:106,1,84.4999961318971,4|0,0:0|0:0,0:0:0:0:
333,284,179094,2,0,B|332:279|319:300|290:289|293:273|268:270|251:276,1,84.4999961318971,4|0,0:0|0:0,0:0:0:0:
380,22,179442,2,0,B|397:24|421:16|415:1|442:-14|458:3|482:3,1,84.4999961318971,4|0,0:0|0:0,0:0:0:0:
489,226,179790,2,0,B|487:221|479:245|448:239|448:223|423:225|407:234,1,84.4999961318971,4|0,0:0|0:0,0:0:0:0:
261,105,180137,2,0,B|246:94|221:90|219:106|189:109|182:85|180:89,1,84.4999961318971,4|0,0:0|0:0,0:0:0:0:
156,356,180485,2,0,B|169:367|194:373|199:359|228:357|232:382|234:378,1,84.4999961318971,4|0,0:0|0:0,0:0:0:0:
466,354,180833,6,0,B|414:318|459:271|479:277|487:221|472:190,1,162.5,4|2,0:2|0:2,0:0:0:0:
446,143,181657,1,0,0:0:0:0:
321,247,181822,6,0,B|306:265|291:267|233:269,1,65,4|0,0:0|0:0,0:0:0:0:
0,162,182162,2,0,B|7:183|41:198|113:202,1,121.875,4|0,0:2|0:0,0:0:0:0:
119,131,182844,38,0,B|118:101|133:112|137:91|130:58,1,65,4|0,0:0|0:0,0:0:0:0:
185,326,183192,2,0,B|206:354|190:354|192:374|212:390,1,65,4|0,0:0|0:0,0:0:0:0:
260,87,183541,2,0,B|265:47|285:64|289:37|295:11|283:-6,1,97.50000371933,4|0,0:2|0:0,0:0:0:0:
437,159,184255,6,0,B|471:157|499:183|482:202|485:227|526:242,1,121.875,4|0,0:2|0:0,0:0:0:0:
464,293,184948,2,0,B|446:289|431:300|404:340,1,65,4|0,0:0|0:0,0:0:0:0:
276,351,185292,2,0,B|273:365|258:375|211:387,1,65,4|0,0:0|0:0,0:0:0:0:
436,219,185637,6,0,B|428:205|409:202|362:211,1,65,4|0,0:0|0:0,0:0:0:0:
222,145,185981,2,0,B|208:151|190:144|155:114,1,65,4|0,0:0|0:0,0:0:0:0:
486,158,186327,2,0,B|499:142|501:92|485:49|461:30,1,130,4|2,0:2|0:2,0:0:0:0:
404,0,187169,1,0,0:0:0:0:
291,98,187338,38,0,B|268:122|268:143|284:162,1,65,4|0,0:0|0:0,0:0:0:0:
450,374,187662,2,0,B|405:357|439:328|401:296|354:305,1,121.875,4|0,0:2|0:0,0:0:0:0:
284,328,188347,6,0,B|270:337|260:348|256:395,1,65,4|0,0:0|0:0,0:0:0:0:
205,135,188690,2,0,B|195:125|185:102|196:70,1,65,4|0,0:0|0:0,0:0:0:0:
109,325,189033,2,0,B|69:331|69:382|37:386,1,97.50000371933,4|0,0:2|0:0,0:0:0:0:
260,6,189747,6,0,B|272:11|283:33|280:74,1,65,4|0,0:0|0:0,0:0:0:0:
168,285,190104,2,0,B|151:302|151:329|163:357,1,65,4|0,0:0|0:0,0:0:0:0:
13,37,190461,38,0,B|12:26|21:17|21:17|30:22|69:85|-3:78|-23:126|47:205,1,195.00000743866,6|2,0:0|0:2,0:0:0:0:
168,285,191003,1,0,0:0:0:0:
414,188,191188,6,0,B|439:148|461:192|491:174|503:141,1,97.5,4|0,0:2|0:0,0:0:0:0:
306,339,191929,2,0,B|315:358|343:376|374:348|388:389,1,97.5,4|0,0:2|0:0,0:0:0:0:
222,92,192669,2,0,B|233:66|257:59|286:75|294:23,1,97.5,4|0,0:2|0:0,0:0:0:0:
197,7,193410,6,0,B|167:21|153:48|145:79,1,65,4|0,0:0|0:0,0:0:0:0:
29,158,193760,2,0,B|31:190|52:213|78:231,1,65,4|0,0:0|0:0,0:0:0:0:
222,92,194111,2,0,B|204:120|208:150|219:180,1,65,4|0,0:0|0:0,0:0:0:0:
162,342,194462,2,0,B|182:367|217:381|256:375,2,97.5,4|0|8,0:2|0:0|0:2,0:0:0:0:
11,379,195573,38,0,B|26:343|57:324|96:322,1,97.5,4|0,0:2|0:0,0:0:0:0:
162,342,196287,2,0,B|155:353|173:358|220:342,1,65,4|0,0:0|0:0,0:0:0:0:
408,259,196644,2,0,B|418:266|403:277|353:278,1,65,4|0,0:0|0:0,0:0:0:0:
157,97,197001,2,0,B|145:103|158:116|207:126,1,65,4|0,0:0|0:0,0:0:0:0:
406,168,197358,2,0,B|378:170|343:129|411:95|368:56,1,130,4|0,0:2|0:0,0:0:0:0:
120,5,198448,6,0,B|92:3|48:38|111:71|85:103,1,121.875,4|0,0:2|0:0,0:0:0:0:
45,157,199176,2,0,B|32:149|23:155|46:213,1,65,4|0,0:0|0:0,0:0:0:0:
94,355,199539,2,0,B|107:363|116:357|93:299,1,65,4|0,0:0|0:0,0:0:0:0:
215,86,199903,2,0,B|208:80|190:86|200:140,1,65,4|0,0:0|0:0,0:0:0:0:
182,353,200255,2,0,B|188:359|204:351|198:295,1,65,4|0,0:0|0:0,0:0:0:0:
392,73,200608,2,0,B|379:58|371:67|364:121,1,65,4|0,0:0|0:0,0:0:0:0:
260,377,200961,2,0,B|265:388|276:387|303:334,1,65,4|0,0:0|0:0,0:0:0:0:
464,210,201314,6,0,B|432:191|418:186|368:229,1,84.4999961318971,4|0,0:0|0:0,0:0:0:0:
398,358,201678,2,0,B|440:386|451:379|494:339,1,84.4999961318971,4|0,0:0|0:0,0:0:0:0:
365,88,202043,2,0,B|336:63|329:53|267:90,1,84.4999961318971,4|0,0:0|0:0,0:0:0:0:
268,290,202407,2,0,B|299:320|312:320|365:287,1,84.4999961318971,4|0,0:0|0:0,0:0:0:0:
206,8,202772,2,0,B|173:-13|158:-11|128:16,1,84.4999961318971,4|0,0:0|0:0,0:0:0:0:
149,248,203137,2,0,B|183:268|197:268|226:239,1,84.4999961318971,4|0,0:0|0:0,0:0:0:0:
13,119,203502,38,0,B|-1:128|-15:139|3:140|69:140|150:125,1,162.5,4|2,0:2|0:2,0:0:0:0:
208,110,204375,1,0,0:0:0:0:
237,266,204564,6,0,B|252:276|258:292|242:328,1,65,4|0,0:0|0:0,0:0:0:0:
141,126,204941,2,0,B|123:121|113:107|107:60|143:9,1,121.875,4|0,0:2|0:0,0:0:0:0:
207,2,205646,6,0,B|225:23|240:25|274:8,1,65,4|0,0:0|0:0,0:0:0:0:
343,284,206009,2,0,B|325:305|310:307|276:290,1,65,4|0,0:0|0:0,0:0:0:0:
446,63,206373,2,0,B|410:87|387:84|358:51,1,97.50000371933,4|0,0:2|0:0,0:0:0:0:
179,304,207100,38,0,B|144:288|126:303|98:333|88:377,1,121.875,4|0,0:2|0:0,0:0:0:0:
47,298,207827,2,0,B|34:292|26:280|18:233,1,65,4|0,0:0|0:0,0:0:0:0:
17,111,208197,2,0,B|27:104|31:97|11:44,1,65,4|0,0:0|0:0,0:0:0:0:
112,248,208567,6,0,B|104:235|105:221|138:178,1,65,4|0,0:0|0:0,0:0:0:0:
264,29,208919,2,0,B|278:33|290:30|326:-9,1,65,4|0,0:0|0:0,0:0:0:0:
475,99,209272,2,0,B|467:90|442:83|404:117|369:166,1,130,4|2,0:2|0:2,0:0:0:0:
422,211,210157,1,0,0:0:0:0:
282,373,210337,6,0,B|255:380|240:376|224:351,1,65,4|0,0:0|0:0,0:0:0:0:
120,136,210696,2,0,B|146:128|161:132|193:165|212:216,1,121.875,4|0,0:2|0:0,0:0:0:0:
144,253,211389,38,0,B|130:273|101:261|89:293,1,65,4|0,0:0|0:0,0:0:0:0:
28,92,211736,2,0,B|44:60|75:71|69:31,1,65,4|0,0:0|0:0,0:0:0:0:
173,328,212083,2,0,B|183:372|232:369|270:280|259:386|298:366,1,146.250005578995,4|0,0:2|0:0,0:0:0:0:
431,276,212801,6,0,B|462:278|471:250|490:253,1,65,4|0,0:0|0:0,0:0:0:0:
510,56,213147,2,0,B|481:50|494:25|455:24,1,65,4|0,0:0|0:0,0:0:0:0:
366,344,213539,2,0,B|359:348|354:361|354:361|323:362|261:351|309:281|227:287|202:316,1,195.00000743866,6|0,0:0|0:0,0:0:0:0:
0,29,214323,5,4,0:2:0:0:
256,192,214414,12,0,225131,0:0:0:0:
347,313,225476,5,0,0:0:0:0:
411,297,225783,2,0,B|423:290|423:290|434:263|434:263|456:250,2,65,2|0|2,0:2|0:0|0:2,0:0:0:0:
250,370,227991,1,2,0:2:0:0:
195,333,228362,1,0,0:0:0:0:
134,355,228734,1,2,0:2:0:0:
48,330,229105,6,0,B|37:307|37:307|43:269|43:269|50:253|50:253|45:234,1,97.5
28,94,230907,1,2,0:2:0:0:
72,43,231272,1,0,0:0:0:0:
125,80,231638,1,2,0:2:0:0:
235,34,232004,2,0,B|253:37|253:37|291:28|291:28|313:16|313:16|307:36,1,97.5,2|0,0:2|0:0,0:0:0:0:
319,131,233842,6,0,B|321:143|321:143|329:152|329:152|335:169,2,32.5,2|0|2,0:2|0:0|0:2,0:0:0:0:
256,192,234672,12,0,236897,0:0:0:0:
501,202,237520,38,0,B|495:215|495:215|442:235|442:235|410:230|410:230|332:248|332:248|300:281,1,227.5,2|0,0:2|0:0,0:0:0:0:
211,232,240696,6,0,B|188:226|188:226|170:233|170:233|117:223|117:223|84:151|84:151|47:136|47:136|37:140,1,227.5,2|0,0:2|0:0,0:0:0:0:
12,230,243536,6,0,B|16:246|16:246|21:252|21:252|28:276|28:276|19:291|19:291|16:311|16:311|18:317,1,94.25,2|0,0:2|0:0,0:0:0:0:
256,192,249038,12,0,254896,0:0:0:0:
