osu file format v14

[General]
AudioFilename: audio.mp3
AudioLeadIn: 0
PreviewTime: 75800
Countdown: 0
SampleSet: None
StackLeniency: 0.5
Mode: 0
LetterboxInBreaks: 0
WidescreenStoryboard: 1

[Editor]
Bookmarks: 1959,30586,42875,99980,120276,152721,163892,173206,243536,248684
DistanceSpacing: 1
BeatDivisor: 4
GridSize: 32
TimelineZoom: 1.2

[Metadata]
Title:amBROsius
TitleUnicode:amBROsius
Artist:noumenon
ArtistUnicode:noumenon
Creator:squirrelpascals
Version:easy
Source:
Tags:noise math rock instrumental prog progressive Party Mathematics
BeatmapID:2374043
BeatmapSetID:1080681

[Difficulty]
HPDrainRate:3
CircleSize:2
OverallDifficulty:2
ApproachRate:4
SliderMultiplier:1.1
SliderTickRate:1

[Events]
//Background and Video events
0,0,"atavali_tony_do.jpg",0,0
//Break Periods
2,30786,35270
2,70027,72933
2,100180,108704
2,234782,236200
//Storyboard Layer 0 (Background)
//Storyboard Layer 1 (Fail)
//Storyboard Layer 2 (Pass)
//Storyboard Layer 3 (Foreground)
//Storyboard Layer 4 (Overlay)
//Storyboard Sound Samples

[TimingPoints]
379,352.941176470588,4,3,1,50,1,0
731,428.571428571429,4,3,1,50,1,0
1159,400,4,3,1,50,1,0
1959,402.684563758389,4,3,1,50,1,0
2764,385.852090032154,4,3,1,50,1,0
3536,388.349514563107,4,3,1,50,1,0
6642,393.44262295082,4,3,1,50,1,0
7428,383.386581469649,4,3,1,50,1,0
8196,392.156862745098,4,3,1,50,1,0
9960,443.62292051756,4,3,1,50,1,0
10182,372.670807453417,4,3,1,50,1,0
10927,422.535211267606,4,3,1,50,1,0
11350,389.61038961039,4,3,1,50,1,0
13687,402.684563758389,4,3,1,35,1,0
14492,398.671096345515,4,3,1,50,1,0
15289,422.535211267606,4,3,1,50,1,0
15711,375,4,3,1,50,1,0
16086,398.671096345515,4,3,1,50,1,0
17681,428.571428571429,4,3,1,50,1,0
18109,399.334442595674,4,3,1,50,1,0
19307,399.334442595674,4,3,1,50,1,0
20904,406.779661016949,4,3,1,50,1,0
24158,437.956204379563,4,3,1,5,1,0
24595,404.721753794266,4,3,1,50,1,0
25809,397.350993377484,4,3,1,50,1,0
27398,402.684563758389,4,3,1,50,1,0
28203,428.571428571428,4,3,1,50,1,0
28631,377.358490566038,4,3,1,50,1,0
29008,394.736842105263,4,3,1,50,1,0
32954,382.165605095541,4,3,1,35,1,0
33336,360.902255639098,4,3,1,35,1,0
33697,393.44262295082,4,3,1,35,1,0
36844,384.615384615385,5,3,1,35,1,0
38382,-100,5,3,2,35,0,0
38767,-100,5,3,1,35,0,0
39536,397.350993377483,5,3,1,50,1,0
40330,397.350993377483,5,3,1,50,1,0
41919,-100,5,3,1,50,0,0
42316,372.670807453416,4,3,1,50,1,0
42875,387.096774193548,4,3,1,50,1,0
43068,387.096774193548,4,3,1,50,1,0
44229,392.156862745098,4,3,1,50,1,0
45405,397.350993377483,4,3,1,50,1,0
45802,382.165605095542,4,3,1,50,1,0
46184,389.61038961039,4,3,1,50,1,0
47352,400,4,3,1,50,1,0
48152,388.349514563107,4,3,1,50,1,0
48928,387.722132471729,4,3,1,50,1,0
50479,392.156862745098,4,3,1,50,1,0
51656,428.571428571429,4,3,1,50,1,0
52084,373.831775700935,4,3,1,50,1,0
52832,379.746835443038,4,3,1,50,1,0
53591,382.775119617225,4,3,1,50,1,0
54739,406.779661016949,4,3,1,50,1,0
55146,358.208955223881,3,3,1,50,1,0
55504,382.775119617225,3,3,1,50,1,0
56269,382.775119617225,3,3,1,50,1,0
57418,408.163265306122,4,3,1,50,1,0
58234,377.358490566038,4,3,1,50,1,0
60120,377.358490566038,4,3,1,50,1,0
60498,396.039603960396,4,3,1,50,1,0
61290,396.039603960396,3,3,1,50,1,0
62082,396.039603960396,3,3,1,50,1,0
62478,371.517027863777,3,3,1,50,1,0
62851,387.096774193548,3,3,1,50,1,0
63625,355.029585798816,4,3,1,50,1,0
64335,413.793103448275,4,3,1,50,1,0
65162,379.746835443038,4,3,1,50,1,0
66680,393.442622950819,4,3,1,50,1,0
67073,374.999999999999,4,3,1,50,1,0
67448,408.163265306122,4,3,1,50,1,0
67856,397.350993377483,4,3,1,50,1,0
68253,393.442622950819,4,3,1,50,1,0
71400,383.386581469648,4,3,1,50,1,0
72933,378.548895899053,4,3,1,50,1,0
74068,399.999999999999,4,3,1,50,1,0
74467,363.636363636363,4,3,1,50,1,0
75921,348.837209302325,4,3,1,50,1,0
76618,408.163265306122,4,3,1,50,1,0
77026,365.853658536585,4,3,1,50,1,0
77392,387.096774193548,4,3,1,50,1,0
78939,377.358490566037,4,3,1,50,1,0
81580,399.999999999999,4,3,1,50,1,0
81980,363.636363636363,4,3,1,50,1,0
83070,374.999999999999,4,3,1,50,1,0
83445,389.610389610389,4,3,1,50,1,0
85003,357.142857142857,4,3,1,50,1,0
85717,365.853658536585,4,3,1,50,1,0
86082,387.096774193548,4,3,1,50,1,0
86856,392.156862745097,4,3,1,50,1,0
88032,374.999999999999,4,3,1,50,1,0
89534,377.358490566037,4,3,1,50,1,0
91041,394.736842105262,4,3,1,50,1,0
91830,357.142857142857,4,3,1,50,1,0
92187,372.670807453416,4,3,1,50,1,0
92559,377.358490566037,4,3,1,50,1,0
93692,382.165605095541,4,3,1,50,1,0
94075,367.421922841396,4,3,1,50,1,0
98484,384.615384615385,4,3,1,35,1,0
99253,363.636363636364,4,3,1,35,1,0
99980,384.615384615385,4,3,1,35,1,0
99980,-125,4,3,2,35,0,0
101133,363.636363636364,4,3,1,35,1,0
101496,359.281437125749,4,3,1,35,1,0
102573,362.537764350454,4,3,1,35,1,0
102935,362.537764350454,4,3,1,35,1,0
104387,364.741641337386,4,3,1,35,1,0
105845,361.990950226244,4,3,1,35,1,0
107293,352.941176470589,4,3,1,35,1,0
108704,357.142857142858,4,3,1,35,1,0
110134,361.44578313253,4,3,1,35,1,0
111579,366.97247706422,4,3,2,35,1,0
111579,-125,4,3,2,35,0,0
112679,389.610389610389,4,3,1,35,1,0
113068,348.837209302325,4,3,1,35,1,0
113068,-125,4,3,2,35,0,0
114114,390.243902439024,4,3,1,35,1,0
114505,364.741641337386,4,3,2,35,1,0
114505,-125,4,3,2,35,0,0
115963,370.37037037037,4,3,1,35,1,0
115963,-125,4,3,2,35,0,0
117445,372.670807453417,4,3,1,35,1,0
117445,-125,4,3,2,35,0,0
118190,351.906158357772,4,3,1,35,1,0
118542,335.195530726257,4,3,1,35,1,0
118877,357.142857142858,4,3,1,35,1,0
119591,342.857142857143,4,3,1,35,1,0
119591,-125,4,3,1,40,0,0
120276,331.491712707183,4,3,1,40,1,0
122927,344.827586206897,4,3,1,40,1,0
123616,312.5,4,3,1,40,1,0
124241,328.767123287671,4,3,1,40,1,0
126213,-100,4,3,2,40,0,0
126377,-100,4,3,1,40,0,0
128186,333.333333333333,4,3,1,40,1,0
128852,-100,4,3,2,40,0,0
129186,-100,4,3,1,40,0,0
130852,339.943342776204,4,3,1,40,1,0
131872,346.820809248555,4,3,1,40,1,0
132219,341.394025604552,4,3,1,40,1,0
134950,335.195530726257,4,3,1,40,1,0
135955,338.983050847457,4,3,1,40,1,0
136293,348.837209302325,4,3,1,40,1,0
137688,333.333333333333,4,3,1,40,1,0
139020,342.857142857143,4,3,1,40,1,0
141762,339.943342776204,4,3,1,40,1,0
144481,355.029585798817,4,3,1,40,1,0
145191,344.827586206897,4,3,1,40,1,0
145880,337.078651685393,4,3,1,40,1,0
147228,352.941176470588,4,3,1,40,1,0
147933,340.909090909091,4,3,1,40,1,0
148614,344.827586206897,4,3,1,40,1,0
149994,337.078651685393,4,3,1,40,1,0
151005,357.142857142857,4,3,1,40,1,0
151362,322.580645161291,4,3,1,40,1,0
151362,-105.540897097625,4,3,1,40,0,0
151684,345.323741007195,4,3,1,40,1,0
152721,349.854227405248,4,3,1,50,1,0
153070,-100,4,3,2,50,0,0
153770,-100,4,3,1,50,0,0
154470,-100,4,3,2,50,0,0
155169,-100,4,3,1,50,0,0
155869,-100,4,3,2,50,0,0
156569,-100,4,3,1,50,0,0
157269,-100,4,3,2,50,0,0
157968,-100,4,3,1,50,0,0
158318,359.281437125749,4,3,1,50,1,0
158677,-100,4,3,2,50,0,0
159036,-100,4,3,1,50,0,0
159755,347.826086956522,4,3,1,50,1,0
160102,-100,4,3,2,50,0,0
160450,-100,4,3,1,50,0,0
162537,338.983050847458,4,3,1,50,1,0
163892,324.324324324325,4,3,1,50,1,0
165189,319.148936170213,4,3,5,50,1,0
165189,-125,4,3,5,50,0,0
166465,331.491712707183,4,3,1,50,1,0
167790,-99.009900990099,4,3,5,50,0,0
168288,318.725099601594,4,3,5,50,1,0
168288,-100,4,3,5,50,0,0
168766,338.983050847458,4,3,5,50,1,0
169104,352.941176470589,4,3,1,50,1,1
170515,341.880341880342,4,3,1,50,1,1
171540,319.148936170213,4,3,1,50,1,1
172178,342.857142857143,4,3,1,50,1,1
173206,355.029585798817,4,3,1,50,1,1
173919,340.909090909091,4,3,1,50,1,1
174600,340.909090909091,6,3,1,50,1,1
175964,347.826086956522,4,3,1,50,1,1
180833,329.67032967033,4,3,1,50,1,1
181822,340.909090909091,4,3,1,50,1,1
182844,348.837209302326,4,3,1,50,1,1
183541,357.142857142857,4,3,1,50,1,1
184255,346.820809248555,4,3,1,50,1,1
184948,344.827586206897,4,3,1,50,1,1
185637,344.827586206897,6,3,1,50,1,1
186327,337.078651685393,4,3,1,50,1,1
187338,324.324324324324,4,3,1,50,1,1
187662,342.857142857143,4,3,1,50,1,1
188347,342.857142857143,6,3,1,50,1,1
189033,357.142857142857,4,3,1,50,1,1
189747,357.142857142857,6,3,1,50,1,1
190818,370.370370370371,4,3,1,50,1,1
191188,370.370370370371,6,3,1,50,1,1
193410,350.877192982456,4,3,1,50,1,1
194462,370.370370370371,4,3,1,50,1,1
195573,357.142857142857,4,3,1,50,1,1
197358,363.636363636364,4,3,1,50,1,1
198448,363.636363636364,6,3,1,50,1,1
199903,352.941176470588,4,3,1,50,1,1
201314,364.741641337386,4,3,1,50,1,1
203502,342.857142857143,4,3,1,50,1,1
204187,377.358490566038,4,3,1,50,1,1
204941,352.941176470588,4,3,1,50,1,1
205646,363.636363636364,4,3,1,50,1,1
207827,370.370370370371,4,3,1,50,1,1
208567,352.941176470588,4,3,1,50,1,1
209978,359.281437125749,4,3,1,50,1,1
210696,346.820809248555,4,3,1,50,1,1
211389,346.820809248555,6,3,1,50,1,1
212083,359.281437125749,4,3,1,50,1,1
212801,346.820809248555,4,3,1,50,1,1
213147,392.156862745098,4,3,1,50,1,1
214323,728.376327769348,4,3,1,50,1,0
214687,-100,4,3,1,5,0,0
223063,689.655172413793,4,3,1,5,1,0
225476,615.384615384615,4,3,1,25,1,0
225783,750,4,3,1,25,1,0
225783,-100,4,3,1,25,0,0
227283,707.964601769912,4,3,1,25,1,0
227991,743.034055727554,4,3,1,25,1,0
229105,720.720720720721,4,3,1,25,1,0
230907,731.707317073171,4,3,1,25,1,0
233102,740.740740740741,4,3,1,25,1,0
234583,712.166172106825,4,3,1,25,1,0
236897,623.376623376623,4,3,1,25,1,0
237520,794.176042356056,4,3,1,25,1,0
237520,-100,4,3,1,25,0,0
240696,710.059171597633,4,3,1,25,1,0
243536,1420.11834319527,4,3,1,25,1,0
248683,-100,4,3,1,10,0,0
249038,-100,4,3,1,5,0,0
253476,-100,4,3,1,8,0,0
253654,-100,4,3,1,11,0,0
253831,-100,4,3,1,14,0,0
254009,-100,4,3,1,17,0,0
254186,-100,4,3,1,20,0,0
254364,-100,4,3,1,23,0,0
254541,-100,4,3,1,26,0,0
254719,-100,4,3,1,29,0,0
254808,-100,4,3,1,5,0,0

[Colours]
Combo1 : 186,103,124
Combo2 : 189,81,57
Combo3 : 133,133,133
Combo4 : 230,217,102
Combo5 : 140,96,137
SliderTrackOverride : 147,60,60

[HitObjects]
210,377,1959,6,0,B|225:355|225:355|260:344|260:344|268:347|268:347|315:330,1,110,8|8,0:0|0:0,0:0:0:0:
406,292,2764,1,8,0:0:0:0:
191,230,3536,2,0,B|170:193|170:193|131:196|131:196|60:119|60:119|51:73,1,220,8|8,0:2|0:2,0:0:0:0:
126,3,4701,1,8,0:2:0:0:
234,18,5089,6,0,B|251:41|251:41|289:52|289:52|299:50|299:50|350:69,1,110,8|8,0:0|0:0,0:0:0:0:
438,54,5866,2,0,B|457:46|457:46|441:122|441:122|445:149,1,110,8|8,0:0|0:0,0:0:0:0:
351,192,6642,2,0,B|277:170|277:170|266:159|266:159|237:239|237:239|259:278,1,220,8|8,0:2|0:2,0:0:0:0:
472,265,8196,6,0,B|494:300|494:300|479:307|479:307|442:365,1,110,8|8,0:0|0:0,0:0:0:0:
341,348,8980,1,8,0:0:0:0:
258,276,9372,1,8,0:0:0:0:
27,229,10182,2,0,B|12:184|12:184|20:166|20:166|16:109,2,110,8|8|8,0:0|0:0|0:0,0:0:0:0:
140,190,11350,38,0,B|199:134|199:134|209:99,1,110,8|8,0:0|0:0,0:0:0:0:
217,5,12129,2,0,B|307:22|307:22|326:47,1,110,8|8,0:0|0:0,0:0:0:0:
423,44,12908,2,0,B|414:66|414:66|433:162,1,110,8|8,0:0|0:0,0:0:0:0:
507,224,13687,5,2,0:1:0:0:
424,290,14089,1,2,0:0:0:0:
258,297,14691,6,0,B|250:310|250:310|258:342|258:342|139:380,1,165,4|4,0:2|0:2,0:0:0:0:
41,327,15711,1,10,0:0:0:0:
63,222,16086,37,8,0:0:0:0:
47,117,16484,1,8,0:0:0:0:
137,55,16883,2,0,B|159:77|159:77|168:116|168:116|165:130|165:130|181:156,1,110,8|8,0:0|0:0,0:0:0:0:
390,102,18109,6,0,B|417:91|417:91|446:32|446:32|483:15,2,110,8|8|10,0:0|0:0|0:0,0:0:0:0:
434,202,19307,1,8,0:0:0:0:
411,309,19706,1,8,0:0:0:0:
318,364,20105,2,0,B|280:354|280:354|220:369|220:369|198:363,1,110,8|8,0:0|0:0,0:0:0:0:
108,288,20904,6,0,B|88:291|88:291|55:343|55:343|18:352,2,110,4|8|8,0:2|0:0|0:0,0:0:0:0:
170,198,22124,1,8,0:0:0:0:
232,107,22531,2,0,B|253:115|253:115|277:154|277:154|279:163|279:163|318:179,2,110,4|8|4,0:2|0:0|0:2,0:0:0:0:
143,41,23751,1,8,0:0:0:0:
102,266,24595,38,0,B|34:275|34:275|14:294|14:294|-3:301,2,110,4|8|10,0:2|0:0|0:0,0:0:0:0:
211,289,25809,1,8,0:0:0:0:
301,351,26206,1,10,0:0:0:0:
409,334,26603,2,0,B|419:313|419:313|415:257|415:257|425:214,1,110,8|10,0:0|0:0,0:0:0:0:
461,126,27398,6,0,B|476:101|476:101|488:94|488:94|370:83|370:83|345:109|345:109|313:113,1,220,4|4,0:0|0:0,0:0:0:0:
104,166,29008,1,4,0:2:0:0:
114,275,29402,2,0,B|130:283|130:283|152:322|152:322|194:355,2,110,10|8|10,0:0|0:0|0:0,0:0:0:0:
14,227,30586,5,4,0:2:0:0:
170,297,36844,37,4,0:2:0:0:
72,246,37228,2,0,B|45:169|45:169|55:123,1,110,8|8,0:2|0:2,0:0:0:0:
84,36,37997,2,0,B|107:30|107:30|167:43|167:43|186:68|186:68|258:65|258:65|301:44,1,220,8|8,0:2|0:2,0:0:0:0:
392,81,39151,1,8,0:2:0:0:
493,113,39536,6,0,B|504:130|504:130|500:187|500:187|512:232,2,110,8|8|4,0:0|0:0|0:2,0:0:0:0:
404,314,41124,2,0,B|349:339|349:339|315:333|315:333|287:337,1,110,8|8,0:2|0:2,0:0:0:0:
190,368,41919,1,8,0:0:0:0:
86,320,42316,1,8,0:0:0:0:
46,166,42875,6,0,B|52:127|52:127|41:109,1,55,2|8,0:1|0:1,0:0:0:0:
109,25,43455,2,0,B|198:40|198:40|220:60,1,110,10|10,0:0|0:0,0:0:0:0:
329,168,44425,2,0,B|345:169|345:169|388:136,1,55,10|10,0:0|0:0,0:0:0:0:
461,75,45013,37,4,0:0:0:0:
486,180,45405,1,4,0:0:0:0:
461,286,45802,2,0,B|503:298|503:298|523:319,2,55,2|2|8,0:0|0:0|0:0,0:0:0:0:
356,320,46573,2,0,L|372:375,2,55,8|2|2,0:0|0:0|0:0,0:0:0:0:
317,220,47352,6,0,B|298:209|298:209|276:214|276:214|192:193,1,110,8|2,0:0|0:0,0:0:0:0:
109,234,48152,1,4,0:0:0:0:
66,129,48540,1,4,0:0:0:0:
136,37,48928,6,0,B|162:9|162:9|193:-1,2,55,2|2|4,0:0|0:0|0:0,0:0:0:0:
225,101,49703,2,0,B|236:111|236:111|298:111|298:111|330:126,1,110,8|2,0:0|0:0,0:0:0:0:
434,99,50479,2,0,B|448:85|448:85|427:37|427:37|424:-9,2,110,8|2|4,0:0|0:0|0:0,0:0:0:0:
456,208,51656,1,4,0:0:0:0:
468,322,52084,38,0,B|431:313|431:313|399:337|399:337|365:323|365:323|335:339|335:339|302:322|302:322|253:328,1,220,8|8,0:0|0:0,0:0:0:0:
164,291,53211,1,10,0:0:0:0:
132,186,53591,2,0,B|163:177|163:177|181:145|181:145|221:157|221:157|247:150|247:150|351:176,1,220,8|4,0:0|0:0,0:0:0:0:
436,160,54739,1,4,0:0:0:0:
463,53,55146,6,0,B|451:41|451:41|393:42|393:42|353:24,1,110,8|10,0:0|0:0,0:0:0:0:
141,12,56269,2,0,B|154:24|154:24|164:71|164:71|208:108,2,110,10|8|10,0:0|0:0|0:0,0:0:0:0:
57,85,57418,2,0,B|49:149|49:149|58:170|58:170|42:208,1,110,4|4,0:0|0:0,0:0:0:0:
90,296,58234,6,0,B|119:300|119:300|145:271|145:271|169:283|169:283|212:259|212:259|228:278|228:278|287:304,1,220,8|4,0:0|0:0,0:0:0:0:
383,278,59366,1,4,0:0:0:0:
471,213,59743,2,0,B|469:189|469:189|438:180|438:180|417:155|417:155|383:164|383:164|367:157|367:157|268:171,1,220,8|4,0:0|0:0,0:0:0:0:
190,121,60894,1,4,0:0:0:0:
100,56,61290,38,0,B|92:21|92:21|74:-1,2,55,2|2|4,0:0|0:0|0:0,0:0:0:0:
154,284,62478,2,0,B|175:303|175:303|194:349|194:349|241:371,1,110,10|8,0:0|0:0,0:0:0:0:
329,318,63238,1,2,0:0:0:0:
443,324,63625,6,0,B|487:318|487:318|469:275|469:275|478:245,1,110,4|8,0:0|0:1,0:0:0:0:
472,148,64335,2,0,B|488:136|488:136|512:130|512:130|461:84,1,110,8|10,0:0|0:0,0:0:0:0:
300,25,65351,6,0,B|289:65|289:65|272:88,1,55,4|4,0:0|0:0,0:0:0:0:
186,129,65921,2,0,B|175:118|175:118|134:104,2,55,4|4|4,0:0|0:0|0:0,0:0:0:0:
204,233,66680,38,0,B|214:272|214:272|182:309|182:309|174:338,1,110,6|8,0:0|0:1,0:0:0:0:
73,291,67448,2,0,B|58:252|58:252|70:231|70:231|53:181,1,110,8|10,0:0|0:0,0:0:0:0:
133,43,68450,6,0,L|190:64,1,55,4|4,0:0|0:0,0:0:0:0:
294,69,69040,2,0,B|316:39|316:39|343:27,2,55,4|4|4,0:0|0:0|0:0,0:0:0:0:
306,178,69827,5,4,0:2:0:0:
256,362,75557,37,0,0:0:0:0:
238,254,75921,2,0,B|244:240|244:240|233:213|233:213|163:184,1,110,6|8,0:0|0:1,0:0:0:0:
71,229,76618,2,0,B|44:232|44:232|14:183|14:183|16:156,1,110,8|10,0:0|0:0,0:0:0:0:
92,18,77585,6,0,B|131:28|131:28|151:50,1,55,4|4,0:0|0:0,0:0:0:0:
247,69,78166,2,0,B|261:51|261:51|260:42|260:42|272:13,2,55,4|4|4,0:0|0:0|0:0,0:0:0:0:
304,165,78939,6,0,B|336:175|336:175|349:217|349:217|389:243,1,110,6|8,0:0|0:1,0:0:0:0:
485,228,79693,2,0,B|501:266|501:266|493:276|493:276|483:342,1,110,8|10,0:0|0:0,0:0:0:0:
324,370,80637,38,0,L|266:323,1,55,4|4,0:0|0:0,0:0:0:0:
173,314,81203,2,0,B|162:319|162:319|144:338|144:338|111:351,2,55,4|4|4,0:0|0:0|0:0,0:0:0:0:
159,193,81980,6,0,B|155:173|155:173|108:124|108:124|139:98,1,110,6|8,0:0|0:1,0:0:0:0:
200,30,82707,2,0,B|238:70|238:70|249:95|249:95|288:100,1,110,8|10,0:0|0:0,0:0:0:0:
436,94,83639,6,0,L|459:172,1,55,4|4,0:0|0:0,0:0:0:0:
465,256,84224,2,0,B|475:264|475:264|498:269|498:269|519:286,2,55,4|4|4,0:0|0:0|0:0,0:0:0:0:
378,339,85003,38,0,B|355:333|355:333|323:284|323:284|292:312,1,110,6|8,0:0|0:1,0:0:0:0:
195,347,85717,2,0,B|177:362|177:362|139:312|139:312|111:302,1,110,8|10,0:0|0:0,0:0:0:0:
24,168,86662,6,0,L|101:144,1,55,4|4,0:0|0:0,0:0:0:0:
180,115,87248,2,0,B|188:100|188:100|186:80|186:80|194:52,2,55,4|4|4,0:0|0:0|0:0,0:0:0:0:
245,209,88032,6,0,B|270:201|270:201|292:210|292:210|362:204|362:204|419:154|419:154|406:117,1,220,4|8,0:2|0:2,0:0:0:0:
228,12,89534,2,0,B|195:27|195:27|185:22|185:22|112:21|112:21|71:73|71:73|65:121,1,220,4|8,0:2|0:2,0:0:0:0:
46,314,91041,2,0,B|44:289|44:289|71:263|71:263|83:277|83:277|172:318|172:318|224:317,1,220,4|8,0:2|0:2,0:0:0:0:
423,352,92559,1,8,0:2:0:0:
470,45,94075,38,0,B|458:64|458:64|408:70|408:70|344:115|344:115|317:197,1,220,4|8,0:2|0:2,0:0:0:0:
178,347,95544,2,0,B|163:331|163:331|182:289|182:289|162:223|162:223|82:172,1,220,4|8,0:2|0:2,0:0:0:0:
221,0,97014,2,0,B|243:-3|243:-3|320:29|320:29|334:73|334:73|299:163|299:163|310:174|310:174|325:294|325:294|286:338,1,440,4|8,0:2|0:0,0:0:0:0:
2,190,99980,5,8,0:0:0:0:
136,151,111579,6,0,B|161:123|161:123|184:69|184:69|288:20|288:20|354:30,1,264,8|8,0:0|0:2,0:0:0:0:
437,77,113068,2,0,B|424:106|424:106|307:157|307:157|282:219|282:219|248:243,1,264,8|8,0:0|0:2,0:0:0:0:
235,345,114505,2,0,B|207:360|207:360|158:314|158:314|136:316|136:316|43:277|43:277|13:228,1,264,8|8,0:0|0:2,0:0:0:0:
28,138,115963,2,0,B|20:113|20:113|56:77|56:77|52:63|52:63|58:3,2,132,8|0|8,0:0|0:0|0:2,0:0:0:0:
48,241,117445,38,0,B|56:265|56:265|50:319|50:319|98:358|98:358|125:316,1,176,8|8,0:0|0:2,0:0:0:0:
202,163,118877,1,8,0:0:0:0:
370,85,119591,5,2,0:0:0:0:
472,288,120276,2,0,B|435:297|435:297|397:332|397:332|307:356|307:356|253:354,1,220,4|8,0:2|0:2,0:0:0:0:
56,306,121601,2,0,B|43:277|43:277|51:205|51:205|61:182|61:182|46:132,1,165,10|2,0:0|0:0,0:0:0:0:
160,21,122596,1,0,0:0:0:0:
263,41,122927,6,0,B|304:50|304:50|244:120|244:120|208:127|208:127|196:123|196:123|173:165,1,220,4|8,0:2|0:2,0:0:0:0:
259,347,124241,2,0,B|269:359|269:359|313:367|313:367|415:297,1,165,10|2,0:0|0:0,0:0:0:0:
489,170,125227,1,0,0:0:0:0:
414,89,125556,38,0,B|402:67|402:67|414:13|414:13|283:29|283:29|234:71,1,275,4|2,0:2|0:0,0:0:0:0:
72,43,126871,2,0,B|36:69|36:69|23:75|23:75|9:152|9:152|24:190,2,165,10|2|0,0:0|0:0|0:0,0:0:0:0:
136,130,128186,6,0,B|149:163|149:163|127:228|127:228|159:341|159:341|186:326|186:326|283:350,1,330,4|0,0:2|0:0,0:0:0:0:
370,332,129519,2,0,B|392:342|392:342|426:266|426:266|418:200,1,165,10|2,0:0|0:0,0:0:0:0:
460,47,130519,1,0,0:0:0:0:
355,22,130852,6,0,B|333:35|333:35|300:132|300:132|302:186|302:186|265:220,1,220,4|8,0:2|0:2,0:0:0:0:
101,351,132219,2,0,B|75:327|75:327|62:283|62:283|44:269|44:269|35:193,1,165,10|2,0:0|0:0,0:0:0:0:
59,45,133243,1,0,0:0:0:0:
166,68,133584,38,0,B|186:73|186:73|258:26|258:26|340:47|340:47|329:89,1,220,4|8,0:2|0:2,0:0:0:0:
289,294,134950,2,0,B|313:318|313:318|401:304|401:304|442:327,1,165,10|2,0:0|0:0,0:0:0:0:
498,173,135955,1,0,0:0:0:0:
443,81,136293,6,0,B|424:59|424:59|354:71|354:71|325:160|325:160|296:188,1,220,4|8,0:2|0:2,0:0:0:0:
141,341,137688,2,0,B|110:349|110:349|42:305|42:305|36:315|36:315|-17:337,2,165,10|2|0,0:0|0:0|0:0,0:0:0:0:
130,234,139020,6,0,B|132:209|132:209|96:162|96:162|129:69|129:69|166:50,1,220,4|8,0:2|0:2,0:0:0:0:
376,104,140391,2,0,B|393:58|393:58|408:60|408:60|465:34|465:34|488:-10,2,165,10|2|2,0:0|0:0|0:2,0:0:0:0:
407,210,141762,37,4,0:2:0:0:
233,344,142441,1,8,0:0:0:0:
31,254,143121,2,0,B|41:219|41:219|21:160|21:160|43:84|43:84|87:72,1,220,10|8,0:0|0:0,0:0:0:0:
193,53,144141,1,0,0:0:0:0:
301,36,144481,6,0,B|353:124|353:124|331:136|331:136|347:249,1,220,8|8,0:0|0:0,0:0:0:0:
298,327,145535,1,0,0:0:0:0:
194,282,145880,2,0,B|143:290|143:290|111:353|111:353|63:375,2,165,10|2|0,0:0|0:0|0:0,0:0:0:0:
233,184,147228,6,0,B|215:168|215:168|160:161|160:161|87:99|87:99|69:36,1,220,4|8,0:2|0:0,0:0:0:0:
287,12,148614,2,0,B|308:20|308:20|365:24|365:24|422:71|422:71|419:88|419:88|436:146,1,220,10|8,0:0|0:0,0:0:0:0:
461,240,149648,1,0,0:0:0:0:
401,336,149994,38,0,B|366:324|366:324|331:245|331:245|317:249|317:249|264:237|264:237|221:255,1,220,4|8,0:2|0:0,0:0:0:0:
18,374,151362,2,0,B|7:345|7:345|36:266|36:266|30:254|30:254|10:200|10:200|17:154,1,215.599998026123,10|8,0:0|0:0,0:0:0:0:
211,77,152721,6,0,B|320:118|320:118|318:105|318:105|365:40|365:40|361:27|361:27|477:57,1,330,8|8,0:0|0:0,0:0:0:0:
479,162,154120,2,0,B|435:261|435:261|444:275|444:275|339:287,1,220,8|8,0:0|0:0,0:0:0:0:
143,359,155519,2,0,B|123:343|123:343|102:267|102:267|89:267|89:267|112:184|112:184|124:176|124:176|89:64,1,330,4|8,0:2|0:0,0:0:0:0:
184,11,156919,2,0,B|237:84|237:84|257:89|257:89|246:207,1,220,8|8,0:0|0:0,0:0:0:0:
387,359,158318,6,0,B|466:315|466:315|478:320|478:320|513:239|513:239|507:200,1,220,4|8,0:2|0:0,0:0:0:0:
473,107,159395,1,8,0:0:0:0:
389,29,159755,2,0,B|330:102|330:102|327:94|327:94|204:75,1,220,8|8,0:0|0:0,0:0:0:0:
15,177,161146,38,0,B|18:200|18:200|-3:267|-3:267|0:297,2,110,4|4|4,0:0|0:0|0:0,0:0:0:0:
123,159,162189,1,4,0:0:0:0:
175,258,162537,2,0,B|162:281|162:281|161:334|161:334|131:377,2,110,4|4|4,0:2|0:2|0:2,0:0:0:0:
284,244,163553,1,4,0:2:0:0:
331,343,163892,5,8,0:0:0:0:
451,56,165189,2,0,L|317:17,2,132,2|2|0,0:0|0:0|0:0,0:0:0:0:
454,159,166465,1,8,0:0:0:0:
232,365,167790,2,0,L|0:300,1,220,2|2,0:0|0:1,0:0:0:0:
17,97,169104,22,0,B|6:81|11:64|44:45|77:54|93:95|111:108|152:106|182:58|164:29,2,220,4|4|4,0:2|0:2|0:2,0:0:0:0:
142,280,171198,2,0,B|127:290|120:295|118:316|120:336|176:359,1,110,4|4,0:0|0:0,0:0:0:0:
282,358,171859,1,4,0:0:0:0:
374,314,172178,2,0,B|388:294|402:274|386:232|349:215|318:210|295:207|261:74|339:16|436:67|392:116|337:107,1,330,4|4,0:2|0:2,0:0:0:0:
140,38,173919,6,0,B|146:29|136:16|114:11|77:29|53:73,1,110,4|4,0:0|0:0,0:0:0:0:
15,165,174600,1,4,0:0:0:0:
27,273,174940,2,0,B|42:283|65:312|49:341|-96:371|20:369|36:373|66:316|108:291|199:296|120:371|32:471|205:273|232:349,1,330,4|4,0:2|0:2,0:0:0:0:
446,321,176659,38,0,B|459:321|477:299|483:266|453:220,1,110,4|4,0:0|0:0,0:0:0:0:
436,117,177355,2,0,B|435:96|442:67|496:76|500:40|485:4,2,110,4|4|4,0:0|0:0|0:0,0:0:0:0:
354,191,178398,1,4,0:0:0:0:
269,261,178746,6,0,B|253:264|221:293|213:325|234:369,2,110,4|4|4,0:0|0:0|0:0,0:0:0:0:
354,191,179790,1,4,0:0:0:0:
409,285,180137,2,0,B|412:300|442:333|486:354|518:319,2,110,4|4|4,0:0|0:0|0:2,0:0:0:0:
433,66,181492,5,2,0:2:0:0:
330,37,181822,2,0,B|280:26|298:11|281:-2|231:0|222:15,1,110,4|4,0:0|0:2,0:0:0:0:
49,126,182844,2,0,B|26:134|15:149|18:175|28:193|10:218|-17:221,2,110,4|4|4,0:0|0:0|0:2,0:0:0:0:
116,342,184255,2,0,B|131:335|168:335|162:358|180:370|258:394|322:333|262:278,1,220,4|4,0:2|0:0,0:0:0:0:
254,184,185292,1,4,0:0:0:0:
228,76,185637,38,0,B|238:61|228:41|194:26|139:43,2,110,4|4|4,0:0|0:0|0:2,0:0:0:0:
445,41,187001,2,0,B|466:33|458:24|460:17|485:25|479:59|448:89|484:123,1,110,2|4,0:2|0:0,0:0:0:0:
502,209,187662,1,4,0:2:0:0:
305,307,188347,6,0,B|279:307|254:327|283:347|250:364|217:366,2,110,4|4|4,0:0|0:0|0:2,0:0:0:0:
305,86,189747,1,4,0:0:0:0:
209,30,190104,1,4,0:0:0:0:
209,139,190461,1,6,0:0:0:0:
74,308,191188,6,0,B|18:268|56:264|84:203|84:129|16:111|-8:152,2,220,4|4|4,0:2|0:2|0:2,0:0:0:0:
305,285,193410,2,0,B|331:311|338:332|331:377|299:383,2,110,4|4|4,0:0|0:0|0:0,0:0:0:0:
268,187,194462,2,0,B|250:122|226:170|182:182|81:173|68:27|132:-10|224:12|155:56|224:54,1,330,4|4,0:2|0:2,0:0:0:0:
433,92,196287,38,0,B|427:51|465:48|495:57|504:37|476:-6,2,110,4|4|4,0:0|0:0|0:0,0:0:0:0:
480,188,197358,2,0,B|467:196|455:203|435:226|447:252|465:288|491:284|508:304|518:352|455:362|461:281|367:246|283:276|310:328|336:333,1,330,4|4,0:2|0:2,0:0:0:0:
107,353,199175,2,0,B|137:323|140:276|113:254,1,110,4|4,0:0|0:0,0:0:0:0:
74,151,199903,6,0,B|44:151|38:113|24:76|-23:65,2,110,4|4|4,0:0|0:0|0:0,0:0:0:0:
160,82,200961,1,4,0:0:0:0:
253,138,201314,6,0,B|269:167|255:188|263:222|284:243,2,110,4|4|4,0:0|0:0|0:0,0:0:0:0:
342,73,202408,1,4,0:0:0:0:
448,100,202772,2,0,B|463:49|453:15|410:-9,2,110,4|4|4,0:0|0:0|0:2,0:0:0:0:
383,289,204187,38,0,B|356:290|330:311|337:345|289:336,1,110,2|4,0:2|0:0,0:0:0:0:
182,350,204941,1,4,0:2:0:0:
98,153,205646,2,0,B|65:121|33:130|33:163|-5:169,2,110,4|4|4,0:0|0:0|0:2,0:0:0:0:
317,153,207100,6,0,B|331:130|376:120|367:167|385:166|456:97|439:42|389:0,1,220,4|4,0:2|0:0,0:0:0:0:
297,42,208197,1,4,0:0:0:0:
186,9,208567,2,0,B|153:16|133:30|144:61|81:66,2,110,4|4|4,0:0|0:0|0:2,0:0:0:0:
255,213,209978,5,2,0:2:0:0:
354,258,210337,2,0,B|390:287|397:310|372:353,1,110,4|4,0:0|0:2,0:0:0:0:
154,321,211389,38,0,B|101:326|79:344|67:360|95:381,2,110,4|4|4,0:0|0:0|0:2,0:0:0:0:
19,120,212801,1,4,0:0:0:0:
19,16,213147,1,4,0:0:0:0:
115,55,213539,2,0,B|136:66|194:91|246:55|251:-1|329:15|311:54,1,220,6|4,0:0|0:2,0:0:0:0:
256,192,214687,12,0,223063,0:0:0:0:
407,329,225783,38,0,B|453:318|453:318|455:313|455:313|534:327,2,110,2|0|2,0:2|0:0|0:2,0:0:0:0:
237,212,227991,2,0,L|256:143,2,55,2|0|2,0:2|0:0|0:2,0:0:0:0:
166,274,229105,2,0,B|123:278|123:278|114:283|114:283|41:289|41:289|10:258,1,165
63,67,230907,6,0,B|71:25|71:25|66:1,2,55,2|0|2,0:2|0:0|0:2,0:0:0:0:
153,108,232004,2,0,B|169:111|169:111|240:76|240:76|239:66|239:66|324:60,1,165,2|0,0:2|0:0,0:0:0:0:
489,12,233842,6,0,B|497:30|497:30|497:56|497:56|504:71,2,55,2|0|2,0:2|0:0|0:2,0:0:0:0:
0,104,237520,38,0,B|15:123|15:123|23:224|23:224|6:236|6:236|78:286|78:286|141:250|141:250|168:214,1,330,2|0,0:2|0:0,0:0:0:0:
217,106,240696,6,0,B|242:136|242:136|335:152|335:152|333:165|333:165|417:280|417:280|409:321,1,330,2|0,3:2|0:0,0:0:0:0:
286,371,243536,6,0,B|258:371|258:371|211:306|211:306|210:294|210:294|163:279|163:279|102:207|102:207|65:308|65:308|33:306,1,398.75,2|0,0:2|0:0,0:0:0:0:
256,192,249038,12,0,254896,0:0:0:0:
