osu file format v14

[General]
AudioFilename: nora2r - vision.mp3
AudioLeadIn: 0
PreviewTime: 22282
Countdown: 0
SampleSet: Normal
StackLeniency: 0.2
Mode: 3
LetterboxInBreaks: 0
SpecialStyle: 0
WidescreenStoryboard: 1

[Editor]
DistanceSpacing: 0.8
BeatDivisor: 4
GridSize: 32
TimelineZoom: 1.3

[Metadata]
Title:VISION
TitleUnicode:VISION
Artist:nora2r
ArtistUnicode:nora2r
Creator:dionzz99
Version:ADVANCED
Source:SOUND VOLTEX BOOTH
Tags:kiss me puxtu
BeatmapID:733217
BeatmapSetID:330910

[Difficulty]
HPDrainRate:7.5
CircleSize:4
OverallDifficulty:7.5
ApproachRate:5
SliderMultiplier:1.4
SliderTickRate:1

[Events]
//Background and Video events
0,0,"BGVISION.jpg",0,0
//Break Periods
//Storyboard Layer 0 (Background)
//Storyboard Layer 1 (Fail)
//Storyboard Layer 2 (Pass)
//Storyboard Layer 3 (Foreground)
//Storyboard Sound Samples

[TimingPoints]
86,346.816799805783,4,1,0,25,1,0
23669,-100,4,1,0,25,0,1
45865,-100,4,1,0,25,0,0
93032,-100,4,1,0,25,0,1
115229,-100,4,1,0,25,0,0

[HitObjects]
192,192,1473,5,0,0:0:0:0:
320,192,1473,1,0,0:0:0:0:
448,192,1646,128,0,4247:0:0:0:0:
320,192,1820,1,0,0:0:0:0:
192,192,1820,1,0,0:0:0:0:
64,192,2166,1,0,0:0:0:0:
192,192,2513,1,0,0:0:0:0:
320,192,2513,1,0,0:0:0:0:
320,192,2860,1,0,0:0:0:0:
64,192,3207,1,0,0:0:0:0:
192,192,3207,1,0,0:0:0:0:
320,192,3554,1,0,0:0:0:0:
192,192,3900,1,0,0:0:0:0:
64,192,3900,1,0,0:0:0:0:
64,192,4247,1,0,0:0:0:0:
192,192,4334,1,0,0:0:0:0:
320,192,4421,1,0,0:0:0:0:
448,192,4594,1,0,0:0:0:0:
320,192,4768,1,0,0:0:0:0:
192,192,4854,1,0,0:0:0:0:
64,192,4941,1,0,0:0:0:0:
192,192,5028,1,0,0:0:0:0:
320,192,5114,1,0,0:0:0:0:
64,192,5288,128,0,5635:0:0:0:0:
192,192,5635,128,0,5981:0:0:0:0:
320,192,6155,1,0,0:0:0:0:
448,192,6241,1,0,0:0:0:0:
320,192,6328,128,0,6675:0:0:0:0:
192,192,6675,128,0,7022:0:0:0:0:
64,192,7022,1,0,0:0:0:0:
320,192,7195,1,0,0:0:0:0:
192,192,7282,1,0,0:0:0:0:
64,192,7369,1,0,0:0:0:0:
448,192,7542,1,0,0:0:0:0:
320,192,7629,1,0,0:0:0:0:
192,192,7715,1,0,0:0:0:0:
320,192,7802,1,0,0:0:0:0:
448,192,7889,1,0,0:0:0:0:
64,192,8062,1,0,0:0:0:0:
64,192,8236,1,0,0:0:0:0:
192,192,8322,1,0,0:0:0:0:
320,192,8409,1,0,0:0:0:0:
320,192,8583,1,0,0:0:0:0:
320,192,8756,1,0,0:0:0:0:
320,192,8929,1,0,0:0:0:0:
64,192,9103,128,0,9363:0:0:0:0:
64,192,9450,128,0,9796:0:0:0:0:
192,192,9796,1,0,0:0:0:0:
320,192,9883,1,0,0:0:0:0:
448,192,9970,1,0,0:0:0:0:
64,192,10143,1,0,0:0:0:0:
320,192,10317,1,0,0:0:0:0:
192,192,10403,1,0,0:0:0:0:
320,192,10490,1,0,0:0:0:0:
192,192,10577,1,0,0:0:0:0:
320,192,10663,1,0,0:0:0:0:
64,192,10837,128,0,11184:0:0:0:0:
448,192,11184,1,0,0:0:0:0:
320,192,11357,1,0,0:0:0:0:
192,192,11530,1,0,0:0:0:0:
64,192,11704,1,0,0:0:0:0:
192,192,11877,1,0,0:0:0:0:
320,192,12051,1,0,0:0:0:0:
64,192,12224,128,0,12571:0:0:0:0:
448,192,12224,128,0,12571:0:0:0:0:
192,192,12571,1,0,0:0:0:0:
320,192,12571,1,0,0:0:0:0:
64,192,12744,1,0,0:0:0:0:
192,192,12831,1,0,0:0:0:0:
320,192,12918,1,0,0:0:0:0:
448,192,13091,1,0,0:0:0:0:
320,192,13178,1,0,0:0:0:0:
192,192,13265,1,0,0:0:0:0:
64,192,13438,1,0,0:0:0:0:
192,192,13525,1,0,0:0:0:0:
320,192,13611,1,0,0:0:0:0:
448,192,13785,1,0,0:0:0:0:
320,192,13871,1,0,0:0:0:0:
192,192,13958,1,0,0:0:0:0:
64,192,14132,1,0,0:0:0:0:
192,192,14218,1,0,0:0:0:0:
320,192,14305,1,0,0:0:0:0:
448,192,14478,1,0,0:0:0:0:
320,192,14565,1,0,0:0:0:0:
192,192,14652,1,0,0:0:0:0:
64,192,14825,1,0,0:0:0:0:
192,192,14912,1,0,0:0:0:0:
320,192,14999,1,0,0:0:0:0:
448,192,15172,1,0,0:0:0:0:
320,192,15259,1,0,0:0:0:0:
192,192,15345,1,0,0:0:0:0:
64,192,15345,1,0,0:0:0:0:
64,192,15519,1,0,0:0:0:0:
192,192,15606,1,0,0:0:0:0:
320,192,15692,1,0,0:0:0:0:
448,192,15866,1,0,0:0:0:0:
320,192,15952,1,0,0:0:0:0:
192,192,16039,1,0,0:0:0:0:
64,192,16212,1,0,0:0:0:0:
192,192,16299,1,0,0:0:0:0:
320,192,16386,1,0,0:0:0:0:
448,192,16559,1,0,0:0:0:0:
320,192,16646,1,0,0:0:0:0:
192,192,16733,1,0,0:0:0:0:
64,192,16906,1,0,0:0:0:0:
192,192,16993,1,0,0:0:0:0:
320,192,17080,1,0,0:0:0:0:
448,192,17253,1,0,0:0:0:0:
320,192,17340,1,0,0:0:0:0:
192,192,17426,1,0,0:0:0:0:
64,192,17600,1,0,0:0:0:0:
192,192,17686,1,0,0:0:0:0:
320,192,17773,1,0,0:0:0:0:
448,192,17947,1,0,0:0:0:0:
320,192,18033,1,0,0:0:0:0:
192,192,18120,1,0,0:0:0:0:
64,192,18120,1,0,0:0:0:0:
448,192,18293,1,0,0:0:0:0:
320,192,18380,1,0,0:0:0:0:
448,192,18467,1,0,0:0:0:0:
64,192,18640,1,0,0:0:0:0:
192,192,18727,1,0,0:0:0:0:
64,192,18814,1,0,0:0:0:0:
320,192,18987,1,0,0:0:0:0:
192,192,19074,1,0,0:0:0:0:
320,192,19160,1,0,0:0:0:0:
192,192,19334,1,0,0:0:0:0:
320,192,19421,1,0,0:0:0:0:
448,192,19507,1,0,0:0:0:0:
64,192,19507,1,0,0:0:0:0:
192,192,19681,1,0,0:0:0:0:
64,192,19767,1,0,0:0:0:0:
320,192,19854,1,0,0:0:0:0:
320,192,20027,1,0,0:0:0:0:
448,192,20114,1,0,0:0:0:0:
192,192,20201,1,0,0:0:0:0:
320,192,20374,1,0,0:0:0:0:
192,192,20461,1,0,0:0:0:0:
64,192,20548,1,0,0:0:0:0:
448,192,20721,1,0,0:0:0:0:
320,192,20808,1,0,0:0:0:0:
192,192,20895,1,0,0:0:0:0:
448,192,20895,1,0,0:0:0:0:
64,192,20981,1,0,0:0:0:0:
192,192,21068,1,0,0:0:0:0:
320,192,21155,1,0,0:0:0:0:
448,192,21241,1,0,0:0:0:0:
320,192,21328,1,0,0:0:0:0:
192,192,21415,1,0,0:0:0:0:
64,192,21501,1,0,0:0:0:0:
192,192,21588,1,0,0:0:0:0:
448,192,21588,1,0,0:0:0:0:
320,192,21675,1,0,0:0:0:0:
448,192,21762,1,0,0:0:0:0:
320,192,21848,1,0,0:0:0:0:
192,192,21935,1,0,0:0:0:0:
64,192,22022,1,0,0:0:0:0:
192,192,22108,1,0,0:0:0:0:
320,192,22195,1,0,0:0:0:0:
448,192,22282,1,0,0:0:0:0:
64,192,22282,1,0,0:0:0:0:
448,192,22975,128,0,23149:0:0:0:0:
320,192,23149,128,0,23322:0:0:0:0:
192,192,23322,128,0,23496:0:0:0:0:
448,192,23322,1,0,0:0:0:0:
64,192,23496,128,0,23669:0:0:0:0:
448,192,23669,1,0,0:0:0:0:
192,192,23669,1,0,0:0:0:0:
320,192,23842,1,0,0:0:0:0:
64,192,24016,1,0,0:0:0:0:
448,192,24016,1,0,0:0:0:0:
192,192,24189,1,0,0:0:0:0:
320,192,24363,1,0,0:0:0:0:
64,192,24363,1,0,0:0:0:0:
448,192,24536,1,0,0:0:0:0:
64,192,24623,1,0,0:0:0:0:
320,192,24709,1,0,0:0:0:0:
192,192,24709,1,0,0:0:0:0:
64,192,24883,1,0,0:0:0:0:
320,192,25056,1,0,0:0:0:0:
448,192,25056,1,0,0:0:0:0:
64,192,25230,1,0,0:0:0:0:
192,192,25403,1,0,0:0:0:0:
320,192,25403,1,0,0:0:0:0:
448,192,25577,1,0,0:0:0:0:
192,192,25750,1,0,0:0:0:0:
64,192,25750,1,0,0:0:0:0:
448,192,25923,1,0,0:0:0:0:
320,192,26097,1,0,0:0:0:0:
192,192,26097,1,0,0:0:0:0:
64,192,26270,1,0,0:0:0:0:
448,192,26444,1,0,0:0:0:0:
192,192,26444,1,0,0:0:0:0:
320,192,26617,1,0,0:0:0:0:
64,192,26790,1,0,0:0:0:0:
448,192,26790,1,0,0:0:0:0:
192,192,26964,1,0,0:0:0:0:
64,192,27137,1,0,0:0:0:0:
448,192,27137,1,0,0:0:0:0:
320,192,27311,1,0,0:0:0:0:
64,192,27397,1,0,0:0:0:0:
448,192,27484,1,0,0:0:0:0:
192,192,27484,1,0,0:0:0:0:
64,192,27657,1,0,0:0:0:0:
192,192,27831,1,0,0:0:0:0:
320,192,27831,1,0,0:0:0:0:
448,192,28004,1,0,0:0:0:0:
64,192,28178,1,0,0:0:0:0:
192,192,28178,1,0,0:0:0:0:
320,192,28351,1,0,0:0:0:0:
448,192,28524,1,0,0:0:0:0:
64,192,28524,1,0,0:0:0:0:
192,192,28698,1,0,0:0:0:0:
64,192,28871,1,0,0:0:0:0:
448,192,28871,1,0,0:0:0:0:
320,192,29045,1,0,0:0:0:0:
448,192,29218,1,0,0:0:0:0:
192,192,29218,1,0,0:0:0:0:
320,192,29392,1,0,0:0:0:0:
192,192,29565,1,0,0:0:0:0:
64,192,29565,1,0,0:0:0:0:
448,192,29738,1,0,0:0:0:0:
320,192,29912,1,0,0:0:0:0:
192,192,29912,1,0,0:0:0:0:
64,192,30085,1,0,0:0:0:0:
448,192,30172,1,0,0:0:0:0:
192,192,30259,1,0,0:0:0:0:
320,192,30259,1,0,0:0:0:0:
448,192,30432,1,0,0:0:0:0:
64,192,30605,1,0,0:0:0:0:
320,192,30605,1,0,0:0:0:0:
192,192,30779,1,0,0:0:0:0:
64,192,30952,1,0,0:0:0:0:
448,192,30952,1,0,0:0:0:0:
320,192,31126,1,0,0:0:0:0:
448,192,31299,1,0,0:0:0:0:
192,192,31299,1,0,0:0:0:0:
64,192,31472,1,0,0:0:0:0:
192,192,31646,1,0,0:0:0:0:
320,192,31646,1,0,0:0:0:0:
448,192,31819,1,0,0:0:0:0:
64,192,31993,1,0,0:0:0:0:
192,192,31993,1,0,0:0:0:0:
320,192,32166,1,0,0:0:0:0:
448,192,32339,1,0,0:0:0:0:
64,192,32339,1,0,0:0:0:0:
192,192,32513,1,0,0:0:0:0:
320,192,32686,1,0,0:0:0:0:
448,192,32686,1,0,0:0:0:0:
64,192,32860,1,0,0:0:0:0:
320,192,32946,1,0,0:0:0:0:
192,192,33033,1,0,0:0:0:0:
448,192,33033,1,0,0:0:0:0:
320,192,33207,1,0,0:0:0:0:
448,192,33380,1,0,0:0:0:0:
64,192,33380,1,0,0:0:0:0:
192,192,33553,1,0,0:0:0:0:
64,192,33727,1,0,0:0:0:0:
320,192,33727,1,0,0:0:0:0:
192,192,33900,1,0,0:0:0:0:
448,192,34074,128,0,34247:0:0:0:0:
64,192,34074,1,0,0:0:0:0:
320,192,34247,128,0,34420:0:0:0:0:
192,192,34420,128,0,34594:0:0:0:0:
64,192,34594,128,0,34767:0:0:0:0:
448,192,34767,1,0,0:0:0:0:
320,192,34767,1,0,0:0:0:0:
192,192,34941,1,0,0:0:0:0:
64,192,35114,1,0,0:0:0:0:
320,192,35114,1,0,0:0:0:0:
448,192,35287,1,0,0:0:0:0:
320,192,35461,1,0,0:0:0:0:
192,192,35461,1,0,0:0:0:0:
64,192,35634,1,0,0:0:0:0:
192,192,35721,1,0,0:0:0:0:
448,192,35808,1,0,0:0:0:0:
320,192,35808,1,0,0:0:0:0:
192,192,35981,1,0,0:0:0:0:
64,192,36154,1,0,0:0:0:0:
448,192,36154,1,0,0:0:0:0:
192,192,36328,1,0,0:0:0:0:
320,192,36501,1,0,0:0:0:0:
448,192,36501,1,0,0:0:0:0:
64,192,36675,1,0,0:0:0:0:
192,192,36848,1,0,0:0:0:0:
320,192,36848,1,0,0:0:0:0:
448,192,37021,1,0,0:0:0:0:
192,192,37195,1,0,0:0:0:0:
64,192,37195,1,0,0:0:0:0:
320,192,37368,1,0,0:0:0:0:
448,192,37542,1,0,0:0:0:0:
64,192,37542,1,0,0:0:0:0:
320,192,37715,1,0,0:0:0:0:
192,192,37889,1,0,0:0:0:0:
64,192,37889,1,0,0:0:0:0:
320,192,38062,1,0,0:0:0:0:
448,192,38235,1,0,0:0:0:0:
64,192,38235,1,0,0:0:0:0:
192,192,38409,1,0,0:0:0:0:
64,192,38495,1,0,0:0:0:0:
320,192,38582,1,0,0:0:0:0:
448,192,38582,1,0,0:0:0:0:
192,192,38756,1,0,0:0:0:0:
64,192,38929,1,0,0:0:0:0:
448,192,38929,1,0,0:0:0:0:
320,192,39102,1,0,0:0:0:0:
448,192,39276,1,0,0:0:0:0:
192,192,39276,1,0,0:0:0:0:
320,192,39449,1,0,0:0:0:0:
64,192,39623,1,0,0:0:0:0:
192,192,39623,1,0,0:0:0:0:
448,192,39796,1,0,0:0:0:0:
320,192,39969,1,0,0:0:0:0:
64,192,39969,1,0,0:0:0:0:
192,192,40143,1,0,0:0:0:0:
320,192,40316,1,0,0:0:0:0:
448,192,40316,1,0,0:0:0:0:
64,192,40490,1,0,0:0:0:0:
192,192,40490,1,0,0:0:0:0:
448,192,40663,1,0,0:0:0:0:
320,192,40663,1,0,0:0:0:0:
192,192,40836,1,0,0:0:0:0:
64,192,40836,1,0,0:0:0:0:
448,192,41010,1,0,0:0:0:0:
320,192,41010,1,0,0:0:0:0:
192,192,41183,1,0,0:0:0:0:
64,192,41183,1,0,0:0:0:0:
320,192,41357,1,0,0:0:0:0:
448,192,41357,1,0,0:0:0:0:
192,192,41530,1,0,0:0:0:0:
64,192,41530,1,0,0:0:0:0:
448,192,41704,1,0,0:0:0:0:
64,192,41704,1,0,0:0:0:0:
192,192,41877,1,0,0:0:0:0:
320,192,41877,1,0,0:0:0:0:
64,192,42050,1,0,0:0:0:0:
448,192,42050,1,0,0:0:0:0:
320,192,42224,1,0,0:0:0:0:
192,192,42224,1,0,0:0:0:0:
64,192,42397,1,0,0:0:0:0:
448,192,42397,1,0,0:0:0:0:
192,192,42571,1,0,0:0:0:0:
320,192,42571,1,0,0:0:0:0:
448,192,42744,1,0,0:0:0:0:
64,192,42744,1,0,0:0:0:0:
192,192,42917,1,0,0:0:0:0:
320,192,42917,1,0,0:0:0:0:
64,192,43091,1,0,0:0:0:0:
448,192,43091,1,0,0:0:0:0:
320,192,43177,1,0,0:0:0:0:
192,192,43264,1,0,0:0:0:0:
448,192,43351,1,0,0:0:0:0:
192,192,43438,1,0,0:0:0:0:
320,192,43524,1,0,0:0:0:0:
64,192,43611,1,0,0:0:0:0:
320,192,43698,1,0,0:0:0:0:
192,192,43784,1,0,0:0:0:0:
64,192,43784,1,0,0:0:0:0:
448,192,43871,1,0,0:0:0:0:
192,192,43958,1,0,0:0:0:0:
320,192,44045,1,0,0:0:0:0:
64,192,44131,1,0,0:0:0:0:
320,192,44218,1,0,0:0:0:0:
192,192,44305,1,0,0:0:0:0:
448,192,44391,1,0,0:0:0:0:
192,192,44478,1,0,0:0:0:0:
64,192,44478,1,0,0:0:0:0:
192,192,44651,128,0,44825:0:0:0:0:
320,192,44998,128,0,45172:0:0:0:0:
448,192,45172,128,0,45345:0:0:0:0:
192,192,45345,128,0,45519:0:0:0:0:
320,192,45519,128,0,45692:0:0:0:0:
448,192,45519,1,0,0:0:0:0:
64,192,45692,128,0,45865:0:0:0:0:
448,192,45865,128,0,48293:0:0:0:0:
192,192,45865,1,0,0:0:0:0:
64,192,47253,128,0,48293:0:0:0:0:
192,192,48293,1,0,0:0:0:0:
320,192,48293,1,0,0:0:0:0:
64,192,48640,1,0,0:0:0:0:
320,192,48640,1,0,0:0:0:0:
192,192,48813,1,0,0:0:0:0:
320,192,48900,1,0,0:0:0:0:
448,192,48987,1,0,0:0:0:0:
192,192,48987,1,0,0:0:0:0:
448,192,49160,1,0,0:0:0:0:
192,192,49247,1,0,0:0:0:0:
320,192,49333,1,0,0:0:0:0:
64,192,49420,1,0,0:0:0:0:
192,192,49507,1,0,0:0:0:0:
448,192,49680,1,0,0:0:0:0:
320,192,49680,1,0,0:0:0:0:
320,192,49854,1,0,0:0:0:0:
192,192,49940,1,0,0:0:0:0:
64,192,50027,1,0,0:0:0:0:
320,192,50027,1,0,0:0:0:0:
192,192,50201,1,0,0:0:0:0:
320,192,50374,1,0,0:0:0:0:
192,192,50374,1,0,0:0:0:0:
448,192,50547,1,0,0:0:0:0:
320,192,50721,1,0,0:0:0:0:
64,192,50721,1,0,0:0:0:0:
64,192,51068,1,0,0:0:0:0:
448,192,51068,1,0,0:0:0:0:
320,192,51414,1,0,0:0:0:0:
448,192,51414,1,0,0:0:0:0:
192,192,51501,1,0,0:0:0:0:
64,192,51588,1,0,0:0:0:0:
448,192,51761,1,0,0:0:0:0:
320,192,51761,1,0,0:0:0:0:
192,192,51935,1,0,0:0:0:0:
320,192,52021,1,0,0:0:0:0:
448,192,52108,1,0,0:0:0:0:
320,192,52195,1,0,0:0:0:0:
192,192,52281,1,0,0:0:0:0:
64,192,52455,128,0,52802:0:0:0:0:
320,192,52455,1,0,0:0:0:0:
192,192,52802,128,0,53148:0:0:0:0:
320,192,52802,1,0,0:0:0:0:
192,192,53322,1,0,0:0:0:0:
320,192,53409,1,0,0:0:0:0:
448,192,53495,128,0,53842:0:0:0:0:
64,192,53495,1,0,0:0:0:0:
320,192,53842,128,0,54189:0:0:0:0:
64,192,54189,1,0,0:0:0:0:
448,192,54189,1,0,0:0:0:0:
192,192,54362,1,0,0:0:0:0:
320,192,54449,1,0,0:0:0:0:
448,192,54536,1,0,0:0:0:0:
192,192,54536,1,0,0:0:0:0:
320,192,54709,1,0,0:0:0:0:
192,192,54796,1,0,0:0:0:0:
64,192,54883,1,0,0:0:0:0:
448,192,54883,1,0,0:0:0:0:
192,192,54969,1,0,0:0:0:0:
320,192,55056,1,0,0:0:0:0:
64,192,55229,1,0,0:0:0:0:
448,192,55229,1,0,0:0:0:0:
64,192,55403,1,0,0:0:0:0:
192,192,55489,1,0,0:0:0:0:
448,192,55576,1,0,0:0:0:0:
320,192,55576,1,0,0:0:0:0:
320,192,55750,1,0,0:0:0:0:
448,192,55923,1,0,0:0:0:0:
192,192,55923,1,0,0:0:0:0:
320,192,56096,1,0,0:0:0:0:
64,192,56270,1,0,0:0:0:0:
448,192,56270,1,0,0:0:0:0:
64,192,56617,128,0,56963:0:0:0:0:
320,192,56617,1,0,0:0:0:0:
448,192,56963,1,0,0:0:0:0:
192,192,56963,1,0,0:0:0:0:
320,192,57050,1,0,0:0:0:0:
448,192,57137,1,0,0:0:0:0:
64,192,57310,1,0,0:0:0:0:
320,192,57310,1,0,0:0:0:0:
192,192,57397,1,0,0:0:0:0:
64,192,57484,1,0,0:0:0:0:
448,192,57657,1,0,0:0:0:0:
192,192,57657,1,0,0:0:0:0:
320,192,57744,1,0,0:0:0:0:
448,192,57830,1,0,0:0:0:0:
320,192,57917,1,0,0:0:0:0:
448,192,58004,128,0,58351:0:0:0:0:
64,192,58004,1,0,0:0:0:0:
320,192,58351,1,0,0:0:0:0:
192,192,58437,1,0,0:0:0:0:
64,192,58524,1,0,0:0:0:0:
192,192,58611,1,0,0:0:0:0:
320,192,58698,1,0,0:0:0:0:
448,192,58784,1,0,0:0:0:0:
320,192,58871,1,0,0:0:0:0:
192,192,58958,1,0,0:0:0:0:
64,192,59044,128,0,59391:0:0:0:0:
448,192,59044,1,0,0:0:0:0:
192,192,59391,128,0,59738:0:0:0:0:
320,192,59391,1,0,0:0:0:0:
320,192,59738,128,0,60085:0:0:0:0:
64,192,59738,1,0,0:0:0:0:
64,192,60085,1,0,0:0:0:0:
448,192,60085,1,0,0:0:0:0:
320,192,60258,1,0,0:0:0:0:
64,192,60432,1,0,0:0:0:0:
192,192,60518,1,0,0:0:0:0:
320,192,60605,1,0,0:0:0:0:
192,192,60692,1,0,0:0:0:0:
320,192,60778,1,0,0:0:0:0:
320,192,60952,1,0,0:0:0:0:
320,192,61125,1,0,0:0:0:0:
320,192,61472,1,0,0:0:0:0:
192,192,61559,1,0,0:0:0:0:
64,192,61645,1,0,0:0:0:0:
192,192,61732,1,0,0:0:0:0:
448,192,61819,1,0,0:0:0:0:
448,192,61992,1,0,0:0:0:0:
320,192,62166,128,0,62513:0:0:0:0:
448,192,62513,128,0,62859:0:0:0:0:
448,192,63033,1,0,0:0:0:0:
192,192,63206,1,0,0:0:0:0:
320,192,63293,1,0,0:0:0:0:
192,192,63380,1,0,0:0:0:0:
320,192,63466,1,0,0:0:0:0:
448,192,63553,1,0,0:0:0:0:
448,192,63726,1,0,0:0:0:0:
64,192,63900,1,0,0:0:0:0:
320,192,63900,1,0,0:0:0:0:
192,192,64073,1,0,0:0:0:0:
448,192,64073,1,0,0:0:0:0:
64,192,64247,1,0,0:0:0:0:
320,192,64247,1,0,0:0:0:0:
192,192,64420,1,0,0:0:0:0:
448,192,64420,1,0,0:0:0:0:
448,192,64593,1,0,0:0:0:0:
192,192,64593,1,0,0:0:0:0:
320,192,64767,1,0,0:0:0:0:
64,192,64767,1,0,0:0:0:0:
448,192,64940,1,0,0:0:0:0:
192,192,64940,1,0,0:0:0:0:
320,192,65114,1,0,0:0:0:0:
64,192,65114,1,0,0:0:0:0:
448,192,65287,128,0,65634:0:0:0:0:
192,192,65287,1,0,0:0:0:0:
448,192,65807,1,0,0:0:0:0:
64,192,65981,1,0,0:0:0:0:
192,192,66067,1,0,0:0:0:0:
64,192,66154,1,0,0:0:0:0:
192,192,66241,1,0,0:0:0:0:
320,192,66328,1,0,0:0:0:0:
320,192,66501,1,0,0:0:0:0:
320,192,66674,1,0,0:0:0:0:
320,192,67021,1,0,0:0:0:0:
192,192,67108,1,0,0:0:0:0:
64,192,67195,1,0,0:0:0:0:
192,192,67281,1,0,0:0:0:0:
448,192,67368,1,0,0:0:0:0:
448,192,67541,1,0,0:0:0:0:
320,192,67715,1,0,0:0:0:0:
320,192,67888,1,0,0:0:0:0:
192,192,68062,1,0,0:0:0:0:
64,192,68148,1,0,0:0:0:0:
192,192,68235,1,0,0:0:0:0:
64,192,68322,1,0,0:0:0:0:
320,192,68408,1,0,0:0:0:0:
192,192,68495,1,0,0:0:0:0:
320,192,68582,1,0,0:0:0:0:
192,192,68669,1,0,0:0:0:0:
448,192,68755,1,0,0:0:0:0:
320,192,68842,1,0,0:0:0:0:
448,192,68929,1,0,0:0:0:0:
320,192,69015,1,0,0:0:0:0:
192,192,69102,1,0,0:0:0:0:
320,192,69189,1,0,0:0:0:0:
192,192,69275,1,0,0:0:0:0:
320,192,69362,1,0,0:0:0:0:
64,192,69449,128,0,70489:0:0:0:0:
448,192,70489,1,0,0:0:0:0:
320,192,70489,1,0,0:0:0:0:
448,192,70836,128,0,73611:0:0:0:0:
64,192,70836,1,0,0:0:0:0:
320,192,71010,1,0,0:0:0:0:
64,192,71183,1,0,0:0:0:0:
320,192,71356,1,0,0:0:0:0:
64,192,71530,1,0,0:0:0:0:
192,192,71703,1,0,0:0:0:0:
64,192,71877,1,0,0:0:0:0:
192,192,72050,1,0,0:0:0:0:
320,192,72223,1,0,0:0:0:0:
192,192,72397,1,0,0:0:0:0:
320,192,72570,1,0,0:0:0:0:
192,192,72744,1,0,0:0:0:0:
64,192,72917,1,0,0:0:0:0:
192,192,73090,1,0,0:0:0:0:
320,192,73264,1,0,0:0:0:0:
192,192,73437,1,0,0:0:0:0:
64,192,73611,128,0,76385:0:0:0:0:
320,192,73611,1,0,0:0:0:0:
192,192,73784,1,0,0:0:0:0:
320,192,73957,1,0,0:0:0:0:
192,192,74131,1,0,0:0:0:0:
448,192,74304,1,0,0:0:0:0:
320,192,74478,1,0,0:0:0:0:
448,192,74651,1,0,0:0:0:0:
320,192,74825,1,0,0:0:0:0:
192,192,74998,1,0,0:0:0:0:
320,192,75171,1,0,0:0:0:0:
192,192,75345,1,0,0:0:0:0:
320,192,75518,1,0,0:0:0:0:
448,192,75692,1,0,0:0:0:0:
192,192,75865,1,0,0:0:0:0:
448,192,76038,1,0,0:0:0:0:
192,192,76212,1,0,0:0:0:0:
320,192,76385,128,0,77772:0:0:0:0:
448,192,76385,1,0,0:0:0:0:
64,192,76559,1,0,0:0:0:0:
448,192,76732,1,0,0:0:0:0:
64,192,76905,1,0,0:0:0:0:
448,192,77079,1,0,0:0:0:0:
192,192,77252,1,0,0:0:0:0:
448,192,77426,1,0,0:0:0:0:
192,192,77599,1,0,0:0:0:0:
448,192,77772,128,0,79160:0:0:0:0:
64,192,77772,1,0,0:0:0:0:
320,192,77946,1,0,0:0:0:0:
64,192,78119,1,0,0:0:0:0:
320,192,78293,1,0,0:0:0:0:
192,192,78466,1,0,0:0:0:0:
64,192,78640,1,0,0:0:0:0:
192,192,78813,1,0,0:0:0:0:
64,192,78986,1,0,0:0:0:0:
192,192,79160,128,0,80547:0:0:0:0:
320,192,79160,1,0,0:0:0:0:
64,192,79333,1,0,0:0:0:0:
320,192,79507,1,0,0:0:0:0:
64,192,79680,1,0,0:0:0:0:
448,192,79853,1,0,0:0:0:0:
64,192,80027,1,0,0:0:0:0:
448,192,80200,1,0,0:0:0:0:
64,192,80374,1,0,0:0:0:0:
320,192,80547,1,0,0:0:0:0:
448,192,80720,1,0,0:0:0:0:
320,192,80894,1,0,0:0:0:0:
448,192,81067,1,0,0:0:0:0:
448,192,81241,128,0,81414:0:0:0:0:
320,192,81414,128,0,81587:0:0:0:0:
64,192,81587,1,0,0:0:0:0:
448,192,81587,128,0,81761:0:0:0:0:
192,192,81761,128,0,81934:0:0:0:0:
448,192,81934,128,0,82281:0:0:0:0:
64,192,81934,1,0,0:0:0:0:
320,192,82281,128,0,82628:0:0:0:0:
192,192,82281,1,0,0:0:0:0:
192,192,82628,128,0,82801:0:0:0:0:
448,192,82628,1,0,0:0:0:0:
64,192,82801,128,0,83148:0:0:0:0:
320,192,82975,1,0,0:0:0:0:
192,192,83148,1,0,0:0:0:0:
448,192,83322,1,0,0:0:0:0:
192,192,83322,128,0,83495:0:0:0:0:
320,192,83495,128,0,83668:0:0:0:0:
448,192,83668,128,0,84015:0:0:0:0:
64,192,83668,1,0,0:0:0:0:
320,192,84015,128,0,84189:0:0:0:0:
64,192,84015,1,0,0:0:0:0:
192,192,84189,128,0,84535:0:0:0:0:
448,192,84362,1,0,0:0:0:0:
64,192,84535,128,0,84882:0:0:0:0:
448,192,84709,1,0,0:0:0:0:
320,192,84709,1,0,0:0:0:0:
192,192,84882,128,0,85056:0:0:0:0:
320,192,85056,128,0,85402:0:0:0:0:
64,192,85056,1,0,0:0:0:0:
448,192,85402,128,0,85576:0:0:0:0:
64,192,85402,1,0,0:0:0:0:
320,192,85576,128,0,85923:0:0:0:0:
64,192,85749,1,0,0:0:0:0:
192,192,85923,128,0,86269:0:0:0:0:
448,192,86096,1,0,0:0:0:0:
64,192,86269,128,0,86443:0:0:0:0:
192,192,86443,128,0,86790:0:0:0:0:
448,192,86443,1,0,0:0:0:0:
320,192,86790,128,0,86963:0:0:0:0:
64,192,86790,1,0,0:0:0:0:
448,192,86963,128,0,87310:0:0:0:0:
64,192,87137,1,0,0:0:0:0:
320,192,87310,128,0,87657:0:0:0:0:
192,192,87483,1,0,0:0:0:0:
64,192,87483,1,0,0:0:0:0:
192,192,87657,128,0,87830:0:0:0:0:
64,192,87830,128,0,88004:0:0:0:0:
320,192,88004,128,0,88177:0:0:0:0:
448,192,88177,128,0,88350:0:0:0:0:
192,192,88350,128,0,88524:0:0:0:0:
64,192,88524,128,0,88697:0:0:0:0:
320,192,88697,128,0,88871:0:0:0:0:
448,192,88871,128,0,89044:0:0:0:0:
192,192,89044,128,0,89217:0:0:0:0:
64,192,89217,128,0,89391:0:0:0:0:
320,192,89391,128,0,89564:0:0:0:0:
448,192,89564,128,0,89738:0:0:0:0:
192,192,89738,128,0,89911:0:0:0:0:
64,192,89911,128,0,90084:0:0:0:0:
320,192,90084,128,0,90258:0:0:0:0:
448,192,90258,128,0,90431:0:0:0:0:
64,192,90258,128,0,90431:0:0:0:0:
192,192,90431,128,0,90605:0:0:0:0:
64,192,90605,128,0,90778:0:0:0:0:
448,192,90605,128,0,90778:0:0:0:0:
320,192,90778,128,0,90952:0:0:0:0:
64,192,90952,128,0,91125:0:0:0:0:
448,192,90952,128,0,91125:0:0:0:0:
192,192,91125,128,0,91298:0:0:0:0:
448,192,91298,128,0,91472:0:0:0:0:
64,192,91298,128,0,91472:0:0:0:0:
320,192,91472,128,0,91645:0:0:0:0:
448,192,91645,128,0,92339:0:0:0:0:
320,192,92339,128,0,92512:0:0:0:0:
192,192,92512,128,0,92686:0:0:0:0:
64,192,92686,128,0,92859:0:0:0:0:
448,192,92686,1,0,0:0:0:0:
192,192,92859,128,0,93032:0:0:0:0:
448,192,93032,1,0,0:0:0:0:
320,192,93032,1,0,0:0:0:0:
192,192,93206,1,0,0:0:0:0:
64,192,93379,1,0,0:0:0:0:
448,192,93379,1,0,0:0:0:0:
320,192,93553,1,0,0:0:0:0:
448,192,93726,1,0,0:0:0:0:
192,192,93726,1,0,0:0:0:0:
64,192,93899,1,0,0:0:0:0:
192,192,94073,1,0,0:0:0:0:
320,192,94073,1,0,0:0:0:0:
448,192,94246,1,0,0:0:0:0:
320,192,94420,1,0,0:0:0:0:
192,192,94420,1,0,0:0:0:0:
64,192,94593,1,0,0:0:0:0:
192,192,94766,1,0,0:0:0:0:
448,192,94766,1,0,0:0:0:0:
320,192,94940,1,0,0:0:0:0:
64,192,95113,1,0,0:0:0:0:
448,192,95113,1,0,0:0:0:0:
192,192,95287,1,0,0:0:0:0:
64,192,95460,1,0,0:0:0:0:
320,192,95460,1,0,0:0:0:0:
448,192,95634,1,0,0:0:0:0:
320,192,95807,1,0,0:0:0:0:
192,192,95807,1,0,0:0:0:0:
64,192,95980,1,0,0:0:0:0:
192,192,96154,1,0,0:0:0:0:
448,192,96154,1,0,0:0:0:0:
320,192,96327,1,0,0:0:0:0:
448,192,96501,1,0,0:0:0:0:
64,192,96501,1,0,0:0:0:0:
192,192,96674,1,0,0:0:0:0:
64,192,96847,1,0,0:0:0:0:
448,192,96847,1,0,0:0:0:0:
320,192,97021,1,0,0:0:0:0:
448,192,97194,1,0,0:0:0:0:
192,192,97194,1,0,0:0:0:0:
64,192,97368,1,0,0:0:0:0:
192,192,97541,1,0,0:0:0:0:
320,192,97541,1,0,0:0:0:0:
448,192,97714,1,0,0:0:0:0:
320,192,97888,1,0,0:0:0:0:
64,192,97888,1,0,0:0:0:0:
192,192,98061,1,0,0:0:0:0:
64,192,98235,1,0,0:0:0:0:
448,192,98235,1,0,0:0:0:0:
320,192,98408,1,0,0:0:0:0:
448,192,98581,1,0,0:0:0:0:
192,192,98581,1,0,0:0:0:0:
64,192,98755,1,0,0:0:0:0:
192,192,98928,1,0,0:0:0:0:
320,192,98928,1,0,0:0:0:0:
448,192,99102,1,0,0:0:0:0:
320,192,99275,1,0,0:0:0:0:
64,192,99275,1,0,0:0:0:0:
192,192,99449,1,0,0:0:0:0:
64,192,99622,1,0,0:0:0:0:
448,192,99622,1,0,0:0:0:0:
320,192,99795,1,0,0:0:0:0:
448,192,99969,1,0,0:0:0:0:
64,192,99969,1,0,0:0:0:0:
192,192,100142,1,0,0:0:0:0:
64,192,100316,1,0,0:0:0:0:
320,192,100316,1,0,0:0:0:0:
448,192,100489,1,0,0:0:0:0:
320,192,100662,1,0,0:0:0:0:
192,192,100662,1,0,0:0:0:0:
64,192,100836,1,0,0:0:0:0:
192,192,101009,1,0,0:0:0:0:
448,192,101009,1,0,0:0:0:0:
320,192,101183,1,0,0:0:0:0:
64,192,101356,1,0,0:0:0:0:
192,192,101356,1,0,0:0:0:0:
448,192,101529,1,0,0:0:0:0:
320,192,101703,1,0,0:0:0:0:
192,192,101703,1,0,0:0:0:0:
64,192,101876,1,0,0:0:0:0:
320,192,102050,1,0,0:0:0:0:
448,192,102050,1,0,0:0:0:0:
192,192,102223,1,0,0:0:0:0:
64,192,102396,1,0,0:0:0:0:
448,192,102396,1,0,0:0:0:0:
192,192,102570,1,0,0:0:0:0:
320,192,102743,1,0,0:0:0:0:
448,192,102743,1,0,0:0:0:0:
192,192,102917,1,0,0:0:0:0:
64,192,103090,1,0,0:0:0:0:
448,192,103090,1,0,0:0:0:0:
320,192,103263,1,0,0:0:0:0:
192,192,103437,1,0,0:0:0:0:
64,192,103437,1,0,0:0:0:0:
320,192,103610,1,0,0:0:0:0:
448,192,103784,1,0,0:0:0:0:
64,192,103784,1,0,0:0:0:0:
320,192,103957,1,0,0:0:0:0:
192,192,104131,1,0,0:0:0:0:
64,192,104131,1,0,0:0:0:0:
320,192,104304,1,0,0:0:0:0:
448,192,104477,1,0,0:0:0:0:
64,192,104477,1,0,0:0:0:0:
192,192,104651,1,0,0:0:0:0:
320,192,104824,1,0,0:0:0:0:
448,192,104824,1,0,0:0:0:0:
192,192,104998,1,0,0:0:0:0:
64,192,105171,1,0,0:0:0:0:
448,192,105171,1,0,0:0:0:0:
320,192,105344,1,0,0:0:0:0:
192,192,105518,1,0,0:0:0:0:
64,192,105518,1,0,0:0:0:0:
320,192,105691,1,0,0:0:0:0:
448,192,105865,1,0,0:0:0:0:
64,192,105865,1,0,0:0:0:0:
192,192,106038,1,0,0:0:0:0:
320,192,106211,1,0,0:0:0:0:
448,192,106211,1,0,0:0:0:0:
192,192,106385,1,0,0:0:0:0:
64,192,106558,1,0,0:0:0:0:
448,192,106558,1,0,0:0:0:0:
320,192,106732,1,0,0:0:0:0:
64,192,106905,1,0,0:0:0:0:
448,192,106905,1,0,0:0:0:0:
192,192,107078,1,0,0:0:0:0:
64,192,107252,1,0,0:0:0:0:
448,192,107252,1,0,0:0:0:0:
320,192,107425,1,0,0:0:0:0:
448,192,107599,1,0,0:0:0:0:
64,192,107599,1,0,0:0:0:0:
192,192,107772,1,0,0:0:0:0:
64,192,107946,1,0,0:0:0:0:
448,192,107946,1,0,0:0:0:0:
320,192,108119,1,0,0:0:0:0:
448,192,108292,1,0,0:0:0:0:
64,192,108292,1,0,0:0:0:0:
192,192,108466,1,0,0:0:0:0:
64,192,108639,1,0,0:0:0:0:
448,192,108639,1,0,0:0:0:0:
320,192,108813,1,0,0:0:0:0:
448,192,108986,1,0,0:0:0:0:
64,192,108986,1,0,0:0:0:0:
192,192,109159,1,0,0:0:0:0:
64,192,109333,1,0,0:0:0:0:
448,192,109333,1,0,0:0:0:0:
320,192,109506,1,0,0:0:0:0:
192,192,109680,1,0,0:0:0:0:
64,192,109680,1,0,0:0:0:0:
320,192,109853,1,0,0:0:0:0:
448,192,109853,1,0,0:0:0:0:
192,192,110026,1,0,0:0:0:0:
64,192,110026,1,0,0:0:0:0:
320,192,110200,1,0,0:0:0:0:
448,192,110200,1,0,0:0:0:0:
192,192,110373,1,0,0:0:0:0:
64,192,110373,1,0,0:0:0:0:
320,192,110547,1,0,0:0:0:0:
448,192,110547,1,0,0:0:0:0:
192,192,110720,1,0,0:0:0:0:
64,192,110720,1,0,0:0:0:0:
320,192,110893,1,0,0:0:0:0:
448,192,110893,1,0,0:0:0:0:
192,192,111067,1,0,0:0:0:0:
320,192,111067,1,0,0:0:0:0:
64,192,111240,1,0,0:0:0:0:
448,192,111240,1,0,0:0:0:0:
320,192,111414,1,0,0:0:0:0:
192,192,111414,1,0,0:0:0:0:
64,192,111587,1,0,0:0:0:0:
448,192,111587,1,0,0:0:0:0:
320,192,111761,1,0,0:0:0:0:
192,192,111761,1,0,0:0:0:0:
64,192,111934,1,0,0:0:0:0:
448,192,111934,1,0,0:0:0:0:
320,192,112107,1,0,0:0:0:0:
192,192,112107,1,0,0:0:0:0:
64,192,112281,1,0,0:0:0:0:
448,192,112281,1,0,0:0:0:0:
64,192,112454,1,0,0:0:0:0:
192,192,112541,1,0,0:0:0:0:
320,192,112628,1,0,0:0:0:0:
448,192,112714,1,0,0:0:0:0:
320,192,112801,1,0,0:0:0:0:
192,192,112888,1,0,0:0:0:0:
64,192,112974,1,0,0:0:0:0:
192,192,113061,1,0,0:0:0:0:
448,192,113148,1,0,0:0:0:0:
64,192,113234,1,0,0:0:0:0:
320,192,113321,1,0,0:0:0:0:
192,192,113408,1,0,0:0:0:0:
448,192,113495,1,0,0:0:0:0:
64,192,113581,1,0,0:0:0:0:
320,192,113668,1,0,0:0:0:0:
192,192,113755,1,0,0:0:0:0:
320,192,113841,1,0,0:0:0:0:
448,192,113928,1,0,0:0:0:0:
320,192,114015,1,0,0:0:0:0:
192,192,114102,1,0,0:0:0:0:
64,192,114188,1,0,0:0:0:0:
192,192,114275,1,0,0:0:0:0:
320,192,114362,1,0,0:0:0:0:
448,192,114448,1,0,0:0:0:0:
320,192,114535,1,0,0:0:0:0:
192,192,114622,1,0,0:0:0:0:
64,192,114708,1,0,0:0:0:0:
192,192,114795,1,0,0:0:0:0:
320,192,114882,1,0,0:0:0:0:
448,192,114882,1,0,0:0:0:0:
192,192,115055,1,0,0:0:0:0:
64,192,115229,1,0,0:0:0:0:
448,192,115229,1,0,0:0:0:0:
