osu file format v14

[General]
AudioFilename: VISION.mp3
AudioLeadIn: 0
PreviewTime: 91640
Countdown: 0
SampleSet: Soft
StackLeniency: 0.7
Mode: 3
LetterboxInBreaks: 0
SpecialStyle: 0
WidescreenStoryboard: 0

[Editor]
DistanceSpacing: 1.5
BeatDivisor: 4
GridSize: 16
TimelineZoom: 1.7

[Metadata]
Title:VISION
TitleUnicode:VISION
Artist:nora2r
ArtistUnicode:nora2r
Creator:Shinzo-
Version:NOV
Source:SOUND VOLTEX BOOTH
Tags:SDVX III GRAVITY WARS KAC2012 オリジナル楽曲コンテスト Original Song Contest ULTIMATE MEDLEY HISTORIA Brian_Ex
BeatmapID:725904
BeatmapSetID:327006

[Difficulty]
HPDrainRate:7
CircleSize:8
OverallDifficulty:7
ApproachRate:5
SliderMultiplier:1.4
SliderTickRate:1

[Events]
//Background and Video events
0,0,"BG.jpg",0,0
//Break Periods
//Storyboard Layer 0 (Background)
//Storyboard Layer 1 (Fail)
//Storyboard Layer 2 (Pass)
//Storyboard Layer 3 (Foreground)
//Storyboard Sound Samples
Sample,35108,0,"Snare.wav",32
Sample,37882,0,"Snare.wav",32
Sample,67622,0,"whoosh.wav",32
Sample,68316,0,"whoosh.wav",32
Sample,93374,0,"Snare.wav",32
Sample,96148,0,"Snare.wav",32
Sample,98923,0,"Snare.wav",32
Sample,104472,0,"Snare.wav",32
Sample,107246,0,"Snare.wav",32
Sample,114530,0,"whoosh.wav",32

[TimingPoints]
773,346.820809248555,4,2,1,32,1,0
22969,-100,4,2,1,32,0,1
32680,-100,4,2,1,32,0,0
34067,-100,4,2,1,32,0,1
45166,-100,4,2,1,32,0,0
92333,-100,4,2,1,32,0,1
102044,-100,4,2,1,32,0,0
103431,-100,4,2,1,32,0,1
113142,-100,4,2,1,32,0,0

[HitObjects]
32,192,773,5,0,0:0:0:32:whoosh.wav
288,192,773,128,4,2853:0:0:0:0:
224,192,773,1,2,0:0:0:0:
480,192,1119,1,0,0:0:0:32:Snare.wav
480,192,1813,1,0,0:0:0:32:Snare.wav
480,192,2507,1,0,0:0:0:32:Snare.wav
32,192,2853,1,0,0:0:0:32:whoosh.wav
416,192,2853,1,0,0:0:0:0:
32,192,3200,1,0,0:0:0:32:whoosh.wav
416,192,3200,1,0,0:0:0:0:
288,192,3547,128,0,5628:0:0:0:0:
96,192,3894,1,0,0:0:0:32:Snare.wav
480,192,4588,1,0,0:0:0:0:
32,192,4934,1,0,0:0:0:0:
160,192,5281,1,0,0:0:0:32:Snare.wav
32,192,5628,1,0,0:0:0:32:whoosh.wav
416,192,5628,1,0,0:0:0:0:
32,192,5975,1,0,0:0:0:32:whoosh.wav
480,192,5975,1,0,0:0:0:0:
288,192,6322,128,0,8403:0:0:0:0:
416,192,6668,1,0,0:0:0:32:Snare.wav
416,192,7362,1,0,0:0:0:32:Snare.wav
416,192,8056,1,0,0:0:0:32:Snare.wav
32,192,8403,1,0,0:0:0:32:whoosh.wav
480,192,8403,1,0,0:0:0:0:
32,192,8749,1,0,0:0:0:32:whoosh.wav
480,192,8749,1,0,0:0:0:0:
288,192,9096,128,0,10483:0:0:0:0:
96,192,9443,1,0,0:0:0:32:Snare.wav
416,192,10137,1,0,0:0:0:0:
480,192,10483,128,0,10830:0:0:0:0:
352,192,10830,128,0,11177:0:0:0:0:
224,192,11177,128,0,11524:0:0:0:0:
96,192,11524,128,0,11871:0:0:0:0:
32,192,11871,1,0,0:0:0:32:whoosh.wav
416,192,11871,1,4,0:0:0:0:
160,192,12044,1,0,0:0:0:0:
416,192,12218,1,8,0:0:0:0:
224,192,12391,1,0,0:0:0:0:
416,192,12564,1,8,0:0:0:0:
160,192,12738,1,0,0:0:0:0:
416,192,12911,1,8,0:0:0:0:
160,192,13085,1,0,0:0:0:0:
416,192,13258,1,8,0:0:0:0:
160,192,13431,1,0,0:0:0:0:
416,192,13605,1,8,0:0:0:0:
160,192,13778,1,0,0:0:0:0:
416,192,13952,1,8,0:0:0:0:
160,192,14125,1,0,0:0:0:0:
416,192,14299,1,8,0:0:0:0:
288,192,14472,1,0,0:0:0:0:
160,192,14645,1,8,0:0:0:0:
416,192,14819,1,0,0:0:0:0:
160,192,14992,1,8,0:0:0:0:
416,192,15166,1,0,0:0:0:0:
160,192,15339,1,8,0:0:0:0:
416,192,15512,1,0,0:0:0:0:
160,192,15686,1,8,0:0:0:0:
416,192,15859,1,0,0:0:0:0:
160,192,16033,1,8,0:0:0:0:
416,192,16206,1,0,0:0:0:0:
160,192,16379,1,8,0:0:0:0:
416,192,16553,1,0,0:0:0:0:
160,192,16726,1,8,0:0:0:0:
288,192,16900,1,0,0:0:0:0:
416,192,17073,1,8,0:0:0:0:
160,192,17246,1,0,0:0:0:0:
32,192,17420,1,8,0:0:0:0:
288,192,17420,1,0,0:0:0:32:whoosh.wav
32,192,17767,1,0,0:0:0:32:whoosh.wav
288,192,17767,1,8,0:0:0:0:
32,192,18114,1,0,0:0:0:32:whoosh.wav
352,192,18114,1,8,0:0:0:0:
32,192,18460,1,0,0:0:0:32:whoosh.wav
352,192,18460,1,8,0:0:0:0:
32,192,18807,1,0,0:0:0:32:whoosh.wav
224,192,18807,1,8,0:0:0:0:
32,192,19154,1,0,0:0:0:32:whoosh.wav
224,192,19154,1,8,0:0:0:0:
32,192,19501,1,0,0:0:0:32:whoosh.wav
416,192,19501,1,8,0:0:0:0:
32,192,19848,1,0,0:0:0:32:whoosh.wav
416,192,19848,1,8,0:0:0:0:
32,192,20194,1,0,0:0:0:32:whoosh.wav
160,192,20194,1,8,0:0:0:0:
480,192,20368,1,8,0:0:0:0:
352,192,20541,1,8,0:0:0:0:
224,192,20715,1,8,0:0:0:0:
32,192,20888,1,0,0:0:0:32:whoosh.wav
416,192,20888,1,8,0:0:0:0:
288,192,21062,1,8,0:0:0:0:
160,192,21235,1,8,0:0:0:0:
352,192,21408,1,8,0:0:0:0:
224,192,21582,1,0,0:0:0:32:whoosh.wav
32,192,21582,1,0,0:0:0:0:
32,192,21929,1,0,0:0:0:32:whoosh.wav
288,192,21929,1,0,0:0:0:0:
96,192,22275,1,0,0:0:0:0:
160,192,22449,1,0,0:0:0:0:
480,192,22622,1,0,0:0:0:32:whoosh.wav
224,192,22622,1,0,0:0:0:0:
416,192,22796,1,0,0:0:0:0:
352,192,22969,1,0,0:0:0:32:whoosh.wav
96,192,22969,1,0,0:0:0:0:
160,192,23316,1,2,0:0:0:0:
416,192,23316,1,0,0:0:0:0:
96,192,23663,1,2,0:0:0:0:
352,192,23663,1,0,0:0:0:0:
416,192,23923,1,0,0:0:0:0:
480,192,24183,1,0,0:0:0:0:
224,192,24356,1,2,0:0:0:0:
96,192,24356,1,0,0:0:0:0:
288,192,24530,1,0,0:0:0:0:
352,192,24703,1,2,0:0:0:0:
480,192,24703,1,0,0:0:0:0:
224,192,24877,1,0,0:0:0:0:
96,192,25050,1,2,0:0:0:0:
416,192,25050,1,0,0:0:0:0:
160,192,25223,1,0,0:0:0:0:
352,192,25397,1,2,0:0:0:0:
224,192,25570,1,0,0:0:0:0:
288,192,25744,1,2,0:0:0:0:
480,192,25744,1,0,0:0:0:0:
224,192,26090,1,2,0:0:0:0:
416,192,26090,1,0,0:0:0:0:
160,192,26437,1,2,0:0:0:0:
352,192,26437,1,0,0:0:0:0:
224,192,26697,1,0,0:0:0:0:
288,192,26957,1,0,0:0:0:0:
96,192,27131,1,2,0:0:0:0:
352,192,27131,1,0,0:0:0:0:
224,192,27304,1,0,0:0:0:0:
160,192,27478,1,2,0:0:0:0:
416,192,27478,1,0,0:0:0:0:
288,192,27651,1,0,0:0:0:0:
96,192,27825,1,2,0:0:0:0:
352,192,27825,1,0,0:0:0:0:
288,192,27998,1,0,0:0:0:0:
160,192,28171,1,2,0:0:0:0:
224,192,28345,1,0,0:0:0:0:
96,192,28518,1,2,0:0:0:0:
416,192,28518,1,0,0:0:0:0:
160,192,28865,1,2,0:0:0:0:
480,192,28865,1,0,0:0:0:0:
96,192,29212,1,2,0:0:0:0:
352,192,29212,1,0,0:0:0:0:
160,192,29472,1,0,0:0:0:0:
224,192,29732,1,0,0:0:0:0:
288,192,29905,1,2,0:0:0:0:
480,192,29905,1,0,0:0:0:0:
416,192,30079,1,0,0:0:0:0:
96,192,30252,1,2,0:0:0:0:
224,192,30252,1,0,0:0:0:0:
352,192,30426,1,0,0:0:0:0:
288,192,30599,1,2,0:0:0:0:
480,192,30599,1,0,0:0:0:0:
160,192,30773,1,0,0:0:0:0:
96,192,30946,1,2,0:0:0:0:
224,192,31119,1,0,0:0:0:0:
288,192,31293,1,2,0:0:0:0:
480,192,31293,1,2,0:0:0:0:
224,192,31640,1,2,0:0:0:0:
416,192,31640,1,0,0:0:0:0:
160,192,31986,1,2,0:0:0:0:
352,192,31986,1,0,0:0:0:0:
224,192,32246,1,0,0:0:0:0:
288,192,32507,1,0,0:0:0:0:
32,192,32680,1,0,0:0:0:32:whoosh.wav
352,192,32680,1,0,0:0:0:0:
224,192,32853,1,0,0:0:0:0:
96,192,33027,1,2,0:0:0:0:
352,192,33200,1,0,0:0:0:0:
480,192,33374,1,2,0:0:0:0:
224,192,33374,1,0,0:0:0:0:
96,192,33547,1,0,0:0:0:0:
480,192,33720,1,0,0:0:0:0:
352,192,33894,1,0,0:0:0:0:
96,192,34067,1,2,0:0:0:0:
224,192,34067,1,4,0:0:0:0:
352,192,34414,1,0,0:0:0:32:Snare.wav
480,192,34414,1,0,0:0:0:0:
160,192,34761,1,2,0:0:0:0:
288,192,34761,1,0,0:0:0:0:
352,192,35021,1,0,0:0:0:0:
416,192,35281,1,0,0:0:0:0:
96,192,35455,1,2,0:0:0:0:
288,192,35455,1,0,0:0:0:0:
480,192,35628,1,0,0:0:0:0:
160,192,35801,1,0,0:0:0:32:Snare.wav
416,192,35801,1,0,0:0:0:0:
288,192,35975,1,0,0:0:0:0:
96,192,36148,1,2,0:0:0:0:
480,192,36148,1,0,0:0:0:0:
352,192,36322,1,0,0:0:0:0:
160,192,36495,1,0,0:0:0:32:Snare.wav
224,192,36668,1,0,0:0:0:0:
288,192,36842,1,2,0:0:0:0:
480,192,36842,1,0,0:0:0:0:
160,192,37189,1,0,0:0:0:32:Snare.wav
352,192,37189,1,0,0:0:0:0:
224,192,37536,1,2,0:0:0:0:
416,192,37536,1,0,0:0:0:0:
288,192,37796,1,0,0:0:0:0:
352,192,38056,1,0,0:0:0:0:
416,192,38229,1,2,0:0:0:0:
96,192,38229,1,0,0:0:0:0:
288,192,38403,1,0,0:0:0:0:
160,192,38576,1,0,0:0:0:32:Snare.wav
480,192,38576,1,0,0:0:0:0:
352,192,38749,1,0,0:0:0:0:
224,192,38923,1,2,0:0:0:0:
416,192,38923,1,0,0:0:0:0:
160,192,39096,1,0,0:0:0:0:
352,192,39270,1,2,0:0:0:0:
224,192,39443,1,0,0:0:0:0:
96,192,39616,1,2,0:0:0:0:
480,192,39616,1,4,0:0:0:0:
288,192,39790,1,8,0:0:0:0:
224,192,39963,1,0,0:0:0:32:Snare.wav
352,192,39963,1,8,0:0:0:0:
288,192,40137,1,8,0:0:0:0:
160,192,40310,1,8,0:0:0:0:
416,192,40310,1,0,0:0:0:0:
224,192,40483,1,8,0:0:0:0:
288,192,40657,1,0,0:0:0:32:Snare.wav
480,192,40657,1,8,0:0:0:0:
160,192,40830,1,8,0:0:0:0:
352,192,41004,1,4,0:0:0:0:
96,192,41004,1,2,0:0:0:0:
160,192,41177,1,8,0:0:0:0:
224,192,41351,1,0,0:0:0:32:Snare.wav
480,192,41351,1,8,0:0:0:0:
416,192,41524,1,8,0:0:0:0:
96,192,41697,1,8,0:0:0:0:
352,192,41697,1,0,0:0:0:0:
160,192,41871,1,8,0:0:0:0:
224,192,42044,1,0,0:0:0:32:Snare.wav
416,192,42044,1,8,0:0:0:0:
288,192,42218,1,8,0:0:0:0:
480,192,42391,1,8,0:0:0:0:
96,192,42391,1,2,0:0:0:0:
224,192,42564,1,2,0:0:0:0:
96,192,42738,1,8,0:0:0:0:
416,192,42911,1,8,0:0:0:0:
480,192,43085,1,2,0:0:0:0:
288,192,43258,1,2,0:0:0:0:
352,192,43431,1,8,0:0:0:0:
224,192,43605,1,8,0:0:0:0:
32,192,43778,1,8,0:0:0:0:
416,192,43778,1,0,0:0:0:32:whoosh.wav
288,192,43952,1,8,0:0:0:0:
96,192,44125,1,8,0:0:0:0:
224,192,44299,1,8,0:0:0:0:
480,192,44472,1,0,0:0:0:0:
352,192,44645,1,0,0:0:0:0:
32,192,44819,1,0,0:0:0:32:whoosh.wav
416,192,44819,1,0,0:0:0:0:
224,192,44992,1,0,0:0:0:0:
32,192,45166,1,0,0:0:0:32:whoosh.wav
480,192,45166,1,4,0:0:0:0:
288,192,46553,128,0,47593:0:0:0:0:
32,192,47593,1,0,0:0:0:32:whoosh.wav
480,192,47593,1,2,0:0:0:0:
224,192,47940,1,0,0:0:0:0:
352,192,47940,1,0,0:0:0:0:
96,192,48114,1,0,0:0:0:0:
160,192,48287,1,0,0:0:0:32:Snare.wav
416,192,48287,1,0,0:0:0:0:
480,192,48460,1,0,0:0:0:0:
224,192,48634,1,0,0:0:0:0:
352,192,48634,1,0,0:0:0:0:
160,192,48807,1,0,0:0:0:0:
96,192,48981,1,0,0:0:0:32:Snare.wav
480,192,48981,1,0,0:0:0:0:
480,192,49154,1,0,0:0:0:0:
288,192,49327,1,0,0:0:0:0:
160,192,49327,1,0,0:0:0:0:
416,192,49501,1,0,0:0:0:0:
96,192,49674,1,0,0:0:0:0:
352,192,49848,1,0,0:0:0:0:
32,192,50021,1,0,0:0:0:32:whoosh.wav
480,192,50021,1,0,0:0:0:0:
32,192,50368,1,0,0:0:0:32:whoosh.wav
480,192,50368,1,0,0:0:0:0:
160,192,50715,1,0,0:0:0:0:
416,192,50715,1,0,0:0:0:0:
96,192,50888,1,0,0:0:0:0:
224,192,51062,1,0,0:0:0:32:Snare.wav
352,192,51062,1,0,0:0:0:0:
224,192,51235,1,0,0:0:0:0:
160,192,51408,1,0,0:0:0:0:
416,192,51408,1,0,0:0:0:0:
352,192,51582,1,0,0:0:0:0:
96,192,51755,1,0,0:0:0:32:Snare.wav
480,192,51755,1,0,0:0:0:0:
288,192,52102,128,0,52622:0:0:0:32:whoosh.wav
32,192,52102,1,0,0:0:0:0:
160,192,52622,1,0,0:0:0:0:
32,192,52796,1,0,0:0:0:32:whoosh.wav
416,192,52796,1,0,0:0:0:0:
32,192,53142,1,0,0:0:0:32:whoosh.wav
480,192,53142,1,0,0:0:0:0:
96,192,53489,1,0,0:0:0:0:
480,192,53489,1,0,0:0:0:0:
160,192,53663,1,0,0:0:0:0:
224,192,53836,1,0,0:0:0:0:
352,192,53836,1,0,0:0:0:0:
416,192,54009,1,0,0:0:0:0:
96,192,54183,1,0,0:0:0:0:
480,192,54183,1,0,0:0:0:0:
288,192,54356,1,0,0:0:0:0:
160,192,54530,1,0,0:0:0:32:Snare.wav
416,192,54530,1,0,0:0:0:0:
416,192,54703,1,0,0:0:0:0:
288,192,54877,1,0,0:0:0:0:
96,192,54877,1,0,0:0:0:0:
480,192,55050,1,0,0:0:0:0:
160,192,55223,1,0,0:0:0:0:
352,192,55397,1,0,0:0:0:0:
32,192,55570,1,0,0:0:0:32:whoosh.wav
416,192,55570,1,0,0:0:0:0:
32,192,55917,1,0,0:0:0:32:whoosh.wav
416,192,55917,1,0,0:0:0:0:
352,192,56264,1,0,0:0:0:0:
480,192,56264,1,0,0:0:0:0:
32,192,56437,1,0,0:0:0:32:whoosh.wav
224,192,56437,1,0,0:0:0:0:
352,192,56611,1,0,0:0:0:0:
480,192,56611,1,0,0:0:0:0:
32,192,56784,1,0,0:0:0:32:whoosh.wav
224,192,56784,1,0,0:0:0:0:
96,192,56957,1,0,0:0:0:0:
288,192,57131,1,0,0:0:0:0:
416,192,57304,128,0,57651:0:0:0:32:whoosh.wav
32,192,57304,1,0,0:0:0:0:
288,192,57651,1,0,0:0:0:0:
480,192,57651,1,0,0:0:0:0:
96,192,57825,1,0,0:0:0:0:
352,192,57998,1,0,0:0:0:0:
160,192,58171,1,0,0:0:0:0:
32,192,58345,1,0,0:0:0:32:whoosh.wav
480,192,58345,1,0,0:0:0:0:
32,192,58692,1,0,0:0:0:32:whoosh.wav
480,192,58692,1,0,0:0:0:0:
32,192,59038,1,0,0:0:0:32:whoosh.wav
480,192,59038,1,0,0:0:0:0:
224,192,59385,1,0,0:0:0:32:Snare.wav
352,192,59385,1,0,0:0:0:0:
96,192,59559,1,0,0:0:0:0:
160,192,59732,1,0,0:0:0:0:
416,192,59732,1,0,0:0:0:0:
288,192,59905,1,0,0:0:0:0:
96,192,60079,1,0,0:0:0:32:Snare.wav
480,192,60079,1,0,0:0:0:0:
160,192,60252,1,0,0:0:0:0:
224,192,60426,1,0,0:0:0:0:
352,192,60426,1,0,0:0:0:0:
160,192,60773,1,0,0:0:0:32:Snare.wav
416,192,60773,1,0,0:0:0:0:
288,192,60946,1,0,0:0:0:0:
96,192,61119,1,0,0:0:0:0:
480,192,61119,1,0,0:0:0:0:
480,192,61293,1,0,0:0:0:0:
224,192,61466,1,0,0:0:0:32:Snare.wav
352,192,61466,1,0,0:0:0:0:
160,192,61813,1,0,0:0:0:0:
416,192,61813,1,0,0:0:0:0:
224,192,62160,1,0,0:0:0:32:Snare.wav
352,192,62160,1,0,0:0:0:0:
160,192,62333,1,0,0:0:0:0:
96,192,62507,1,0,0:0:0:0:
480,192,62507,1,0,0:0:0:0:
288,192,62680,1,0,0:0:0:0:
160,192,62853,1,0,0:0:0:32:Snare.wav
416,192,62853,1,0,0:0:0:0:
160,192,63027,1,0,0:0:0:0:
352,192,63200,1,8,0:0:0:0:
480,192,63200,1,0,0:0:0:0:
96,192,63374,1,8,0:0:0:0:
224,192,63374,1,0,0:0:0:0:
480,192,63547,1,8,0:0:0:0:
352,192,63547,1,0,0:0:0:0:
96,192,63720,1,8,0:0:0:0:
224,192,63720,1,0,0:0:0:0:
416,192,63894,1,8,0:0:0:0:
352,192,63894,1,0,0:0:0:0:
224,192,64067,1,8,0:0:0:0:
160,192,64067,1,0,0:0:0:0:
352,192,64241,1,8,0:0:0:0:
416,192,64241,1,0,0:0:0:0:
224,192,64414,1,8,0:0:0:0:
160,192,64414,1,0,0:0:0:0:
352,192,64588,1,0,0:0:0:0:
96,192,64588,1,0,0:0:0:0:
224,192,64934,1,0,0:0:0:32:Snare.wav
480,192,64934,1,0,0:0:0:0:
416,192,65108,1,0,0:0:0:0:
160,192,65281,1,0,0:0:0:0:
352,192,65281,1,0,0:0:0:0:
96,192,65455,1,0,0:0:0:0:
224,192,65628,1,0,0:0:0:32:Snare.wav
416,192,65628,1,0,0:0:0:0:
416,192,65801,1,0,0:0:0:0:
160,192,65975,1,0,0:0:0:0:
288,192,65975,1,0,0:0:0:0:
352,192,66322,1,0,0:0:0:32:Snare.wav
480,192,66322,1,0,0:0:0:0:
96,192,66495,1,0,0:0:0:0:
224,192,66668,1,0,0:0:0:0:
416,192,66668,1,0,0:0:0:0:
416,192,66842,1,0,0:0:0:0:
352,192,67015,1,0,0:0:0:32:Snare.wav
160,192,67015,1,0,0:0:0:0:
160,192,67189,1,0,0:0:0:0:
352,192,67362,1,0,0:0:0:32:whoosh.wav
32,192,67362,1,0,0:0:0:0:
224,192,67622,1,8,0:0:0:0:
480,192,67796,1,0,0:0:0:32:whoosh.wav
352,192,68056,1,0,0:0:0:32:whoosh.wav
96,192,68316,1,8,0:0:0:0:
416,192,68576,1,0,0:0:0:32:whoosh.wav
32,192,68749,1,0,0:0:0:32:whoosh.wav
352,192,68749,1,8,0:0:0:0:
160,192,69790,1,8,0:0:0:0:
416,192,69790,1,0,0:0:0:0:
224,192,70137,1,4,0:0:0:0:
352,192,70137,1,2,0:0:0:0:
96,192,70483,1,0,0:0:0:0:
416,192,70830,1,0,0:0:0:0:
96,192,71177,1,0,0:0:0:0:
32,192,71524,1,0,0:0:0:32:whoosh.wav
480,192,71524,1,0,0:0:0:0:
32,192,71871,1,0,0:0:0:32:whoosh.wav
480,192,71871,1,0,0:0:0:0:
32,192,72218,1,0,0:0:0:32:whoosh.wav
480,192,72218,1,0,0:0:0:0:
32,192,72564,1,0,0:0:0:32:whoosh.wav
480,192,72564,1,0,0:0:0:0:
288,192,72911,1,0,0:0:0:0:
96,192,73258,1,0,0:0:0:0:
352,192,73605,1,0,0:0:0:0:
160,192,73952,1,0,0:0:0:0:
32,192,74299,1,0,0:0:0:32:whoosh.wav
416,192,74299,1,0,0:0:0:0:
32,192,74645,1,0,0:0:0:32:whoosh.wav
416,192,74645,1,0,0:0:0:0:
32,192,74992,1,0,0:0:0:32:whoosh.wav
416,192,74992,1,0,0:0:0:0:
32,192,75339,1,0,0:0:0:32:whoosh.wav
416,192,75339,1,0,0:0:0:0:
288,192,75686,1,0,0:0:0:0:
480,192,76033,1,0,0:0:0:0:
224,192,76379,1,0,0:0:0:0:
416,192,76726,1,0,0:0:0:0:
32,192,77073,1,0,0:0:0:32:whoosh.wav
352,192,77073,1,0,0:0:0:0:
32,192,77420,1,0,0:0:0:32:whoosh.wav
352,192,77420,1,0,0:0:0:0:
32,192,77767,1,0,0:0:0:32:whoosh.wav
352,192,77767,1,0,0:0:0:0:
32,192,78114,1,0,0:0:0:32:whoosh.wav
352,192,78114,1,0,0:0:0:0:
288,192,78460,1,0,0:0:0:0:
96,192,78807,1,0,0:0:0:0:
416,192,79154,1,0,0:0:0:0:
224,192,79501,1,0,0:0:0:0:
480,192,79848,1,0,0:0:0:0:
288,192,80194,1,0,0:0:0:0:
32,192,80541,1,0,0:0:0:32:whoosh.wav
160,192,80715,1,0,0:0:0:32:whoosh.wav
32,192,80888,1,0,0:0:0:32:whoosh.wav
352,192,80888,1,0,0:0:0:0:
224,192,81062,1,0,0:0:0:32:whoosh.wav
160,192,81235,1,2,0:0:0:0:
416,192,81235,1,4,0:0:0:0:
288,192,81235,1,0,0:0:0:0:
160,192,81582,1,2,0:0:0:0:
416,192,81582,1,0,0:0:0:0:
160,192,81929,1,2,0:0:0:0:
416,192,81929,1,0,0:0:0:0:
160,192,82275,1,2,0:0:0:0:
416,192,82275,1,0,0:0:0:0:
224,192,82622,1,2,0:0:0:0:
352,192,82622,1,0,0:0:0:0:
224,192,82969,1,2,0:0:0:0:
352,192,82969,1,0,0:0:0:0:
224,192,83316,1,2,0:0:0:0:
352,192,83316,1,0,0:0:0:0:
224,192,83663,1,2,0:0:0:0:
352,192,83663,1,0,0:0:0:0:
96,192,84009,1,2,0:0:0:0:
480,192,84009,1,4,0:0:0:0:
288,192,84009,1,0,0:0:0:0:
96,192,84356,1,2,0:0:0:0:
480,192,84356,1,0,0:0:0:0:
96,192,84703,1,2,0:0:0:0:
480,192,84703,1,0,0:0:0:0:
96,192,85050,1,2,0:0:0:0:
480,192,85050,1,0,0:0:0:0:
224,192,85397,1,2,0:0:0:0:
352,192,85397,1,0,0:0:0:0:
224,192,85744,1,2,0:0:0:0:
352,192,85744,1,0,0:0:0:0:
224,192,86090,1,2,0:0:0:0:
352,192,86090,1,0,0:0:0:0:
224,192,86437,1,2,0:0:0:0:
352,192,86437,1,0,0:0:0:0:
480,192,86784,1,0,0:0:0:32:whoosh.wav
32,192,86784,1,0,0:0:0:0:
352,192,86957,1,0,0:0:0:0:
224,192,87131,1,0,0:0:0:0:
96,192,87304,1,0,0:0:0:0:
480,192,87478,1,0,0:0:0:32:whoosh.wav
32,192,87478,1,0,0:0:0:0:
160,192,87651,1,0,0:0:0:0:
288,192,87825,1,0,0:0:0:0:
416,192,87998,1,0,0:0:0:0:
480,192,88171,1,0,0:0:0:32:whoosh.wav
32,192,88171,1,0,0:0:0:0:
160,192,88345,1,0,0:0:0:0:
352,192,88518,1,0,0:0:0:0:
160,192,88692,1,0,0:0:0:0:
480,192,88865,1,0,0:0:0:32:whoosh.wav
32,192,88865,1,0,0:0:0:0:
96,192,89038,1,0,0:0:0:0:
416,192,89212,1,0,0:0:0:0:
352,192,89385,1,0,0:0:0:0:
32,192,89559,1,0,0:0:0:32:whoosh.wav
288,192,89559,1,0,0:0:0:0:
160,192,89732,1,0,0:0:0:0:
32,192,89905,1,0,0:0:0:32:whoosh.wav
352,192,89905,1,0,0:0:0:0:
224,192,90079,1,0,0:0:0:0:
32,192,90252,1,0,0:0:0:32:whoosh.wav
416,192,90252,1,0,0:0:0:0:
288,192,90426,1,0,0:0:0:0:
32,192,90599,1,0,0:0:0:32:whoosh.wav
480,192,90599,1,0,0:0:0:0:
352,192,90773,1,0,0:0:0:0:
288,192,90946,1,0,0:0:0:0:
160,192,91119,1,0,0:0:0:0:
416,192,91293,1,0,0:0:0:0:
224,192,91466,1,0,0:0:0:0:
480,192,91640,1,0,0:0:0:0:
96,192,91813,1,0,0:0:0:0:
224,192,91986,1,8,0:0:0:0:
352,192,91986,1,0,0:0:0:0:
416,192,92160,1,0,0:0:0:0:
160,192,92333,1,4,0:0:0:0:
480,192,92333,1,0,0:0:0:32:whoosh.wav
96,192,92680,1,0,0:0:0:32:Snare.wav
416,192,92680,1,0,0:0:0:0:
160,192,93027,1,2,0:0:0:0:
480,192,93027,1,0,0:0:0:0:
224,192,93287,1,0,0:0:0:0:
288,192,93547,1,0,0:0:0:0:
352,192,93720,1,2,0:0:0:0:
96,192,93720,1,0,0:0:0:0:
224,192,93894,1,0,0:0:0:0:
160,192,94067,1,0,0:0:0:32:Snare.wav
416,192,94067,1,0,0:0:0:0:
288,192,94241,1,0,0:0:0:0:
224,192,94414,1,2,0:0:0:0:
480,192,94414,1,0,0:0:0:0:
160,192,94588,1,0,0:0:0:0:
352,192,94761,1,0,0:0:0:32:Snare.wav
416,192,94934,1,0,0:0:0:0:
480,192,95108,1,2,0:0:0:0:
96,192,95108,1,0,0:0:0:0:
96,192,95455,1,0,0:0:0:32:Snare.wav
480,192,95455,1,0,0:0:0:0:
160,192,95801,1,2,0:0:0:0:
416,192,95801,1,0,0:0:0:0:
352,192,96062,1,0,0:0:0:0:
288,192,96322,1,0,0:0:0:0:
224,192,96495,1,2,0:0:0:0:
96,192,96495,1,0,0:0:0:0:
288,192,96668,1,0,0:0:0:0:
352,192,96842,1,0,0:0:0:32:Snare.wav
480,192,96842,1,0,0:0:0:0:
160,192,97015,1,0,0:0:0:0:
96,192,97189,1,2,0:0:0:0:
288,192,97189,1,0,0:0:0:0:
416,192,97362,1,0,0:0:0:0:
160,192,97536,1,2,0:0:0:0:
416,192,97709,1,0,0:0:0:0:
224,192,97882,1,2,0:0:0:0:
480,192,97882,1,0,0:0:0:0:
160,192,98229,1,0,0:0:0:32:Snare.wav
416,192,98229,1,0,0:0:0:0:
224,192,98576,1,2,0:0:0:0:
480,192,98576,1,0,0:0:0:0:
288,192,98836,1,0,0:0:0:0:
352,192,99096,1,0,0:0:0:0:
416,192,99270,1,2,0:0:0:0:
96,192,99270,1,0,0:0:0:0:
224,192,99443,1,0,0:0:0:0:
96,192,99616,1,0,0:0:0:32:Snare.wav
352,192,99616,1,0,0:0:0:0:
288,192,99790,1,0,0:0:0:0:
160,192,99963,1,2,0:0:0:0:
480,192,99963,1,0,0:0:0:0:
96,192,100137,1,0,0:0:0:0:
352,192,100310,1,0,0:0:0:32:Snare.wav
288,192,100483,1,0,0:0:0:0:
224,192,100657,1,2,0:0:0:0:
96,192,100657,1,0,0:0:0:0:
352,192,100830,1,0,0:0:0:0:
288,192,101004,1,2,0:0:0:0:
480,192,101004,1,0,0:0:0:0:
224,192,101177,1,0,0:0:0:0:
160,192,101351,1,2,0:0:0:0:
416,192,101351,1,0,0:0:0:0:
224,192,101524,1,0,0:0:0:0:
352,192,101697,1,0,0:0:0:32:Snare.wav
288,192,101871,1,0,0:0:0:0:
224,192,102044,1,2,0:0:0:0:
96,192,102044,1,0,0:0:0:0:
416,192,102218,1,0,0:0:0:0:
288,192,102391,1,0,0:0:0:32:Snare.wav
480,192,102391,1,0,0:0:0:0:
160,192,102564,1,0,0:0:0:0:
224,192,102738,1,0,0:0:0:0:
352,192,102738,1,0,0:0:0:0:
96,192,102911,1,0,0:0:0:0:
416,192,103085,1,0,0:0:0:0:
224,192,103085,1,0,0:0:0:0:
160,192,103258,1,0,0:0:0:0:
96,192,103431,1,2,0:0:0:0:
480,192,103431,1,4,0:0:0:0:
224,192,103778,1,0,0:0:0:32:Snare.wav
352,192,103778,1,0,0:0:0:0:
160,192,104125,1,2,0:0:0:0:
416,192,104125,1,0,0:0:0:0:
224,192,104385,1,0,0:0:0:0:
288,192,104645,1,0,0:0:0:0:
96,192,104819,1,2,0:0:0:0:
416,192,104819,1,0,0:0:0:0:
352,192,104992,1,0,0:0:0:0:
160,192,105166,1,0,0:0:0:32:Snare.wav
480,192,105166,1,0,0:0:0:0:
288,192,105339,1,0,0:0:0:0:
96,192,105512,1,2,0:0:0:0:
416,192,105512,1,0,0:0:0:0:
352,192,105686,1,0,0:0:0:0:
160,192,105859,1,0,0:0:0:32:Snare.wav
224,192,106033,1,0,0:0:0:0:
288,192,106206,1,2,0:0:0:0:
480,192,106206,1,0,0:0:0:0:
288,192,106553,1,0,0:0:0:32:Snare.wav
480,192,106553,1,0,0:0:0:0:
96,192,106900,1,2,0:0:0:0:
224,192,106900,1,0,0:0:0:0:
352,192,107160,1,0,0:0:0:0:
288,192,107420,1,0,0:0:0:0:
96,192,107593,1,2,0:0:0:0:
416,192,107593,1,0,0:0:0:0:
352,192,107767,1,0,0:0:0:0:
160,192,107940,1,0,0:0:0:32:Snare.wav
480,192,107940,1,0,0:0:0:0:
288,192,108114,1,0,0:0:0:0:
96,192,108287,1,2,0:0:0:0:
416,192,108287,1,0,0:0:0:0:
160,192,108460,1,0,0:0:0:0:
352,192,108634,1,0,0:0:0:0:
288,192,108807,1,0,0:0:0:0:
96,192,108981,1,4,0:0:0:0:
224,192,108981,1,2,0:0:0:0:
480,192,109154,1,8,0:0:0:0:
160,192,109327,1,8,0:0:0:0:
416,192,109501,1,8,0:0:0:0:
224,192,109674,1,8,0:0:0:0:
352,192,109848,1,8,0:0:0:0:
224,192,110021,1,8,0:0:0:0:
416,192,110194,1,8,0:0:0:0:
160,192,110368,1,2,0:0:0:0:
352,192,110368,1,8,0:0:0:0:
480,192,110541,1,8,0:0:0:0:
96,192,110715,1,8,0:0:0:0:
416,192,110888,1,8,0:0:0:0:
160,192,111062,1,8,0:0:0:0:
352,192,111235,1,8,0:0:0:0:
224,192,111408,1,8,0:0:0:0:
352,192,111582,1,8,0:0:0:0:
416,192,111755,1,2,0:0:0:0:
160,192,111755,1,8,0:0:0:0:
96,192,111929,1,8,0:0:0:0:
480,192,112102,1,8,0:0:0:0:
160,192,112275,1,8,0:0:0:0:
416,192,112449,1,2,0:0:0:0:
224,192,112449,1,8,0:0:0:0:
96,192,112622,1,8,0:0:0:0:
416,192,112796,1,8,0:0:0:0:
160,192,112969,1,8,0:0:0:0:
224,192,113142,1,2,0:0:0:0:
352,192,113142,1,8,0:0:0:0:
480,192,113316,1,8,0:0:0:0:
288,192,113489,1,8,0:0:0:0:
96,192,113663,1,8,0:0:0:0:
224,192,113836,1,8,0:0:0:0:
352,192,114009,1,8,0:0:0:0:
32,192,114183,1,8,0:0:0:0:
480,192,114183,1,0,0:0:0:32:whoosh.wav
288,192,114356,1,8,0:0:0:0:
32,192,114530,1,4,0:0:0:0:
416,192,114530,1,2,0:0:0:0:
