osu file format v14

[General]
AudioFilename: audio.mp3
AudioLeadIn: 0
PreviewTime: 20609
Countdown: 1
SampleSet: Soft
StackLeniency: 0.7
Mode: 0
LetterboxInBreaks: 0
WidescreenStoryboard: 0

[Editor]
DistanceSpacing: 0.3
BeatDivisor: 4
GridSize: 4
TimelineZoom: 1

[Metadata]
Title:ULTRA B+K
TitleUnicode:ULTRA B+K
Artist:nora2r
ArtistUnicode:nora2r
Creator:Kyshiro
Version:BASS KICK
Source:
Tags:
BeatmapID:1499315
BeatmapSetID:709248

[Difficulty]
HPDrainRate:6
CircleSize:4.3
OverallDifficulty:9
ApproachRate:9.5
SliderMultiplier:1.8
SliderTickRate:1

[Events]
//Background and Video events
Video,0,"vid.avi"
0,0,"wallhaven-103232.jpg",0,0
//Break Periods
2,44123,54341
//Storyboard Layer 0 (Background)
//Storyboard Layer 1 (Fail)
//Storyboard Layer 2 (Pass)
//Storyboard Layer 3 (Foreground)
//Storyboard Sound Samples

[TimingPoints]
38,342.857142857143,4,2,0,60,1,0
38,-200,4,2,0,60,0,0
2780,-153.846153846154,4,2,0,60,0,0
5523,-133.333333333333,4,2,0,60,0,0
6895,-117.647058823529,4,2,0,60,0,0
11009,-100,4,2,0,60,0,0
21295,-50,4,2,0,60,0,0
21638,-133.333333333333,4,2,0,60,0,0
21980,-66.6666666666667,4,2,0,60,0,0
22323,-55.5555555555556,4,2,0,60,0,0
22495,-80,4,2,0,60,0,0
23352,-66.6666666666667,4,2,0,60,0,0
23866,-33.6666666666667,4,2,0,60,0,0
24209,-100,4,2,0,60,0,0
24723,-66.6666666666667,4,2,0,60,0,0
25066,-55.5555555555556,4,2,0,60,0,0
25238,-66.6666666666667,4,2,0,60,0,0
25752,-100,4,2,0,60,0,0
26095,-66.6666666666667,4,2,0,60,0,0
27123,-50,4,2,0,60,0,0
27466,-66.6666666666667,4,2,0,60,0,0
27809,-55.5555555555556,4,2,0,60,0,0
27980,-66.6666666666667,4,2,0,60,0,0
28495,-100,4,2,0,60,0,0
28838,-66.6666666666667,4,2,0,60,0,0
31923,-200,4,2,0,60,0,0
32266,-100,4,2,0,60,0,0
32609,-66.6666666666667,4,2,0,60,0,0
32952,-60.6060606060606,4,2,0,60,0,1
37229,-43.4782608695652,4,2,0,60,0,1
37580,-32.258064516129,4,2,0,60,0,1
37752,-100,4,2,0,60,0,0
38438,-66.6666666666667,4,2,0,60,0,1
39123,-100,4,2,0,60,0,0
39809,-57.1428571428571,4,2,0,60,0,1
40495,-100,4,2,0,60,0,0
41180,-50,4,2,0,60,0,1
41780,-50,4,2,0,60,0,0
41866,-44.4444444444445,4,2,0,60,0,1
42552,-200,4,2,0,60,0,1
43923,-200,4,2,0,60,0,0
54895,-117.647058823529,4,2,0,60,0,0
71352,-100,4,2,0,60,0,0
74095,-66.6666666666667,4,2,0,60,0,0
74780,-54.054054054054,4,2,0,60,0,0
76152,-40,4,2,0,60,0,0
76495,-66.6666666666667,4,2,0,60,0,0
77180,-55.5555555555556,4,2,0,60,0,0
77352,-66.6666666666667,4,2,0,60,0,0
78723,-33.6666666666667,4,2,0,60,0,0
78895,-66.6666666666667,4,2,0,60,0,0
82323,-76.9230769230769,4,2,0,60,0,0
82666,-62.5,4,2,0,60,0,0
82838,-76.9230769230769,4,2,0,60,0,0
84209,-55.5555555555556,4,2,0,60,0,0
84380,-76.9230769230769,4,2,0,60,0,0
85066,-71.4285714285714,4,2,0,60,0,0
86952,-50,4,2,0,60,0,0
87466,-66.6666666666667,4,2,0,60,0,0
87809,-66.6666666666667,4,2,0,60,0,0
88066,-55.5555555555556,4,2,0,60,0,0
88323,-66.6666666666667,4,2,0,60,0,0
89695,-40,4,2,0,60,0,0
89866,-66.6666666666667,4,2,0,60,0,0
90552,-62.5,4,2,0,60,0,0
93295,-58.8235294117647,4,2,0,60,0,0
93638,-52.6315789473684,4,2,0,60,0,0
93809,-58.8235294117647,4,2,0,60,0,0
96038,-55.5555555555556,4,2,0,60,0,0
98780,-57.1428571428571,4,2,0,60,0,1
108380,-57.1428571428571,4,2,0,60,0,0
109752,-57.1428571428571,4,2,0,60,0,1
111809,-86.9565217391304,4,2,0,60,0,0
112495,-57.1428571428571,4,2,0,60,0,1
114552,-86.9565217391304,4,2,0,60,0,0
115238,-57.1428571428571,4,2,0,60,0,1
115923,-86.9565217391304,4,2,0,60,0,0
116609,-57.1428571428571,4,2,0,60,0,1
117295,-86.9565217391304,4,2,0,60,0,0
117980,-57.1428571428571,4,2,0,60,0,1
118838,-54.054054054054,4,2,0,60,0,1
119009,-51.2820512820513,4,2,0,60,0,1
119180,-48.780487804878,4,2,0,60,0,0
120038,-40,4,2,0,60,0,0
120380,-100,4,2,0,60,0,0
120723,-57.1428571428571,4,2,0,60,0,0

[Colours]
Combo1 : 249,151,166
Combo2 : 221,193,240
Combo3 : 164,205,255

[HitObjects]
53,102,38,6,0,P|121:90|170:133,1,135
269,189,723,2,0,L|329:182,2,45
250,211,1409,6,0,L|167:204,2,67.5
356,138,2095,2,0,L|360:86,2,30
430,186,2438,2,0,P|418:223|414:266,1,67.5
458,323,2780,5,0,0:0:0:0:
240,243,3123,1,0,0:0:0:0:
240,243,3466,2,0,P|272:232|281:226,1,29.2499986610413
147,206,3638,2,0,P|140:239|141:250,1,29.2499986610413
226,148,3809,2,0,P|231:108|223:56,1,87.749995983124
314,31,4152,6,0,L|359:23,2,38.9999982147218
407,101,4495,2,0,L|442:106,1,29.2499986610413
288,142,4666,2,0,L|253:147,1,29.2499986610413
381,199,4838,2,0,L|389:294,1,87.749995983124
301,352,5180,2,0,P|278:348|258:341,1,29.2499986610413
207,263,5352,2,0,P|184:267|164:274,1,29.2499986610413
60,316,5523,6,0,L|53:279,1,33.7500012874604
238,146,5866,2,0,L|245:109,1,33.7500012874604
64,45,6209,2,0,L|71:98,2,45.0000017166138
137,158,6552,2,0,P|136:210|118:268,1,101.250003862381
51,313,6895,6,0,L|14:307,1,38.2500007295609
166,358,7066,2,0,L|203:352,1,38.2500007295609
266,266,7238,2,0,P|319:268|374:299,1,114.750002188683
422,188,7580,2,0,P|440:227|442:253,2,51.0000009727478
361,107,7923,2,0,B|336:138|336:138|249:132,1,114.750002188683
178,86,8266,6,0,L|171:41,1,38.2500007295609
50,245,8609,2,0,L|57:200,1,38.2500007295609
76,31,8952,2,0,L|81:68,1,38.2500007295609
143,169,9123,2,0,L|137:206,1,38.2500007295609
197,316,9295,2,0,B|243:311|243:311|264:316|264:316|321:308,1,114.750002188683
413,296,9638,5,0,0:0:0:0:
112,69,11009,5,0,0:0:0:0:
122,221,11180,1,0,0:0:0:0:
231,43,11352,1,0,0:0:0:0:
28,149,11523,1,0,0:0:0:0:
239,239,11695,1,0,0:0:0:0:
234,261,12038,5,0,0:0:0:0:
407,169,12209,1,0,0:0:0:0:
335,342,12380,1,0,0:0:0:0:
129,294,12552,1,0,0:0:0:0:
442,275,12723,1,0,0:0:0:0:
446,289,13066,5,0,0:0:0:0:
417,52,13238,1,0,0:0:0:0:
336,221,13409,1,0,0:0:0:0:
337,239,13752,5,0,0:0:0:0:
220,150,13923,1,0,0:0:0:0:
432,194,14095,1,0,0:0:0:0:
362,351,14266,1,0,0:0:0:0:
339,85,14438,1,0,0:0:0:0:
341,67,14780,5,0,0:0:0:0:
238,245,14952,1,0,0:0:0:0:
374,183,15123,1,0,0:0:0:0:
126,149,15295,1,0,0:0:0:0:
276,329,15466,1,0,0:0:0:0:
282,346,15809,5,0,0:0:0:0:
96,272,15980,1,0,0:0:0:0:
373,205,16152,1,0,0:0:0:0:
373,220,16495,6,0,L|379:284,1,45
387,371,16666,1,0,0:0:0:0:
203,236,16838,2,0,L|209:172,1,45
217,85,17009,1,0,0:0:0:0:
454,160,17180,6,0,L|460:224,1,45
468,311,17351,1,0,0:0:0:0:
97,287,17523,2,0,L|103:223,1,45
111,136,17694,1,0,0:0:0:0:
352,112,17866,6,0,L|358:176,1,45
366,263,18037,1,0,0:0:0:0:
11,186,18209,2,0,L|17:122,1,45
25,35,18380,1,0,0:0:0:0:
262,224,18552,6,0,L|268:288,1,45
276,375,18723,1,0,0:0:0:0:
98,250,18895,2,0,L|104:186,1,45
112,99,19066,1,0,0:0:0:0:
390,246,19238,6,0,L|401:308,1,45
453,154,19409,2,0,L|515:143,1,45
358,90,19580,2,0,L|347:28,1,45
295,182,19751,2,0,L|233:193,1,45
3,145,19923,6,0,L|47:152,1,45
250,189,20094,2,0,L|205:181,1,45
103,290,20265,2,0,L|110:245,1,45
151,45,20436,2,0,L|143:89,1,45
251,309,20609,5,0,0:0:0:0:
429,86,21295,6,0,B|435:92|435:92|424:92|424:92|431:101|431:101|419:96|419:96|423:106|423:106|414:98|414:98|412:107|412:107|408:98|408:98|402:106|402:106|400:97|400:97|392:103|392:103|395:94|395:94|383:98|383:98|387:89|387:89|377:93|377:93|379:84|379:84|372:92|372:92|369:82|369:82|365:92|365:92|359:83|359:83|360:94|360:94|352:89|352:89|356:100|356:100|348:98|348:98|357:105|357:105|348:106,1,270
384,190,21638,2,0,B|375:222|375:222|406:227|406:227|402:192,1,101.250003862381
287,170,21980,6,0,P|245:157|216:137,1,67.5000025749208
53,91,22152,1,0,0:0:0:0:
85,80,22238,1,0,0:0:0:0:
116,69,22323,2,0,P|127:132|119:162,1,80.9999975280763
35,248,22495,2,0,B|63:229|63:229|150:246,1,112.5
199,313,22752,2,0,B|171:332|171:332|84:315,1,112.5
260,206,23009,5,0,0:0:0:0:
295,221,23095,1,0,0:0:0:0:
278,256,23180,1,0,0:0:0:0:
243,241,23266,1,0,0:0:0:0:
265,229,23352,6,0,B|356:233|356:233|334:190,1,135.000005149842
171,147,23609,6,0,B|122:223|122:223|166:225,1,135.000005149842
291,105,23866,6,0,B|247:23|247:23|223:61,1,133.663361288265
245,159,24038,5,0,0:0:0:0:
381,22,24209,6,0,L|325:27,1,45
151,26,24380,2,0,L|156:82,1,45
166,225,24552,1,0,0:0:0:0:
395,222,24723,6,0,B|391:154|391:154|320:157,1,135.000005149842
241,232,24980,1,0,0:0:0:0:
241,232,25066,2,0,L|332:227,1,80.9999975280763
292,312,25238,2,0,B|226:316|226:316|181:369,1,135.000005149842
149,198,25495,2,0,B|164:262|164:262|119:315,1,135.000005149842
23,237,25752,2,0,L|88:241,1,45
86,65,25923,1,0,0:0:0:0:
82,100,26009,1,0,0:0:0:0:
78,135,26095,6,0,P|141:104|203:117,1,135.000005149842
179,284,26352,2,0,B|148:195|148:195|139:214|117:226,1,135.000005149842
244,197,26609,1,0,0:0:0:0:
323,212,26695,1,0,0:0:0:0:
271,273,26780,1,0,0:0:0:0:
271,273,27123,6,0,B|322:211|322:211|244:196|244:196|271:273,1,180
393,161,27466,6,0,P|408:191|407:225,1,67.5000025749208
362,83,27638,1,0,0:0:0:0:
362,83,27723,1,0,0:0:0:0:
362,83,27809,2,0,B|400:71|400:71|445:92,1,80.9999975280763
279,122,27980,2,0,B|213:142|213:101|147:122,1,135.000005149842
180,198,28238,2,0,B|114:218|114:177|48:198,1,135.000005149842
76,321,28495,2,0,L|82:269,1,45
26,63,28666,1,0,0:0:0:0:
31,89,28752,1,0,0:0:0:0:
37,115,28838,6,0,B|104:107|104:107|147:46,1,135.000005149842
289,88,29095,2,0,B|222:96|222:96|179:157,1,135.000005149842
283,247,29352,2,0,L|276:174,1,67.5000025749208
121,257,29523,2,0,L|188:250,1,67.5000025749208
386,236,29695,1,0,0:0:0:0:
237,315,29866,2,0,L|244:388,1,67.5000025749208
37,259,30038,1,0,0:0:0:0:
400,153,30209,6,0,B|415:123|415:123|346:126|346:126|363:154,1,135.000005149842
386,236,30466,1,0,0:0:0:0:
386,236,30552,2,0,L|390:273,2,33.7500012874604
268,175,30723,2,0,P|252:107|289:48,1,135.000005149842
154,173,30980,2,0,P|170:241|133:300,1,135.000005149842
73,222,31238,1,0,0:0:0:0:
60,157,31323,1,0,0:0:0:0:
92,99,31409,1,0,0:0:0:0:
154,77,31495,1,0,0:0:0:0:
154,173,31580,5,0,0:0:0:0:
429,247,31923,2,0,P|441:210|441:187,1,45
441,263,32266,6,0,P|459:207|452:172,1,90
456,278,32609,6,0,B|481:236|484:168|437:125|437:125|446:160|431:188,1,202.500007724762
284,142,32952,6,0,P|337:142|376:154,1,74.2500007081032
188,182,33123,1,0,0:0:0:0:
188,182,33209,1,0,0:0:0:0:
188,182,33295,2,0,B|171:148|171:148|178:108,1,74.2500007081032
265,236,33466,2,0,B|271:271|271:271|254:305,1,74.2500007081032
119,340,33638,5,0,0:0:0:0:
108,304,33723,1,0,0:0:0:0:
99,266,33809,2,0,L|184:270,1,74.2500007081032
435,331,33980,1,0,0:0:0:0:
382,333,34066,1,0,0:0:0:0:
329,336,34152,1,0,0:0:0:0:
357,292,34238,1,0,0:0:0:0:
384,248,34323,1,0,0:0:0:0:
252,121,34495,5,0,0:0:0:0:
252,121,34580,1,0,0:0:0:0:
252,121,34666,2,0,P|251:182|270:211,1,74.2500007081032
409,145,34838,2,0,P|373:155|337:148,1,74.2500007081032
319,17,35009,2,0,B|349:40|368:73|368:73|391:47|434:34,1,148.500001416206
504,112,35266,1,0,0:0:0:0:
504,112,35352,2,0,L|497:189,1,74.2500007081032
350,241,35523,2,0,L|427:248,1,74.2500007081032
492,328,35695,6,0,B|418:322|418:322|349:363,1,148.500001416206
217,312,35952,1,0,0:0:0:0:
217,312,36038,2,0,B|252:322|252:322|286:300,1,74.2500007081032
230,147,36209,2,0,B|250:178|250:178|240:213,1,74.2500007081032
110,275,36380,1,0,0:0:0:0:
110,275,36466,1,0,0:0:0:0:
110,275,36552,2,0,L|21:270,1,74.2500007081032
23,78,36723,1,0,0:0:0:0:
20,130,36809,1,0,0:0:0:0:
18,182,36895,1,0,0:0:0:0:
69,186,36980,1,0,0:0:0:0:
120,190,37066,6,0,L|123:115,1,74.2500007081032
219,105,37238,5,0,0:0:0:0:
219,105,37323,2,0,L|214:222,1,103.500001974106
309,228,37495,5,0,0:0:0:0:
309,228,37580,2,0,L|314:74,1,139.500001064301
399,104,37752,6,0,B|399:172|399:172|466:175,1,135
458,321,38095,2,0,B|458:253|458:253|391:250,1,135
256,312,38438,6,0,L|343:315,1,67.5000025749208
293,147,38609,1,0,0:0:0:0:
293,147,38695,2,0,L|290:234,1,67.5000025749208
185,227,38866,1,0,0:0:0:0:
185,227,38952,2,0,P|130:210|108:192,1,67.5000025749208
47,130,39123,6,0,P|113:103|179:120,1,135
226,25,39466,2,0,P|292:52|358:35,1,135
477,108,39809,6,0,P|490:157|481:200,1,78.7500007510185
295,168,39980,1,0,0:0:0:0:
295,168,40066,2,0,P|334:170|371:158,1,78.7500007510185
488,273,40238,1,0,0:0:0:0:
488,273,40323,2,0,P|450:260|411:263,1,78.7500007510185
292,259,40495,6,0,B|265:295|265:295|164:295,1,135
79,245,40838,2,0,B|106:209|106:209|196:209,1,135
286,67,41180,6,0,B|299:111|299:111|282:160,1,90
107,110,41352,1,0,0:0:0:0:
107,110,41438,2,0,L|212:110,1,90
381,167,41609,1,0,0:0:0:0:
381,167,41695,2,0,L|381:272,1,90
438,77,41866,6,0,P|390:59|334:67,1,101.250003862381
271,249,42038,1,0,0:0:0:0:
271,249,42123,2,0,P|289:201|281:145,1,101.250003862381
130,77,42295,1,0,0:0:0:0:
130,77,42380,2,0,P|179:82|226:64,1,101.250003862381
17,41,42552,5,0,0:0:0:0:
28,111,42723,1,0,0:0:0:0:
39,182,42895,1,0,0:0:0:0:
50,252,43066,1,0,0:0:0:0:
63,323,43238,2,0,L|98:317,1,22.5
144,300,43580,2,0,L|109:294,1,22.5
465,334,43923,5,0,0:0:0:0:
72,80,54895,6,0,L|84:176,1,76.5000014591217
91,252,55238,1,0,0:0:0:0:
204,130,55409,2,0,B|177:163|172:198|172:198|189:232|233:252,1,153.000002918243
295,172,55923,1,0,0:0:0:0:
183,325,56095,1,0,0:0:0:0:
114,120,56266,5,0,0:0:0:0:
310,283,56438,1,0,0:0:0:0:
77,245,56609,1,0,0:0:0:0:
303,143,56780,1,0,0:0:0:0:
303,143,57123,1,0,0:0:0:0:
220,224,57295,1,0,0:0:0:0:
324,270,57466,1,0,0:0:0:0:
409,192,57638,6,0,P|417:142|411:103,1,76.5000014591217
336,49,57980,1,0,0:0:0:0:
258,176,58152,2,0,P|252:252|278:343,1,153.000002918243
356,249,58666,1,0,0:0:0:0:
181,126,58838,1,0,0:0:0:0:
53,330,59009,5,0,0:0:0:0:
220,236,59180,1,0,0:0:0:0:
6,218,59352,1,0,0:0:0:0:
171,343,59523,2,0,L|327:335,1,153.000002918243
463,284,60038,1,0,0:0:0:0:
463,284,60380,6,0,P|441:237|436:203,1,76.5000014591217
439,97,60723,1,0,0:0:0:0:
315,298,60895,2,0,P|324:210|358:145,1,153.000002918243
260,64,61409,2,0,P|303:53|351:52,1,76.5000014591217
205,209,61752,5,0,0:0:0:0:
100,101,61923,1,0,0:0:0:0:
325,162,62095,1,0,0:0:0:0:
81,242,62266,1,0,0:0:0:0:
81,242,62609,1,0,0:0:0:0:
204,197,62780,1,0,0:0:0:0:
106,114,62952,1,0,0:0:0:0:
170,289,63123,6,0,B|244:316|244:261|318:289,1,153.000002918243
444,194,63638,2,0,B|369:166|369:221|295:194,1,153.000002918243
322,38,64152,2,0,L|332:122,1,76.5000014591217
407,271,64495,5,0,0:0:0:0:
424,85,64666,1,0,0:0:0:0:
227,137,64838,1,0,0:0:0:0:
510,222,65009,1,0,0:0:0:0:
512,207,65352,1,0,0:0:0:0:
400,286,65523,1,0,0:0:0:0:
389,157,65695,1,0,0:0:0:0:
139,207,65866,6,0,L|133:260,1,38.2500007295609
124,329,66038,1,0,0:0:0:0:
260,71,66209,2,0,L|266:124,1,38.2500007295609
275,193,66381,1,0,0:0:0:0:
53,122,66552,1,0,0:0:0:0:
53,122,66895,1,0,0:0:0:0:
392,272,67238,6,0,P|361:268|339:258,1,38.2500007295609
279,220,67409,1,0,0:0:0:0:
412,59,67580,2,0,P|408:90|398:112,1,38.2500007295609
360,172,67751,1,0,0:0:0:0:
150,142,67923,1,0,0:0:0:0:
150,142,68266,1,0,0:0:0:0:
275,122,68609,6,0,L|268:72,1,38.2500007295609
256,2,68780,1,0,0:0:0:0:
355,219,68952,2,0,L|362:169,1,38.2500007295609
374,99,69123,1,0,0:0:0:0:
210,210,69295,6,0,L|217:260,1,38.2500007295609
229,330,69466,1,0,0:0:0:0:
130,113,69638,2,0,L|123:163,1,38.2500007295609
111,233,69809,1,0,0:0:0:0:
275,122,69980,6,0,L|268:72,1,38.2500007295609
256,2,70151,1,0,0:0:0:0:
111,233,70323,2,0,L|118:183,1,38.2500007295609
130,113,70494,1,0,0:0:0:0:
259,234,70666,6,0,L|266:284,1,38.2500007295609
278,354,70837,1,0,0:0:0:0:
429,173,71009,2,0,L|422:223,1,38.2500007295609
410,293,71180,1,0,0:0:0:0:
62,97,71352,6,0,P|57:61|59:44,1,45
149,90,71523,2,0,P|144:54|146:37,1,45
236,82,71695,2,0,P|231:46|233:29,1,45
323,75,71866,2,0,P|318:39|320:22,1,45
481,170,72038,6,0,P|486:134|484:117,1,45
394,163,72209,2,0,P|399:127|397:110,1,45
307,155,72381,2,0,P|312:119|310:102,1,45
220,148,72552,2,0,P|225:112|223:95,1,45
52,254,72723,6,0,P|47:218|49:201,1,45
139,247,72894,2,0,P|134:211|136:194,1,45
226,239,73066,2,0,P|221:203|223:186,1,45
313,232,73237,2,0,P|308:196|310:179,1,45
494,329,73409,6,0,P|499:293|497:276,1,45
407,322,73580,2,0,P|412:286|410:269,1,45
320,314,73752,2,0,P|325:278|323:261,1,45
233,307,73923,2,0,P|238:271|236:254,1,45
41,98,74095,6,0,P|81:116|113:118,1,67.5000025749208
340,105,74266,2,0,P|300:87|268:85,1,67.5000025749208
204,177,74438,1,0,0:0:0:0:
209,196,74523,1,0,0:0:0:0:
215,215,74609,1,0,0:0:0:0:
221,234,74695,1,0,0:0:0:0:
227,253,74780,2,0,P|187:266|128:263,1,83.2499996824265
414,205,74952,2,0,P|455:205|494:218,1,83.2499996824265
298,367,75123,1,0,0:0:0:0:
302,335,75209,1,0,0:0:0:0:
307,305,75295,1,0,0:0:0:0:
312,276,75380,1,0,0:0:0:0:
329,182,75466,5,0,0:0:0:0:
154,59,76152,6,0,B|149:68|149:68|145:59|145:59|141:68|141:68|136:59|136:59|132:68|132:68|127:59|127:59|123:68|123:68|118:59|118:59|114:68|114:68|110:59|110:59|105:68|105:68|101:59|101:59|96:68|96:68|92:59|92:59|87:68|87:68|79:59|79:59|79:64|79:64|75:68|75:68|70:68|70:68|79:77|79:77|70:81|70:81|79:85|79:85|70:90|70:90|79:94|79:94|70:99|70:99|79:103|79:103|70:107|70:107|79:112|79:112|70:116|70:116|79:121|79:121|70:125|70:125|79:130|79:130|70:134|70:134|79:138|79:138|70:143,1,337.5
122,231,76495,2,0,B|164:195|150:139|150:139|208:157|248:121,1,202.500007724762
310,52,76838,6,0,P|261:28|226:31,1,67.5000025749208
346,148,77009,1,0,0:0:0:0:
364,155,77095,1,0,0:0:0:0:
382,162,77180,2,0,L|472:138,1,80.9999975280763
484,273,77352,2,0,P|411:238|352:266,1,135.000005149842
297,361,77609,2,0,B|366:362|366:362|421:317,1,135.000005149842
278,206,77866,5,0,0:0:0:0:
268,227,77952,1,0,0:0:0:0:
260,248,78038,1,0,0:0:0:0:
267,269,78123,1,0,0:0:0:0:
275,290,78209,6,0,L|121:284,1,135.000005149842
239,111,78466,6,0,L|393:117,1,135.000005149842
324,205,78723,6,0,L|189:199,1,133.663361288265
277,33,78895,6,0,L|344:35,1,67.5000025749208
469,44,79066,2,0,L|466:111,1,67.5000025749208
219,120,79238,2,0,L|151:117,1,67.5000025749208
22,110,79409,2,0,L|19:177,1,67.5000025749208
195,240,79580,6,0,P|114:237|117:291,1,135.000005149842
177,323,79838,1,0,0:0:0:0:
177,323,79923,2,0,L|190:358,2,33.7500012874604
270,295,80095,2,0,B|333:266|333:266|401:299,1,135.000005149842
498,189,80352,2,0,B|435:218|435:218|367:185,1,135.000005149842
436,17,80609,1,0,0:0:0:0:
436,44,80695,1,0,0:0:0:0:
436,70,80780,1,0,0:0:0:0:
436,97,80866,1,0,0:0:0:0:
436,124,80952,6,0,L|511:113,2,67.5000025749208
334,96,81209,2,0,L|286:36,2,67.5000025749208
349,252,81466,5,0,0:0:0:0:
332,176,81552,5,0,0:0:0:0:
399,198,81638,5,0,0:0:0:0:
406,206,81980,5,0,0:0:0:0:
199,61,82323,6,0,B|178:90|178:90|127:77|79:103|79:103|50:81,1,175.499991966248
107,182,82666,2,0,P|142:163|184:183,1,72
105,266,82838,2,0,B|50:249|50:249|17:188,1,116.999994644165
197,262,83095,2,0,B|209:318|209:318|173:377,1,116.999994644165
264,189,83352,1,0,0:0:0:0:
289,175,83438,1,0,0:0:0:0:
314,161,83523,1,0,0:0:0:0:
343,164,83609,1,0,0:0:0:0:
372,167,83695,6,0,P|394:109|375:49,1,116.999994644165
223,45,83952,2,0,P|201:103|220:163,1,116.999994644165
293,187,84209,2,0,L|301:74,1,80.9999975280763
259,261,84380,2,0,L|372:269,1,58.4999973220826
406,248,84552,2,0,L|421:282,2,29.2499986610413
173,229,84723,2,0,P|151:240|111:248,1,58.4999973220826
96,82,84895,2,0,L|99:164,1,58.4999973220826
46,322,85066,6,0,B|8:272|8:272|19:201,1,125.999996154785
148,343,85323,1,0,0:0:0:0:
148,343,85409,2,0,L|146:380,2,31.4999990386963
118,247,85580,2,0,P|196:254|232:285,1,125.999996154785
379,169,85838,2,0,P|301:176|265:207,1,125.999996154785
398,252,86095,1,0,0:0:0:0:
427,243,86180,1,0,0:0:0:0:
458,246,86266,1,0,0:0:0:0:
487,258,86352,1,0,0:0:0:0:
511,277,86438,6,0,L|491:152,1,125.999996154785
508,43,86695,2,0,L|383:63,1,125.999996154785
266,38,86952,2,0,L|286:163,1,90
375,206,87123,1,0,0:0:0:0:
159,98,87295,1,0,0:0:0:0:
213,272,87466,2,0,P|231:230|237:194,1,67.5000025749208
100,299,87638,2,0,P|108:331|122:362,1,67.5000025749208
261,368,87809,6,0,L|413:351,1,135.000005149842
326,193,88066,1,0,0:0:0:0:
326,193,88152,2,0,L|338:283,1,80.9999975280763
400,129,88323,2,0,P|328:88|266:106,1,135.000005149842
187,225,88580,2,0,B|224:169|224:169|190:92,1,135.000005149842
105,164,88838,1,0,0:0:0:0:
91,194,88923,1,0,0:0:0:0:
77,225,89009,1,0,0:0:0:0:
95,253,89095,1,0,0:0:0:0:
114,282,89180,6,0,P|187:274|248:320,1,135.000005149842
364,351,89438,6,0,P|320:292|330:216,1,135.000005149842
296,131,89695,6,0,P|252:180|203:194,1,112.5
132,91,89866,6,0,L|208:96,1,67.5000025749208
114,208,90038,2,0,L|119:168,2,33.7500012874604
40,145,90209,2,0,L|31:211,1,67.5000025749208
275,201,90380,2,0,L|208:192,1,67.5000025749208
322,65,90552,6,0,B|358:73|394:68|394:68|401:101|436:131,1,144
491,53,90809,1,0,0:0:0:0:
491,53,90895,2,0,L|493:7,2,36
477,209,91066,2,0,L|467:359,1,144
299,227,91323,2,0,L|309:77,1,144
392,158,91580,1,0,0:0:0:0:
390,193,91665,1,0,0:0:0:0:
387,228,91751,1,0,0:0:0:0:
385,263,91837,1,0,0:0:0:0:
383,299,91923,6,0,P|313:335|249:325,1,144
209,125,92180,2,0,P|275:167|298:228,1,144
137,372,92438,5,0,0:0:0:0:
137,301,92523,5,0,0:0:0:0:
179,244,92609,5,0,0:0:0:0:
183,250,92952,5,0,0:0:0:0:
337,58,93295,6,0,L|349:210,1,153.000002918243
512,156,93552,1,0,0:0:0:0:
512,156,93638,2,0,L|425:162,1,85.4999977169037
262,108,93809,2,0,B|269:185|269:185|205:250,1,153.000002918243
129,103,94066,2,0,P|110:157|179:139,1,153.000002918243
191,43,94323,1,0,0:0:0:0:
159,21,94409,1,0,0:0:0:0:
120,16,94495,1,0,0:0:0:0:
83,24,94580,1,0,0:0:0:0:
53,48,94666,6,0,B|57:125|57:125|5:180,1,153.000002918243
83,313,94923,2,0,B|79:236|79:236|131:181,1,153.000002918243
264,268,95180,2,0,L|187:268,1,76.5000014591217
227,85,95352,2,0,L|227:162,1,76.5000014591217
338,174,95523,1,0,0:0:0:0:
64,84,95695,2,0,L|141:84,1,76.5000014591217
338,79,95866,2,0,L|338:2,1,76.5000014591217
476,115,96038,6,0,B|505:193|446:193|476:272,1,161.999995056153
397,316,96294,1,0,0:0:0:0:
397,316,96380,2,0,L|425:353,2,40.4999987640381
371,225,96552,2,0,P|296:268|220:243,1,161.999995056153
199,98,96809,2,0,P|274:55|350:80,1,161.999995056153
271,184,97066,1,0,0:0:0:0:
261,144,97152,1,0,0:0:0:0:
300,134,97238,1,0,0:0:0:0:
310,174,97323,1,0,0:0:0:0:
178,181,97409,5,0,0:0:0:0:
33,84,98780,6,0,B|108:56|108:56|177:101,1,157.500001502037
119,224,99038,1,0,0:0:0:0:
119,224,99123,2,0,B|95:193|95:193|96:149,1,78.7500007510185
217,221,99295,2,0,B|217:260|217:260|193:291,1,78.7500007510185
278,126,99466,1,0,0:0:0:0:
323,112,99552,1,0,0:0:0:0:
370,113,99638,1,0,0:0:0:0:
413,129,99723,1,0,0:0:0:0:
447,161,99809,2,0,L|464:83,1,78.7500007510185
342,231,99980,2,0,L|358:307,1,78.7500007510185
278,126,100152,6,0,B|200:155|200:96|122:126,1,157.500001502037
84,235,100409,2,0,B|125:231|158:208|158:208|177:243|216:267,1,157.500001502037
331,345,100666,1,0,0:0:0:0:
393,311,100752,1,0,0:0:0:0:
458,339,100838,2,0,P|487:254|465:185,1,157.500001502037
380,93,101095,1,0,0:0:0:0:
380,93,101180,2,0,L|376:182,1,78.7500007510185
181,119,101352,2,0,L|270:123,1,78.7500007510185
87,184,101523,6,0,B|46:117|46:117|92:39,1,157.500001502037
165,240,101780,2,0,P|85:282|21:256,1,157.500001502037
180,139,102038,2,0,L|269:143,1,78.7500007510185
413,239,102209,1,0,0:0:0:0:
437,218,102295,1,0,0:0:0:0:
454,192,102380,1,0,0:0:0:0:
461,161,102466,1,0,0:0:0:0:
458,129,102552,1,0,0:0:0:0:
404,141,102638,1,0,0:0:0:0:
368,182,102723,1,0,0:0:0:0:
353,235,102809,1,0,0:0:0:0:
356,290,102895,6,0,B|388:314|388:314|434:308,1,78.7500007510185
258,325,103066,1,0,0:0:0:0:
258,325,103152,2,0,B|221:340|221:340|203:383,1,78.7500007510185
275,231,103323,1,0,0:0:0:0:
275,231,103409,2,0,B|279:191|279:191|251:154,1,78.7500007510185
92,244,103580,2,0,L|171:257,1,78.7500007510185
212,92,103752,1,0,0:0:0:0:
178,113,103838,1,0,0:0:0:0:
156,145,103923,1,0,0:0:0:0:
123,123,104009,1,0,0:0:0:0:
88,103,104095,1,0,0:0:0:0:
66,135,104180,1,0,0:0:0:0:
36,161,104266,6,0,B|7:130|-2:93|-2:93|3:53|28:15,1,157.500001502037
225,59,104523,2,0,B|167:111|167:111|84:102,1,157.500001502037
139,192,104780,2,0,L|225:203,1,78.7500007510185
311,128,104952,1,0,0:0:0:0:
340,117,105038,1,0,0:0:0:0:
371,113,105123,1,0,0:0:0:0:
402,115,105209,1,0,0:0:0:0:
432,122,105295,1,0,0:0:0:0:
395,162,105380,1,0,0:0:0:0:
339,166,105466,1,0,0:0:0:0:
285,150,105552,1,0,0:0:0:0:
245,110,105638,6,0,L|235:25,1,78.7500007510185
136,92,105809,1,0,0:0:0:0:
136,92,105895,1,0,0:0:0:0:
136,92,105980,2,0,L|146:177,1,78.7500007510185
43,222,106152,1,0,0:0:0:0:
43,222,106238,1,0,0:0:0:0:
43,222,106323,2,0,L|33:137,1,78.7500007510185
260,196,106495,1,0,0:0:0:0:
244,231,106580,1,0,0:0:0:0:
225,266,106666,2,0,L|140:276,1,78.7500007510185
251,103,106838,5,0,0:0:0:0:
319,66,106923,1,0,0:0:0:0:
383,111,107009,2,0,B|411:187|354:187|383:264,1,157.500001502037
480,260,107266,2,0,B|466:223|466:223|482:178,1,78.7500007510185
291,117,107438,1,0,0:0:0:0:
291,117,107523,2,0,B|305:154|305:154|289:199,1,78.7500007510185
158,263,107695,1,0,0:0:0:0:
118,264,107780,1,0,0:0:0:0:
79,254,107866,1,0,0:0:0:0:
46,231,107952,1,0,0:0:0:0:
26,196,108038,1,0,0:0:0:0:
79,184,108123,1,0,0:0:0:0:
131,200,108209,1,0,0:0:0:0:
171,237,108295,1,0,0:0:0:0:
190,288,108380,5,0,0:0:0:0:
213,285,108466,1,0,0:0:0:0:
236,282,108552,1,0,0:0:0:0:
259,279,108638,1,0,0:0:0:0:
282,276,108723,1,0,0:0:0:0:
420,192,109066,5,0,0:0:0:0:
397,189,109152,1,0,0:0:0:0:
374,186,109238,1,0,0:0:0:0:
351,183,109324,1,0,0:0:0:0:
328,180,109409,1,0,0:0:0:0:
97,42,109752,6,0,L|89:126,1,78.7500007510185
78,222,109923,1,0,0:0:0:0:
246,143,110095,2,0,L|254:227,1,78.7500007510185
265,323,110266,1,0,0:0:0:0:
406,237,110438,2,0,L|414:153,1,78.7500007510185
344,15,110609,2,0,L|336:99,1,78.7500007510185
238,221,110780,2,0,L|246:137,1,78.7500007510185
187,24,110952,1,0,0:0:0:0:
0,173,111123,6,0,B|22:204|24:248|24:248|50:211|89:204,1,157.500001502037
182,299,111380,1,0,0:0:0:0:
182,299,111466,2,0,P|139:305|96:285,1,78.7500007510185
185,124,111638,2,0,P|172:160|179:199,1,78.7500007510185
332,250,111809,6,0,L|342:94,1,155.250002961159
413,177,112152,2,0,L|258:167,1,155.250002961159
195,47,112495,6,0,P|232:30|291:42,1,78.7500007510185
249,132,112666,1,0,0:0:0:0:
103,114,112838,2,0,P|66:97|7:109,1,78.7500007510185
49,199,113009,1,0,0:0:0:0:
155,325,113180,2,0,B|166:209|166:209|196:256,1,157.500001502037
268,289,113438,1,0,0:0:0:0:
268,289,113524,2,0,P|277:227|264:198,1,78.7500007510185
366,132,113695,2,0,P|359:170|370:207,1,78.7500007510185
504,76,113866,6,0,B|482:90|466:120|466:120|458:63|402:34,1,157.500001502037
288,40,114123,1,0,0:0:0:0:
288,40,114209,2,0,L|272:127,1,78.7500007510185
188,208,114380,2,0,L|173:130,1,78.7500007510185
24,265,114552,6,0,B|12:342|12:342|94:354,1,155.250002961159
168,361,114895,2,0,B|180:284|180:284|98:272,1,155.250002961159
37,170,115238,6,0,B|57:176|73:186|73:186|92:175|113:173,1,78.7500007510185
82,25,115409,1,0,0:0:0:0:
82,25,115495,1,0,0:0:0:0:
82,25,115580,2,0,L|74:124,1,78.7500007510185
261,80,115752,2,0,L|162:72,1,78.7500007510185
353,41,115923,6,0,B|381:116|324:116|353:192,1,155.250002961159
439,303,116266,2,0,B|410:227|467:227|439:151,1,155.250002961159
263,220,116609,6,0,P|291:263|329:280,1,78.7500007510185
150,360,116780,1,0,0:0:0:0:
150,360,116866,1,0,0:0:0:0:
150,360,116952,2,0,P|182:338|201:303,1,78.7500007510185
156,132,117123,2,0,L|155:229,1,78.7500007510185
71,73,117295,6,0,P|141:25|221:42,1,155.250002961159
295,97,117638,2,0,P|370:103|431:57,1,155.250002961159
195,132,117980,5,0,0:0:0:0:
186,154,118066,1,0,0:0:0:0:
181,177,118152,1,0,0:0:0:0:
179,200,118238,1,0,0:0:0:0:
180,223,118323,1,0,0:0:0:0:
184,246,118409,1,0,0:0:0:0:
189,268,118495,1,0,0:0:0:0:
197,289,118580,1,0,0:0:0:0:
206,310,118666,6,0,L|300:300,1,78.7500007510185
140,226,118838,2,0,L|46:216,1,83.2499996824265
274,180,119009,2,0,L|368:170,1,87.7500003347397
91,118,119180,2,0,L|-3:108,1,92.2500014076233
312,58,119352,5,0,0:0:0:0:
168,274,120038,2,0,B|177:279|177:279|183:272|183:272|190:282|190:282|194:269|194:269|202:287|202:287|208:264|208:264|214:292|214:292|224:258|224:258|233:301|233:301|245:254|245:254|251:306|251:306|277:275,1,337.5
332,207,120380,2,0,B|348:225|348:225|361:251|361:251|364:281|364:281|357:309|357:309|346:328,1,135
237,166,120723,5,0,0:0:0:0:
