osu file format v14

[General]
AudioFilename: nora2r - New World.mp3
AudioLeadIn: 0
PreviewTime: 11621
Countdown: 0
SampleSet: Soft
StackLeniency: 0.7
Mode: 3
LetterboxInBreaks: 0
SpecialStyle: 0
WidescreenStoryboard: 0

[Editor]
DistanceSpacing: 1.3
BeatDivisor: 4
GridSize: 4
TimelineZoom: 2

[Metadata]
Title:New World
TitleUnicode:New World
Artist:nora2r
ArtistUnicode:nora2r
Creator:Draftnell
Version:Normal
Source:BMS
Tags:J-core A-1 Climax 3rd exemoss シユイ pharos21 MEGAtive
BeatmapID:720576
BeatmapSetID:324294

[Difficulty]
HPDrainRate:7
CircleSize:4
OverallDifficulty:7
ApproachRate:5
SliderMultiplier:1.4
SliderTickRate:1

[Events]
//Background and Video events
0,0,"New+World.jpg",0,0
//Break Periods
//Storyboard Layer 0 (Background)
//Storyboard Layer 1 (Fail)
//Storyboard Layer 2 (Pass)
//Storyboard Layer 3 (Foreground)
//Storyboard Sound Samples

[TimingPoints]
2203,348.837209302326,4,2,1,50,1,0
80342,-100,4,2,1,50,0,1
124993,-100,4,2,1,50,0,0

[HitObjects]
64,192,2203,5,0,0:0:0:0:
448,192,2203,1,0,0:0:0:50:FPC 5 Kick.wav
192,192,2551,1,0,0:0:0:50:FPC 5 Kick.wav
192,192,2900,1,0,0:0:0:50:FPC 5 Kick.wav
192,192,3249,1,0,0:0:0:50:FPC 5 Kick.wav
192,192,3598,1,0,0:0:0:50:FPC 5 Kick.wav
192,192,3947,1,0,0:0:0:50:FPC 5 Kick.wav
192,192,4296,1,8,0:0:0:0:
448,192,4470,1,8,0:0:0:0:
64,192,4644,1,8,0:0:0:0:
320,192,4819,1,8,0:0:0:0:
64,192,4993,1,8,0:0:0:0:
448,192,5168,1,8,0:0:0:0:
192,192,5342,1,0,0:0:0:50:FPC 5 Kick.wav
64,192,5691,1,0,0:0:0:50:FPC 5 Kick.wav
64,192,6040,1,0,0:0:0:50:FPC 5 Kick.wav
64,192,6389,1,0,0:0:0:50:FPC 5 Kick.wav
64,192,6737,1,0,0:0:0:50:FPC 5 Kick.wav
64,192,7086,1,0,0:0:0:50:FPC 5 Kick.wav
192,192,7435,128,0,7784:0:0:0:50:FPC 5 Kick.wav
448,192,7784,1,0,0:0:0:50:FPC 5 Kick.wav
320,192,7784,1,0,0:0:0:0:
448,192,8133,1,8,0:0:0:0:
64,192,8482,1,8,0:0:0:0:
448,192,8830,1,8,0:0:0:0:
64,192,9179,1,8,0:0:0:0:
448,192,9528,1,8,0:0:0:0:
64,192,9877,1,8,0:0:0:0:
448,192,10226,1,8,0:0:0:0:
64,192,10400,1,0,0:0:0:50:FPC 5 Kick.wav
320,192,10575,1,8,0:0:0:0:
64,192,10749,1,8,0:0:0:0:
448,192,10923,1,8,0:0:0:0:
192,192,11098,1,8,0:0:0:0:
320,192,11272,1,8,0:0:0:0:
64,192,11447,1,8,0:0:0:0:
448,192,11621,1,8,0:0:0:0:
192,192,11796,1,8,0:0:0:0:
64,192,11970,128,0,13365:0:0:0:50:SFX SubBass Drop.wav
320,192,13365,1,8,0:0:0:0:
448,192,13365,1,0,0:0:0:50:DNC_Crash.wav
192,192,13889,1,0,0:0:0:0:
192,192,14063,1,0,0:0:0:0:
64,192,14586,1,0,0:0:0:0:
320,192,14761,1,0,0:0:0:0:
192,192,14935,1,0,0:0:0:0:
448,192,15109,1,0,0:0:0:0:
192,192,15458,1,0,0:0:0:0:
64,192,15807,1,0,0:0:0:0:
448,192,16156,1,0,0:0:0:0:
192,192,16330,1,0,0:0:0:0:
320,192,16679,1,0,0:0:0:0:
320,192,16854,1,0,0:0:0:0:
64,192,17377,1,0,0:0:0:0:
320,192,17551,1,0,0:0:0:0:
192,192,17726,1,0,0:0:0:0:
448,192,17900,1,0,0:0:0:0:
64,192,18249,1,0,0:0:0:0:
192,192,18598,1,0,0:0:0:0:
448,192,18772,1,0,0:0:0:0:
64,192,18947,1,0,0:0:0:0:
320,192,19121,1,0,0:0:0:0:
192,192,19470,1,0,0:0:0:0:
192,192,19644,1,0,0:0:0:0:
64,192,20168,1,0,0:0:0:0:
320,192,20342,1,0,0:0:0:0:
192,192,20516,1,0,0:0:0:0:
448,192,20691,1,0,0:0:0:0:
320,192,21040,1,0,0:0:0:0:
192,192,21389,1,0,0:0:0:0:
448,192,21737,1,0,0:0:0:0:
64,192,21912,1,0,0:0:0:0:
320,192,22261,1,0,0:0:0:0:
320,192,22435,1,0,0:0:0:0:
64,192,22958,1,0,0:0:0:0:
320,192,23133,1,0,0:0:0:0:
192,192,23307,1,0,0:0:0:0:
448,192,23482,1,0,0:0:0:0:
320,192,23830,1,0,0:0:0:0:
192,192,24179,1,4,0:0:0:0:
64,192,24528,1,0,0:0:0:50:DNC_Crash.wav
448,192,24528,1,8,0:0:0:0:
192,192,24877,1,4,0:0:0:0:
448,192,25226,1,8,0:0:0:0:
64,192,25575,1,4,0:0:0:0:
320,192,25923,1,8,0:0:0:0:
192,192,26272,1,4,0:0:0:0:
448,192,26621,1,8,0:0:0:0:
192,192,26970,1,4,0:0:0:0:
64,192,27144,1,0,0:0:0:0:
448,192,27319,1,8,0:0:0:0:
64,192,27668,1,4,0:0:0:0:
448,192,28016,1,8,0:0:0:0:
192,192,28365,1,4,0:0:0:0:
320,192,28714,1,8,0:0:0:0:
64,192,29063,1,4,0:0:0:0:
320,192,29412,1,8,0:0:0:0:
448,192,29761,1,4,0:0:0:0:
64,192,30109,1,8,0:0:0:0:
320,192,30109,1,0,0:0:0:0:
192,192,30458,1,4,0:0:0:0:
448,192,30807,1,8,0:0:0:0:
320,192,31156,1,4,0:0:0:0:
64,192,31505,1,8,0:0:0:0:
448,192,31505,1,0,0:0:0:50:DNC_Crash.wav
192,192,31854,1,4,0:0:0:0:
64,192,32203,1,8,0:0:0:0:
320,192,32551,1,4,0:0:0:0:
64,192,32900,1,0,0:0:0:50:DNC_Crash.wav
448,192,32900,1,0,0:0:0:0:
320,192,33075,1,8,0:0:0:0:
192,192,33249,1,8,0:0:0:0:
448,192,33423,1,8,0:0:0:0:
64,192,33598,1,0,0:0:0:50:DNC_Crash.wav
320,192,33598,1,0,0:0:0:0:
448,192,33772,1,8,0:0:0:0:
64,192,33947,1,8,0:0:0:0:
320,192,34121,1,8,0:0:0:0:
192,192,34296,1,0,0:0:0:50:SFX SubBass Drop.wav
64,192,34296,1,0,0:0:0:0:
448,192,34470,1,0,0:0:0:0:
64,192,34644,1,0,0:0:0:0:
192,192,34993,1,0,0:0:0:0:
320,192,35342,1,0,0:0:0:0:
64,192,35691,1,8,0:0:0:0:
448,192,35691,128,0,39877:0:0:0:0:
320,192,39877,128,0,41272:0:0:0:0:
64,192,41272,128,0,45458:0:0:0:0:
448,192,41272,1,0,0:0:0:0:
192,192,45458,128,0,46156:0:0:0:0:
320,192,46156,128,0,46854:0:0:0:0:
448,192,46854,128,0,51040:0:0:0:0:
64,192,46854,1,0,0:0:0:0:
64,192,51040,128,0,52435:0:0:0:0:
320,192,52435,128,0,56621:0:0:0:0:
448,192,52435,1,0,0:0:0:0:
192,192,56621,128,0,57319:0:0:0:0:
64,192,57319,128,0,58016:0:0:0:0:
320,192,58016,1,0,0:0:0:50:DNC_Crash.wav
448,192,58016,1,8,0:0:0:0:
192,192,58365,1,0,0:0:0:50:FPC 5 Kick.wav
192,192,58714,1,0,0:0:0:50:FPC 5 Kick.wav
192,192,59063,1,0,0:0:0:50:FPC 5 Kick.wav
192,192,59412,1,0,0:0:0:50:FPC 5 Kick.wav
448,192,59586,1,0,0:0:0:0:
320,192,59761,1,0,0:0:0:50:FPC 5 Kick.wav
64,192,59761,1,0,0:0:0:0:
320,192,60109,1,0,0:0:0:50:FPC 5 Kick.wav
320,192,60458,1,0,0:0:0:50:FPC 5 Kick.wav
192,192,60633,1,0,0:0:0:50:FPC 5 Kick.wav
64,192,60807,1,0,0:0:0:50:FPC 5 Kick.wav
448,192,60807,1,0,0:0:0:0:
192,192,61156,1,0,0:0:0:50:FPC 5 Kick.wav
192,192,61505,1,0,0:0:0:50:FPC 5 Kick.wav
192,192,61854,1,0,0:0:0:50:FPC 5 Kick.wav
192,192,62203,1,0,0:0:0:50:FPC 5 Kick.wav
192,192,62551,1,0,0:0:0:50:FPC 5 Kick.wav
192,192,62900,1,0,0:0:0:50:FPC 5 Kick.wav
448,192,63249,1,0,0:0:0:50:FPC 5 Kick.wav
320,192,63423,1,0,0:0:0:50:FPC 5 Kick.wav
64,192,63598,1,0,0:0:0:50:FPC 5 Kick.wav
192,192,63598,1,0,0:0:0:0:
320,192,63947,1,0,0:0:0:50:FPC 5 Kick.wav
320,192,64296,1,0,0:0:0:50:FPC 5 Kick.wav
320,192,64644,1,0,0:0:0:50:FPC 5 Kick.wav
320,192,64993,1,0,0:0:0:50:FPC 5 Kick.wav
320,192,65342,1,0,0:0:0:50:FPC 5 Kick.wav
320,192,65691,1,0,0:0:0:50:FPC 5 Kick.wav
320,192,66040,1,0,0:0:0:50:FPC 5 Kick.wav
64,192,66214,1,0,0:0:0:50:FPC 5 Kick.wav
192,192,66389,1,0,0:0:0:50:FPC 5 Kick.wav
448,192,66389,1,0,0:0:0:0:
448,192,66737,1,0,0:0:0:50:FPC 5 Kick.wav
448,192,67086,1,0,0:0:0:50:FPC 5 Kick.wav
448,192,67435,1,0,0:0:0:50:FPC 5 Kick.wav
448,192,67784,1,0,0:0:0:50:FPC 5 Kick.wav
448,192,68133,1,0,0:0:0:50:FPC 5 Kick.wav
448,192,68482,1,0,0:0:0:50:FPC 5 Kick.wav
320,192,68830,1,0,0:0:0:50:FPC 5 Kick.wav
192,192,69005,1,0,0:0:0:0:
64,192,69179,1,0,0:0:0:50:FPC 5 Kick.wav
448,192,69179,1,8,0:0:0:0:
320,192,69528,1,8,0:0:0:0:
64,192,69877,1,8,0:0:0:0:
448,192,70226,1,8,0:0:0:0:
64,192,70575,1,8,0:0:0:0:
192,192,70923,1,8,0:0:0:0:
448,192,71272,1,8,0:0:0:0:
64,192,71621,1,8,0:0:0:0:
320,192,71796,1,8,0:0:0:0:
448,192,71970,1,0,0:0:0:50:DNC_Crash.wav
192,192,71970,1,8,0:0:0:0:
64,192,72319,1,8,0:0:0:0:
320,192,72668,1,8,0:0:0:0:
192,192,73016,1,8,0:0:0:0:
448,192,73365,1,8,0:0:0:0:
64,192,73714,1,8,0:0:0:0:
320,192,74063,1,8,0:0:0:0:
192,192,74412,1,8,0:0:0:0:
320,192,74586,1,0,0:0:0:0:
448,192,74761,1,8,0:0:0:0:
64,192,74761,1,0,0:0:0:50:DNC_Crash.wav
192,192,74935,1,8,0:0:0:0:
448,192,75109,1,8,0:0:0:0:
64,192,75284,1,8,0:0:0:0:
320,192,75458,1,8,0:0:0:0:
64,192,75633,1,8,0:0:0:0:
448,192,75807,1,8,0:0:0:0:
192,192,75982,1,8,0:0:0:0:
448,192,76156,1,8,0:0:0:0:
64,192,76156,1,0,0:0:0:50:DNC_Crash.wav
192,192,76330,1,8,0:0:0:0:
448,192,76505,1,8,0:0:0:0:
64,192,76679,1,8,0:0:0:0:
320,192,76854,1,8,0:0:0:0:
192,192,77028,1,8,0:0:0:0:
448,192,77203,1,8,0:0:0:0:
64,192,77377,1,8,0:0:0:0:
320,192,77551,1,8,0:0:0:0:
192,192,77551,128,0,78947:0:0:0:0:
64,192,78947,128,0,79993:0:0:0:0:
320,192,79993,128,0,80342:0:0:0:0:
64,192,80342,1,8,0:0:0:0:
448,192,80342,1,0,0:0:0:50:DNC_Crash.wav
192,192,80691,1,0,0:0:0:0:
320,192,80865,1,0,0:0:0:0:
64,192,81214,1,0,0:0:0:0:
64,192,81389,1,0,0:0:0:0:
320,192,81563,1,0,0:0:0:0:
448,192,81737,1,0,0:0:0:0:
320,192,81999,1,0,0:0:0:0:
64,192,82261,1,0,0:0:0:0:
64,192,82609,1,0,0:0:0:0:
192,192,82958,1,0,0:0:0:0:
448,192,83133,1,0,0:0:0:0:
320,192,83394,1,0,0:0:0:0:
64,192,83656,1,0,0:0:0:0:
320,192,84005,1,0,0:0:0:0:
320,192,84179,1,0,0:0:0:0:
448,192,84354,1,0,0:0:0:0:
192,192,84528,1,0,0:0:0:0:
64,192,84790,1,0,0:0:0:0:
320,192,85051,1,0,0:0:0:0:
320,192,85400,1,0,0:0:0:0:
64,192,85749,1,0,0:0:0:0:
448,192,85923,1,0,0:0:0:0:
192,192,86185,1,0,0:0:0:0:
64,192,86447,1,0,0:0:0:0:
320,192,86796,1,0,0:0:0:0:
320,192,86970,1,0,0:0:0:0:
448,192,87144,1,0,0:0:0:0:
192,192,87319,1,0,0:0:0:0:
64,192,87580,1,0,0:0:0:0:
448,192,87842,1,0,0:0:0:0:
448,192,88191,1,0,0:0:0:0:
64,192,88540,1,0,0:0:0:0:
448,192,88714,1,0,0:0:0:0:
320,192,88976,1,0,0:0:0:0:
192,192,89237,1,0,0:0:0:0:
448,192,89586,1,0,0:0:0:0:
448,192,89761,1,0,0:0:0:0:
192,192,89935,1,0,0:0:0:0:
64,192,90109,1,0,0:0:0:0:
64,192,90371,1,0,0:0:0:0:
192,192,90633,1,0,0:0:0:0:
320,192,90982,1,0,0:0:0:0:
448,192,91330,1,0,0:0:0:0:
64,192,91505,1,0,0:0:0:50:DNC_Crash.wav
192,192,91505,1,0,0:0:0:0:
320,192,91854,1,4,0:0:0:0:
448,192,91854,1,8,0:0:0:0:
192,192,92203,1,8,0:0:0:0:
64,192,92551,1,4,0:0:0:0:
320,192,92551,1,8,0:0:0:0:
448,192,92900,1,8,0:0:0:0:
192,192,93249,1,8,0:0:0:0:
64,192,93249,1,4,0:0:0:0:
320,192,93598,1,8,0:0:0:0:
448,192,93947,1,8,0:0:0:0:
192,192,93947,1,4,0:0:0:0:
64,192,94296,1,8,0:0:0:0:
192,192,94644,1,4,0:0:0:0:
320,192,94644,1,8,0:0:0:0:
448,192,94993,1,8,0:0:0:0:
64,192,95342,1,4,0:0:0:0:
192,192,95342,1,8,0:0:0:0:
320,192,95691,1,8,0:0:0:0:
192,192,96040,1,4,0:0:0:0:
448,192,96040,1,8,0:0:0:0:
64,192,96389,1,8,0:0:0:0:
320,192,96737,1,8,0:0:0:0:
192,192,96737,1,4,0:0:0:0:
64,192,97086,1,0,0:0:0:50:DNC_Crash.wav
192,192,97086,1,0,0:0:0:0:
448,192,97261,1,8,0:0:0:0:
64,192,97435,1,4,0:0:0:0:
448,192,97609,1,8,0:0:0:0:
192,192,97784,1,8,0:0:0:0:
320,192,97958,1,8,0:0:0:0:
64,192,98133,1,4,0:0:0:0:
448,192,98307,1,8,0:0:0:0:
192,192,98482,1,8,0:0:0:0:
448,192,98656,1,8,0:0:0:0:
64,192,98830,1,4,0:0:0:0:
320,192,99005,1,8,0:0:0:0:
192,192,99179,1,8,0:0:0:0:
448,192,99354,1,8,0:0:0:0:
64,192,99528,1,4,0:0:0:0:
320,192,99703,1,8,0:0:0:0:
64,192,99877,1,8,0:0:0:0:
448,192,99877,128,0,101272:0:0:0:0:
64,192,101272,1,8,0:0:0:0:
192,192,101272,1,0,0:0:0:50:DNC_Crash.wav
192,192,101970,1,8,0:0:0:0:
320,192,101970,1,0,0:0:0:50:DNC_Crash.wav
64,192,102668,1,8,0:0:0:0:
448,192,102668,1,0,0:0:0:50:DNC_Crash.wav
320,192,103016,1,4,0:0:0:0:
192,192,103016,1,8,0:0:0:0:
448,192,103365,1,8,0:0:0:0:
64,192,103714,1,8,0:0:0:0:
320,192,103714,1,4,0:0:0:0:
448,192,104063,1,8,0:0:0:0:
320,192,104412,1,8,0:0:0:0:
192,192,104412,1,4,0:0:0:0:
64,192,104761,1,8,0:0:0:0:
448,192,105109,1,8,0:0:0:0:
192,192,105109,1,4,0:0:0:0:
320,192,105458,1,8,0:0:0:0:
448,192,105807,1,8,0:0:0:0:
64,192,105807,1,4,0:0:0:0:
320,192,106156,1,8,0:0:0:0:
448,192,106505,1,8,0:0:0:0:
192,192,106505,1,4,0:0:0:0:
320,192,106854,1,8,0:0:0:0:
448,192,107203,1,4,0:0:0:0:
64,192,107203,1,8,0:0:0:0:
192,192,107551,1,8,0:0:0:0:
320,192,107900,1,8,0:0:0:0:
64,192,107900,1,4,0:0:0:0:
192,192,108249,1,8,0:0:0:0:
320,192,108598,1,8,0:0:0:0:
448,192,108598,1,4,0:0:0:0:
64,192,108947,1,8,0:0:0:0:
192,192,109296,1,4,0:0:0:0:
448,192,109296,1,8,0:0:0:0:
320,192,109644,1,8,0:0:0:0:
192,192,109993,1,8,0:0:0:0:
64,192,109993,1,4,0:0:0:0:
448,192,110342,1,8,0:0:0:0:
64,192,110691,1,4,0:0:0:0:
320,192,110691,1,8,0:0:0:0:
192,192,111040,1,8,0:0:0:0:
64,192,111389,1,8,0:0:0:0:
448,192,111389,1,4,0:0:0:0:
320,192,111737,1,8,0:0:0:0:
64,192,112086,1,4,0:0:0:0:
192,192,112086,1,8,0:0:0:0:
448,192,112435,1,8,0:0:0:0:
64,192,112784,1,4,0:0:0:0:
320,192,112784,1,8,0:0:0:0:
192,192,113133,1,8,0:0:0:0:
320,192,113482,1,8,0:0:0:0:
192,192,113656,1,8,0:0:0:0:
64,192,113830,1,0,0:0:0:50:DNC_Crash.wav
448,192,113830,1,8,0:0:0:0:
64,192,114179,1,4,0:0:0:0:
320,192,114179,1,8,0:0:0:0:
448,192,114528,1,8,0:0:0:0:
192,192,114877,1,4,0:0:0:0:
320,192,114877,1,8,0:0:0:0:
64,192,115226,1,8,0:0:0:0:
192,192,115575,1,4,0:0:0:0:
448,192,115575,1,8,0:0:0:0:
320,192,115923,1,8,0:0:0:0:
64,192,116272,1,4,0:0:0:0:
192,192,116272,1,8,0:0:0:0:
448,192,116621,1,8,0:0:0:0:
320,192,116970,1,8,0:0:0:0:
64,192,116970,1,4,0:0:0:0:
192,192,117319,1,8,0:0:0:0:
320,192,117668,1,8,0:0:0:0:
448,192,117668,1,4,0:0:0:0:
192,192,118016,1,8,0:0:0:0:
64,192,118365,1,4,0:0:0:0:
320,192,118365,1,8,0:0:0:0:
448,192,118714,1,8,0:0:0:0:
64,192,119063,1,8,0:0:0:0:
192,192,119237,1,8,0:0:0:0:
320,192,119412,1,0,0:0:0:50:DNC_Crash.wav
448,192,119412,1,8,0:0:0:0:
64,192,119586,1,8,0:0:0:0:
448,192,119761,1,8,0:0:0:0:
192,192,119935,1,8,0:0:0:0:
448,192,120109,1,8,0:0:0:0:
192,192,120284,1,8,0:0:0:0:
448,192,120458,1,8,0:0:0:0:
320,192,120633,1,8,0:0:0:0:
448,192,120807,1,0,0:0:0:50:DNC_Crash.wav
64,192,120807,1,0,0:0:0:0:
192,192,120982,1,8,0:0:0:0:
448,192,121156,1,8,0:0:0:0:
192,192,121330,1,8,0:0:0:0:
320,192,121505,1,8,0:0:0:0:
64,192,121679,1,8,0:0:0:0:
448,192,121854,1,8,0:0:0:0:
192,192,122028,1,8,0:0:0:0:
64,192,122203,128,8,123598:0:0:0:0:
320,192,122203,1,0,0:0:0:50:DNC_Crash.wav
448,192,123598,128,8,124993:0:0:0:0:
192,192,123598,1,0,0:0:0:50:DNC_Crash.wav
64,192,124993,1,8,0:0:0:0:
192,192,124993,1,0,0:0:0:50:DNC_Crash.wav
