osu file format v14

[General]
AudioFilename: Memory Of Sunrise.mp3
AudioLeadIn: 0
PreviewTime: 76022
Countdown: 0
SampleSet: Normal
StackLeniency: 0.7
Mode: 1
LetterboxInBreaks: 0
WidescreenStoryboard: 0

[Editor]
Bookmarks: 1356,6189,6689,11355,11689,12022,14689,16022,16689,17355,20022,22689,23022,23689,24355,25022,25689,26355,27022,27689,28355,29022,29689,30355,31022,31689,32355,33022,33355,33689,44022,46689,49355,49689,49772,50189,50689,51189,51689,52022,52355,52689,53022,55189,55689,57855,58355,58522,58689,59272,59522,59689,59855,60022,65355,66689,68022,69355,70689,71355,72022,72689,73355,73689,74022,74355,75939,83022,84022,84689,85355,86689,92022,93355,94689,97355,105689,105772,105855,105939,106022,106105,106189,106272,106355,106439,106522,108022,110689,113355,114689,116189,116439,116689,116939,117189,117355,118689
DistanceSpacing: 1
BeatDivisor: 4
GridSize: 32
TimelineZoom: 2

[Metadata]
Title:Memory Of Sunrise
TitleUnicode:Memory Of Sunrise
Artist:nora2r
ArtistUnicode:nora2r
Creator:_yu68
Version:KomasY's Oni
Source:BMS
Tags:bofu2016 チームのらねこさい team noranekosai komasy edamame411 edamame uk hardcore tjbc
BeatmapID:1229351
BeatmapSetID:579893

[Difficulty]
HPDrainRate:6
CircleSize:5
OverallDifficulty:5
ApproachRate:5
SliderMultiplier:1.4
SliderTickRate:1

[Events]
//Background and Video events
0,0,"BG.jpg",0,0
//Break Periods
//Storyboard Layer 0 (Background)
//Storyboard Layer 1 (Fail)
//Storyboard Layer 2 (Pass)
//Storyboard Layer 3 (Foreground)
//Storyboard Sound Samples

[TimingPoints]
1356,333.333333333333,4,1,0,50,1,0
11980,-100,4,1,0,70,0,0
17272,-100,4,1,0,80,0,0
21272,-100,4,1,0,90,0,0
21439,-100,4,1,0,70,0,0
22605,-100,4,1,0,80,0,0
27605,-100,4,1,0,60,0,0
27939,-100,4,1,0,80,0,0
49272,-100,4,1,0,90,0,0
49605,-100,4,1,0,80,0,0
53272,-100,4,1,0,50,0,0
54272,-100,4,1,0,80,0,0
75980,-100,4,1,0,90,0,0
76022,-100,4,1,0,90,0,1
77939,-100,4,1,0,70,0,1
78605,-100,4,1,0,90,0,1
80605,-100,4,1,0,70,0,1
81272,-100,4,1,0,90,0,1
86605,-100,4,1,0,80,0,1
86689,-100,4,1,0,80,0,0
97272,-100,4,1,0,90,0,0
97355,-100,4,1,0,90,0,1
118689,-100,4,1,0,90,0,0

[HitObjects]
256,192,1356,5,4,0:0:0:0:
288,192,1689,1,8,0:0:0:0:
288,192,2189,1,8,0:0:0:0:
288,160,2689,1,8,0:0:0:0:
320,128,3022,1,8,0:0:0:0:
416,128,3189,1,8,0:0:0:0:
416,256,3522,1,8,0:0:0:0:
320,192,3855,1,8,0:0:0:0:
288,192,4355,1,8,0:0:0:0:
288,192,4855,1,8,0:0:0:0:
256,128,5355,1,8,0:0:0:0:
320,128,5689,1,8,0:0:0:0:
416,256,5855,1,8,0:0:0:0:
256,192,6189,1,0,0:0:0:0:
384,128,6522,1,8,0:0:0:0:
256,192,6689,1,4,0:0:0:0:
288,128,7022,1,8,0:0:0:0:
288,128,7522,1,8,0:0:0:0:
320,192,8022,1,8,0:0:0:0:
352,96,8355,1,8,0:0:0:0:
416,160,8522,1,8,0:0:0:0:
320,192,8855,1,8,0:0:0:0:
256,160,9189,1,8,0:0:0:0:
288,96,9689,1,8,0:0:0:0:
224,32,10189,1,8,0:0:0:0:
288,128,10689,1,8,0:0:0:0:
416,256,11022,1,8,0:0:0:0:
416,256,11189,1,8,0:0:0:0:
416,224,11355,5,0,0:0:0:0:
416,224,11689,1,0,0:0:0:0:
384,192,12022,1,4,0:0:0:0:
256,192,12355,5,8,0:0:0:0:
256,192,12689,1,8,0:0:0:0:
256,192,13022,1,8,0:0:0:0:
256,192,13189,1,0,0:0:0:0:
96,128,13355,1,8,0:0:0:0:
128,128,13689,1,8,0:0:0:0:
288,160,14022,1,8,0:0:0:0:
256,192,14189,1,0,0:0:0:0:
256,192,14355,1,8,0:0:0:0:
256,192,14522,1,0,0:0:0:0:
256,160,14689,1,4,0:0:0:0:
256,192,15022,1,8,0:0:0:0:
256,192,15355,1,8,0:0:0:0:
256,192,15689,1,8,0:0:0:0:
256,192,15855,1,0,0:0:0:0:
256,192,16022,1,4,0:0:0:0:
256,192,16355,1,8,0:0:0:0:
256,192,16522,1,8,0:0:0:0:
256,192,16689,1,4,0:0:0:0:
256,192,16855,1,0,0:0:0:0:
256,192,17022,1,8,0:0:0:0:
256,192,17355,1,4,0:0:0:0:
256,192,17689,1,8,0:0:0:0:
256,192,17855,1,0,0:0:0:0:
256,192,18022,1,8,0:0:0:0:
256,192,18189,1,0,0:0:0:0:
256,192,18355,1,8,0:0:0:0:
256,192,18522,1,8,0:0:0:0:
256,192,18689,1,0,0:0:0:0:
256,192,18855,1,0,0:0:0:0:
256,192,19022,1,8,0:0:0:0:
256,192,19189,1,0,0:0:0:0:
256,192,19272,1,0,0:0:0:0:
256,192,19355,1,8,0:0:0:0:
256,192,19522,1,0,0:0:0:0:
256,192,19689,1,8,0:0:0:0:
256,192,19855,1,8,0:0:0:0:
256,192,20022,1,0,0:0:0:0:
256,192,20189,1,0,0:0:0:0:
256,192,20355,1,8,0:0:0:0:
256,192,20522,1,8,0:0:0:0:
256,192,20689,1,0,0:0:0:0:
256,192,20772,1,0,0:0:0:0:
64,160,20855,1,0,0:0:0:0:
256,192,21022,1,8,0:0:0:0:
256,192,21105,1,8,0:0:0:0:
256,192,21189,1,8,0:0:0:0:
320,160,21355,1,4,0:0:0:0:
320,192,22355,1,8,0:0:0:0:
256,192,22689,1,4,0:0:0:0:
256,192,23022,1,8,0:0:0:0:
256,192,23272,1,0,0:0:0:0:
256,192,23522,1,0,0:0:0:0:
256,192,23689,1,8,0:0:0:0:
256,192,23939,1,0,0:0:0:0:
256,192,24189,1,0,0:0:0:0:
256,192,24355,1,8,0:0:0:0:
256,192,24605,1,0,0:0:0:0:
256,192,24855,1,0,0:0:0:0:
256,192,24939,1,0,0:0:0:0:
256,192,25022,1,8,0:0:0:0:
256,192,25355,1,0,0:0:0:0:
256,192,25689,1,8,0:0:0:0:
256,192,25939,1,0,0:0:0:0:
256,192,26189,1,0,0:0:0:0:
256,192,26355,1,8,0:0:0:0:
256,192,26605,1,0,0:0:0:0:
256,192,26855,1,0,0:0:0:0:
256,192,27022,1,8,0:0:0:0:
256,192,27272,1,0,0:0:0:0:
256,192,27522,1,0,0:0:0:0:
256,192,27689,1,8,0:0:0:0:
256,192,27772,1,8,0:0:0:0:
256,192,27855,1,0,0:0:0:0:
256,192,28022,1,4,0:0:0:0:
256,128,28272,1,0,0:0:0:0:
256,192,28355,1,8,0:0:0:0:
256,192,28605,1,0,0:0:0:0:
320,96,28772,1,8,0:0:0:0:
256,192,28855,1,0,0:0:0:0:
256,192,29022,1,8,0:0:0:0:
256,192,29272,1,0,0:0:0:0:
320,64,29439,1,8,0:0:0:0:
256,192,29522,1,0,0:0:0:0:
256,192,29689,1,8,0:0:0:0:
256,192,29939,1,0,0:0:0:0:
256,192,30105,1,8,0:0:0:0:
256,192,30189,1,0,0:0:0:0:
288,160,30272,1,0,0:0:0:0:
256,192,30355,1,8,0:0:0:0:
256,160,30605,1,8,0:0:0:0:
256,192,30689,1,0,0:0:0:0:
256,128,30939,1,0,0:0:0:0:
256,192,31022,1,8,0:0:0:0:
256,192,31272,1,0,0:0:0:0:
224,96,31439,1,8,0:0:0:0:
256,192,31522,1,0,0:0:0:0:
256,192,31689,1,8,0:0:0:0:
256,192,31855,1,0,0:0:0:0:
256,192,32022,1,0,0:0:0:0:
256,192,32355,1,8,0:0:0:0:
256,192,32605,1,8,0:0:0:0:
256,192,32855,1,8,0:0:0:0:
416,160,33022,1,0,0:0:0:0:
320,192,33355,1,8,0:0:0:0:
256,192,33689,1,4,0:0:0:0:
256,192,33939,1,0,0:0:0:0:
256,192,34022,1,8,0:0:0:0:
256,192,34189,1,0,0:0:0:0:
256,192,34355,1,8,0:0:0:0:
256,192,34689,1,0,0:0:0:0:
256,192,34939,1,0,0:0:0:0:
256,192,35022,1,8,0:0:0:0:
256,192,35189,1,0,0:0:0:0:
256,192,35355,1,8,0:0:0:0:
256,192,35439,1,0,0:0:0:0:
256,192,35689,1,8,0:0:0:0:
256,192,36022,1,0,0:0:0:0:
256,192,36272,1,0,0:0:0:0:
256,192,36355,1,8,0:0:0:0:
256,192,36522,1,0,0:0:0:0:
256,192,36689,1,8,0:0:0:0:
256,192,36772,1,0,0:0:0:0:
256,192,37022,1,8,0:0:0:0:
256,192,37355,1,0,0:0:0:0:
256,192,37605,1,0,0:0:0:0:
256,192,37689,1,8,0:0:0:0:
256,192,37855,1,0,0:0:0:0:
256,192,38022,1,8,0:0:0:0:
320,192,38189,1,0,0:0:0:0:
320,192,38272,1,0,0:0:0:0:
416,224,38355,1,8,0:0:0:0:
256,192,38689,1,4,0:0:0:0:
256,192,38939,1,0,0:0:0:0:
256,192,39022,1,8,0:0:0:0:
256,192,39189,1,0,0:0:0:0:
256,192,39355,1,8,0:0:0:0:
256,192,39439,1,0,0:0:0:0:
256,192,39689,1,8,0:0:0:0:
256,192,39855,1,8,0:0:0:0:
256,192,40022,1,0,0:0:0:0:
256,192,40272,1,0,0:0:0:0:
256,192,40355,1,8,0:0:0:0:
256,192,40522,1,0,0:0:0:0:
352,128,40689,1,8,0:0:0:0:
256,192,40772,1,0,0:0:0:0:
256,192,41022,1,8,0:0:0:0:
256,192,41189,1,0,0:0:0:0:
256,192,41355,1,0,0:0:0:0:
256,192,41605,1,0,0:0:0:0:
256,192,41689,1,8,0:0:0:0:
256,192,41855,1,0,0:0:0:0:
256,192,42022,1,8,0:0:0:0:
256,192,42105,1,0,0:0:0:0:
256,192,42189,1,0,0:0:0:0:
256,192,42355,1,8,0:0:0:0:
256,192,42522,1,8,0:0:0:0:
256,192,42689,12,0,43522,0:0:0:0:
384,192,43689,5,12,0:0:0:0:
256,192,44022,5,4,0:0:0:0:
256,192,44272,1,0,0:0:0:0:
256,192,44355,1,8,0:0:0:0:
256,192,44522,1,0,0:0:0:0:
256,192,44689,1,8,0:0:0:0:
256,192,44855,1,0,0:0:0:0:
256,192,45022,1,8,0:0:0:0:
288,96,45189,1,8,0:0:0:0:
256,192,45355,1,0,0:0:0:0:
256,192,45605,1,0,0:0:0:0:
256,192,45689,1,8,0:0:0:0:
256,192,45855,1,0,0:0:0:0:
256,192,46022,1,8,0:0:0:0:
256,192,46189,1,0,0:0:0:0:
256,192,46272,1,0,0:0:0:0:
256,192,46355,1,8,0:0:0:0:
256,192,46522,1,8,0:0:0:0:
256,192,46689,5,4,0:0:0:0:
256,192,46939,1,0,0:0:0:0:
256,192,47022,1,8,0:0:0:0:
256,192,47189,1,0,0:0:0:0:
256,192,47356,1,8,0:0:0:0:
256,192,47522,1,0,0:0:0:0:
256,192,47689,1,8,0:0:0:0:
256,128,47855,1,8,0:0:0:0:
256,192,48022,1,0,0:0:0:0:
256,192,48272,1,0,0:0:0:0:
256,192,48356,1,8,0:0:0:0:
256,192,48522,1,0,0:0:0:0:
256,192,48689,1,8,0:0:0:0:
256,192,48856,1,0,0:0:0:0:
256,192,48939,1,0,0:0:0:0:
256,192,49022,1,0,0:0:0:0:
256,192,49189,1,0,0:0:0:0:
256,192,49356,1,8,0:0:0:0:
256,192,49689,1,8,0:0:0:0:
256,192,49855,1,0,0:0:0:0:
256,192,50022,1,0,0:0:0:0:
256,192,50189,1,8,0:0:0:0:
256,192,50355,1,0,0:0:0:0:
256,192,50522,1,0,0:0:0:0:
256,192,50689,1,8,0:0:0:0:
256,192,50855,1,0,0:0:0:0:
256,192,50939,1,0,0:0:0:0:
256,192,51022,1,0,0:0:0:0:
256,192,51189,1,8,0:0:0:0:
256,192,51355,1,0,0:0:0:0:
256,192,51439,1,0,0:0:0:0:
256,192,51522,1,0,0:0:0:0:
256,192,51689,1,8,0:0:0:0:
256,192,51855,1,0,0:0:0:0:
256,192,52022,1,8,0:0:0:0:
256,192,52189,1,0,0:0:0:0:
160,128,52272,1,0,0:0:0:0:
256,192,52355,1,8,0:0:0:0:
256,192,52522,1,0,0:0:0:0:
256,192,52689,1,8,0:0:0:0:
256,192,52772,1,8,0:0:0:0:
256,192,52855,1,0,0:0:0:0:
256,192,53022,1,8,0:0:0:0:
256,192,53189,1,0,0:0:0:0:
352,192,53272,1,0,0:0:0:0:
256,192,53355,12,0,54189,0:0:0:0:
224,160,54355,5,12,0:0:0:0:
256,192,54689,5,4,0:0:0:0:
352,96,55189,1,8,0:0:0:0:
352,96,55689,1,0,0:0:0:0:
256,192,57355,1,4,0:0:0:0:
352,96,57855,1,8,0:0:0:0:
352,96,58355,1,8,0:0:0:0:
352,96,58522,1,0,0:0:0:0:
352,128,59355,1,0,0:0:0:0:
384,96,59522,1,0,0:0:0:0:
352,128,59689,1,8,0:0:0:0:
352,160,59855,1,8,0:0:0:0:
256,192,60022,1,4,0:0:0:0:
256,192,60522,1,8,0:0:0:0:
256,192,61022,1,0,0:0:0:0:
256,192,62689,1,12,0:0:0:0:
256,192,63189,1,0,0:0:0:0:
256,192,63689,1,0,0:0:0:0:
256,192,64522,1,0,0:0:0:0:
256,192,65022,1,8,0:0:0:0:
256,192,65355,1,4,0:0:0:0:
352,160,65689,1,0,0:0:0:0:
352,160,65855,1,0,0:0:0:0:
320,128,66022,1,8,0:0:0:0:
256,192,66355,1,8,0:0:0:0:
352,160,66689,1,4,0:0:0:0:
352,160,67022,1,0,0:0:0:0:
384,128,67189,1,8,0:0:0:0:
352,128,67355,1,8,0:0:0:0:
256,192,67689,1,8,0:0:0:0:
352,160,68022,1,4,0:0:0:0:
352,160,68355,1,0,0:0:0:0:
352,160,68522,1,0,0:0:0:0:
384,128,68689,1,8,0:0:0:0:
320,96,68855,1,0,0:0:0:0:
256,192,69022,1,8,0:0:0:0:
352,160,69355,1,4,0:0:0:0:
256,192,69689,1,0,0:0:0:0:
256,192,69855,1,8,0:0:0:0:
352,128,70022,1,8,0:0:0:0:
256,192,70189,1,0,0:0:0:0:
256,192,70355,1,8,0:0:0:0:
256,192,70689,1,4,0:0:0:0:
384,128,71022,1,0,0:0:0:0:
256,192,71189,1,8,0:0:0:0:
384,128,71355,1,4,0:0:0:0:
256,192,71689,1,0,0:0:0:0:
256,192,71855,1,8,0:0:0:0:
256,192,72022,1,4,0:0:0:0:
256,192,72355,1,0,0:0:0:0:
288,64,72522,1,8,0:0:0:0:
256,192,72689,1,4,0:0:0:0:
256,96,72855,1,8,0:0:0:0:
352,128,72939,1,8,0:0:0:0:
256,192,73022,1,0,0:0:0:0:
256,192,73189,1,8,0:0:0:0:
256,192,73355,1,0,0:0:0:0:
256,192,73522,1,0,0:0:0:0:
256,192,73689,1,8,0:0:0:0:
256,192,73855,1,8,0:0:0:0:
256,192,74022,1,0,0:0:0:0:
256,192,74105,1,0,0:0:0:0:
256,192,74189,1,0,0:0:0:0:
128,128,74355,1,8,0:0:0:0:
256,192,74439,1,8,0:0:0:0:
256,192,74522,1,8,0:0:0:0:
256,192,74689,1,0,0:0:0:0:
384,192,75022,1,12,0:0:0:0:
288,224,75355,2,0,L|320:192,6,35
256,192,76022,1,0,0:0:0:0:
256,192,76355,1,0,0:0:0:0:
256,192,76522,1,8,0:0:0:0:
256,192,76689,1,0,0:0:0:0:
256,192,76772,1,0,0:0:0:0:
256,192,76855,1,8,0:0:0:0:
256,192,77022,1,0,0:0:0:0:
256,192,77189,1,8,0:0:0:0:
256,192,77272,1,8,0:0:0:0:
256,192,77355,1,0,0:0:0:0:
256,192,77522,1,0,0:0:0:0:
256,192,77689,1,8,0:0:0:0:
256,192,78022,1,0,0:0:0:0:
256,192,78189,1,8,0:0:0:0:
256,192,78355,1,8,0:0:0:0:
256,192,78522,1,0,0:0:0:0:
256,192,78689,1,0,0:0:0:0:
256,192,79022,1,0,0:0:0:0:
256,192,79189,1,8,0:0:0:0:
256,192,79355,1,0,0:0:0:0:
256,192,79439,1,0,0:0:0:0:
256,192,79522,1,8,0:0:0:0:
256,192,79689,1,0,0:0:0:0:
256,192,79855,1,8,0:0:0:0:
256,192,79939,1,8,0:0:0:0:
256,192,80022,1,0,0:0:0:0:
128,224,80189,1,8,0:0:0:0:
192,128,80355,1,8,0:0:0:0:
256,192,80689,1,8,0:0:0:0:
256,192,80855,1,0,0:0:0:0:
256,192,81022,1,8,0:0:0:0:
256,192,81189,1,8,0:0:0:0:
256,192,81355,1,0,0:0:0:0:
256,192,81689,1,0,0:0:0:0:
256,192,81855,1,8,0:0:0:0:
256,192,82022,1,0,0:0:0:0:
256,192,82105,1,0,0:0:0:0:
256,192,82189,1,8,0:0:0:0:
256,192,82355,1,0,0:0:0:0:
256,192,82522,1,8,0:0:0:0:
352,192,82689,1,0,0:0:0:0:
256,192,82855,1,8,0:0:0:0:
256,192,82939,1,8,0:0:0:0:
256,192,83022,1,0,0:0:0:0:
256,192,83189,1,8,0:0:0:0:
256,192,83355,1,0,0:0:0:0:
256,192,83439,1,0,0:0:0:0:
320,128,83522,1,8,0:0:0:0:
256,128,83689,1,0,0:0:0:0:
256,192,83855,1,8,0:0:0:0:
256,192,84022,1,0,0:0:0:0:
256,192,84189,1,8,0:0:0:0:
256,192,84522,1,8,0:0:0:0:
256,192,84689,1,0,0:0:0:0:
256,192,84855,1,8,0:0:0:0:
224,160,85189,1,8,0:0:0:0:
320,128,85272,1,8,0:0:0:0:
224,160,85355,1,0,0:0:0:0:
256,160,85522,1,8,0:0:0:0:
256,128,85855,1,8,0:0:0:0:
256,128,86189,1,8,0:0:0:0:
256,128,86355,1,8,0:0:0:0:
256,128,86522,1,8,0:0:0:0:
256,192,86689,1,4,0:0:0:0:
256,192,87022,1,0,0:0:0:0:
256,192,87355,1,0,0:0:0:0:
256,192,87689,1,0,0:0:0:0:
256,192,88022,1,0,0:0:0:0:
256,192,88244,1,0,0:0:0:0:
256,192,88355,1,0,0:0:0:0:
256,192,88689,1,0,0:0:0:0:
256,192,89022,1,0,0:0:0:0:
256,192,89133,1,0,0:0:0:0:
256,192,89244,1,0,0:0:0:0:
256,192,89355,1,8,0:0:0:0:
256,192,89689,1,8,0:0:0:0:
256,192,90022,1,8,0:0:0:0:
256,192,90355,1,8,0:0:0:0:
256,192,90689,1,8,0:0:0:0:
256,192,90800,1,8,0:0:0:0:
256,192,90911,1,8,0:0:0:0:
256,192,91022,1,8,0:0:0:0:
256,192,91244,1,8,0:0:0:0:
256,128,91355,1,0,0:0:0:0:
256,192,91689,1,0,0:0:0:0:
256,192,91800,1,0,0:0:0:0:
256,192,91911,1,0,0:0:0:0:
256,192,92022,1,8,0:0:0:0:
256,192,92355,1,0,0:0:0:0:
256,192,92467,1,0,0:0:0:0:
256,192,92578,1,0,0:0:0:0:
256,192,92689,1,0,0:0:0:0:
256,192,92911,1,0,0:0:0:0:
256,192,93133,1,0,0:0:0:0:
256,192,93244,1,0,0:0:0:0:
256,192,93355,1,8,0:0:0:0:
256,192,93578,1,0,0:0:0:0:
256,192,93800,1,0,0:0:0:0:
256,192,93911,1,0,0:0:0:0:
256,192,94022,1,0,0:0:0:0:
256,192,94244,1,0,0:0:0:0:
256,192,94355,1,0,0:0:0:0:
256,192,94467,1,0,0:0:0:0:
256,192,94578,1,0,0:0:0:0:
256,192,94689,1,8,0:0:0:0:
256,192,96022,5,12,0:0:0:0:
256,192,96522,1,0,0:0:0:0:
256,192,96855,1,0,0:0:0:0:
256,192,97022,1,12,0:0:0:0:
256,192,97355,1,4,0:0:0:0:
256,192,97689,1,8,0:0:0:0:
256,192,97855,1,0,0:0:0:0:
256,192,98022,1,0,0:0:0:0:
256,192,98105,1,0,0:0:0:0:
256,192,98189,1,8,0:0:0:0:
256,192,98355,1,0,0:0:0:0:
256,192,98522,1,8,0:0:0:0:
256,192,98855,1,8,0:0:0:0:
256,192,98939,1,8,0:0:0:0:
256,192,99022,1,0,0:0:0:0:
256,192,99189,1,8,0:0:0:0:
256,192,99355,1,0,0:0:0:0:
256,192,99439,1,8,0:0:0:0:
256,192,99522,1,8,0:0:0:0:
256,192,99689,1,0,0:0:0:0:
256,192,99855,1,8,0:0:0:0:
256,192,100022,1,0,0:0:0:0:
256,192,100355,1,8,0:0:0:0:
256,192,100521,1,0,0:0:0:0:
256,192,100688,1,0,0:0:0:0:
256,192,100771,1,0,0:0:0:0:
256,192,100855,1,8,0:0:0:0:
256,192,101021,1,0,0:0:0:0:
256,192,101188,1,8,0:0:0:0:
256,192,101355,1,0,0:0:0:0:
320,160,101439,1,0,0:0:0:0:
256,192,101521,1,8,0:0:0:0:
256,192,101605,1,8,0:0:0:0:
256,192,101688,1,0,0:0:0:0:
256,192,101855,1,8,0:0:0:0:
256,192,102021,1,0,0:0:0:0:
256,192,102188,1,8,0:0:0:0:
256,192,102355,1,8,0:0:0:0:
256,192,102521,1,0,0:0:0:0:
256,192,102605,1,8,0:0:0:0:
288,96,102689,1,8,0:0:0:0:
256,192,103022,1,8,0:0:0:0:
256,192,103188,1,0,0:0:0:0:
256,192,103355,1,0,0:0:0:0:
256,192,103438,1,0,0:0:0:0:
256,192,103522,1,8,0:0:0:0:
256,192,103688,1,0,0:0:0:0:
256,192,103855,1,8,0:0:0:0:
256,192,104022,1,0,0:0:0:0:
256,192,104188,1,8,0:0:0:0:
256,192,104522,1,8,0:0:0:0:
352,224,104605,1,0,0:0:0:0:
256,192,104688,1,0,0:0:0:0:
256,192,104855,1,8,0:0:0:0:
256,192,105022,1,0,0:0:0:0:
256,192,105188,1,8,0:0:0:0:
288,96,105355,1,0,0:0:0:0:
288,128,105522,1,8,0:0:0:0:
256,192,105689,1,0,0:0:0:0:
352,160,105772,1,8,0:0:0:0:
256,192,105855,1,8,0:0:0:0:
256,192,106022,1,0,0:0:0:0:
256,192,106105,1,0,0:0:0:0:
320,96,106189,1,8,0:0:0:0:
256,192,106272,1,8,0:0:0:0:
192,160,106355,1,0,0:0:0:0:
256,192,106522,1,8,0:0:0:0:
256,192,106689,1,0,0:0:0:0:
256,192,106855,1,8,0:0:0:0:
256,192,106939,1,8,0:0:0:0:
256,192,107022,1,0,0:0:0:0:
256,192,107189,1,8,0:0:0:0:
256,192,107355,1,0,0:0:0:0:
256,192,107439,1,8,0:0:0:0:
256,192,107522,1,8,0:0:0:0:
256,192,107689,1,0,0:0:0:0:
256,192,107855,1,8,0:0:0:0:
256,192,108022,1,4,0:0:0:0:
256,192,108272,5,8,0:0:0:0:
256,192,108355,1,0,0:0:0:0:
256,192,108522,1,8,0:0:0:0:
256,192,108689,1,0,0:0:0:0:
288,96,108772,1,0,0:0:0:0:
256,192,108855,1,8,0:0:0:0:
256,192,108939,1,8,0:0:0:0:
256,192,109022,1,0,0:0:0:0:
256,192,109189,1,8,0:0:0:0:
256,192,109355,1,0,0:0:0:0:
288,96,109522,1,8,0:0:0:0:
288,96,109689,1,0,0:0:0:0:
256,192,109855,1,8,0:0:0:0:
256,192,110022,1,8,0:0:0:0:
256,192,110106,1,8,0:0:0:0:
256,192,110189,1,0,0:0:0:0:
256,192,110273,1,0,0:0:0:0:
256,192,110355,1,8,0:0:0:0:
256,192,110522,1,8,0:0:0:0:
256,192,110689,1,4,0:0:0:0:
256,192,110939,1,8,0:0:0:0:
256,192,111022,1,0,0:0:0:0:
256,192,111189,1,8,0:0:0:0:
256,192,111355,1,0,0:0:0:0:
352,128,111439,1,0,0:0:0:0:
256,192,111522,1,8,0:0:0:0:
256,192,111605,1,8,0:0:0:0:
256,192,111689,1,0,0:0:0:0:
256,192,111855,1,8,0:0:0:0:
256,192,112022,1,8,0:0:0:0:
320,96,112105,1,8,0:0:0:0:
352,96,112189,1,0,0:0:0:0:
352,96,112355,1,0,0:0:0:0:
256,192,112522,1,8,0:0:0:0:
256,192,112689,1,8,0:0:0:0:
256,192,112772,1,8,0:0:0:0:
256,192,112855,1,0,0:0:0:0:
256,192,112939,1,0,0:0:0:0:
256,192,113022,1,8,0:0:0:0:
256,192,113189,1,8,0:0:0:0:
256,192,113355,1,4,0:0:0:0:
256,192,113605,1,8,0:0:0:0:
256,192,113689,1,0,0:0:0:0:
256,192,113855,1,8,0:0:0:0:
256,192,114022,1,0,0:0:0:0:
352,160,114105,1,0,0:0:0:0:
256,192,114189,1,8,0:0:0:0:
288,96,114272,1,8,0:0:0:0:
256,192,114355,1,0,0:0:0:0:
256,192,114522,1,8,0:0:0:0:
256,192,114689,1,4,0:0:0:0:
256,192,114855,1,8,0:0:0:0:
256,192,115022,1,0,0:0:0:0:
288,96,115105,1,0,0:0:0:0:
256,192,115189,1,8,0:0:0:0:
256,192,115272,1,0,0:0:0:0:
256,192,115355,1,0,0:0:0:0:
256,192,115522,1,8,0:0:0:0:
256,192,115689,1,0,0:0:0:0:
256,192,115772,1,0,0:0:0:0:
256,192,115855,1,8,0:0:0:0:
256,192,116189,1,4,0:0:0:0:
256,192,116439,1,4,0:0:0:0:
256,192,116689,1,12,0:0:0:0:
256,192,116939,1,12,0:0:0:0:
256,192,117189,1,12,0:0:0:0:
256,192,117355,1,0,0:0:0:0:
256,192,117522,1,8,0:0:0:0:
256,192,117689,1,0,0:0:0:0:
256,192,117772,1,0,0:0:0:0:
256,192,117855,1,8,0:0:0:0:
256,192,118022,1,0,0:0:0:0:
256,192,118105,1,8,0:0:0:0:
256,192,118189,1,8,0:0:0:0:
256,192,118355,1,8,0:0:0:0:
256,192,118522,1,8,0:0:0:0:
256,192,118689,1,4,0:0:0:0:
