osu file format v14

[General]
AudioFilename: Memory Of Sunrise.mp3
AudioLeadIn: 0
PreviewTime: 76022
Countdown: 0
SampleSet: Normal
StackLeniency: 0.7
Mode: 1
LetterboxInBreaks: 0
WidescreenStoryboard: 0

[Editor]
DistanceSpacing: 1
BeatDivisor: 4
GridSize: 32
TimelineZoom: 1.2

[Metadata]
Title:Memory Of Sunrise
TitleUnicode:Memory Of Sunrise
Artist:nora2r
ArtistUnicode:nora2r
Creator:_yu68
Version:EM's Muzukashii
Source:BMS
Tags:bofu2016 チームのらねこさい team noranekosai komasy edamame411 edamame uk hardcore tjbc
BeatmapID:1229840
BeatmapSetID:579893

[Difficulty]
HPDrainRate:6
CircleSize:5
OverallDifficulty:4.5
ApproachRate:5
SliderMultiplier:1.4
SliderTickRate:1

[Events]
//Background and Video events
0,0,"BG.jpg",0,0
//Break Periods
//Storyboard Layer 0 (Background)
//Storyboard Layer 1 (Fail)
//Storyboard Layer 2 (Pass)
//Storyboard Layer 3 (Foreground)
//Storyboard Sound Samples

[TimingPoints]
1356,333.333333333333,4,1,0,60,1,0
22522,-100,4,1,0,80,0,0
49272,-100,4,1,0,90,0,0
49605,-100,4,1,0,80,0,0
53272,-100,4,1,0,50,0,0
54272,-100,4,1,0,80,0,0
75980,-100,4,1,0,90,0,0
76022,-100,4,1,0,90,0,1
77939,-100,4,1,0,70,0,1
78605,-100,4,1,0,90,0,1
80605,-100,4,1,0,70,0,1
81272,-100,4,1,0,90,0,1
86689,-100,4,1,0,80,0,0
97272,-100,4,1,0,90,0,0
97355,-100,4,1,0,90,0,1
118689,-100,4,1,0,90,0,0

[HitObjects]
256,192,1356,5,4,0:0:0:0:
288,160,2689,1,8,0:0:0:0:
416,128,3189,1,8,0:0:0:0:
256,160,4022,1,8,0:0:0:0:
256,128,5355,1,8,0:0:0:0:
416,256,5855,1,8,0:0:0:0:
256,192,6189,1,0,0:0:0:0:
256,192,6689,1,4,0:0:0:0:
320,192,8022,1,8,0:0:0:0:
320,192,8522,1,8,0:0:0:0:
320,192,8855,1,8,0:0:0:0:
320,192,9355,1,8,0:0:0:0:
288,128,10689,1,8,0:0:0:0:
416,224,11355,5,0,0:0:0:0:
416,224,11689,1,0,0:0:0:0:
384,192,12022,1,4,0:0:0:0:
256,192,12355,5,8,0:0:0:0:
256,192,12689,1,8,0:0:0:0:
256,192,13022,1,8,0:0:0:0:
256,192,13355,1,8,0:0:0:0:
128,128,13689,1,8,0:0:0:0:
256,192,14022,1,8,0:0:0:0:
256,192,14355,1,8,0:0:0:0:
256,160,14689,1,4,0:0:0:0:
256,192,15022,1,8,0:0:0:0:
256,192,15355,1,8,0:0:0:0:
256,192,15689,1,8,0:0:0:0:
256,192,16022,1,4,0:0:0:0:
256,192,16355,1,8,0:0:0:0:
256,192,16689,1,4,0:0:0:0:
256,192,17355,1,4,0:0:0:0:
256,192,17689,1,8,0:0:0:0:
256,192,18022,1,0,0:0:0:0:
256,192,18189,1,0,0:0:0:0:
256,192,18355,1,8,0:0:0:0:
256,192,18689,1,0,0:0:0:0:
256,192,18855,1,0,0:0:0:0:
256,192,19022,1,8,0:0:0:0:
256,192,19189,1,8,0:0:0:0:
256,192,19355,1,0,0:0:0:0:
256,192,19689,1,8,0:0:0:0:
256,192,20022,1,0,0:0:0:0:
256,192,20189,1,0,0:0:0:0:
256,192,20355,1,8,0:0:0:0:
256,192,20522,1,8,0:0:0:0:
256,192,20689,1,0,0:0:0:0:
64,160,20855,1,8,0:0:0:0:
256,192,21022,1,8,0:0:0:0:
320,160,21189,1,8,0:0:0:0:
320,160,21355,1,0,0:0:0:0:
320,192,22355,1,8,0:0:0:0:
256,192,22689,1,4,0:0:0:0:
256,160,23022,1,8,0:0:0:0:
256,160,23272,1,0,0:0:0:0:
256,192,23689,1,8,0:0:0:0:
288,192,23939,1,0,0:0:0:0:
256,192,24355,1,8,0:0:0:0:
261,206,24605,1,0,0:0:0:0:
256,192,24855,1,0,0:0:0:0:
256,192,25022,1,8,0:0:0:0:
256,192,25355,1,0,0:0:0:0:
256,192,25689,1,8,0:0:0:0:
288,192,25939,1,0,0:0:0:0:
256,192,26355,1,8,0:0:0:0:
288,192,26605,1,0,0:0:0:0:
256,192,27022,1,8,0:0:0:0:
288,160,27272,1,0,0:0:0:0:
256,192,27522,1,0,0:0:0:0:
256,192,27689,1,0,0:0:0:0:
256,192,28022,1,4,0:0:0:0:
256,160,28355,1,8,0:0:0:0:
256,192,28605,1,0,0:0:0:0:
256,192,28855,1,0,0:0:0:0:
256,192,29022,1,8,0:0:0:0:
256,160,29272,1,0,0:0:0:0:
256,192,29522,1,0,0:0:0:0:
256,192,29689,1,8,0:0:0:0:
256,192,29939,1,0,0:0:0:0:
256,192,30189,1,0,0:0:0:0:
256,160,30355,1,8,0:0:0:0:
256,192,30689,1,0,0:0:0:0:
256,192,31022,1,8,0:0:0:0:
256,192,31272,1,0,0:0:0:0:
256,192,31522,5,0,0:0:0:0:
256,192,31689,1,8,0:0:0:0:
224,128,31855,1,0,0:0:0:0:
256,192,32022,1,0,0:0:0:0:
256,192,32355,1,8,0:0:0:0:
288,160,32605,1,8,0:0:0:0:
288,160,32855,1,8,0:0:0:0:
416,160,33022,1,0,0:0:0:0:
320,192,33355,1,12,0:0:0:0:
256,192,33689,1,4,0:0:0:0:
256,192,34022,1,8,0:0:0:0:
256,192,34189,1,0,0:0:0:0:
256,192,34355,1,8,0:0:0:0:
256,192,34689,1,8,0:0:0:0:
256,192,35022,1,8,0:0:0:0:
256,192,35189,1,0,0:0:0:0:
256,192,35522,1,0,0:0:0:0:
256,192,35689,1,8,0:0:0:0:
256,192,36022,1,0,0:0:0:0:
256,192,36355,1,8,0:0:0:0:
256,192,36689,1,0,0:0:0:0:
256,192,36855,1,0,0:0:0:0:
320,192,37022,1,8,0:0:0:0:
256,192,37355,1,0,0:0:0:0:
256,192,37689,1,8,0:0:0:0:
256,192,37855,1,0,0:0:0:0:
416,224,38355,1,12,0:0:0:0:
256,192,38689,1,4,0:0:0:0:
256,192,39022,1,8,0:0:0:0:
256,192,39355,1,0,0:0:0:0:
256,192,39522,1,0,0:0:0:0:
256,192,39689,1,8,0:0:0:0:
256,192,40022,1,0,0:0:0:0:
256,192,40355,1,8,0:0:0:0:
256,192,40521,1,8,0:0:0:0:
256,192,40855,1,0,0:0:0:0:
256,192,41021,1,8,0:0:0:0:
224,192,41355,1,0,0:0:0:0:
224,192,41689,1,8,0:0:0:0:
256,192,41855,1,8,0:0:0:0:
256,192,42022,1,0,0:0:0:0:
256,192,42189,1,0,0:0:0:0:
256,192,42355,1,8,0:0:0:0:
256,192,42689,12,0,43355,0:0:0:0:
384,192,43689,5,12,0:0:0:0:
256,192,44022,5,4,0:0:0:0:
256,192,44355,1,8,0:0:0:0:
256,192,44689,1,8,0:0:0:0:
256,192,44855,1,0,0:0:0:0:
256,192,45022,1,8,0:0:0:0:
288,96,45189,1,8,0:0:0:0:
256,128,45355,1,0,0:0:0:0:
256,192,45689,1,8,0:0:0:0:
256,192,45855,1,0,0:0:0:0:
256,192,46189,1,0,0:0:0:0:
256,192,46355,1,8,0:0:0:0:
256,192,46522,1,8,0:0:0:0:
256,192,46689,1,0,0:0:0:0:
256,192,47022,1,8,0:0:0:0:
224,160,47355,1,0,0:0:0:0:
224,160,47522,1,8,0:0:0:0:
256,192,47689,1,8,0:0:0:0:
256,192,47855,1,0,0:0:0:0:
256,192,48022,1,8,0:0:0:0:
256,192,48356,1,8,0:0:0:0:
256,192,48522,1,8,0:0:0:0:
224,160,48855,1,0,0:0:0:0:
256,160,49022,1,8,0:0:0:0:
256,160,49189,1,8,0:0:0:0:
256,192,49689,1,12,0:0:0:0:
256,192,50022,1,0,0:0:0:0:
256,192,50189,1,8,0:0:0:0:
256,192,50355,1,0,0:0:0:0:
256,192,50689,1,8,0:0:0:0:
256,192,50855,1,0,0:0:0:0:
256,192,51022,1,0,0:0:0:0:
256,192,51189,1,8,0:0:0:0:
256,192,51355,1,0,0:0:0:0:
256,192,51689,1,8,0:0:0:0:
256,192,52022,1,0,0:0:0:0:
256,192,52189,1,0,0:0:0:0:
256,192,52355,1,8,0:0:0:0:
256,192,52522,1,0,0:0:0:0:
256,192,52689,1,0,0:0:0:0:
256,192,52772,1,0,0:0:0:0:
256,192,52855,1,0,0:0:0:0:
256,192,53022,1,0,0:0:0:0:
256,192,53189,1,8,0:0:0:0:
256,192,53355,12,0,54022,0:0:0:0:
224,160,54355,5,12,0:0:0:0:
256,192,54689,5,4,0:0:0:0:
256,192,55189,1,8,0:0:0:0:
256,192,55689,1,0,0:0:0:0:
256,192,57355,1,4,0:0:0:0:
256,160,57855,1,8,0:0:0:0:
256,160,58355,1,8,0:0:0:0:
256,160,58522,1,0,0:0:0:0:
256,160,59355,1,8,0:0:0:0:
256,160,59689,1,0,0:0:0:0:
256,192,60022,1,4,0:0:0:0:
256,192,60522,1,8,0:0:0:0:
256,192,61022,1,0,0:0:0:0:
256,192,62689,1,12,0:0:0:0:
256,192,63189,1,0,0:0:0:0:
256,192,63689,1,0,0:0:0:0:
256,192,64522,1,0,0:0:0:0:
256,192,65022,1,8,0:0:0:0:
256,192,65355,1,4,0:0:0:0:
352,160,65689,1,0,0:0:0:0:
320,128,66022,1,8,0:0:0:0:
256,192,66355,1,8,0:0:0:0:
352,160,66689,1,4,0:0:0:0:
352,160,67022,1,0,0:0:0:0:
352,128,67355,1,8,0:0:0:0:
256,192,67689,1,8,0:0:0:0:
352,160,68022,1,4,0:0:0:0:
352,160,68355,1,0,0:0:0:0:
384,128,68522,1,8,0:0:0:0:
256,160,68689,1,0,0:0:0:0:
256,192,69022,1,8,0:0:0:0:
352,160,69355,1,4,0:0:0:0:
256,192,69689,1,0,0:0:0:0:
256,192,69855,1,8,0:0:0:0:
352,128,70022,1,0,0:0:0:0:
256,192,70355,1,8,0:0:0:0:
256,192,70689,1,4,0:0:0:0:
384,128,71022,1,8,0:0:0:0:
384,128,71355,1,4,0:0:0:0:
256,192,71689,1,8,0:0:0:0:
256,192,72022,1,4,0:0:0:0:
256,192,72355,1,8,0:0:0:0:
256,192,72689,1,4,0:0:0:0:
256,192,73022,1,8,0:0:0:0:
256,192,73355,1,0,0:0:0:0:
256,192,73522,1,0,0:0:0:0:
256,192,73689,1,8,0:0:0:0:
256,192,73855,1,8,0:0:0:0:
256,192,74022,1,0,0:0:0:0:
208,160,74189,1,8,0:0:0:0:
128,128,74355,1,8,0:0:0:0:
336,184,74522,1,8,0:0:0:0:
236,212,74689,1,0,0:0:0:0:
384,192,75022,1,12,0:0:0:0:
112,156,75355,2,0,L|144:124,6,35
304,168,76022,1,0,0:0:0:0:
256,192,76355,1,8,0:0:0:0:
256,192,76522,1,0,0:0:0:0:
256,192,76689,1,0,0:0:0:0:
224,192,76772,1,0,0:0:0:0:
256,192,76855,1,0,0:0:0:0:
256,192,77022,1,8,0:0:0:0:
256,192,77189,1,0,0:0:0:0:
256,192,77522,1,0,0:0:0:0:
256,192,77689,1,8,0:0:0:0:
256,192,78022,1,8,0:0:0:0:
256,192,78189,1,0,0:0:0:0:
256,192,78355,1,0,0:0:0:0:
256,192,78689,1,0,0:0:0:0:
256,192,79022,1,8,0:0:0:0:
256,192,79189,1,0,0:0:0:0:
256,192,79355,1,8,0:0:0:0:
256,192,79522,1,8,0:0:0:0:
224,192,79605,1,8,0:0:0:0:
256,192,79689,1,8,0:0:0:0:
256,192,79855,1,0,0:0:0:0:
128,224,80189,1,0,0:0:0:0:
192,128,80355,1,8,0:0:0:0:
256,192,80689,1,8,0:0:0:0:
256,192,80855,1,0,0:0:0:0:
256,192,81022,1,8,0:0:0:0:
256,192,81355,1,8,0:0:0:0:
256,192,81689,1,8,0:0:0:0:
256,192,81855,1,0,0:0:0:0:
256,192,82022,1,0,0:0:0:0:
256,192,82105,1,0,0:0:0:0:
256,160,82189,1,0,0:0:0:0:
256,192,82355,1,8,0:0:0:0:
256,192,82522,1,0,0:0:0:0:
256,192,82855,1,0,0:0:0:0:
256,192,83022,1,8,0:0:0:0:
256,192,83189,1,8,0:0:0:0:
256,192,83355,1,0,0:0:0:0:
256,192,83522,1,8,0:0:0:0:
256,192,83855,1,0,0:0:0:0:
256,192,84189,1,8,0:0:0:0:
256,192,84522,1,8,0:0:0:0:
256,192,84689,1,0,0:0:0:0:
256,192,84855,1,0,0:0:0:0:
256,192,85189,1,8,0:0:0:0:
256,160,85522,1,0,0:0:0:0:
256,128,85855,1,8,0:0:0:0:
272,183,86355,1,8,0:0:0:0:
256,192,86689,1,4,0:0:0:0:
256,192,87022,1,0,0:0:0:0:
256,192,87355,1,0,0:0:0:0:
256,192,87689,1,0,0:0:0:0:
256,192,88022,1,0,0:0:0:0:
256,192,88244,1,0,0:0:0:0:
256,192,88355,1,0,0:0:0:0:
256,192,88689,1,0,0:0:0:0:
256,192,89022,1,0,0:0:0:0:
256,192,89355,1,8,0:0:0:0:
256,192,89689,1,8,0:0:0:0:
256,192,90022,1,8,0:0:0:0:
256,192,90355,1,8,0:0:0:0:
256,192,90689,1,8,0:0:0:0:
256,192,90800,1,8,0:0:0:0:
256,192,90911,1,8,0:0:0:0:
256,192,91022,1,8,0:0:0:0:
256,192,91244,1,8,0:0:0:0:
256,128,91355,1,0,0:0:0:0:
256,192,92022,1,12,0:0:0:0:
256,192,92355,1,0,0:0:0:0:
256,160,92467,1,0,0:0:0:0:
256,192,92578,1,0,0:0:0:0:
256,192,92689,1,0,0:0:0:0:
256,192,92911,1,0,0:0:0:0:
256,192,93133,1,0,0:0:0:0:
256,192,93355,1,8,0:0:0:0:
256,192,93578,1,0,0:0:0:0:
256,192,93800,1,0,0:0:0:0:
256,192,94022,1,8,0:0:0:0:
256,192,94244,1,0,0:0:0:0:
256,192,94467,1,0,0:0:0:0:
256,192,94689,1,8,0:0:0:0:
256,192,96022,5,12,0:0:0:0:
256,192,96522,1,0,0:0:0:0:
256,192,97022,1,12,0:0:0:0:
256,192,97355,1,4,0:0:0:0:
256,192,97689,1,8,0:0:0:0:
256,192,97855,1,0,0:0:0:0:
256,192,98022,1,0,0:0:0:0:
256,192,98189,1,8,0:0:0:0:
256,192,98272,1,8,0:0:0:0:
256,192,98355,1,8,0:0:0:0:
256,192,98522,1,8,0:0:0:0:
256,192,98689,1,0,0:0:0:0:
256,192,99022,1,8,0:0:0:0:
256,192,99189,1,8,0:0:0:0:
256,192,99355,1,0,0:0:0:0:
256,192,99522,1,0,0:0:0:0:
256,192,99689,1,8,0:0:0:0:
256,192,100022,1,0,0:0:0:0:
256,192,100355,1,0,0:0:0:0:
256,192,100522,1,0,0:0:0:0:
256,192,100688,1,8,0:0:0:0:
256,192,100855,1,8,0:0:0:0:
256,160,100939,1,8,0:0:0:0:
256,192,101021,1,8,0:0:0:0:
256,160,101189,1,0,0:0:0:0:
256,160,101355,1,0,0:0:0:0:
256,160,101689,1,8,0:0:0:0:
224,128,101855,1,8,0:0:0:0:
256,192,102022,1,0,0:0:0:0:
224,128,102355,1,0,0:0:0:0:
288,96,102689,1,12,0:0:0:0:
256,192,103022,1,8,0:0:0:0:
256,192,103188,1,0,0:0:0:0:
256,192,103355,1,0,0:0:0:0:
256,192,103522,1,8,0:0:0:0:
256,192,103605,1,8,0:0:0:0:
256,192,103689,1,8,0:0:0:0:
256,192,103855,1,8,0:0:0:0:
256,192,104022,1,0,0:0:0:0:
256,192,104355,1,0,0:0:0:0:
210,165,104522,1,8,0:0:0:0:
256,192,104689,1,0,0:0:0:0:
256,192,104855,1,0,0:0:0:0:
256,192,105022,1,8,0:0:0:0:
256,192,105189,1,8,0:0:0:0:
288,128,105522,1,8,0:0:0:0:
256,192,105689,1,0,0:0:0:0:
256,192,105855,1,8,0:0:0:0:
256,192,106022,1,0,0:0:0:0:
256,192,106105,1,0,0:0:0:0:
320,96,106189,1,0,0:0:0:0:
352,96,106355,1,0,0:0:0:0:
256,192,106522,1,8,0:0:0:0:
256,192,106855,1,0,0:0:0:0:
256,192,107022,1,8,0:0:0:0:
256,192,107189,1,0,0:0:0:0:
256,192,107355,1,8,0:0:0:0:
256,192,107439,1,8,0:0:0:0:
256,192,107522,1,8,0:0:0:0:
256,192,107689,1,0,0:0:0:0:
256,192,108022,1,4,0:0:0:0:
256,192,108355,1,8,0:0:0:0:
256,192,108522,1,0,0:0:0:0:
256,192,108689,1,0,0:0:0:0:
256,192,108855,1,8,0:0:0:0:
256,192,108939,1,8,0:0:0:0:
256,192,109022,1,8,0:0:0:0:
256,192,109189,1,8,0:0:0:0:
256,192,109355,1,0,0:0:0:0:
288,96,109689,1,0,0:0:0:0:
256,192,109855,1,8,0:0:0:0:
256,192,110022,1,0,0:0:0:0:
256,192,110189,1,0,0:0:0:0:
256,192,110355,1,8,0:0:0:0:
256,192,110689,1,4,0:0:0:0:
256,192,111022,1,0,0:0:0:0:
256,192,111189,1,8,0:0:0:0:
256,192,111355,1,0,0:0:0:0:
256,192,111522,1,8,0:0:0:0:
256,192,111605,1,8,0:0:0:0:
256,192,111689,1,8,0:0:0:0:
256,192,111855,1,8,0:0:0:0:
256,192,112022,1,0,0:0:0:0:
352,96,112355,1,0,0:0:0:0:
256,192,112522,1,8,0:0:0:0:
256,192,112689,1,0,0:0:0:0:
256,192,112855,1,0,0:0:0:0:
256,192,113022,1,8,0:0:0:0:
256,160,113355,1,12,0:0:0:0:
256,192,113689,1,0,0:0:0:0:
256,192,113855,1,8,0:0:0:0:
256,192,114022,1,0,0:0:0:0:
256,160,114189,1,8,0:0:0:0:
256,160,114272,1,8,0:0:0:0:
256,192,114355,1,8,0:0:0:0:
256,192,114522,1,8,0:0:0:0:
256,192,114689,1,4,0:0:0:0:
256,192,115022,1,0,0:0:0:0:
256,192,115189,1,8,0:0:0:0:
256,192,115355,1,0,0:0:0:0:
288,96,115439,1,0,0:0:0:0:
256,192,115522,1,0,0:0:0:0:
256,192,115689,1,0,0:0:0:0:
256,192,115855,1,8,0:0:0:0:
256,192,116189,1,12,0:0:0:0:
256,192,116439,1,12,0:0:0:0:
256,192,116689,1,12,0:0:0:0:
256,192,116939,1,12,0:0:0:0:
256,192,117189,1,12,0:0:0:0:
256,192,117522,1,8,0:0:0:0:
256,192,117855,1,0,0:0:0:0:
256,192,118022,1,8,0:0:0:0:
256,192,118105,1,8,0:0:0:0:
256,192,118189,1,8,0:0:0:0:
256,192,118355,1,0,0:0:0:0:
256,192,118522,1,8,0:0:0:0:
256,192,118689,1,4,0:0:0:0:
