osu file format v14

[General]
AudioFilename: Memory Of Sunrise.mp3
AudioLeadIn: 0
PreviewTime: 76022
Countdown: 0
SampleSet: Normal
StackLeniency: 0.7
Mode: 1
LetterboxInBreaks: 0
WidescreenStoryboard: 0

[Editor]
Bookmarks: 12022,22689,33355,44022,54689,76022,86689,97355,108022
DistanceSpacing: 1
BeatDivisor: 1
GridSize: 32
TimelineZoom: 0.6999997

[Metadata]
Title:Memory Of Sunrise
TitleUnicode:Memory Of Sunrise
Artist:nora2r
ArtistUnicode:nora2r
Creator:_yu68
Version:Kantan
Source:BMS
Tags:bofu2016 チームのらねこさい team noranekosai komasy edamame411 edamame uk hardcore tjbc
BeatmapID:1228677
BeatmapSetID:579893

[Difficulty]
HPDrainRate:8
CircleSize:5
OverallDifficulty:3
ApproachRate:5
SliderMultiplier:1.4
SliderTickRate:1

[Events]
//Background and Video events
0,0,"BG.jpg",0,0
//Break Periods
//Storyboard Layer 0 (Background)
//Storyboard Layer 1 (Fail)
//Storyboard Layer 2 (Pass)
//Storyboard Layer 3 (Foreground)
//Storyboard Sound Samples

[TimingPoints]
1356,333.333333333333,4,1,0,60,1,0
11980,-100,4,1,0,70,0,0
17272,-100,4,1,0,80,0,0
75980,-100,4,1,0,90,0,0
76022,-100,4,1,0,90,0,1
77939,-100,4,1,0,70,0,1
78605,-100,4,1,0,90,0,1
80605,-100,4,1,0,70,0,1
81272,-100,4,1,0,90,0,1
86605,-100,4,1,0,80,0,1
86689,-100,4,1,0,80,0,0
97272,-100,4,1,0,90,0,0
97355,-100,4,1,0,90,0,1
118689,-100,4,1,0,90,0,0

[HitObjects]
256,192,1356,5,4,0:0:0:0:
256,192,4022,1,0,0:0:0:0:
256,192,6689,1,4,0:0:0:0:
256,192,9355,1,0,0:0:0:0:
256,192,11355,1,0,0:0:0:0:
256,192,12022,5,4,0:0:0:0:
256,192,13355,1,8,0:0:0:0:
256,192,14022,1,8,0:0:0:0:
256,192,14689,1,4,0:0:0:0:
256,192,16022,1,4,0:0:0:0:
256,192,16689,1,12,0:0:0:0:
256,192,17355,1,4,0:0:0:0:
256,192,18022,1,0,0:0:0:0:
256,192,18689,1,8,0:0:0:0:
256,192,19355,1,8,0:0:0:0:
256,192,20022,1,0,0:0:0:0:
256,192,20355,1,0,0:0:0:0:
256,192,20689,1,0,0:0:0:0:
256,192,21022,1,0,0:0:0:0:
256,192,21355,1,0,0:0:0:0:
256,192,22689,5,4,0:0:0:0:
256,192,23022,1,8,0:0:0:0:
256,192,23689,1,8,0:0:0:0:
256,192,24355,1,8,0:0:0:0:
256,192,25022,1,8,0:0:0:0:
256,192,25355,1,0,0:0:0:0:
256,192,25689,1,8,0:0:0:0:
256,192,26355,1,8,0:0:0:0:
256,192,27022,1,8,0:0:0:0:
256,192,28022,1,4,0:0:0:0:
256,192,28355,1,8,0:0:0:0:
256,192,29022,1,8,0:0:0:0:
256,192,29689,1,8,0:0:0:0:
256,192,30355,1,8,0:0:0:0:
256,192,30689,1,0,0:0:0:0:
256,192,31022,1,8,0:0:0:0:
256,192,31689,1,8,0:0:0:0:
256,192,32022,1,0,0:0:0:0:
256,192,32354,1,8,0:0:0:0:
256,192,33355,5,8,0:0:0:0:
256,192,33689,1,4,0:0:0:0:
256,192,34355,1,8,0:0:0:0:
256,192,34689,1,0,0:0:0:0:
256,192,36022,1,0,0:0:0:0:
256,192,36355,1,8,0:0:0:0:
256,192,36689,1,8,0:0:0:0:
256,192,37355,1,0,0:0:0:0:
256,192,38022,1,8,0:0:0:0:
256,192,38689,1,0,0:0:0:0:
256,192,39022,1,8,0:0:0:0:
256,192,39355,1,0,0:0:0:0:
256,192,40022,1,0,0:0:0:0:
256,192,40689,1,8,0:0:0:0:
256,192,41355,1,0,0:0:0:0:
256,192,41689,1,8,0:0:0:0:
256,192,42022,1,8,0:0:0:0:
256,192,42689,1,8,0:0:0:0:
256,192,44022,5,4,0:0:0:0:
256,192,44689,1,0,0:0:0:0:
256,192,45021,1,8,0:0:0:0:
256,192,45355,1,0,0:0:0:0:
256,192,46021,1,8,0:0:0:0:
256,192,46689,1,4,0:0:0:0:
256,192,47355,1,0,0:0:0:0:
256,192,47688,1,8,0:0:0:0:
256,192,48022,1,0,0:0:0:0:
256,192,48689,1,8,0:0:0:0:
256,192,49022,1,0,0:0:0:0:
256,192,49688,1,12,0:0:0:0:
256,192,50689,1,8,0:0:0:0:
256,192,51355,1,8,0:0:0:0:
256,192,52022,1,0,0:0:0:0:
256,192,52355,1,0,0:0:0:0:
256,192,52689,1,0,0:0:0:0:
256,192,53022,1,0,0:0:0:0:
256,192,53355,1,8,0:0:0:0:
256,192,54689,5,4,0:0:0:0:
256,192,57355,1,4,0:0:0:0:
256,192,60022,1,4,0:0:0:0:
256,192,62689,1,12,0:0:0:0:
256,192,65355,1,4,0:0:0:0:
256,192,66689,1,4,0:0:0:0:
256,192,68022,1,4,0:0:0:0:
256,192,69355,1,4,0:0:0:0:
256,192,70689,1,4,0:0:0:0:
256,192,71355,1,4,0:0:0:0:
256,192,72022,1,4,0:0:0:0:
256,192,72689,1,4,0:0:0:0:
256,192,73355,1,8,0:0:0:0:
256,192,73689,1,8,0:0:0:0:
256,192,74022,1,8,0:0:0:0:
256,192,74355,1,8,0:0:0:0:
256,192,74689,1,0,0:0:0:0:
256,192,76022,5,4,0:0:0:0:
256,192,76689,1,8,0:0:0:0:
256,192,77355,1,0,0:0:0:0:
256,192,77689,1,8,0:0:0:0:
256,192,78689,1,4,0:0:0:0:
256,192,79355,1,8,0:0:0:0:
256,192,80022,1,8,0:0:0:0:
256,192,80355,1,0,0:0:0:0:
256,192,81355,1,12,0:0:0:0:
256,192,82022,1,0,0:0:0:0:
256,192,82689,1,0,0:0:0:0:
256,192,83022,1,8,0:0:0:0:
256,192,83355,1,8,0:0:0:0:
256,192,84022,1,4,0:0:0:0:
256,192,84689,1,4,0:0:0:0:
256,192,85354,1,4,0:0:0:0:
256,192,86021,1,8,0:0:0:0:
256,192,86355,1,8,0:0:0:0:
256,192,86689,5,0,0:0:0:0:
256,192,88022,1,0,0:0:0:0:
256,192,88689,1,0,0:0:0:0:
256,192,89355,1,8,0:0:0:0:
256,192,90689,1,8,0:0:0:0:
256,192,91355,1,8,0:0:0:0:
256,192,92022,1,12,0:0:0:0:
256,192,93355,1,12,0:0:0:0:
256,192,94022,1,0,0:0:0:0:
256,192,94689,12,0,95689,0:0:0:0:
256,192,96022,5,12,0:0:0:0:
256,192,97355,5,4,0:0:0:0:
256,192,98022,1,0,0:0:0:0:
256,192,98355,1,8,0:0:0:0:
256,192,98689,1,0,0:0:0:0:
256,192,99355,1,8,0:0:0:0:
256,192,100022,1,0,0:0:0:0:
256,192,100689,1,0,0:0:0:0:
256,192,101022,1,8,0:0:0:0:
256,192,101355,1,8,0:0:0:0:
256,192,102689,1,8,0:0:0:0:
256,192,103355,1,0,0:0:0:0:
256,192,103689,1,8,0:0:0:0:
256,192,104022,1,0,0:0:0:0:
256,192,104689,1,0,0:0:0:0:
256,192,105355,1,0,0:0:0:0:
256,192,105689,1,0,0:0:0:0:
256,192,106022,1,8,0:0:0:0:
256,192,106355,1,8,0:0:0:0:
256,192,106689,1,0,0:0:0:0:
256,192,107355,1,8,0:0:0:0:
256,192,108022,5,4,0:0:0:0:
256,192,108689,1,0,0:0:0:0:
256,192,109022,1,8,0:0:0:0:
256,192,109355,1,0,0:0:0:0:
256,192,110022,1,8,0:0:0:0:
256,192,110689,1,4,0:0:0:0:
256,192,111355,1,0,0:0:0:0:
256,192,111689,1,8,0:0:0:0:
256,192,112022,1,8,0:0:0:0:
256,192,113355,1,12,0:0:0:0:
256,192,114022,1,0,0:0:0:0:
256,192,114355,1,8,0:0:0:0:
256,192,114689,1,12,0:0:0:0:
256,192,115355,1,0,0:0:0:0:
256,192,115689,1,8,0:0:0:0:
256,192,116022,1,0,0:0:0:0:
256,192,116689,1,0,0:0:0:0:
256,192,117355,1,0,0:0:0:0:
256,192,117689,1,0,0:0:0:0:
256,192,118022,1,8,0:0:0:0:
256,192,118355,1,8,0:0:0:0:
256,192,118689,5,4,0:0:0:0:
