osu file format v14

[General]
AudioFilename: Memory Of Sunrise.mp3
AudioLeadIn: 0
PreviewTime: 76022
Countdown: 0
SampleSet: Normal
StackLeniency: 0.7
Mode: 1
LetterboxInBreaks: 0
WidescreenStoryboard: 0

[Editor]
DistanceSpacing: 1
BeatDivisor: 4
GridSize: 32
TimelineZoom: 2

[Metadata]
Title:Memory Of Sunrise
TitleUnicode:Memory Of Sunrise
Artist:nora2r
ArtistUnicode:nora2r
Creator:_yu68
Version:Inner Oni
Source:BMS
Tags:bofu2016 チームのらねこさい team noranekosai komasy edamame411 edamame uk hardcore tjbc
BeatmapID:1227759
BeatmapSetID:579893

[Difficulty]
HPDrainRate:6
CircleSize:5
OverallDifficulty:6
ApproachRate:5
SliderMultiplier:1.4
SliderTickRate:1

[Events]
//Background and Video events
0,0,"BG.jpg",0,0
//Break Periods
//Storyboard Layer 0 (Background)
//Storyboard Layer 1 (Fail)
//Storyboard Layer 2 (Pass)
//Storyboard Layer 3 (Foreground)
//Storyboard Sound Samples

[TimingPoints]
1356,333.333333333333,4,1,0,60,1,0
11980,-100,4,1,0,70,0,0
17272,-100,4,1,0,80,0,0
75980,-100,4,1,0,90,0,0
76022,-100,4,1,0,90,0,1
77939,-111.111111111111,4,1,0,70,0,1
78605,-100,4,1,0,90,0,1
80605,-111.111111111111,4,1,0,70,0,1
81272,-100,4,1,0,90,0,1
86605,-100,4,1,0,80,0,1
86689,-100,4,1,0,80,0,0
97272,-100,4,1,0,90,0,0
97355,-100,4,1,0,90,0,1
118689,-100,4,1,0,90,0,0

[HitObjects]
256,192,1356,5,4,0:0:0:0:
256,192,1689,1,8,0:0:0:0:
256,192,2189,1,8,0:0:0:0:
256,192,2689,1,8,0:0:0:0:
256,192,2855,1,8,0:0:0:0:
256,192,3022,1,8,0:0:0:0:
256,192,3189,1,8,0:0:0:0:
256,192,3522,1,8,0:0:0:0:
256,192,3855,1,8,0:0:0:0:
256,192,4355,1,8,0:0:0:0:
256,192,4855,1,8,0:0:0:0:
256,192,5355,1,0,0:0:0:0:
256,192,5522,1,8,0:0:0:0:
256,192,5689,1,8,0:0:0:0:
256,192,5855,1,8,0:0:0:0:
256,192,6189,1,4,0:0:0:0:
256,192,6522,1,8,0:0:0:0:
256,192,6689,1,4,0:0:0:0:
256,192,7022,1,8,0:0:0:0:
256,192,7522,1,8,0:0:0:0:
256,192,8022,1,0,0:0:0:0:
256,192,8189,1,8,0:0:0:0:
256,192,8355,1,8,0:0:0:0:
256,192,8522,1,0,0:0:0:0:
256,192,8855,1,8,0:0:0:0:
256,192,9189,1,8,0:0:0:0:
256,192,9355,1,0,0:0:0:0:
256,192,9689,1,8,0:0:0:0:
256,192,10022,1,8,0:0:0:0:
256,192,10189,1,8,0:0:0:0:
256,192,10522,1,0,0:0:0:0:
256,192,10689,1,8,0:0:0:0:
256,192,10855,1,8,0:0:0:0:
256,192,11022,1,0,0:0:0:0:
256,192,11189,1,8,0:0:0:0:
256,192,11355,1,0,0:0:0:0:
256,192,11522,1,8,0:0:0:0:
256,192,11605,1,8,0:0:0:0:
256,192,11689,1,0,0:0:0:0:
256,192,11772,1,8,0:0:0:0:
256,192,11855,1,8,0:0:0:0:
256,192,11939,1,8,0:0:0:0:
256,192,12022,1,0,0:0:0:0:
256,192,12355,1,8,0:0:0:0:
256,192,12689,1,8,0:0:0:0:
256,192,12855,1,0,0:0:0:0:
256,192,13022,1,8,0:0:0:0:
256,192,13355,1,0,0:0:0:0:
256,192,13522,1,8,0:0:0:0:
256,192,13689,1,8,0:0:0:0:
256,192,13855,1,0,0:0:0:0:
256,192,14189,1,8,0:0:0:0:
256,192,14272,1,8,0:0:0:0:
256,192,14355,1,0,0:0:0:0:
256,192,14522,1,8,0:0:0:0:
256,192,14689,1,0,0:0:0:0:
256,192,15022,1,8,0:0:0:0:
256,192,15355,1,8,0:0:0:0:
256,192,15522,1,0,0:0:0:0:
256,192,15689,1,8,0:0:0:0:
256,192,15855,1,8,0:0:0:0:
256,192,15939,1,8,0:0:0:0:
256,192,16022,1,0,0:0:0:0:
256,192,16189,1,0,0:0:0:0:
256,192,16355,1,8,0:0:0:0:
256,192,16522,1,0,0:0:0:0:
256,192,16605,1,8,0:0:0:0:
256,192,16689,1,0,0:0:0:0:
256,192,16939,1,0,0:0:0:0:
256,192,17022,1,8,0:0:0:0:
256,192,17189,1,8,0:0:0:0:
256,192,17355,1,0,0:0:0:0:
256,192,17522,1,0,0:0:0:0:
256,192,17689,1,8,0:0:0:0:
256,192,17855,1,0,0:0:0:0:
256,192,18022,1,8,0:0:0:0:
256,192,18189,1,0,0:0:0:0:
256,192,18355,1,8,0:0:0:0:
256,192,18522,1,8,0:0:0:0:
256,192,18689,1,0,0:0:0:0:
256,192,18855,1,0,0:0:0:0:
256,192,19022,1,8,0:0:0:0:
256,192,19189,1,0,0:0:0:0:
256,192,19272,1,0,0:0:0:0:
256,192,19355,1,8,0:0:0:0:
256,192,19522,1,0,0:0:0:0:
256,192,19689,1,8,0:0:0:0:
256,192,19855,1,8,0:0:0:0:
256,192,20022,1,0,0:0:0:0:
256,192,20105,1,0,0:0:0:0:
256,192,20189,1,0,0:0:0:0:
256,192,20272,1,0,0:0:0:0:
256,192,20355,1,8,0:0:0:0:
256,192,20439,1,8,0:0:0:0:
256,192,20522,1,8,0:0:0:0:
256,192,20605,1,8,0:0:0:0:
256,192,20689,1,0,0:0:0:0:
256,192,20772,1,0,0:0:0:0:
256,192,20855,1,8,0:0:0:0:
256,192,20939,1,8,0:0:0:0:
256,192,21022,1,0,0:0:0:0:
256,192,21105,1,8,0:0:0:0:
256,192,21189,1,8,0:0:0:0:
256,192,21272,1,8,0:0:0:0:
256,192,21355,1,0,0:0:0:0:
256,192,22689,1,4,0:0:0:0:
256,192,23022,1,8,0:0:0:0:
256,192,23272,1,0,0:0:0:0:
256,192,23439,1,8,0:0:0:0:
256,192,23522,1,0,0:0:0:0:
256,192,23689,1,8,0:0:0:0:
256,192,23939,1,0,0:0:0:0:
256,192,24105,1,8,0:0:0:0:
256,192,24189,1,0,0:0:0:0:
256,192,24355,1,8,0:0:0:0:
256,192,24605,1,0,0:0:0:0:
256,192,24772,1,8,0:0:0:0:
256,192,24855,1,0,0:0:0:0:
256,192,24939,1,0,0:0:0:0:
256,192,25022,1,8,0:0:0:0:
256,192,25189,1,8,0:0:0:0:
256,192,25272,1,8,0:0:0:0:
256,192,25355,1,0,0:0:0:0:
256,192,25689,1,8,0:0:0:0:
256,192,25939,1,0,0:0:0:0:
256,192,26105,1,8,0:0:0:0:
256,192,26189,1,0,0:0:0:0:
256,192,26355,1,8,0:0:0:0:
256,192,26439,1,8,0:0:0:0:
256,192,26605,1,0,0:0:0:0:
256,192,26772,1,8,0:0:0:0:
256,192,26855,1,0,0:0:0:0:
256,192,27022,1,8,0:0:0:0:
256,192,27272,1,0,0:0:0:0:
256,192,27439,1,8,0:0:0:0:
256,192,27522,1,0,0:0:0:0:
256,192,27689,1,0,0:0:0:0:
256,192,27772,1,0,0:0:0:0:
256,192,27855,1,0,0:0:0:0:
256,192,28022,1,4,0:0:0:0:
256,192,28355,1,8,0:0:0:0:
256,192,28605,1,0,0:0:0:0:
256,192,28772,1,8,0:0:0:0:
256,192,28855,1,0,0:0:0:0:
256,192,29022,1,8,0:0:0:0:
256,192,29272,1,0,0:0:0:0:
256,192,29439,1,8,0:0:0:0:
256,192,29522,1,0,0:0:0:0:
256,192,29689,1,8,0:0:0:0:
256,192,29939,1,0,0:0:0:0:
256,192,30105,1,8,0:0:0:0:
256,192,30189,1,0,0:0:0:0:
256,192,30272,1,0,0:0:0:0:
256,192,30355,1,8,0:0:0:0:
256,192,30522,1,8,0:0:0:0:
256,192,30605,1,8,0:0:0:0:
256,192,30689,1,0,0:0:0:0:
256,192,30939,1,0,0:0:0:0:
256,192,31022,1,8,0:0:0:0:
256,192,31272,1,0,0:0:0:0:
256,192,31439,1,8,0:0:0:0:
256,192,31522,1,0,0:0:0:0:
256,192,31689,1,8,0:0:0:0:
256,192,31855,1,0,0:0:0:0:
256,192,31939,1,8,0:0:0:0:
256,192,32022,1,0,0:0:0:0:
256,192,32105,1,8,0:0:0:0:
256,192,32272,1,8,0:0:0:0:
256,192,32355,1,0,0:0:0:0:
256,192,32605,1,0,0:0:0:0:
256,192,32855,1,0,0:0:0:0:
256,192,33022,1,8,0:0:0:0:
256,192,33105,1,0,0:0:0:0:
256,192,33355,1,8,0:0:0:0:
256,192,33689,1,4,0:0:0:0:
256,192,33939,1,0,0:0:0:0:
256,192,34022,1,8,0:0:0:0:
256,192,34189,1,0,0:0:0:0:
256,192,34355,1,8,0:0:0:0:
256,192,34522,1,8,0:0:0:0:
256,192,34689,1,0,0:0:0:0:
256,192,34939,1,0,0:0:0:0:
256,192,35022,1,8,0:0:0:0:
256,192,35189,1,0,0:0:0:0:
256,192,35355,1,8,0:0:0:0:
256,192,35439,1,0,0:0:0:0:
256,192,35689,1,8,0:0:0:0:
256,192,35855,1,8,0:0:0:0:
256,192,35939,1,8,0:0:0:0:
256,192,36022,1,0,0:0:0:0:
256,192,36272,1,0,0:0:0:0:
256,192,36355,1,8,0:0:0:0:
256,192,36522,1,0,0:0:0:0:
256,192,36689,1,8,0:0:0:0:
256,192,36772,1,0,0:0:0:0:
256,192,36939,1,8,0:0:0:0:
256,192,37022,1,8,0:0:0:0:
256,192,37189,1,0,0:0:0:0:
256,192,37272,1,8,0:0:0:0:
256,192,37355,1,0,0:0:0:0:
256,192,37605,1,0,0:0:0:0:
256,192,37689,1,8,0:0:0:0:
256,192,37855,1,0,0:0:0:0:
256,192,38022,1,8,0:0:0:0:
256,192,38189,1,8,0:0:0:0:
256,192,38272,1,0,0:0:0:0:
256,192,38355,1,8,0:0:0:0:
256,192,38439,1,8,0:0:0:0:
256,192,38522,1,8,0:0:0:0:
256,192,38605,1,8,0:0:0:0:
256,192,38689,1,0,0:0:0:0:
256,192,38939,1,0,0:0:0:0:
256,192,39022,1,8,0:0:0:0:
256,192,39189,1,0,0:0:0:0:
256,192,39355,1,8,0:0:0:0:
256,192,39439,1,0,0:0:0:0:
256,192,39689,1,8,0:0:0:0:
256,192,39855,1,8,0:0:0:0:
256,192,39939,1,8,0:0:0:0:
256,192,40022,1,0,0:0:0:0:
256,192,40189,1,8,0:0:0:0:
256,192,40272,1,0,0:0:0:0:
256,192,40355,1,8,0:0:0:0:
256,192,40522,1,0,0:0:0:0:
256,192,40605,1,8,0:0:0:0:
256,192,40772,1,0,0:0:0:0:
256,192,40855,1,0,0:0:0:0:
256,192,41022,1,8,0:0:0:0:
256,192,41189,1,8,0:0:0:0:
256,192,41355,1,0,0:0:0:0:
256,192,41605,1,0,0:0:0:0:
256,192,41689,1,8,0:0:0:0:
256,192,41855,1,0,0:0:0:0:
256,192,42022,1,8,0:0:0:0:
256,192,42105,1,0,0:0:0:0:
256,192,42272,1,0,0:0:0:0:
256,192,42355,1,8,0:0:0:0:
256,192,42522,1,0,0:0:0:0:
256,192,42689,1,8,0:0:0:0:
256,192,42772,1,8,0:0:0:0:
256,192,42855,1,8,0:0:0:0:
256,192,42939,1,8,0:0:0:0:
256,192,43022,1,8,0:0:0:0:
256,192,43133,1,8,0:0:0:0:
256,192,43244,1,8,0:0:0:0:
256,192,43355,1,8,0:0:0:0:
256,192,43411,1,8,0:0:0:0:
256,192,43467,1,8,0:0:0:0:
256,192,43522,1,8,0:0:0:0:
256,192,43578,1,8,0:0:0:0:
256,192,43633,1,8,0:0:0:0:
256,192,43689,1,0,0:0:0:0:
256,192,44022,1,4,0:0:0:0:
256,192,44272,1,0,0:0:0:0:
256,192,44355,1,8,0:0:0:0:
256,192,44522,1,0,0:0:0:0:
256,192,44689,1,8,0:0:0:0:
256,192,44772,1,8,0:0:0:0:
256,192,44855,1,0,0:0:0:0:
256,192,45022,1,8,0:0:0:0:
256,192,45189,1,0,0:0:0:0:
256,192,45272,1,8,0:0:0:0:
256,192,45355,1,0,0:0:0:0:
256,192,45522,1,0,0:0:0:0:
256,192,45689,1,8,0:0:0:0:
256,192,45772,1,8,0:0:0:0:
256,192,45855,1,0,0:0:0:0:
256,192,46022,1,8,0:0:0:0:
256,192,46189,1,0,0:0:0:0:
256,192,46272,1,0,0:0:0:0:
256,192,46355,1,8,0:0:0:0:
256,192,46522,1,8,0:0:0:0:
256,192,46689,1,4,0:0:0:0:
256,192,46939,1,0,0:0:0:0:
256,192,47022,1,8,0:0:0:0:
256,192,47189,1,0,0:0:0:0:
256,192,47355,1,8,0:0:0:0:
256,192,47439,1,8,0:0:0:0:
256,192,47522,1,0,0:0:0:0:
256,192,47689,1,8,0:0:0:0:
256,192,47855,1,0,0:0:0:0:
256,192,47939,1,8,0:0:0:0:
256,192,48022,1,0,0:0:0:0:
256,192,48189,1,0,0:0:0:0:
256,192,48355,1,8,0:0:0:0:
256,192,48522,1,0,0:0:0:0:
256,192,48605,1,8,0:0:0:0:
256,192,48772,1,8,0:0:0:0:
256,192,48855,1,0,0:0:0:0:
256,192,48939,1,0,0:0:0:0:
256,192,49022,1,8,0:0:0:0:
256,192,49189,1,8,0:0:0:0:
256,192,49689,1,12,0:0:0:0:
256,192,49855,1,0,0:0:0:0:
256,192,49939,1,0,0:0:0:0:
256,192,50022,1,0,0:0:0:0:
256,192,50189,1,8,0:0:0:0:
256,192,50355,1,0,0:0:0:0:
256,192,50439,1,0,0:0:0:0:
256,192,50522,1,0,0:0:0:0:
256,192,50689,1,8,0:0:0:0:
256,192,50855,1,0,0:0:0:0:
256,192,50939,1,8,0:0:0:0:
256,192,51022,1,0,0:0:0:0:
256,192,51105,1,0,0:0:0:0:
256,192,51189,1,8,0:0:0:0:
256,192,51355,1,0,0:0:0:0:
256,192,51439,1,0,0:0:0:0:
256,192,51522,1,0,0:0:0:0:
256,192,51689,1,8,0:0:0:0:
256,192,51855,1,0,0:0:0:0:
256,192,51939,1,0,0:0:0:0:
256,192,52022,1,8,0:0:0:0:
256,192,52189,1,0,0:0:0:0:
256,192,52355,1,8,0:0:0:0:
256,192,52522,1,0,0:0:0:0:
256,192,52689,1,8,0:0:0:0:
256,192,52772,1,0,0:0:0:0:
256,192,52855,1,0,0:0:0:0:
256,192,52939,1,0,0:0:0:0:
256,192,53022,1,8,0:0:0:0:
256,192,53105,1,0,0:0:0:0:
256,192,53189,1,0,0:0:0:0:
256,192,53272,1,0,0:0:0:0:
256,192,53355,1,8,0:0:0:0:
256,192,53439,1,8,0:0:0:0:
256,192,53522,1,8,0:0:0:0:
256,192,53605,1,8,0:0:0:0:
256,192,53689,1,8,0:0:0:0:
256,192,53800,1,8,0:0:0:0:
256,192,53911,1,8,0:0:0:0:
256,192,54022,1,8,0:0:0:0:
256,192,54078,1,8,0:0:0:0:
256,192,54133,1,8,0:0:0:0:
256,192,54189,1,8,0:0:0:0:
256,192,54244,1,8,0:0:0:0:
256,192,54300,1,8,0:0:0:0:
256,192,54355,1,0,0:0:0:0:
256,192,54689,1,4,0:0:0:0:
256,192,55189,1,12,0:0:0:0:
256,192,55689,1,4,0:0:0:0:
256,192,57355,1,4,0:0:0:0:
256,192,57855,1,12,0:0:0:0:
256,192,58355,1,4,0:0:0:0:
256,192,58522,1,4,0:0:0:0:
256,192,59355,1,8,0:0:0:0:
256,192,59522,1,0,0:0:0:0:
256,192,59689,1,8,0:0:0:0:
256,192,59855,1,8,0:0:0:0:
256,192,60022,1,4,0:0:0:0:
256,192,60522,1,4,0:0:0:0:
256,192,61022,1,12,0:0:0:0:
256,192,62689,1,12,0:0:0:0:
256,192,63189,1,4,0:0:0:0:
256,192,63689,1,4,0:0:0:0:
256,192,64522,1,4,0:0:0:0:
256,192,65022,1,12,0:0:0:0:
256,192,65355,1,4,0:0:0:0:
256,192,65689,1,0,0:0:0:0:
256,192,65855,1,8,0:0:0:0:
256,192,66022,1,0,0:0:0:0:
256,192,66355,1,8,0:0:0:0:
256,192,66689,1,4,0:0:0:0:
256,192,67022,1,0,0:0:0:0:
256,192,67189,1,8,0:0:0:0:
256,192,67355,1,0,0:0:0:0:
256,192,67689,1,8,0:0:0:0:
256,192,68022,1,4,0:0:0:0:
256,192,68355,1,0,0:0:0:0:
256,192,68522,1,8,0:0:0:0:
256,192,68689,1,0,0:0:0:0:
256,192,69022,1,8,0:0:0:0:
256,192,69189,1,8,0:0:0:0:
256,192,69355,1,4,0:0:0:0:
256,192,69689,1,0,0:0:0:0:
256,192,69855,1,8,0:0:0:0:
256,192,70022,1,0,0:0:0:0:
256,192,70189,1,0,0:0:0:0:
256,192,70272,1,0,0:0:0:0:
256,192,70355,1,8,0:0:0:0:
256,192,70522,1,8,0:0:0:0:
256,192,70689,1,4,0:0:0:0:
256,192,70939,1,8,0:0:0:0:
256,192,71022,1,0,0:0:0:0:
256,192,71189,1,8,0:0:0:0:
256,192,71355,1,4,0:0:0:0:
256,192,71522,1,8,0:0:0:0:
256,192,71605,1,8,0:0:0:0:
256,192,71689,1,0,0:0:0:0:
256,192,71855,1,8,0:0:0:0:
256,192,72022,1,0,0:0:0:0:
256,192,72189,1,8,0:0:0:0:
256,192,72272,1,0,0:0:0:0:
256,192,72355,1,0,0:0:0:0:
256,192,72522,1,8,0:0:0:0:
256,192,72605,1,8,0:0:0:0:
256,192,72689,1,0,0:0:0:0:
256,192,72855,1,8,0:0:0:0:
256,192,72939,1,0,0:0:0:0:
256,192,73022,1,0,0:0:0:0:
256,192,73189,1,8,0:0:0:0:
256,192,73272,1,8,0:0:0:0:
256,192,73355,1,0,0:0:0:0:
256,192,73439,1,8,0:0:0:0:
256,192,73522,1,0,0:0:0:0:
256,192,73605,1,8,0:0:0:0:
256,192,73689,1,0,0:0:0:0:
256,192,73772,1,0,0:0:0:0:
256,192,73855,1,8,0:0:0:0:
256,192,73939,1,8,0:0:0:0:
256,192,74022,1,0,0:0:0:0:
256,192,74105,1,0,0:0:0:0:
256,192,74189,1,0,0:0:0:0:
256,192,74272,1,0,0:0:0:0:
256,192,74355,1,8,0:0:0:0:
256,192,74439,1,8,0:0:0:0:
256,192,74522,1,8,0:0:0:0:
256,192,74605,1,8,0:0:0:0:
256,192,74689,1,0,0:0:0:0:
256,192,74772,1,0,0:0:0:0:
256,192,74939,1,0,0:0:0:0:
256,192,75022,1,8,0:0:0:0:
256,192,75355,1,8,0:0:0:0:
256,192,75439,1,8,0:0:0:0:
256,192,75522,1,8,0:0:0:0:
256,192,75605,1,8,0:0:0:0:
256,192,75689,1,8,0:0:0:0:
256,192,75772,1,8,0:0:0:0:
256,192,75855,1,8,0:0:0:0:
256,192,75939,1,8,0:0:0:0:
256,192,76022,1,0,0:0:0:0:
256,192,76355,1,0,0:0:0:0:
256,192,76522,1,8,0:0:0:0:
256,192,76605,1,8,0:0:0:0:
256,192,76689,1,0,0:0:0:0:
256,192,76772,1,0,0:0:0:0:
256,192,76855,1,8,0:0:0:0:
256,192,77022,1,0,0:0:0:0:
256,192,77189,1,8,0:0:0:0:
256,192,77272,1,8,0:0:0:0:
256,192,77355,1,0,0:0:0:0:
256,192,77522,1,0,0:0:0:0:
256,192,77605,1,0,0:0:0:0:
256,192,77689,1,8,0:0:0:0:
256,192,78022,1,0,0:0:0:0:
256,192,78189,1,8,0:0:0:0:
256,192,78272,1,8,0:0:0:0:
256,192,78355,1,8,0:0:0:0:
256,192,78522,1,8,0:0:0:0:
256,192,78689,1,0,0:0:0:0:
256,192,79022,1,0,0:0:0:0:
256,192,79189,1,8,0:0:0:0:
256,192,79355,1,0,0:0:0:0:
256,192,79439,1,0,0:0:0:0:
256,192,79522,1,8,0:0:0:0:
256,192,79689,1,8,0:0:0:0:
256,192,79772,1,8,0:0:0:0:
256,192,79855,1,0,0:0:0:0:
256,192,79939,1,8,0:0:0:0:
256,192,80022,1,0,0:0:0:0:
256,192,80189,1,8,0:0:0:0:
256,192,80272,1,8,0:0:0:0:
256,192,80355,1,0,0:0:0:0:
256,192,80689,1,8,0:0:0:0:
256,192,80855,1,0,0:0:0:0:
256,192,80939,1,0,0:0:0:0:
256,192,81022,1,8,0:0:0:0:
256,192,81189,1,8,0:0:0:0:
256,192,81355,1,0,0:0:0:0:
256,192,81689,1,0,0:0:0:0:
256,192,81855,1,8,0:0:0:0:
256,192,81939,1,8,0:0:0:0:
256,192,82022,1,0,0:0:0:0:
256,192,82105,1,0,0:0:0:0:
256,192,82189,1,8,0:0:0:0:
256,192,82355,1,0,0:0:0:0:
256,192,82522,1,8,0:0:0:0:
256,192,82605,1,0,0:0:0:0:
256,192,82772,1,0,0:0:0:0:
256,192,82855,1,8,0:0:0:0:
256,192,83022,1,8,0:0:0:0:
256,192,83189,1,0,0:0:0:0:
256,192,83272,1,8,0:0:0:0:
256,192,83355,1,0,0:0:0:0:
256,192,83522,1,8,0:0:0:0:
256,192,83689,1,0,0:0:0:0:
256,192,83855,1,8,0:0:0:0:
256,192,83939,1,8,0:0:0:0:
256,192,84022,1,0,0:0:0:0:
256,192,84189,1,8,0:0:0:0:
256,192,84522,1,8,0:0:0:0:
256,192,84605,1,8,0:0:0:0:
256,192,84689,1,0,0:0:0:0:
256,192,84855,1,8,0:0:0:0:
256,192,85189,1,8,0:0:0:0:
256,192,85272,1,8,0:0:0:0:
256,192,85355,1,0,0:0:0:0:
256,192,85522,1,0,0:0:0:0:
256,192,85605,1,8,0:0:0:0:
256,192,85689,1,0,0:0:0:0:
256,192,85855,1,8,0:0:0:0:
256,192,86022,1,0,0:0:0:0:
256,192,86105,1,8,0:0:0:0:
256,192,86189,1,0,0:0:0:0:
256,192,86272,1,8,0:0:0:0:
256,192,86355,1,8,0:0:0:0:
256,192,86689,1,0,0:0:0:0:
256,192,87022,1,0,0:0:0:0:
256,192,87355,1,0,0:0:0:0:
256,192,87689,1,0,0:0:0:0:
256,192,88022,1,0,0:0:0:0:
256,192,88244,1,0,0:0:0:0:
256,192,88355,1,0,0:0:0:0:
256,192,88689,1,0,0:0:0:0:
256,192,89022,1,0,0:0:0:0:
256,192,89133,1,8,0:0:0:0:
256,192,89244,1,8,0:0:0:0:
256,192,89355,1,0,0:0:0:0:
256,192,89689,1,0,0:0:0:0:
256,192,90022,1,0,0:0:0:0:
256,192,90355,1,0,0:0:0:0:
256,192,90689,1,8,0:0:0:0:
256,192,90800,1,8,0:0:0:0:
256,192,90911,1,8,0:0:0:0:
256,192,91022,1,0,0:0:0:0:
256,192,91244,1,8,0:0:0:0:
256,192,91355,1,0,0:0:0:0:
256,192,91689,1,0,0:0:0:0:
256,192,91800,1,0,0:0:0:0:
256,192,91911,1,0,0:0:0:0:
256,192,92022,1,8,0:0:0:0:
256,192,92355,1,0,0:0:0:0:
256,192,92467,1,8,0:0:0:0:
256,192,92578,1,8,0:0:0:0:
256,192,92689,1,0,0:0:0:0:
256,192,92911,1,0,0:0:0:0:
256,192,93133,1,0,0:0:0:0:
256,192,93244,1,0,0:0:0:0:
256,192,93355,1,8,0:0:0:0:
256,192,93578,1,8,0:0:0:0:
256,192,93800,1,8,0:0:0:0:
256,192,93911,1,8,0:0:0:0:
256,192,94022,1,0,0:0:0:0:
256,192,94244,1,0,0:0:0:0:
256,192,94355,1,0,0:0:0:0:
256,192,94467,1,0,0:0:0:0:
256,192,94578,1,0,0:0:0:0:
256,192,94689,1,8,0:0:0:0:
256,192,94855,12,0,95855,0:0:0:0:
256,192,96022,5,12,0:0:0:0:
256,192,96522,1,0,0:0:0:0:
256,192,96855,1,0,0:0:0:0:
256,192,97022,1,12,0:0:0:0:
256,192,97355,1,4,0:0:0:0:
256,192,97605,1,8,0:0:0:0:
256,192,97689,1,0,0:0:0:0:
256,192,97855,1,8,0:0:0:0:
256,192,98022,1,0,0:0:0:0:
256,192,98105,1,0,0:0:0:0:
256,192,98189,1,8,0:0:0:0:
256,192,98272,1,8,0:0:0:0:
256,192,98355,1,0,0:0:0:0:
256,192,98522,1,8,0:0:0:0:
256,192,98689,1,0,0:0:0:0:
256,192,98855,1,8,0:0:0:0:
256,192,98939,1,0,0:0:0:0:
256,192,99105,1,0,0:0:0:0:
256,192,99189,1,8,0:0:0:0:
256,192,99272,1,0,0:0:0:0:
256,192,99355,1,8,0:0:0:0:
256,192,99439,1,8,0:0:0:0:
256,192,99522,1,0,0:0:0:0:
256,192,99605,1,0,0:0:0:0:
256,192,99689,1,8,0:0:0:0:
256,192,99855,1,8,0:0:0:0:
256,192,100022,1,0,0:0:0:0:
256,192,100105,1,8,0:0:0:0:
256,192,100272,1,8,0:0:0:0:
256,192,100355,1,0,0:0:0:0:
256,192,100522,1,8,0:0:0:0:
256,192,100689,1,0,0:0:0:0:
256,192,100772,1,0,0:0:0:0:
256,192,100855,1,8,0:0:0:0:
256,192,100939,1,0,0:0:0:0:
256,192,101022,1,0,0:0:0:0:
256,192,101189,1,8,0:0:0:0:
256,192,101355,1,0,0:0:0:0:
256,192,101439,1,8,0:0:0:0:
256,192,101522,1,8,0:0:0:0:
256,192,101605,1,8,0:0:0:0:
256,192,101689,1,0,0:0:0:0:
256,192,101855,1,8,0:0:0:0:
256,192,101939,1,8,0:0:0:0:
256,192,102022,1,0,0:0:0:0:
256,192,102189,1,8,0:0:0:0:
256,192,102355,1,0,0:0:0:0:
256,192,102522,1,8,0:0:0:0:
256,192,102605,1,8,0:0:0:0:
256,192,102689,1,0,0:0:0:0:
256,192,102772,1,8,0:0:0:0:
256,192,102939,1,8,0:0:0:0:
256,192,103022,1,0,0:0:0:0:
256,192,103189,1,8,0:0:0:0:
256,192,103355,1,0,0:0:0:0:
256,192,103439,1,0,0:0:0:0:
256,192,103522,1,8,0:0:0:0:
256,192,103689,1,0,0:0:0:0:
256,192,103855,1,8,0:0:0:0:
256,192,103939,1,8,0:0:0:0:
256,192,104022,1,0,0:0:0:0:
256,192,104189,1,8,0:0:0:0:
256,192,104272,1,0,0:0:0:0:
256,192,104439,1,0,0:0:0:0:
256,192,104522,1,8,0:0:0:0:
256,192,104605,1,0,0:0:0:0:
256,192,104689,1,0,0:0:0:0:
256,192,104855,1,8,0:0:0:0:
256,192,105022,1,0,0:0:0:0:
256,192,105105,1,0,0:0:0:0:
256,192,105189,1,8,0:0:0:0:
256,192,105272,1,8,0:0:0:0:
256,192,105355,1,0,0:0:0:0:
256,192,105522,1,8,0:0:0:0:
256,192,105605,1,0,0:0:0:0:
256,192,105689,1,0,0:0:0:0:
256,192,105772,1,8,0:0:0:0:
256,192,105855,1,0,0:0:0:0:
256,192,105939,1,8,0:0:0:0:
256,192,106022,1,8,0:0:0:0:
256,192,106189,1,0,0:0:0:0:
256,192,106272,1,8,0:0:0:0:
256,192,106439,1,0,0:0:0:0:
256,192,106522,1,8,0:0:0:0:
256,192,106605,1,8,0:0:0:0:
256,192,106689,1,0,0:0:0:0:
256,192,106855,1,8,0:0:0:0:
256,192,107022,1,0,0:0:0:0:
256,192,107105,1,8,0:0:0:0:
256,192,107189,1,0,0:0:0:0:
256,192,107355,1,8,0:0:0:0:
256,192,107439,1,8,0:0:0:0:
256,192,107522,1,0,0:0:0:0:
256,192,107605,1,0,0:0:0:0:
256,192,107689,1,0,0:0:0:0:
256,192,107855,1,8,0:0:0:0:
256,192,108022,1,4,0:0:0:0:
256,192,108272,1,8,0:0:0:0:
256,192,108355,1,0,0:0:0:0:
256,192,108522,1,8,0:0:0:0:
256,192,108689,1,0,0:0:0:0:
256,192,108772,1,0,0:0:0:0:
256,192,108855,1,8,0:0:0:0:
256,192,108939,1,8,0:0:0:0:
256,192,109022,1,0,0:0:0:0:
256,192,109189,1,8,0:0:0:0:
256,192,109355,1,0,0:0:0:0:
256,192,109522,1,8,0:0:0:0:
256,192,109605,1,0,0:0:0:0:
256,192,109772,1,0,0:0:0:0:
256,192,109855,1,8,0:0:0:0:
256,192,109939,1,0,0:0:0:0:
256,192,110022,1,8,0:0:0:0:
256,192,110105,1,8,0:0:0:0:
256,192,110189,1,0,0:0:0:0:
256,192,110272,1,0,0:0:0:0:
256,192,110355,1,8,0:0:0:0:
256,192,110522,1,8,0:0:0:0:
256,192,110605,1,8,0:0:0:0:
256,192,110689,1,0,0:0:0:0:
256,192,110772,1,8,0:0:0:0:
256,192,110939,1,8,0:0:0:0:
256,192,111022,1,0,0:0:0:0:
256,192,111189,1,8,0:0:0:0:
256,192,111355,1,0,0:0:0:0:
256,192,111439,1,0,0:0:0:0:
256,192,111522,1,8,0:0:0:0:
256,192,111605,1,0,0:0:0:0:
256,192,111689,1,0,0:0:0:0:
256,192,111855,1,8,0:0:0:0:
256,192,112022,1,0,0:0:0:0:
256,192,112105,1,8,0:0:0:0:
256,192,112189,1,0,0:0:0:0:
256,192,112272,1,8,0:0:0:0:
256,192,112355,1,0,0:0:0:0:
256,192,112522,1,8,0:0:0:0:
256,192,112605,1,8,0:0:0:0:
256,192,112689,1,0,0:0:0:0:
256,192,112855,1,8,0:0:0:0:
256,192,113022,1,0,0:0:0:0:
256,192,113105,1,0,0:0:0:0:
256,192,113189,1,0,0:0:0:0:
256,192,113272,1,8,0:0:0:0:
256,192,113355,1,0,0:0:0:0:
256,192,113522,1,0,0:0:0:0:
256,192,113605,1,8,0:0:0:0:
256,192,113689,1,0,0:0:0:0:
256,192,113772,1,0,0:0:0:0:
256,192,113855,1,8,0:0:0:0:
256,192,113939,1,0,0:0:0:0:
256,192,114105,1,0,0:0:0:0:
256,192,114189,1,8,0:0:0:0:
256,192,114355,1,0,0:0:0:0:
256,192,114522,1,8,0:0:0:0:
256,192,114605,1,8,0:0:0:0:
256,192,114689,1,0,0:0:0:0:
256,192,114772,1,0,0:0:0:0:
256,192,114855,1,8,0:0:0:0:
256,192,115022,1,0,0:0:0:0:
256,192,115189,1,8,0:0:0:0:
256,192,115272,1,0,0:0:0:0:
256,192,115355,1,0,0:0:0:0:
256,192,115439,1,8,0:0:0:0:
256,192,115522,1,0,0:0:0:0:
256,192,115605,1,0,0:0:0:0:
256,192,115689,1,8,0:0:0:0:
256,192,115772,1,8,0:0:0:0:
256,192,115855,1,8,0:0:0:0:
256,192,115939,1,0,0:0:0:0:
256,192,116189,1,4,0:0:0:0:
256,192,116439,1,4,0:0:0:0:
256,192,116689,1,4,0:0:0:0:
256,192,116939,1,4,0:0:0:0:
256,192,117189,1,4,0:0:0:0:
256,192,117355,1,0,0:0:0:0:
256,192,117522,1,0,0:0:0:0:
256,192,117605,1,0,0:0:0:0:
256,192,117689,1,0,0:0:0:0:
256,192,117772,1,0,0:0:0:0:
256,192,117855,1,0,0:0:0:0:
256,192,117939,1,0,0:0:0:0:
256,192,118022,1,0,0:0:0:0:
256,192,118105,1,0,0:0:0:0:
256,192,118189,1,0,0:0:0:0:
256,192,118272,1,0,0:0:0:0:
256,192,118355,1,8,0:0:0:0:
256,192,118439,1,8,0:0:0:0:
256,192,118522,1,8,0:0:0:0:
256,192,118605,1,8,0:0:0:0:
256,192,118689,1,0,0:0:0:0:
