osu file format v14

[General]
AudioFilename: audio.mp3
AudioLeadIn: 0
PreviewTime: 44056
Countdown: 0
SampleSet: Soft
StackLeniency: 0.7
Mode: 2
LetterboxInBreaks: 0
EpilepsyWarning: 1
WidescreenStoryboard: 1

[Editor]
Bookmarks: 1390,12056,22723,33389,44056,54723,65389,76056,86723,97389,108056,118723,129223
DistanceSpacing: 1.1
BeatDivisor: 4
GridSize: 4
TimelineZoom: 3.399999

[Metadata]
Title:Memory Of Sunrise
TitleUnicode:Memory Of Sunrise
Artist:nora2r
ArtistUnicode:nora2r
Creator:JBHyperion
Version:Rain
Source:
Tags:BOFU 2016 BMS of Fighters Ultimate Legendary Again チームのらねこさい team Nora Nekosai のらねこさい まとめ 出前 demaescape UK hardcore electronic instrumental rhythm game Diverse Direct Nekomimi style ねこみりん AJamez Jemzuu Ongaku JBH
BeatmapID:2418468
BeatmapSetID:1158978

[Difficulty]
HPDrainRate:6
CircleSize:3
OverallDifficulty:9
ApproachRate:9
SliderMultiplier:1.8
SliderTickRate:2

[Events]
//Background and Video events
0,0,"sunrise.jpg",0,0
Video,-100,"Memory of Sunrise.avi"
//Break Periods
//Storyboard Layer 0 (Background)
//Storyboard Layer 1 (Fail)
//Storyboard Layer 2 (Pass)
//Storyboard Layer 3 (Foreground)
//Storyboard Layer 4 (Overlay)
//Storyboard Sound Samples

[TimingPoints]
1390,333.333333333333,4,2,99,70,1,0
1723,-100,4,2,1,70,0,0
6723,-100,4,2,99,70,0,0
7056,-100,4,2,1,70,0,0
11473,-100,4,2,2,35,0,0
11723,-100,4,2,2,70,0,0
11806,-100,4,2,2,50,0,0
12056,-100,4,2,2,50,0,0
14723,-100,4,2,2,55,0,0
17389,-100,4,2,2,60,0,0
18723,-100,4,2,2,65,0,0
20056,-100,4,2,2,50,0,0
20389,-100,4,2,2,55,0,0
20723,-100,4,2,2,60,0,0
21056,-100,4,2,2,65,0,0
21389,-100,4,2,2,70,0,0
22723,-80,4,2,98,70,0,0
23056,-80,4,2,2,70,0,0
25389,-80,4,2,97,70,0,0
25723,-80,4,2,2,70,0,0
28056,-80,4,2,96,70,0,0
28389,-80,4,2,2,70,0,0
30723,-80,4,2,98,70,0,0
31056,-80,4,2,2,70,0,0
32389,-66.6666666666667,4,2,2,70,0,0
33389,-66.6666666666667,4,2,1,100,0,0
33556,-66.6666666666667,4,2,1,50,0,0
33723,-100,4,2,2,70,0,0
43723,-66.6666666666667,4,2,2,70,0,0
44056,-100,4,2,2,70,0,0
53389,-100,4,2,2,65,0,0
53723,-100,4,2,2,60,0,0
54056,-100,4,2,2,55,0,0
54389,-66.6666666666667,4,2,2,60,0,0
54723,-80,4,2,2,60,0,0
56056,-133.333333333333,4,2,1,60,0,0
57389,-80,4,2,2,60,0,0
59389,-80,4,2,1,60,0,0
60056,-80,4,2,2,60,0,0
61389,-133.333333333333,4,2,1,60,0,0
62723,-80,4,2,2,60,0,0
64056,-100,4,2,1,60,0,0
64556,-80,4,2,2,60,0,0
65389,-100,4,2,2,70,0,0
75389,-100,4,2,3,50,0,0
76056,-80,4,2,2,80,0,1
77723,-66.6666666666667,4,2,2,80,0,1
77889,-80,4,2,2,80,0,1
80389,-66.6666666666667,4,2,2,80,0,1
80556,-80,4,2,2,80,0,1
86723,-100,4,2,2,70,0,0
89389,-80,4,2,2,70,0,0
89612,-100,4,2,2,70,0,0
91389,-80,4,2,2,70,0,0
91612,-100,4,2,2,70,0,0
94723,-133.333333333333,4,2,2,70,0,0
96056,-100,4,2,2,70,0,0
97389,-80,4,2,2,80,0,1
107973,-80,4,2,2,80,0,0
108056,-80,4,2,2,80,0,1
109556,-66.6666666666667,4,2,2,80,0,1
109723,-80,4,2,2,80,0,1
117473,-80,4,2,2,45,0,1
117723,-80,4,2,2,50,0,1
118056,-80,4,2,2,55,0,1
118389,-80,4,2,2,60,0,1
118723,-100,4,2,2,70,0,0
119056,-100,4,2,1,45,0,0
121723,-100,4,2,1,40,0,0
124389,-100,4,2,1,35,0,0
126723,-100,4,2,2,21,0,0
126889,-100,4,2,2,20,0,0
127056,-100,4,2,2,19,0,0
127223,-100,4,2,2,18,0,0
127389,-100,4,2,2,17,0,0
127556,-100,4,2,2,16,0,0
127723,-100,4,2,2,15,0,0
127889,-100,4,2,2,14,0,0
128056,-100,4,2,2,13,0,0
128223,-100,4,2,2,12,0,0
128389,-100,4,2,2,11,0,0
128556,-100,4,2,2,10,0,0
128723,-100,4,2,2,9,0,0
128889,-100,4,2,2,8,0,0
129056,-100,4,2,2,7,0,0
129223,-100,4,2,2,6,0,0

[Colours]
Combo1 : 250,225,125
Combo2 : 125,125,175
Combo3 : 150,100,150
Combo4 : 200,100,150
Combo5 : 200,100,100
Combo6 : 250,150,100

[HitObjects]
300,268,1390,6,0,L|304:164,1,90,14|0,0:0|0:0,0:0:0:0:
124,180,1723,2,0,P|64:124|128:80,1,180,2|0,0:0|0:0,0:0:0:0:
288,80,2223,2,0,P|348:92|400:200,1,180,2|0,0:0|0:0,0:0:0:0:
220,188,2723,6,0,L|132:204,2,90,2|2|2,0:0|0:0|0:0,0:0:0:0:
420,192,3223,1,2,0:0:0:0:
204,192,3556,1,2,0:0:0:0:
384,192,3889,1,2,0:0:0:0:
184,192,4056,6,0,L|92:204,1,90,0|0,0:0|0:0,0:0:0:0:
276,192,4389,2,0,P|336:136|272:92,1,180,2|0,0:0|0:0,0:0:0:0:
112,80,4889,2,0,P|124:140|232:192,1,180,2|0,0:0|0:0,0:0:0:0:
40,176,5389,6,0,L|128:192,2,90,2|2|2,0:0|0:0|0:0,0:0:0:0:
220,192,5889,2,0,L|312:204,1,90,2|0,0:0|0:0,0:0:0:0:
36,272,6223,1,8,0:0:0:0:
164,272,6556,1,0,0:0:0:0:
412,272,6723,6,0,L|500:248,1,90,12|0,0:0|0:0,0:0:0:0:
336,192,7056,1,2,0:0:0:0:
256,192,7223,1,0,0:0:0:0:
176,192,7389,1,0,0:0:0:0:
340,104,7556,2,0,P|400:132|408:244,1,180,2|0,0:0|0:0,0:0:0:0:
232,320,8056,6,0,L|144:304,2,90,2|2|2,0:0|0:0|0:0,0:0:0:0:
32,300,8556,1,2,0:0:0:0:
232,320,8889,1,2,0:0:0:0:
68,300,9223,1,2,0:0:0:0:
232,236,9389,6,0,L|312:192,1,90,0|0,0:0|0:0,0:0:0:0:
132,116,9723,1,2,0:0:0:0:
212,116,9889,1,0,0:0:0:0:
292,116,10056,1,0,0:0:0:0:
456,192,10223,2,0,P|456:278|383:324,1,180,2|0,0:0|0:0,0:0:0:0:
200,320,10723,6,0,L|112:304,2,90,2|2|2,0:0|0:0|0:0,0:0:0:0:
352,324,11223,1,2,0:0:0:0:
168,232,11389,5,10,0:0:0:0:
142,179,11473,1,2,0:0:0:0:
143,120,11556,1,2,0:0:0:0:
172,68,11639,1,2,0:0:0:0:
292,160,11723,1,10,0:0:0:0:
318,213,11806,1,2,0:0:0:0:
317,272,11889,1,2,0:0:0:0:
288,324,11973,1,2,0:0:0:0:
128,324,12056,6,0,L|32:324,1,90,6|0,0:0|0:0,0:0:0:0:
220,324,12389,1,8,0:0:0:0:
76,192,12723,2,0,L|164:160,1,90,8|0,0:0|0:0,0:0:0:0:
332,160,13056,2,0,L|244:128,1,90,8|0,0:0|0:0,0:0:0:0:
60,80,13389,6,0,L|160:80,2,90,8|0|8,0:0|0:0|0:0,0:0:0:0:
168,80,13889,1,0,0:0:0:0:
348,80,14056,2,0,L|440:80,1,90,8|0,0:0|0:0,0:0:0:0:
328,160,14389,2,0,L|420:160,1,90,8|0,0:0|0:0,0:0:0:0:
164,160,14723,6,0,L|72:160,1,90,14|0,0:0|0:0,0:0:0:0:
248,244,15056,2,0,L|340:244,1,90,8|0,0:0|0:0,0:0:0:0:
180,328,15389,2,0,L|276:328,3,90,8|0|8|0,0:0|0:0|0:0|0:0,0:0:0:0:
34,328,16056,6,0,L|130:328,1,90,14|0,0:0|0:0,0:0:0:0:
270,328,16389,2,0,L|196:254,1,90,8|0,0:0|0:0,0:0:0:0:
442,264,16723,2,0,L|346:264,1,90,14|0,0:0|0:0,0:0:0:0:
206,264,17056,2,0,L|279:337,1,90,8|0,0:0|0:0,0:0:0:0:
36,192,17389,6,0,L|119:144,1,90,6|8,0:0|0:0,0:0:0:0:
224,148,17723,2,0,L|307:100,1,90,8|8,0:0|0:0,0:0:0:0:
140,68,18056,1,8,0:0:0:0:
248,68,18223,1,8,0:0:0:0:
140,68,18389,1,8,0:0:0:0:
32,68,18556,1,8,0:0:0:0:
212,156,18723,5,8,0:0:0:0:
316,180,18889,1,8,0:0:0:0:
388,264,19056,1,8,0:0:0:0:
404,372,19223,1,8,0:0:0:0:
224,372,19389,1,8,0:0:0:0:
332,372,19556,1,8,0:0:0:0:
212,372,19723,1,8,0:0:0:0:
320,372,19889,1,8,0:0:0:0:
76,372,20056,5,10,0:0:0:0:
39,326,20139,1,2,0:0:0:0:
45,267,20223,1,2,0:0:0:0:
89,229,20306,1,2,0:0:0:0:
216,232,20389,1,10,0:0:0:0:
276,220,20473,1,2,0:0:0:0:
316,176,20556,1,2,0:0:0:0:
321,114,20639,1,2,0:0:0:0:
192,116,20723,5,10,0:0:0:0:
197,178,20806,1,2,0:0:0:0:
237,222,20889,1,2,0:0:0:0:
297,234,20973,1,2,0:0:0:0:
424,232,21056,1,10,0:0:0:0:
468,193,21139,1,2,0:0:0:0:
473,135,21223,1,2,0:0:0:0:
437,89,21306,1,2,0:0:0:0:
232,32,21389,5,6,0:0:0:0:
448,192,22723,6,0,L|328:192,1,112.5,6|0,0:0|0:0,0:0:0:0:
156,192,23056,1,14,0:0:0:0:
292,104,23306,5,2,0:0:0:0:
156,104,23556,1,2,0:0:0:0:
360,104,23723,1,14,0:0:0:0:
224,104,23973,5,2,0:0:0:0:
360,104,24223,1,2,0:0:0:0:
156,104,24389,1,14,0:0:0:0:
292,192,24639,5,2,0:0:0:0:
156,192,24889,2,0,L|204:240,1,56.25,2|2,0:0|0:0,0:0:0:0:
352,232,25056,2,0,L|460:192,1,112.5,14|0,0:0|0:0,0:0:0:0:
288,104,25389,6,0,L|400:104,1,112.5,6|0,0:0|0:0,0:0:0:0:
220,104,25723,1,14,0:0:0:0:
356,104,25973,5,2,0:0:0:0:
220,104,26223,1,2,0:0:0:0:
28,104,26389,1,14,0:0:0:0:
164,104,26639,5,2,0:0:0:0:
276,104,26889,1,2,0:0:0:0:
468,104,27056,1,14,0:0:0:0:
316,104,27306,5,2,0:0:0:0:
452,104,27556,1,2,0:0:0:0:
284,104,27723,2,0,L|280:160,1,56.25,2|2,0:0|0:0,0:0:0:0:
348,160,27889,2,0,L|352:216,1,56.25,2|2,0:0|0:0,0:0:0:0:
200,216,28056,6,0,L|80:216,1,112.5,6|0,0:0|0:0,0:0:0:0:
280,216,28389,1,14,0:0:0:0:
416,304,28639,5,2,0:0:0:0:
280,304,28889,1,2,0:0:0:0:
84,304,29056,1,14,0:0:0:0:
220,216,29306,5,2,0:0:0:0:
84,216,29556,1,2,0:0:0:0:
288,216,29723,1,14,0:0:0:0:
152,120,29973,5,2,0:0:0:0:
288,120,30223,2,0,L|296:64,1,56.25,2|2,0:0|0:0,0:0:0:0:
136,40,30389,2,0,L|32:84,1,112.5,14|0,0:0|0:0,0:0:0:0:
212,192,30723,6,0,L|332:192,1,112.5,6|0,0:0|0:0,0:0:0:0:
140,192,31056,1,14,0:0:0:0:
276,280,31306,5,2,0:0:0:0:
140,280,31556,1,2,0:0:0:0:
332,280,31723,1,14,0:0:0:0:
444,280,31889,1,2,0:0:0:0:
248,280,32056,2,0,P|216:228|268:140,1,168.75,2|0,0:0|0:0,0:0:0:0:
440,144,32389,6,0,P|468:96|432:32,1,135.000005149842,14|0,0:0|0:0,0:0:0:0:
264,142,32639,2,0,P|228:88|256:30,1,135.000005149842,2|0,0:0|0:0,0:0:0:0:
336,28,32889,1,2,0:0:0:0:
60,28,33056,1,10,0:0:0:0:
304,192,33389,6,0,L|168:192,1,135.000005149842,2|0,0:0|0:0,0:0:0:0:
424,192,33723,6,0,P|480:168|504:96,2,135,14|10|2,0:0|0:0|0:0,0:0:0:0:
244,192,34389,2,0,L|160:152,1,90,8|0,0:0|0:0,0:0:0:0:
328,192,34723,6,0,L|200:252,1,135,10|2,0:0|0:0,0:0:0:0:
16,192,35223,2,0,L|144:252,1,135,2|2,0:0|0:0,0:0:0:0:
388,248,35723,2,0,L|284:308,1,90,8|0,0:0|0:0,0:0:0:0:
138,249,36056,6,0,L|260:191,1,135,10|2,0:0|0:0,0:0:0:0:
68,192,36556,2,0,L|190:134,1,135,2|2,0:0|0:0,0:0:0:0:
436,136,37056,2,0,L|336:136,1,90,8|0,0:0|0:0,0:0:0:0:
188,52,37389,6,0,P|132:76|108:148,2,135,10|2|2,0:0|0:0|0:0,0:0:0:0:
352,52,38056,1,2,0:0:0:0:
260,52,38223,2,0,L|248:112,1,45,0|0,0:0|0:0,0:0:0:0:
412,96,38389,1,10,0:0:0:0:
460,125,38473,1,2,0:0:0:0:
458,182,38556,1,2,0:0:0:0:
407,208,38639,1,2,0:0:0:0:
244,208,38723,6,0,L|116:268,1,135,14|2,0:0|0:0,0:0:0:0:
172,264,39056,1,8,0:0:0:0:
316,264,39223,2,0,L|444:324,1,135,2|2,0:0|0:0,0:0:0:0:
388,320,39556,1,0,0:0:0:0:
208,364,39723,2,0,L|285:319,1,90,8|0,0:0|0:0,0:0:0:0:
124,320,40056,6,0,L|32:320,1,90,10|0,0:0|0:0,0:0:0:0:
84,236,40306,1,2,0:0:0:0:
244,236,40389,1,8,0:0:0:0:
152,236,40556,1,2,0:0:0:0:
280,236,40723,2,0,L|360:192,1,90,8|0,0:0|0:0,0:0:0:0:
176,152,41056,2,0,L|96:112,1,90,8|0,0:0|0:0,0:0:0:0:
276,68,41389,6,0,L|355:113,1,90,10|0,0:0|0:0,0:0:0:0:
304,112,41639,1,2,0:0:0:0:
144,112,41723,1,8,0:0:0:0:
236,112,41889,1,2,0:0:0:0:
416,112,42056,2,0,L|496:156,1,90,8|0,0:0|0:0,0:0:0:0:
240,192,42389,2,0,L|140:192,1,90,8|0,0:0|0:0,0:0:0:0:
332,192,42723,5,2,0:0:0:0:
384,240,42806,1,2,0:0:0:0:
384,312,42889,1,2,0:0:0:0:
324,352,42973,1,2,0:0:0:0:
208,356,43056,2,0,L|136:356,2,60,2|2|2,0:0|0:0|0:0,0:0:0:0:
324,352,43389,5,2,0:0:0:0:
340,324,43445,1,2,0:0:0:0:
340,288,43501,1,2,0:0:0:0:
324,260,43556,1,2,0:0:0:0:
264,236,43639,1,2,0:0:0:0:
92,236,43723,2,0,B|92:136|92:136|188:96,1,202.500007724762,12|0,0:0|0:0,0:0:0:0:
424,96,44056,6,0,P|416:152|352:192,1,135,6|0,0:0|0:0,0:0:0:0:
236,192,44389,2,0,L|144:192,1,90,8|0,0:0|0:0,0:0:0:0:
312,288,44723,1,0,0:0:0:0:
204,288,44889,1,2,0:0:0:0:
384,288,45056,2,0,L|476:260,1,90,8|0,0:0|0:0,0:0:0:0:
308,192,45389,6,0,P|250:160|237:96,1,135,2|2,0:0|0:0,0:0:0:0:
356,96,45723,1,8,0:0:0:0:
464,96,45889,2,0,P|452:148|332:204,1,180,2|2,0:0|0:0,0:0:0:0:
284,208,46306,1,2,0:0:0:0:
168,208,46389,2,0,L|80:192,1,90,8|2,0:0|0:0,0:0:0:0:
336,24,46723,6,0,P|392:32|432:96,1,135,6|0,0:0|0:0,0:0:0:0:
316,104,47056,2,0,L|224:104,1,90,8|0,0:0|0:0,0:0:0:0:
392,192,47389,1,0,0:0:0:0:
248,192,47556,1,2,0:0:0:0:
412,192,47723,2,0,L|320:220,1,90,8|0,0:0|0:0,0:0:0:0:
156,280,48056,6,0,P|99:311|86:375,1,135,2|2,0:0|0:0,0:0:0:0:
152,376,48389,1,8,0:0:0:0:
340,376,48556,2,0,P|328:324|208:268,1,180,2|2,0:0|0:0,0:0:0:0:
160,264,48973,1,2,0:0:0:0:
272,264,49056,2,0,L|360:248,1,90,8|0,0:0|0:0,0:0:0:0:
72,264,49389,5,2,0:0:0:0:
388,248,49723,6,0,L|480:248,2,90,14|2|2,0:0|0:0|0:0,0:0:0:0:
208,192,50223,2,0,L|116:192,2,90,14|2|2,0:0|0:0|0:0,0:0:0:0:
388,100,50723,5,14,0:0:0:0:
280,100,50889,1,2,0:0:0:0:
172,100,51056,1,2,0:0:0:0:
352,192,51223,2,0,L|248:192,2,90,14|2|2,0:0|0:0|0:0,0:0:0:0:
172,280,51723,6,0,L|272:280,1,90,14|2,0:0|0:0,0:0:0:0:
388,280,52056,1,6,0:0:0:0:
262,280,52223,1,2,0:0:0:0:
440,192,52389,5,6,0:0:0:0:
320,192,52556,1,2,0:0:0:0:
140,192,52723,1,6,0:0:0:0:
144,132,52806,1,2,0:0:0:0:
180,84,52889,1,2,0:0:0:0:
230,68,52973,1,2,0:0:0:0:
320,192,53056,1,6,0:0:0:0:
316,132,53139,1,2,0:0:0:0:
280,84,53223,1,2,0:0:0:0:
230,68,53306,1,2,0:0:0:0:
72,196,53389,5,2,0:0:0:0:
57,267,53473,1,2,0:0:0:0:
91,332,53556,1,2,0:0:0:0:
159,360,53639,1,2,0:0:0:0:
276,360,53723,1,2,0:0:0:0:
254,298,53834,1,2,0:0:0:0:
194,272,53945,1,2,0:0:0:0:
72,196,54056,5,2,0:0:0:0:
56,168,54112,1,2,0:0:0:0:
56,132,54167,1,2,0:0:0:0:
72,104,54223,1,2,0:0:0:0:
132,72,54306,1,2,0:0:0:0:
304,76,54389,2,0,B|504:129,1,202.500007724762,12|0,0:0|0:0,0:0:0:0:
288,192,54723,6,0,P|196:244|204:352,1,225,12|0,0:0|0:0,0:0:0:0:
472,136,55223,2,0,P|472:72|336:36,1,225,2|0,0:0|0:0,0:0:0:0:
80,192,55723,2,0,L|100:80,1,112.5,2|0,0:0|0:0,0:0:0:0:
288,80,56056,6,0,L|356:80,2,67.5000025749208,2|0|0,0:0|0:0|0:0,0:0:0:0:
188,80,56556,2,0,B|196:160|256:176|281:179|281:179|339:179,1,202.500007724762,2|0,0:0|0:0,0:0:0:0:
40,176,57389,6,0,P|16:240|120:340,1,225,6|0,0:0|0:0,0:0:0:0:
372,192,57889,2,0,P|308:116|240:192,1,225,2|0,0:0|0:0,0:0:0:0:
492,192,58389,1,2,0:0:0:0:
240,188,58556,2,0,P|148:148|108:36,1,225,2|0,0:0|0:0,0:0:0:0:
420,36,59389,5,2,0:0:0:0:
240,36,59556,1,0,0:0:0:0:
408,36,59723,1,2,0:0:0:0:
308,36,59889,1,0,0:0:0:0:
48,136,60056,6,0,P|28:72|152:36,1,225,6|0,0:0|0:0,0:0:0:0:
408,192,60556,2,0,B|344:288|344:288|232:288,1,225,2|0,0:0|0:0,0:0:0:0:
492,192,61056,2,0,L|472:80,1,112.5,2|0,0:0|0:0,0:0:0:0:
284,80,61389,6,0,L|216:80,2,67.5000025749208,2|0|0,0:0|0:0|0:0,0:0:0:0:
380,80,61889,2,0,P|444:104|468:164,1,135.000005149842,2|0,0:0|0:0,0:0:0:0:
280,192,62389,2,0,L|208:192,1,67.5000025749208,2|0,0:0|0:0,0:0:0:0:
472,192,62723,6,0,P|496:232|396:344,1,225,6|0,0:0|0:0,0:0:0:0:
136,192,63223,2,0,B|200:96|200:96|312:96,1,225,2|0,0:0|0:0,0:0:0:0:
48,192,63723,2,0,L|40:308,1,112.5,2|0,0:0|0:0,0:0:0:0:
204,304,64056,6,0,L|312:304,2,90,2|0|0,0:0|0:0|0:0,0:0:0:0:
464,304,64556,2,0,L|472:68,1,225,2|0,0:0|0:0,0:0:0:0:
212,80,65056,2,0,L|209:205,1,112.5,2|0,0:0|0:0,0:0:0:0:
472,80,65389,6,0,P|460:136|360:192,1,180,6|2,0:0|0:0,0:0:0:0:
252,192,65889,1,0,0:0:0:0:
432,280,66056,2,0,L|332:280,1,90,8|0,0:0|0:0,0:0:0:0:
188,352,66389,2,0,L|304:280,1,135,8|0,0:0|0:0,0:0:0:0:
148,280,66723,6,0,P|92:268|36:168,1,180,6|2,0:0|0:0,0:0:0:0:
144,168,67223,1,0,0:0:0:0:
324,168,67389,2,0,L|224:168,1,90,8|0,0:0|0:0,0:0:0:0:
80,96,67723,2,0,L|196:168,1,135,8|0,0:0|0:0,0:0:0:0:
348,168,68056,6,0,P|404:220|348:288,1,180,6|2,0:0|0:0,0:0:0:0:
240,288,68556,1,0,0:0:0:0:
420,288,68723,2,0,L|316:348,1,90,8|0,0:0|0:0,0:0:0:0:
184,288,69056,2,0,L|68:216,1,135,8|0,0:0|0:0,0:0:0:0:
232,192,69389,6,0,P|200:108|120:80,1,180,6|2,0:0|0:0,0:0:0:0:
20,80,69889,1,0,0:0:0:0:
200,80,70056,2,0,L|303:140,1,90,8|0,0:0|0:0,0:0:0:0:
120,124,70389,2,0,L|24:124,1,90,8|0,0:0|0:0,0:0:0:0:
277,125,70723,6,0,L|377:125,1,90,6|0,0:0|0:0,0:0:0:0:
260,124,71056,2,0,L|160:124,1,90,2|0,0:0|0:0,0:0:0:0:
352,236,71389,2,0,L|269:284,1,90,6|0,0:0|0:0,0:0:0:0:
380,236,71723,2,0,L|297:284,1,90,2|0,0:0|0:0,0:0:0:0:
40,192,72056,6,0,L|130:192,1,90,6|0,0:0|0:0,0:0:0:0:
256,112,72389,2,0,L|166:112,1,90,2|0,0:0|0:0,0:0:0:0:
348,192,72723,2,0,L|252:192,1,90,6|0,0:0|0:0,0:0:0:0:
132,272,73056,2,0,L|228:272,1,90,2|0,0:0|0:0,0:0:0:0:
456,192,73389,5,6,0:0:0:0:
356,192,73556,1,2,0:0:0:0:
500,192,73723,1,6,0:0:0:0:
392,192,73889,1,2,0:0:0:0:
160,192,74056,5,6,0:0:0:0:
276,192,74223,1,2,0:0:0:0:
112,192,74389,1,6,0:0:0:0:
240,192,74556,1,2,0:0:0:0:
368,192,74723,6,0,L|372:140,1,45,2|2,0:0|0:0,0:0:0:0:
280,92,74973,1,2,0:0:0:0:
128,92,75056,2,0,L|28:92,1,90,8|0,0:0|0:0,0:0:0:0:
200,192,75389,6,0,L|233:225,7,45,2|2|2|2|2|2|2|2,0:0|0:0|0:0|0:0|0:0|0:0|0:0|0:0,0:0:0:0:
380,224,76056,6,0,L|492:224,1,112.5,6|0,0:0|0:0,0:0:0:0:
300,132,76389,2,0,L|203:76,1,112.5,10|0,0:0|0:0,0:0:0:0:
396,80,76723,1,2,0:0:0:0:
284,80,76889,2,0,L|264:192,1,112.5,0|10,0:0|0:0,0:0:0:0:
436,192,77223,6,0,L|320:192,1,112.5,0|2,0:0|0:0,0:0:0:0:
492,192,77556,1,0,0:0:0:0:
244,192,77723,2,0,P|208:244|236:304,1,135.000005149842,10|0,0:0|0:0,0:0:0:0:
388,304,78056,6,0,L|508:304,1,112.5,2|2,0:0|0:0,0:0:0:0:
444,304,78306,1,2,0:0:0:0:
332,304,78389,1,10,0:0:0:0:
444,304,78556,1,2,0:0:0:0:
152,312,78723,6,0,L|249:256,1,112.5,6|0,0:0|0:0,0:0:0:0:
80,216,79056,2,0,L|177:160,1,112.5,10|0,0:0|0:0,0:0:0:0:
348,160,79389,1,2,0:0:0:0:
177,159,79556,2,0,L|173:43,1,112.5,0|10,0:0|0:0,0:0:0:0:
368,72,79889,6,0,L|267:14,1,112.5,0|2,0:0|0:0,0:0:0:0:
104,12,80223,1,0,0:0:0:0:
380,68,80389,2,0,P|416:120|388:180,1,135.000005149842,10|0,0:0|0:0,0:0:0:0:
240,180,80723,6,0,L|360:180,1,112.5,2|2,0:0|0:0,0:0:0:0:
296,180,80973,1,2,0:0:0:0:
140,180,81056,1,10,0:0:0:0:
308,180,81223,1,2,0:0:0:0:
40,180,81389,6,0,L|52:292,1,112.5,6|0,0:0|0:0,0:0:0:0:
308,180,81723,2,0,L|296:292,1,112.5,10|0,0:0|0:0,0:0:0:0:
52,292,82056,1,2,0:0:0:0:
164,292,82223,2,0,L|276:292,1,112.5,0|10,0:0|0:0,0:0:0:0:
28,180,82556,6,0,L|152:180,1,112.5,0|2,0:0|0:0,0:0:0:0:
320,180,82889,1,0,0:0:0:0:
72,72,83056,2,0,L|188:72,1,112.5,10|0,0:0|0:0,0:0:0:0:
320,180,83389,2,0,L|223:124,1,112.5,2|0,0:0|0:0,0:0:0:0:
88,180,83723,2,0,L|159:94,1,112.5,10|0,0:0|0:0,0:0:0:0:
408,96,84056,6,0,L|500:32,2,112.5,6|0|0,0:0|0:0|0:0,0:0:0:0:
296,96,84556,1,0,0:0:0:0:
104,96,84723,2,0,L|18:167,1,112.5,6|0,0:0|0:0,0:0:0:0:
156,172,85056,2,0,L|241:243,1,112.5,0|0,0:0|0:0,0:0:0:0:
436,244,85389,5,6,0:0:0:0:
268,244,85556,1,2,0:0:0:0:
312,244,85639,1,2,0:0:0:0:
360,244,85723,1,10,0:0:0:0:
180,244,85889,1,2,0:0:0:0:
292,328,86056,1,2,0:0:0:0:
248,328,86139,1,2,0:0:0:0:
204,328,86223,1,2,0:0:0:0:
16,244,86389,1,10,0:0:0:0:
161,244,86556,1,2,0:0:0:0:
412,244,86723,6,0,P|472:216|492:160,1,120,6|0,0:0|0:0,0:0:0:0:
404,156,87056,2,0,L|280:156,1,120,2|0,0:0|0:0,0:0:0:0:
184,156,87389,2,0,L|296:112,1,120,2|0,0:0|0:0,0:0:0:0:
196,64,87723,2,0,P|132:80|96:128,1,120,2|0,0:0|0:0,0:0:0:0:
232,192,88056,5,2,0:0:0:0:
112,192,88278,1,2,0:0:0:0:
244,280,88389,1,2,0:0:0:0:
424,344,88723,2,0,P|456:296|436:240,1,120,2|0,0:0|0:0,0:0:0:0:
280,344,89056,1,2,0:0:0:0:
188,344,89167,1,2,0:0:0:0:
96,344,89278,1,2,0:0:0:0:
308,344,89389,6,0,P|292:280|220:244,1,150,2|0,0:0|0:0,0:0:0:0:
112,192,89723,1,2,0:0:0:0:
183,170,89834,1,0,0:0:0:0:
255,148,89945,1,0,0:0:0:0:
148,100,90056,1,2,0:0:0:0:
219,78,90167,1,0,0:0:0:0:
288,52,90278,1,0,0:0:0:0:
184,4,90389,2,0,L|56:4,1,120,2|0,0:0|0:0,0:0:0:0:
255,148,90723,5,2,0:0:0:0:
344,148,90834,1,2,0:0:0:0:
432,148,90945,1,2,0:0:0:0:
300,236,91056,2,0,L|176:236,1,120,2|2,0:0|0:0,0:0:0:0:
388,236,91389,2,0,P|364:300|280:324,1,150,2|0,0:0|0:0,0:0:0:0:
167,149,91723,1,2,0:0:0:0:
255,148,91834,1,2,0:0:0:0:
344,148,91945,1,2,0:0:0:0:
164,56,92056,6,0,L|40:56,1,120,6|0,0:0|0:0,0:0:0:0:
167,149,92389,2,0,L|228:148,2,60,2|2|2,0:0|0:0|0:0,0:0:0:0:
360,148,92723,1,6,0:0:0:0:
216,228,92945,1,2,0:0:0:0:
336,228,93167,1,2,0:0:0:0:
276,228,93278,1,2,0:0:0:0:
96,228,93389,6,0,L|216:228,1,120,6|2,0:0|0:0,0:0:0:0:
72,324,93834,1,2,0:0:0:0:
132,324,93945,1,2,0:0:0:0:
312,324,94056,2,0,L|432:324,1,120,6|2,0:0|0:0,0:0:0:0:
312,228,94389,2,0,L|236:228,2,60,2|2|2,0:0|0:0|0:0,0:0:0:0:
112,240,94723,6,0,B|12:200|12:64|80:4|204:4|264:56|264:136|228:192|172:192|136:136,1,506.250019311906,6|0,0:0|0:0,0:0:0:0:
324,40,96056,6,0,P|384:48|444:144,1,180,6|0,0:0|0:0,0:0:0:0:
208,232,96556,2,0,L|68:232,1,135,2|0,0:0|0:0,0:0:0:0:
252,160,96889,2,0,P|336:200|364:280,1,180,8|0,0:0|0:0,0:0:0:0:
112,340,97389,6,0,P|40:316|8:232,2,168.75,6|2|2,0:0|0:0|0:0,0:0:0:0:
272,344,98056,2,0,L|296:292,1,56.25,2|0,0:0|0:0,0:0:0:0:
204,292,98223,2,0,L|163:251,1,56.25,0|0,0:0|0:0,0:0:0:0:
312,220,98389,2,0,L|420:192,1,112.5,10|0,0:0|0:0,0:0:0:0:
251,144,98723,6,0,L|139:144,1,112.5,2|0,0:0|0:0,0:0:0:0:
275,56,99056,2,0,L|391:56,1,112.5,10|0,0:0|0:0,0:0:0:0:
196,56,99389,2,0,L|140:56,2,56.25,2|0|0,0:0|0:0|0:0,0:0:0:0:
248,56,99639,1,0,0:0:0:0:
400,56,99723,1,10,0:0:0:0:
244,136,99889,1,0,0:0:0:0:
424,136,100056,6,0,L|276:244,2,168.75,2|2|2,0:0|0:0|0:0,0:0:0:0:
264,136,100723,1,2,0:0:0:0:
257,196,100806,1,0,0:0:0:0:
299,239,100889,1,0,0:0:0:0:
356,240,100973,1,0,0:0:0:0:
200,240,101056,2,0,L|96:192,1,112.5,10|0,0:0|0:0,0:0:0:0:
264,136,101389,5,2,0:0:0:0:
270,75,101473,1,0,0:0:0:0:
229,33,101556,1,0,0:0:0:0:
172,32,101639,1,0,0:0:0:0:
112,112,101723,2,0,L|176:112,1,56.25,10|0,0:0|0:0,0:0:0:0:
228,192,101889,2,0,L|164:192,1,56.25,0|0,0:0|0:0,0:0:0:0:
92,276,102056,1,2,0:0:0:0:
204,276,102223,1,0,0:0:0:0:
68,276,102389,1,10,0:0:0:0:
252,276,102556,2,0,L|312:276,1,56.25,0|0,0:0|0:0,0:0:0:0:
460,276,102723,6,0,P|496:240|464:192,1,112.5,2|0,0:0|0:0,0:0:0:0:
304,192,102973,2,0,P|264:164|300:124,1,112.5,2|0,0:0|0:0,0:0:0:0:
372,124,103223,1,2,0:0:0:0:
496,80,103389,1,2,0:0:0:0:
442,124,103473,1,0,0:0:0:0:
496,80,103556,1,0,0:0:0:0:
260,192,103723,2,0,L|148:192,1,112.5,10|0,0:0|0:0,0:0:0:0:
328,304,104056,6,0,L|420:240,2,112.5,2|0|10,0:0|0:0|0:0,0:0:0:0:
192,304,104556,2,0,L|132:304,1,56.25,0|0,0:0|0:0,0:0:0:0:
192,304,104723,1,2,0:0:0:0:
242,246,104806,1,0,0:0:0:0:
187,191,104889,1,0,0:0:0:0:
52,192,105056,2,0,L|168:192,1,112.5,10|0,0:0|0:0,0:0:0:0:
300,192,105389,6,0,L|416:192,1,112.5,2|0,0:0|0:0,0:0:0:0:
356,192,105639,1,0,0:0:0:0:
252,72,105723,2,0,L|211:31,1,56.25,10|0,0:0|0:0,0:0:0:0:
304,112,105889,2,0,L|328:60,1,56.25,0|0,0:0|0:0,0:0:0:0:
212,148,106056,6,0,L|108:192,1,112.5,2|0,0:0|0:0,0:0:0:0:
164,192,106306,1,0,0:0:0:0:
220,192,106389,2,0,L|284:192,1,56.25,10|0,0:0|0:0,0:0:0:0:
124,316,106556,2,0,L|12:316,1,112.5,0|2,0:0|0:0,0:0:0:0:
260,316,106889,6,0,L|372:316,1,112.5,0|10,0:0|0:0,0:0:0:0:
216,316,107223,1,0,0:0:0:0:
464,224,107389,1,2,0:0:0:0:
388,208,107473,1,0,0:0:0:0:
312,192,107556,1,0,0:0:0:0:
140,192,107723,2,0,L|228:116,1,112.5,10|0,0:0|0:0,0:0:0:0:
476,44,108056,6,0,L|348:168,2,168.75,6|2|2,0:0|0:0|0:0,0:0:0:0:
296,40,108723,2,0,L|312:96,1,56.25,2|0,0:0|0:0,0:0:0:0:
404,92,108889,2,0,L|363:132,1,56.25,0|0,0:0|0:0,0:0:0:0:
196,132,109056,2,0,L|80:132,1,112.5,10|0,0:0|0:0,0:0:0:0:
172,200,109389,5,2,0:0:0:0:
424,240,109556,2,0,P|468:288|443:350,1,135.000005149842,0|10,0:0|0:0,0:0:0:0:
332,348,109889,1,0,0:0:0:0:
464,240,110056,1,2,0:0:0:0:
404,208,110139,1,0,0:0:0:0:
400,140,110223,1,0,0:0:0:0:
452,96,110306,1,0,0:0:0:0:
300,92,110389,1,8,0:0:0:0:
156,92,110556,1,0,0:0:0:0:
404,208,110723,6,0,P|484:252|504:324,2,168.75,6|2|2,0:0|0:0|0:0,0:0:0:0:
244,208,111389,1,2,0:0:0:0:
187,209,111473,1,0,0:0:0:0:
145,252,111556,1,0,0:0:0:0:
152,312,111639,1,0,0:0:0:0:
304,312,111723,2,0,L|408:264,1,112.5,10|0,0:0|0:0,0:0:0:0:
244,208,112056,5,2,0:0:0:0:
187,209,112139,1,0,0:0:0:0:
146,167,112223,1,0,0:0:0:0:
152,106,112306,1,0,0:0:0:0:
216,108,112389,2,0,L|272:108,1,56.25,10|0,0:0|0:0,0:0:0:0:
332,208,112556,2,0,L|275:208,1,56.25,0|0,0:0|0:0,0:0:0:0:
196,288,112723,1,2,0:0:0:0:
308,288,112889,1,0,0:0:0:0:
172,288,113056,1,10,0:0:0:0:
352,288,113223,2,0,L|412:288,1,56.25,0|0,0:0|0:0,0:0:0:0:
260,288,113389,6,0,P|228:248|256:200,1,112.5,6|2,0:0|0:0,0:0:0:0:
404,200,113639,2,0,P|436:164|396:128,1,112.5
328,128,113889,1,2,0:0:0:0:
168,88,114056,1,10,0:0:0:0:
222,132,114139,1,0,0:0:0:0:
276,176,114223,1,2,0:0:0:0:
460,204,114389,2,0,L|363:260,1,112.5,10|2,0:0|0:0,0:0:0:0:
116,260,114723,6,0,L|24:196,2,112.5,6|2|10,0:0|0:0|0:0,0:0:0:0:
252,260,115223,2,0,L|172:260,1,56.25,2|0,0:0|0:0,0:0:0:0:
144,260,115389,1,2,0:0:0:0:
112,200,115473,1,0,0:0:0:0:
156,164,115556,1,2,0:0:0:0:
340,164,115723,2,0,L|239:106,1,112.5,10|0,0:0|0:0,0:0:0:0:
128,108,116056,1,0,0:0:0:0:
376,28,116223,5,6,0:0:0:0:
208,28,116473,1,6,0:0:0:0:
412,28,116723,1,6,0:0:0:0:
228,28,116973,1,6,0:0:0:0:
448,28,117223,1,2,0:0:0:0:
204,28,117389,5,10,0:0:0:0:
184,80,117473,1,2,0:0:0:0:
192,135,117556,1,2,0:0:0:0:
226,179,117639,1,2,0:0:0:0:
332,180,117723,1,10,0:0:0:0:
397,211,117806,1,2,0:0:0:0:
421,280,117889,1,2,0:0:0:0:
387,345,117973,1,2,0:0:0:0:
216,344,118056,5,10,0:0:0:0:
143,331,118139,1,2,0:0:0:0:
94,277,118223,1,2,0:0:0:0:
89,203,118306,1,2,0:0:0:0:
260,204,118389,1,10,0:0:0:0:
311,152,118473,1,2,0:0:0:0:
297,81,118556,1,2,0:0:0:0:
232,50,118639,1,2,0:0:0:0:
24,188,118723,5,6,0:0:0:0:
248,192,119056,2,0,P|328:224|356:312,1,180,2|0,0:0|0:0,0:0:0:0:
192,256,119556,2,0,P|164:184|232:108,1,180,2|0,0:0|0:0,0:0:0:0:
388,113,120056,6,0,L|476:129,2,90,2|0|0,0:0|0:0|0:0,0:0:0:0:
208,112,120556,1,0,0:0:0:0:
424,112,120889,1,2,0:0:0:0:
244,112,121223,1,2,0:0:0:0:
244,112,121723,6,0,P|301:175|275:257,1,180,2|0,0:0|0:0,0:0:0:0:
110,309,122223,2,0,P|137:226|218:193,1,180,2|0,0:0|0:0,0:0:0:0:
400,112,122723,5,2,0:0:0:0:
300,112,122889,1,0,0:0:0:0:
200,112,123056,1,0,0:0:0:0:
380,192,123223,2,0,L|288:224,1,90,2|0,0:0|0:0,0:0:0:0:
112,220,123556,1,0,0:0:0:0:
276,220,123889,1,2,0:0:0:0:
276,220,124389,6,0,L|116:136,1,180,2|0,0:0|0:0,0:0:0:0:
280,136,124889,2,0,P|336:76|280:16,1,180,2|0,0:0|0:0,0:0:0:0:
117,137,125389,6,0,L|189:193,2,90,2|0|0,0:0|0:0|0:0,0:0:0:0:
297,194,125889,1,0,0:0:0:0:
109,194,126223,1,2,0:0:0:0:
261,194,126556,1,0,0:0:0:0:
256,192,126723,12,0,129223,0:0:0:0:
