osu file format v14

[General]
AudioFilename: audio.mp3
AudioLeadIn: 0
PreviewTime: 44056
Countdown: 0
SampleSet: Soft
StackLeniency: 0.7
Mode: 2
LetterboxInBreaks: 0
EpilepsyWarning: 1
WidescreenStoryboard: 0

[Editor]
Bookmarks: 1390,12056,22723,33389,44056,54723,65389,76056,86723,97389,108056,118723,129223
DistanceSpacing: 1
BeatDivisor: 4
GridSize: 4
TimelineZoom: 1

[Metadata]
Title:Memory Of Sunrise
TitleUnicode:Memory Of Sunrise
Artist:nora2r
ArtistUnicode:nora2r
Creator:JBHyperion
Version:Cup
Source:
Tags:BOFU 2016 BMS of Fighters Ultimate Legendary Again チームのらねこさい team Nora Nekosai のらねこさい まとめ 出前 demaescape UK hardcore electronic instrumental rhythm game Diverse Direct Nekomimi style ねこみりん AJamez Jemzuu Ongaku JBH
BeatmapID:2418467
BeatmapSetID:1158978

[Difficulty]
HPDrainRate:3
CircleSize:2
OverallDifficulty:6
ApproachRate:6
SliderMultiplier:1.5
SliderTickRate:1

[Events]
//Background and Video events
0,0,"sunrise.jpg",0,0
Video,-100,"Memory of Sunrise.avi"
//Break Periods
//Storyboard Layer 0 (Background)
//Storyboard Layer 1 (Fail)
//Storyboard Layer 2 (Pass)
//Storyboard Layer 3 (Foreground)
//Storyboard Layer 4 (Overlay)
//Storyboard Sound Samples

[TimingPoints]
1390,333.333333333333,4,2,99,70,1,0
1723,-100,4,2,1,70,0,0
6723,-100,4,2,99,70,0,0
7056,-100,4,2,1,70,0,0
11473,-100,4,2,2,35,0,0
11723,-100,4,2,2,70,0,0
11806,-100,4,2,2,50,0,0
12056,-100,4,2,2,50,0,0
14723,-100,4,2,2,55,0,0
17389,-100,4,2,2,60,0,0
17723,-100,4,2,2,30,0,0
18056,-100,4,2,2,32,0,0
18389,-100,4,2,2,34,0,0
18723,-100,4,2,2,36,0,0
19056,-100,4,2,2,39,0,0
19389,-100,4,2,2,42,0,0
19723,-100,4,2,2,45,0,0
20056,-100,4,2,2,50,0,0
20389,-100,4,2,2,55,0,0
20723,-100,4,2,2,60,0,0
21056,-100,4,2,2,65,0,0
21389,-100,4,2,2,70,0,0
22723,-100,4,2,98,70,0,0
23056,-100,4,2,2,70,0,0
25389,-100,4,2,97,70,0,0
25723,-100,4,2,2,70,0,0
28056,-100,4,2,96,70,0,0
28389,-100,4,2,2,70,0,0
30723,-100,4,2,98,70,0,0
31056,-100,4,2,2,70,0,0
32389,-100,4,2,2,70,0,0
33389,-100,4,2,1,100,0,0
33723,-100,4,2,2,70,0,0
42723,-100,4,2,2,50,0,0
43056,-100,4,2,2,40,0,0
43389,-100,4,2,2,30,0,0
43723,-100,4,2,2,70,0,0
44056,-100,4,2,2,70,0,0
53389,-100,4,2,2,65,0,0
53723,-100,4,2,2,60,0,0
54056,-100,4,2,2,55,0,0
54389,-100,4,2,2,60,0,0
54723,-133.333333333333,4,2,2,60,0,0
56056,-133.333333333333,4,2,1,60,0,0
57389,-133.333333333333,4,2,2,60,0,0
59389,-133.333333333333,4,2,1,60,0,0
60056,-133.333333333333,4,2,2,60,0,0
61389,-133.333333333333,4,2,1,60,0,0
62723,-133.333333333333,4,2,2,60,0,0
64056,-133.333333333333,4,2,1,60,0,0
64556,-133.333333333333,4,2,2,60,0,0
65389,-133.333333333333,4,2,2,70,0,0
68056,-114.285714285714,4,2,2,70,0,0
70723,-100,4,2,2,70,0,0
73389,-100,4,2,2,40,0,0
73723,-100,4,2,2,50,0,0
74056,-100,4,2,2,60,0,0
74389,-100,4,2,2,70,0,0
75389,-100,4,2,3,50,0,0
76056,-100,4,2,2,80,0,1
77223,-100,4,2,1,80,0,1
77723,-100,4,2,2,80,0,1
77889,-100,4,2,2,80,0,1
79889,-100,4,2,1,80,0,1
80389,-100,4,2,2,80,0,1
80556,-100,4,2,2,80,0,1
82556,-100,4,2,1,80,0,1
83056,-100,4,2,2,80,0,1
86723,-100,4,2,2,70,0,0
89389,-100,4,2,2,70,0,0
89612,-100,4,2,2,70,0,0
91389,-100,4,2,2,70,0,0
91612,-100,4,2,2,70,0,0
94723,-100,4,2,2,70,0,0
96056,-100,4,2,2,70,0,0
97389,-100,4,2,2,80,0,1
98889,-100,4,2,1,80,0,1
99056,-100,4,2,2,80,0,1
107973,-100,4,2,2,80,0,0
108056,-100,4,2,2,80,0,1
109556,-100,4,2,2,80,0,1
109723,-100,4,2,2,80,0,1
117473,-100,4,2,2,45,0,1
117723,-100,4,2,2,50,0,1
118056,-100,4,2,2,55,0,1
118389,-100,4,2,2,60,0,1
118723,-100,4,2,2,70,0,0
119056,-100,4,2,1,45,0,0
121723,-100,4,2,1,40,0,0
124389,-100,4,2,1,35,0,0
126723,-100,4,2,2,21,0,0
126889,-100,4,2,2,20,0,0
127056,-100,4,2,2,19,0,0
127223,-100,4,2,2,18,0,0
127389,-100,4,2,2,17,0,0
127556,-100,4,2,2,16,0,0
127723,-100,4,2,2,15,0,0
127889,-100,4,2,2,14,0,0
128056,-100,4,2,2,13,0,0
128223,-100,4,2,2,12,0,0
128389,-100,4,2,2,11,0,0
128556,-100,4,2,2,10,0,0
128723,-100,4,2,2,9,0,0
128889,-100,4,2,2,8,0,0
129056,-100,4,2,2,7,0,0
129223,-100,4,2,2,6,0,0

[Colours]
Combo1 : 250,225,125
Combo2 : 125,125,175
Combo3 : 150,100,150
Combo4 : 200,100,150
Combo5 : 200,100,100
Combo6 : 250,150,100

[HitObjects]
168,192,1390,5,14,0:0:0:0:
316,192,1723,2,0,P|348:116|256:28,1,225,2|2,0:0|0:0,0:0:0:0:
76,28,2723,2,0,P|44:92|84:156,1,150,2|2,0:0|0:0,0:0:0:0:
156,156,3223,2,0,L|256:268,2,150,2|2|2,0:0|0:0|0:0,0:0:0:0:
324,280,4389,6,0,L|332:28,1,225,2|2,0:0|0:0,0:0:0:0:
128,192,5389,2,0,P|148:120|212:88,1,150,2|2,0:0|0:0,0:0:0:0:
288,88,5889,1,2,0:0:0:0:
136,12,6223,1,8,0:0:0:0:
340,12,6723,5,12,0:0:0:0:
476,12,7056,2,0,P|492:100|404:192,1,225,2|2,0:0|0:0,0:0:0:0:
224,192,8056,2,0,L|72:192,1,150,2|2,0:0|0:0,0:0:0:0:
148,192,8556,1,2,0:0:0:0:
256,88,8889,1,2,0:0:0:0:
128,8,9223,1,2,0:0:0:0:
308,8,9723,6,0,P|324:152|308:240,1,225,2|2,0:0|0:0,0:0:0:0:
132,228,10723,2,0,L|128:76,1,150,2|2,0:0|0:0,0:0:0:0:
264,80,11389,1,10,0:0:0:0:
400,80,11723,1,10,0:0:0:0:
252,80,12056,6,0,L|248:236,1,150,6|8,0:0|0:0,0:0:0:0:
112,296,12723,2,0,L|104:128,1,150,8|8,0:0|0:0,0:0:0:0:
260,228,13389,2,0,L|268:76,1,150,8|8,0:0|0:0,0:0:0:0:
404,184,14056,2,0,L|396:32,1,150,8|8,0:0|0:0,0:0:0:0:
232,32,14723,6,0,L|76:32,1,150,14|8,0:0|0:0,0:0:0:0:
232,32,15389,2,0,L|240:192,1,150,8|8,0:0|0:0,0:0:0:0:
76,184,16056,1,14,0:0:0:0:
76,184,16389,1,8,0:0:0:0:
240,184,16723,2,0,L|392:184,1,150,14|8,0:0|0:0,0:0:0:0:
224,184,17389,5,6,0:0:0:0:
256,192,17723,12,6,21389,0:0:0:0:
344,192,22723,6,0,P|380:128|336:72,1,150,6|14,0:0|0:0,0:0:0:0:
228,72,23306,2,0,L|112:72,1,112.5,2|2,0:0|0:0,0:0:0:0:
115,72,23723,1,14,0:0:0:0:
244,72,23973,6,0,L|252:192,1,112.5,2|2,0:0|0:0,0:0:0:0:
251,184,24389,1,14,0:0:0:0:
120,184,24639,2,0,L|112:304,1,112.5,2|2,0:0|0:0,0:0:0:0:
180,328,25056,1,14,0:0:0:0:
332,328,25389,6,0,L|484:328,1,150,6|14,0:0|0:0,0:0:0:0:
352,328,25973,2,0,L|344:208,1,112.5,2|2,0:0|0:0,0:0:0:0:
344,215,26389,1,14,0:0:0:0:
216,216,26639,6,0,L|208:96,1,112.5,2|2,0:0|0:0,0:0:0:0:
208,103,27056,1,14,0:0:0:0:
76,100,27306,2,0,L|84:216,1,112.5,2|2,0:0|0:0,0:0:0:0:
152,216,27723,1,2,0:0:0:0:
304,216,28056,6,0,P|332:168|276:100,1,150,6|14,0:0|0:0,0:0:0:0:
152,100,28639,2,0,L|36:100,1,112.5,2|2,0:0|0:0,0:0:0:0:
39,100,29056,1,14,0:0:0:0:
168,100,29306,6,0,L|172:220,1,112.5,2|2,0:0|0:0,0:0:0:0:
171,212,29723,1,14,0:0:0:0:
300,100,29973,2,0,L|420:100,1,112.5,2|2,0:0|0:0,0:0:0:0:
413,100,30389,1,14,0:0:0:0:
240,100,30723,6,0,L|88:100,1,150,6|14,0:0|0:0,0:0:0:0:
208,192,31306,2,0,L|212:312,1,112.5,2|2,0:0|0:0,0:0:0:0:
211,304,31723,1,14,0:0:0:0:
76,304,32056,5,2,0:0:0:0:
240,304,32389,2,0,L|340:246,2,112.5,14|2|2,0:0|0:0|0:0,0:0:0:0:
172,304,33056,1,10,0:0:0:0:
316,192,33389,5,2,0:0:0:0:
164,192,33723,6,0,L|62:120,2,112.5,14|10|2,0:0|0:0|0:0,0:0:0:0:
232,192,34389,1,8,0:0:0:0:
368,192,34723,6,0,L|372:76,1,112.5,10|2,0:0|0:0,0:0:0:0:
260,160,35223,2,0,L|256:44,1,112.5,2|2,0:0|0:0,0:0:0:0:
144,48,35723,1,8,0:0:0:0:
292,48,36056,6,0,L|296:172,1,112.5,10|2,0:0|0:0,0:0:0:0:
216,196,36556,1,2,0:0:0:0:
160,196,36723,2,0,L|120:132,2,75,2|2|8,0:0|0:0|0:0,0:0:0:0:
308,196,37389,6,0,L|432:196,1,112.5,10|2,0:0|0:0,0:0:0:0:
296,196,37889,1,2,0:0:0:0:
296,196,38389,1,10,0:0:0:0:
132,192,38723,6,0,L|25:114,2,112.5,14|2|2,0:0|0:0|0:0,0:0:0:0:
232,192,39473,1,2,0:0:0:0:
332,192,39723,1,8,0:0:0:0:
184,192,40056,6,0,L|172:56,1,112.5,10|2,0:0|0:0,0:0:0:0:
52,248,40556,2,0,L|64:112,1,112.5,2|2,0:0|0:0,0:0:0:0:
180,136,41056,1,8,0:0:0:0:
328,136,41389,6,0,L|444:136,2,112.5,10|2|2,0:0|0:0|0:0,0:0:0:0:
216,136,42139,1,8,0:0:0:0:
340,136,42389,1,8,0:0:0:0:
256,192,42723,12,12,43723,0:0:0:0:
340,52,44056,6,0,L|336:216,1,150,6|8,0:0|0:0,0:0:0:0:
200,200,44723,2,0,L|192:124,2,75,2|2|8,0:0|0:0|0:0,0:0:0:0:
336,196,45389,6,0,P|376:264|332:312,1,150,2|8,0:0|0:0,0:0:0:0:
268,312,45889,1,2,0:0:0:0:
132,312,46223,2,0,L|124:228,1,75,2|8,0:0|0:0,0:0:0:0:
276,192,46723,6,0,L|284:40,1,150,6|8,0:0|0:0,0:0:0:0:
148,40,47389,1,2,0:0:0:0:
104,40,47556,1,2,0:0:0:0:
60,40,47723,1,8,0:0:0:0:
208,40,48056,6,0,B|284:40|284:40|284:124,1,150,2|8,0:0|0:0,0:0:0:0:
208,112,48556,1,2,0:0:0:0:
72,112,48889,2,0,L|68:200,1,75,2|8,0:0|0:0,0:0:0:0:
68,186,49389,1,2,0:0:0:0:
220,188,49723,6,0,P|256:248|220:320,1,150,14|2,0:0|0:0,0:0:0:0:
152,316,50223,1,14,0:0:0:0:
20,192,50723,2,0,B|20:116|20:116|104:116,1,150,14|2,0:0|0:0,0:0:0:0:
168,116,51223,1,14,0:0:0:0:
348,120,51723,1,14,0:0:0:0:
200,120,52056,6,0,L|196:280,1,150,6|6,0:0|0:0,0:0:0:0:
348,272,52723,2,0,L|344:120,1,150,6|6,0:0|0:0,0:0:0:0:
256,192,53389,12,12,54389,0:0:0:0:
208,192,54723,5,12,0:0:0:0:
64,192,55223,1,2,0:0:0:0:
224,192,55723,1,2,0:0:0:0:
420,192,57389,5,6,0:0:0:0:
268,192,57889,1,2,0:0:0:0:
436,192,58389,2,0,L|440:116,1,56.2500021457673,2|2,0:0|0:0,0:0:0:0:
300,192,59389,2,0,L|168:192,1,112.500004291535,2|2,0:0|0:0,0:0:0:0:
76,192,60056,5,6,0:0:0:0:
228,192,60556,1,2,0:0:0:0:
380,192,61056,1,2,0:0:0:0:
156,192,62723,5,6,0:0:0:0:
308,192,63223,1,2,0:0:0:0:
140,192,63723,1,2,0:0:0:0:
308,192,64556,1,2,0:0:0:0:
148,192,65056,1,2,0:0:0:0:
308,192,65389,6,0,P|384:160|412:72,2,168.750006437302,6|0|8,0:0|0:0|0:0,0:0:0:0:
196,192,66723,2,0,L|32:156,2,168.750006437302,6|0|8,0:0|0:0|0:0,0:0:0:0:
328,192,68056,6,0,L|336:44,1,131.250001251698,6|2,0:0|0:0,0:0:0:0:
203,323,68723,2,0,L|195:175,1,131.250001251698,8|8,0:0|0:0,0:0:0:0:
44,324,69389,5,6,0:0:0:0:
56,192,69723,1,2,0:0:0:0:
144,96,70056,1,8,0:0:0:0:
276,80,70389,1,8,0:0:0:0:
412,80,70723,6,0,L|420:252,1,150,6|2,0:0|0:0,0:0:0:0:
284,312,71389,2,0,L|276:144,1,150,6|2,0:0|0:0,0:0:0:0:
128,164,72056,6,0,L|176:8,1,150,6|2,0:0|0:0,0:0:0:0:
336,308,72723,2,0,L|288:152,1,150,6|2,0:0|0:0,0:0:0:0:
256,192,73389,12,2,74556,0:0:0:0:
256,192,75056,5,8,0:0:0:0:
100,192,76056,6,0,L|92:36,1,150,6|10,0:0|0:0,0:0:0:0:
244,44,76723,2,0,L|248:120,1,75,2|0,0:0|0:0,0:0:0:0:
112,116,77223,6,0,P|68:168|112:224,1,150,2|0,0:0|0:0,0:0:0:0:
180,224,77723,1,10,0:0:0:0:
316,224,78056,2,0,L|320:48,1,150,2|10,0:0|0:0,0:0:0:0:
184,72,78723,6,0,L|24:72,1,150,6|10,0:0|0:0,0:0:0:0:
184,72,79389,2,0,L|188:152,1,75,2|0,0:0|0:0,0:0:0:0:
324,144,79889,6,0,P|372:188|324:240,1,150,2|0,0:0|0:0,0:0:0:0:
256,240,80389,1,10,0:0:0:0:
120,240,80723,1,2,0:0:0:0:
84,240,81056,1,10,0:0:0:0:
232,336,81389,6,0,L|392:336,1,150,6|10,0:0|0:0,0:0:0:0:
232,336,82056,2,0,L|224:260,1,75,2|0,0:0|0:0,0:0:0:0:
360,264,82556,6,0,P|408:216|356:176,1,150,2|0,0:0|0:0,0:0:0:0:
280,176,83056,2,0,L|148:100,2,150,10|2|10,0:0|0:0|0:0,0:0:0:0:
432,176,84056,5,6,0:0:0:0:
280,176,84723,1,6,0:0:0:0:
132,176,85389,2,0,P|64:100|136:28,1,225,6|2,0:0|0:0,0:0:0:0:
316,28,86389,1,10,0:0:0:0:
164,28,86723,6,0,L|160:188,1,150,6|2,0:0|0:0,0:0:0:0:
296,176,87389,2,0,L|300:20,1,150,2|2,0:0|0:0,0:0:0:0:
436,24,88056,6,0,L|439:150,1,100,2|2,0:0|0:0,0:0:0:0:
438,123,88389,1,2,0:0:0:0:
304,192,88723,1,2,0:0:0:0:
168,192,89056,1,2,0:0:0:0:
32,192,89389,6,0,L|24:352,1,150,2|2,0:0|0:0,0:0:0:0:
160,341,90056,2,0,L|168:192,1,150,2|2,0:0|0:0,0:0:0:0:
304,192,90723,6,0,P|352:136|304:96,1,150,2|2,0:0|0:0,0:0:0:0:
192,96,91278,1,2,0:0:0:0:
160,96,91389,2,0,L|152:252,1,150,2|2,0:0|0:0,0:0:0:0:
300,248,92056,5,6,0:0:0:0:
420,248,92389,1,2,0:0:0:0:
284,248,92723,2,0,L|186:192,2,100,6|2|2,0:0|0:0|0:0,0:0:0:0:
368,192,93389,6,0,L|461:137,2,100,6|2|2,0:0|0:0|0:0,0:0:0:0:
284,192,94056,1,6,0:0:0:0:
140,192,94389,1,2,0:0:0:0:
300,192,94723,5,6,0:0:0:0:
312,194,96056,5,6,0:0:0:0:
472,194,96556,1,2,0:0:0:0:
336,194,96889,2,0,L|180:194,1,150,8|0,0:0|0:0,0:0:0:0:
112,194,97389,6,0,L|108:350,1,150,6|8,0:0|0:0,0:0:0:0:
260,346,98056,1,2,0:0:0:0:
380,346,98389,2,0,L|456:346,1,75,10|0,0:0|0:0,0:0:0:0:
380,346,98723,6,0,L|216:346,1,150,2|8,0:0|0:0,0:0:0:0:
388,344,99389,1,2,0:0:0:0:
252,344,99723,1,10,0:0:0:0:
184,344,99889,1,0,0:0:0:0:
116,344,100056,6,0,L|112:188,1,150,2|8,0:0|0:0,0:0:0:0:
248,192,100723,1,2,0:0:0:0:
384,192,101056,2,0,L|388:108,1,75,10|0,0:0|0:0,0:0:0:0:
320,116,101389,6,0,P|272:68|316:16,1,150,2|10,0:0|0:0,0:0:0:0:
452,16,102056,1,2,0:0:0:0:
316,16,102389,1,10,0:0:0:0:
180,16,102723,6,0,L|24:16,1,150,2|8,0:0|0:0,0:0:0:0:
164,16,103389,1,2,0:0:0:0:
21,16,103723,2,0,L|17:96,1,75,10|0,0:0|0:0,0:0:0:0:
100,92,104056,6,0,L|108:264,1,150,2|10,0:0|0:0,0:0:0:0:
256,244,104723,2,0,L|312:192,2,75,2|0|10,0:0|0:0|0:0,0:0:0:0:
120,244,105389,5,2,0:0:0:0:
84,244,105723,1,10,0:0:0:0:
220,244,106056,1,2,0:0:0:0:
356,244,106389,1,10,0:0:0:0:
204,244,106723,6,0,L|200:84,1,150,2|10,0:0|0:0,0:0:0:0:
352,92,107389,1,2,0:0:0:0:
412,136,107556,1,0,0:0:0:0:
412,212,107723,1,10,0:0:0:0:
352,256,107889,1,0,0:0:0:0:
276,256,108056,6,0,L|120:256,1,150,6|8,0:0|0:0,0:0:0:0:
260,256,108723,1,2,0:0:0:0:
396,256,109056,2,0,L|400:344,1,75,10|0,0:0|0:0,0:0:0:0:
332,332,109389,5,2,0:0:0:0:
196,332,109723,1,10,0:0:0:0:
344,332,110056,1,2,0:0:0:0:
180,332,110389,1,8,0:0:0:0:
112,332,110556,1,0,0:0:0:0:
44,332,110723,6,0,L|40:176,1,150,6|8,0:0|0:0,0:0:0:0:
176,184,111389,1,2,0:0:0:0:
24,184,111723,1,10,0:0:0:0:
188,184,112056,6,0,L|196:32,1,150,2|10,0:0|0:0,0:0:0:0:
332,32,112723,1,2,0:0:0:0:
468,32,113056,1,10,0:0:0:0:
320,32,113389,6,0,L|160:32,1,150,6|8,0:0|0:0,0:0:0:0:
36,32,114056,1,10,0:0:0:0:
193,32,114389,2,0,L|197:108,1,75,10|2,0:0|0:0,0:0:0:0:
108,108,114723,6,0,L|100:260,1,150,6|10,0:0|0:0,0:0:0:0:
250,257,115389,2,0,L|98:257,1,150,2|10,0:0|0:0,0:0:0:0:
100,257,115889,1,0,0:0:0:0:
250,257,116223,6,0,L|254:137,1,112.5,6|6,0:0|0:0,0:0:0:0:
144,144,116723,2,0,L|47:88,2,112.5,6|6|2,0:0|0:0|0:0,0:0:0:0:
280,144,117556,6,0,P|320:88|264:44,1,150,2|2,0:0|0:0,0:0:0:0:
200,44,118056,1,10,0:0:0:0:
80,44,118389,1,10,0:0:0:0:
232,44,118723,5,6,0:0:0:0:
352,44,119056,2,0,P|384:140|324:244,1,225,2|2,0:0|0:0,0:0:0:0:
148,244,120056,6,0,P|112:164|144:120,1,150,2|0,0:0|0:0,0:0:0:0:
212,120,120556,2,0,L|344:192,2,150,0|2|2,0:0|0:0|0:0,0:0:0:0:
32,120,121723,6,0,P|56:216|164:268,1,225,2|2,0:0|0:0,0:0:0:0:
344,272,122723,1,2,0:0:0:0:
392,236,122889,1,0,0:0:0:0:
380,176,123056,1,0,0:0:0:0:
320,176,123223,2,0,L|177:94,2,150,2|0|2,0:0|0:0|0:0,0:0:0:0:
488,252,124389,6,0,P|512:168|472:40,1,225,2|2,0:0|0:0,0:0:0:0:
292,36,125389,2,0,P|216:76|196:136,1,150,2|0,0:0|0:0,0:0:0:0:
212,192,125889,1,0,0:0:0:0:
304,292,126223,1,2,0:0:0:0:
440,292,126556,5,0,0:0:0:0:
256,192,127056,12,0,129223,0:0:0:0:
