osu file format v14

[General]
AudioFilename: audio.mp3
AudioLeadIn: 0
PreviewTime: 75005
Countdown: 0
SampleSet: Soft
StackLeniency: 0.7
Mode: 0
LetterboxInBreaks: 0
WidescreenStoryboard: 0

[Editor]
Bookmarks: 24755,55005,56338,57671,59005,60338,61671,63005,64338,65671,67005,68338,69671,71005,72338,73671,77005,78338,79671,81005,82338,83671,85005,86338,87671,89088,90338,91671,93005,94338,95671,97005
DistanceSpacing: 1
BeatDivisor: 4
GridSize: 4
TimelineZoom: 1.9

[Metadata]
Title:GO BACK 2 YOUR RAVE (Zekk Remix)
TitleUnicode:GO BACK 2 YOUR RAVE (Zekk Remix)
Artist:nora2r
ArtistUnicode:nora2r
Creator:Sandwich
Version:Technotronic Hyperride
Source:
Tags:
BeatmapID:1588792
BeatmapSetID:754688

[Difficulty]
HPDrainRate:6
CircleSize:4.1
OverallDifficulty:9
ApproachRate:9.3
SliderMultiplier:2.5
SliderTickRate:1

[Events]
//Background and Video events
0,0,"Konachan.com - 227786 sample.jpg",0,0
//Break Periods
2,12538,20951
//Storyboard Layer 0 (Background)
//Storyboard Layer 1 (Fail)
//Storyboard Layer 2 (Pass)
//Storyboard Layer 3 (Foreground)
//Storyboard Sound Samples

[TimingPoints]
1672,333.333333333333,4,2,0,78,1,0
1672,-166.666666666667,4,2,0,78,0,0
12338,-125,4,2,0,78,0,0
22939,-100,4,2,0,78,0,0
33605,-125,4,2,0,78,0,0
44272,-166.666666666667,4,2,0,78,0,0
52338,-200,4,2,0,78,0,0
55005,-76.9230769230769,4,2,0,78,0,1
64338,-125,4,2,0,78,0,1
65671,-76.9230769230769,4,2,0,78,0,1
73671,-76.9230769230769,4,2,0,78,0,0
75005,-125,4,2,0,78,0,0
76338,-71.4285714285714,4,2,0,78,0,1
85671,-125,4,2,0,78,0,0
87005,-71.4285714285714,4,2,0,78,0,1
92338,-125,4,2,0,78,0,0
97671,-83.3333333333333,4,2,0,78,0,1
105671,-125,4,2,0,78,0,1
107171,-83.3333333333333,4,2,0,78,0,1
108338,-71.4285714285714,4,2,0,78,0,1
114005,-142.857142857143,4,2,0,78,0,1
114338,-71.4285714285714,4,2,0,78,0,1
115338,-142.857142857143,4,2,0,78,0,1
115671,-71.4285714285714,4,2,0,78,0,1
116338,-100,4,2,0,78,0,1
119338,-125,4,2,0,78,0,0

[Colours]
Combo1 : 18,124,255
Combo2 : 230,230,230

[HitObjects]
77,77,1671,5,4,0:0:0:0:
62,96,2171,2,0,L|55:159,2,37.4999988555909
435,77,3005,5,0,0:0:0:0:
450,96,3505,2,0,L|457:159,2,37.4999988555909
353,109,3838,1,0,0:0:0:0:
329,188,4005,1,0,0:0:0:0:
353,267,4171,1,0,0:0:0:0:
454,133,4338,5,4,0:0:0:0:
467,120,4838,2,0,L|462:82,2,37.4999988555909
409,22,5171,1,0,0:0:0:0:
292,103,5338,1,0,0:0:0:0:
373,129,5505,1,0,0:0:0:0:
250,7,5671,6,0,L|134:29,1,112.499996566773
129,44,6005,1,0,0:0:0:0:
61,224,6338,2,0,L|177:246,1,112.499996566773
182,261,6672,1,0,0:0:0:0:
396,66,7005,6,0,P|377:133|414:212,1,149.999995422363,4|0,0:0|0:0,0:0:0:0:
467,138,7505,1,0,0:0:0:0:
467,138,7588,1,0,0:0:0:0:
467,138,7671,1,0,0:0:0:0:
396,66,7838,1,0,0:0:0:0:
340,163,8005,1,0,0:0:0:0:
269,91,8172,1,0,0:0:0:0:
213,188,8338,6,0,B|250:197|262:178|262:178|228:141|144:145,1,149.999995422363
116,211,8838,2,0,L|116:269,1,37.4999988555909
172,302,9005,1,0,0:0:0:0:
38,132,9171,1,0,0:0:0:0:
14,211,9337,1,0,0:0:0:0:
38,290,9504,1,0,0:0:0:0:
194,309,9671,6,0,P|243:293|394:340,1,187.499994277954,4|0,0:0|0:0,0:0:0:0:
379,342,10171,1,0,0:0:0:0:
453,260,10338,1,0,0:0:0:0:
453,260,10421,1,0,0:0:0:0:
453,260,10505,1,0,0:0:0:0:
369,217,10671,1,0,0:0:0:0:
458,355,10838,1,0,0:0:0:0:
433,131,11005,2,0,B|430:80|426:59|426:59|429:26|453:8|479:26|480:51|451:66|430:66|430:66|351:80|245:20|245:20|250:127|139:158,1,562.499982833863
60,132,12338,5,4,0:0:0:0:
132,92,21505,5,0,3:0:0:0:
132,92,21588,1,0,3:0:0:0:
132,92,21671,2,0,L|118:265,1,150,0|0,3:0|0:0,0:0:0:0:
200,325,22088,1,0,3:0:0:0:
223,326,22171,1,0,3:0:0:0:
247,328,22254,1,0,3:0:0:0:
271,330,22339,5,0,3:0:0:0:
313,305,22422,1,0,3:0:0:0:
363,301,22505,1,0,3:0:0:0:
409,320,22588,1,0,3:0:0:0:
441,357,22671,2,0,P|411:376|383:374,1,50
338,272,22838,2,0,P|368:253|396:255,1,50
470,267,23005,5,4,0:0:0:0:
470,267,23338,1,0,0:0:0:0:
440,157,23671,1,0,0:0:0:0:
440,157,23755,1,0,0:0:0:0:
440,157,23838,1,0,0:0:0:0:
306,45,24005,2,0,L|302:124,1,62.5
330,183,24171,2,0,L|333:120,1,62.5
206,99,24338,5,0,0:0:0:0:
204,131,24421,1,0,0:0:0:0:
202,162,24504,1,0,0:0:0:0:
201,193,24587,1,0,0:0:0:0:
199,224,24671,1,0,0:0:0:0:
113,179,24838,1,0,0:0:0:0:
27,225,25005,1,0,0:0:0:0:
125,306,25171,1,0,0:0:0:0:
125,306,25255,1,0,0:0:0:0:
125,306,25338,5,0,0:0:0:0:
168,311,25421,1,0,0:0:0:0:
210,323,25504,1,0,0:0:0:0:
249,343,25587,1,0,0:0:0:0:
284,369,25672,5,4,0:0:0:0:
309,319,25755,1,0,0:0:0:0:
353,284,25838,2,0,P|387:269|419:265,1,62.5
375,89,26005,5,0,0:0:0:0:
400,139,26088,1,0,0:0:0:0:
444,174,26171,2,0,P|478:188|510:192,1,62.5
400,13,26338,2,0,L|247:14,1,125
250,89,26588,2,0,L|374:88,1,125
392,102,26838,1,0,0:0:0:0:
127,60,27005,5,0,0:0:0:0:
132,109,27088,1,0,0:0:0:0:
154,154,27171,1,0,0:0:0:0:
189,189,27254,1,0,0:0:0:0:
234,210,27338,1,0,0:0:0:0:
250,89,27505,1,0,0:0:0:0:
109,214,27671,2,0,L|249:209,1,125
325,22,28005,1,0,0:0:0:0:
376,43,28088,1,0,0:0:0:0:
419,78,28171,1,0,0:0:0:0:
451,125,28254,1,0,0:0:0:0:
468,178,28338,5,4,0:0:0:0:
470,196,28671,1,0,0:0:0:0:
375,302,29005,1,0,0:0:0:0:
375,302,29088,1,0,0:0:0:0:
375,302,29171,1,0,0:0:0:0:
249,197,29338,2,0,L|327:201,1,62.5
261,322,29505,2,0,L|183:318,1,62.5
94,245,29671,5,0,0:0:0:0:
92,201,29754,1,0,0:0:0:0:
91,157,29837,1,0,0:0:0:0:
90,113,29920,1,0,0:0:0:0:
89,70,30005,2,0,L|113:8,1,62.5
235,120,30171,2,0,L|211:57,1,62.5
69,215,30338,2,0,L|92:152,1,62.5
210,222,30505,5,0,0:0:0:0:
271,220,30588,1,0,0:0:0:0:
322,185,30671,1,0,0:0:0:0:
346,129,30754,1,0,0:0:0:0:
336,68,30838,1,0,0:0:0:0:
235,120,31005,5,4,0:0:0:0:
269,146,31088,1,0,0:0:0:0:
308,165,31171,1,0,0:0:0:0:
351,174,31254,1,0,0:0:0:0:
395,173,31338,1,0,0:0:0:0:
437,161,31421,1,0,0:0:0:0:
476,141,31504,1,0,0:0:0:0:
244,27,31671,5,4,0:0:0:0:
217,61,31754,1,0,0:0:0:0:
198,100,31837,1,0,0:0:0:0:
189,143,31920,1,0,0:0:0:0:
190,187,32004,1,0,0:0:0:0:
202,229,32087,1,0,0:0:0:0:
222,268,32170,1,0,0:0:0:0:
437,161,32338,5,4,0:0:0:0:
437,161,32505,2,0,L|433:87,1,62.5
339,42,32671,1,0,0:0:0:0:
315,62,32754,1,0,0:0:0:0:
292,83,32837,1,0,0:0:0:0:
387,232,33005,2,0,L|390:294,1,62.5
437,161,33171,1,0,0:0:0:0:
396,146,33254,1,0,0:0:0:0:
353,153,33338,2,0,P|313:197|306:225,1,62.5
441,376,33505,2,0,P|481:332|488:304,1,62.5
442,122,33671,5,4,0:0:0:0:
423,96,34005,1,0,0:0:0:0:
405,71,34338,1,0,0:0:0:0:
387,45,34671,1,0,0:0:0:0:
180,74,35005,5,0,0:0:0:0:
198,99,35339,1,0,0:0:0:0:
216,124,35672,1,0,0:0:0:0:
234,150,36005,2,0,L|302:250,1,100
435,345,36338,6,0,L|491:340,3,50,6|0|0|0,0:0|0:0|0:0|0:0,0:0:0:0:
478,299,36671,2,0,L|429:295,3,50
435,253,37005,2,0,L|484:248,3,50
494,207,37338,1,0,0:0:0:0:
195,30,37671,6,0,L|139:35,3,50,2|0|0|0,0:0|0:0|0:0|0:0,0:0:0:0:
151,75,38004,2,0,L|200:79,3,50
195,122,38338,2,0,L|145:126,3,50
136,168,38671,1,0,0:0:0:0:
118,187,39005,6,0,L|115:257,1,50
178,282,39171,2,0,L|175:352,1,50
125,200,39338,2,0,L|122:270,1,50
185,295,39504,2,0,L|182:365,1,50
132,213,39671,6,0,L|129:283,1,50
192,308,39837,2,0,L|189:378,1,50
139,226,40005,2,0,L|136:296,1,50
199,321,40171,2,0,L|196:391,1,50
307,191,40338,6,0,L|377:188,1,50,2|0,0:0|0:0,0:0:0:0:
451,248,40504,2,0,L|402:251,1,50
320,198,40671,2,0,L|390:195,1,50
464,255,40837,2,0,L|415:258,1,50
333,205,41004,6,0,L|403:202,1,50
477,262,41170,2,0,L|428:265,1,50
346,212,41338,2,0,L|416:209,1,50
490,269,41504,2,0,L|441:272,1,50
279,85,41671,5,4,0:0:0:0:
273,76,41754,1,0,0:0:0:0:
268,67,41837,1,0,0:0:0:0:
263,59,41921,1,0,0:0:0:0:
258,50,42005,2,0,L|257:-8,2,50
147,133,42338,5,2,0:0:0:0:
141,141,42421,1,0,0:0:0:0:
136,150,42504,1,0,0:0:0:0:
131,158,42588,1,0,0:0:0:0:
126,167,42672,2,0,L|124:225,2,50
124,45,43005,1,8,0:0:0:0:
220,275,43171,1,8,0:0:0:0:
220,275,43505,5,0,0:0:0:0:
220,275,43588,1,0,0:0:0:0:
220,275,43671,2,0,L|292:277,1,50
468,176,43838,2,0,L|418:174,1,50
350,356,44005,1,0,0:0:0:0:
365,308,44088,1,0,0:0:0:0:
363,259,44171,1,0,0:0:0:0:
342,214,44255,1,0,0:0:0:0:
306,179,44338,5,4,0:0:0:0:
116,289,44588,1,0,0:0:0:0:
242,110,44838,5,0,0:0:0:0:
242,110,45005,1,0,0:0:0:0:
116,289,45255,1,0,0:0:0:0:
147,73,45505,5,0,0:0:0:0:
147,73,45672,1,0,0:0:0:0:
108,288,45922,1,0,0:0:0:0:
53,77,46171,5,0,0:0:0:0:
53,77,46338,1,0,0:0:0:0:
108,288,46588,1,0,0:0:0:0:
240,28,46838,1,0,0:0:0:0:
240,28,46921,1,0,0:0:0:0:
240,28,47005,5,4,0:0:0:0:
332,227,47255,1,0,0:0:0:0:
332,8,47505,5,0,0:0:0:0:
332,8,47672,1,0,0:0:0:0:
332,227,47922,1,0,0:0:0:0:
431,32,48172,5,0,0:0:0:0:
431,32,48339,1,0,0:0:0:0:
339,230,48589,1,0,0:0:0:0:
505,89,48838,5,0,0:0:0:0:
505,89,49005,1,0,0:0:0:0:
339,230,49255,1,0,0:0:0:0:
219,63,49505,1,0,0:0:0:0:
219,63,49588,1,0,0:0:0:0:
219,63,49671,5,4,0:0:0:0:
184,78,49754,1,0,0:0:0:0:
156,102,49837,1,0,0:0:0:0:
136,133,49921,1,0,0:0:0:0:
150,172,50005,5,2,0:0:0:0:
139,207,50088,1,0,0:0:0:0:
118,239,50172,1,0,0:0:0:0:
90,263,50255,1,0,0:0:0:0:
56,278,50338,2,0,P|49:246|53:229,1,37.4999988555909,2|0,0:0|0:0,0:0:0:0:
87,28,50505,2,0,P|94:60|90:77,1,37.4999988555909
14,154,50671,2,0,P|46:147|63:151,1,37.4999988555909,2|0,0:0|0:0,0:0:0:0:
227,191,50838,2,0,P|246:191|264:185,1,37.4999988555909
223,43,51005,6,0,L|224:71,14,18.7499994277954,2|0|0|0|0|0|0|0|0|0|0|0|0|0|0,0:0|0:0|0:0|0:0|0:0|0:0|0:0|0:0|0:0|0:0|0:0|0:0|0:0|0:0|0:0,0:0:0:0:
175,144,51671,1,0,0:0:0:0:
181,180,51754,1,0,0:0:0:0:
181,218,51837,1,0,0:0:0:0:
174,255,51921,1,0,0:0:0:0:
160,289,52004,5,0,0:0:0:0:
223,265,52088,1,0,0:0:0:0:
290,257,52171,1,0,0:0:0:0:
357,265,52255,1,0,0:0:0:0:
420,289,52338,1,0,0:0:0:0:
256,192,52421,12,0,53671,0:0:0:0:
96,98,54171,5,0,3:0:0:0:
60,232,54338,1,0,3:0:0:0:
60,232,54421,1,0,3:0:0:0:
163,196,54588,1,0,3:0:0:0:
163,196,54671,1,0,3:0:0:0:
194,194,54754,1,0,3:0:0:0:
225,193,54837,1,0,3:0:0:0:
256,191,54921,1,0,3:0:0:0:
287,190,55005,6,0,P|294:145|293:105,1,81.2499962806703,12|0,0:0|0:0,0:0:0:0:
160,44,55171,1,0,0:0:0:0:
136,50,55254,1,0,0:0:0:0:
113,57,55338,1,8,0:0:0:0:
120,105,55421,1,0,0:0:0:0:
115,154,55504,1,0,0:0:0:0:
96,199,55588,1,0,0:0:0:0:
66,237,55671,6,0,P|16:249|-25:246,1,81.2499962806703,8|0,0:0|0:0,0:0:0:0:
207,140,55838,2,0,P|257:151|298:148,1,81.2499962806703
79,93,56005,2,0,P|28:104|-12:101,1,81.2499962806703,8|0,0:0|0:0,0:0:0:0:
206,278,56171,2,0,P|256:289|297:286,1,81.2499962806703
394,75,56338,5,12,0:0:0:0:
391,107,56421,1,0,0:0:0:0:
414,131,56504,1,0,0:0:0:0:
447,130,56588,1,0,0:0:0:0:
468,103,56671,5,8,0:0:0:0:
427,142,56754,1,0,0:0:0:0:
399,191,56837,1,0,0:0:0:0:
389,247,56921,1,0,0:0:0:0:
395,303,57005,2,0,P|444:354|468:359,1,81.2499962806703,8|0,0:0|0:0,0:0:0:0:
286,150,57171,2,0,P|334:99|358:94,1,81.2499962806703
207,311,57339,5,8,0:0:0:0:
228,269,57422,1,0,0:0:0:0:
274,269,57505,1,0,0:0:0:0:
297,309,57589,1,0,0:0:0:0:
272,348,57671,6,0,L|173:354,1,81.2499962806703,12|0,0:0|0:0,0:0:0:0:
51,269,57838,2,0,L|312:251,1,243.749988842011
272,348,58171,6,0,L|370:354,1,81.2499962806703
492,269,58338,2,0,L|231:251,1,243.749988842011,8|0,0:0|0:0,0:0:0:0:
178,156,58671,1,0,0:0:0:0:
176,139,58754,1,0,0:0:0:0:
174,123,58837,1,0,0:0:0:0:
172,107,58921,1,0,0:0:0:0:
170,91,59005,5,12,0:0:0:0:
213,115,59088,1,0,0:0:0:0:
260,127,59171,1,0,0:0:0:0:
308,127,59255,1,0,0:0:0:0:
355,114,59338,5,8,0:0:0:0:
295,97,59421,1,0,0:0:0:0:
244,135,59504,1,0,0:0:0:0:
243,198,59588,1,0,0:0:0:0:
292,237,59671,2,0,P|356:255|394:252,1,81.2499962806703,8|0,0:0|0:0,0:0:0:0:
151,326,59838,2,0,P|87:343|49:340,1,81.2499962806703
335,357,60005,1,8,0:0:0:0:
353,353,60088,1,0,0:0:0:0:
371,349,60171,1,0,0:0:0:0:
391,349,60255,1,0,0:0:0:0:
410,350,60338,5,12,0:0:0:0:
387,298,60421,1,0,0:0:0:0:
376,243,60504,1,0,0:0:0:0:
376,186,60588,1,0,0:0:0:0:
389,130,60671,2,0,P|418:75|438:54,1,81.2499962806703,8|0,0:0|0:0,0:0:0:0:
272,171,60838,1,0,0:0:0:0:
272,171,60921,1,0,0:0:0:0:
272,171,61005,2,0,P|247:203|231:240,1,81.2499962806703,8|0,0:0|0:0,0:0:0:0:
112,41,61171,2,0,P|136:73|152:110,1,81.2499962806703
48,269,61338,5,8,0:0:0:0:
69,227,61421,1,0,0:0:0:0:
115,227,61504,1,0,0:0:0:0:
138,267,61588,1,0,0:0:0:0:
113,306,61670,6,0,L|14:312,1,81.2499962806703,12|0,0:0|0:0,0:0:0:0:
196,221,61838,2,0,L|97:227,1,81.2499962806703
296,304,62005,6,0,L|197:310,1,81.2499962806703,8|0,0:0|0:0,0:0:0:0:
379,219,62173,2,0,L|280:225,1,81.2499962806703
479,302,62338,2,0,L|380:308,3,81.2499962806703,8|0|0|0,0:0|0:0|0:0|0:0,0:0:0:0:
347,116,62671,1,8,0:0:0:0:
379,112,62754,1,0,0:0:0:0:
411,115,62837,1,0,0:0:0:0:
441,126,62921,1,0,0:0:0:0:
469,144,63005,6,0,L|468:53,1,81.2499962806703,12|0,0:0|0:0,0:0:0:0:
337,10,63171,2,0,L|337:91,1,81.2499962806703
433,242,63338,1,8,0:0:0:0:
206,119,63505,6,0,L|206:38,1,81.2499962806703
337,90,63671,2,0,L|338:172,1,81.2499962806703,8|0,0:0|0:0,0:0:0:0:
302,269,63838,1,0,0:0:0:0:
115,127,64005,1,8,0:0:0:0:
117,167,64088,1,0,0:0:0:0:
102,204,64171,1,0,0:0:0:0:
71,230,64255,1,0,0:0:0:0:
32,239,64338,6,0,L|-5:198,2,50,4|0|0,0:0|0:0|0:0,0:0:0:0:
131,318,64671,2,0,L|94:359,2,50
201,201,65005,2,0,L|164:160,2,50
300,280,65338,2,0,L|263:321,1,50
370,163,65505,2,0,L|333:122,1,50
477,224,65671,5,12,0:0:0:0:
478,240,65754,1,0,0:0:0:0:
479,256,65837,1,0,0:0:0:0:
481,272,65920,1,0,0:0:0:0:
470,296,66004,1,8,0:0:0:0:
472,312,66088,1,0,0:0:0:0:
473,328,66172,1,0,0:0:0:0:
474,344,66255,1,0,0:0:0:0:
475,360,66338,6,0,P|430:352|386:329,1,81.2499962806703,8|0,0:0|0:0,0:0:0:0:
266,317,66504,2,0,P|250:274|248:224,1,81.2499962806703
330,0,66671,2,0,P|345:42|347:92,1,81.2499962806703,8|0,0:0|0:0,0:0:0:0:
397,202,66837,2,0,P|367:236|325:263,1,81.2499962806703
153,84,67005,5,12,0:0:0:0:
137,87,67088,1,0,0:0:0:0:
121,89,67171,1,0,0:0:0:0:
104,87,67254,1,0,0:0:0:0:
88,84,67338,1,8,0:0:0:0:
111,135,67421,1,0,0:0:0:0:
118,191,67504,1,0,0:0:0:0:
108,247,67587,1,0,0:0:0:0:
83,298,67671,6,0,P|34:322|0:327,1,81.2499962806703,8|0,0:0|0:0,0:0:0:0:
198,159,67838,2,0,P|247:182|281:187,1,81.2499962806703
344,330,68005,1,8,0:0:0:0:
311,287,68088,1,0,0:0:0:0:
260,300,68171,1,0,0:0:0:0:
253,354,68254,1,0,0:0:0:0:
300,379,68338,6,0,L|397:362,1,81.2499962806703,12|0,0:0|0:0,0:0:0:0:
455,241,68505,1,0,0:0:0:0:
481,241,68588,1,0,0:0:0:0:
492,254,68671,2,0,L|412:268,1,81.2499962806703,8|0,0:0|0:0,0:0:0:0:
193,201,68838,6,0,L|289:183,1,81.2499962806703
347,62,69005,1,8,0:0:0:0:
373,62,69088,1,0,0:0:0:0:
384,75,69171,2,0,L|304:89,1,81.2499962806703
140,71,69338,1,8,0:0:0:0:
142,119,69421,1,0,0:0:0:0:
133,167,69504,1,0,0:0:0:0:
112,211,69587,1,0,0:0:0:0:
82,249,69671,6,0,P|37:270|-5:268,1,81.2499962806703,12|0,0:0|0:0,0:0:0:0:
63,92,69838,2,0,P|108:71|150:73,1,81.2499962806703
206,243,70005,1,8,0:0:0:0:
223,270,70088,1,0,0:0:0:0:
247,291,70171,1,0,0:0:0:0:
277,305,70254,1,0,0:0:0:0:
309,310,70338,1,8,0:0:0:0:
268,283,70421,1,0,0:0:0:0:
221,273,70504,1,0,0:0:0:0:
173,280,70587,1,0,0:0:0:0:
131,303,70671,5,8,0:0:0:0:
175,236,70754,1,0,0:0:0:0:
182,156,70837,1,0,0:0:0:0:
150,82,70920,1,0,0:0:0:0:
87,32,71005,6,0,P|35:23|-11:28,1,81.2499962806703,12|0,0:0|0:0,0:0:0:0:
294,132,71171,2,0,P|346:122|392:127,1,81.2499962806703
81,224,71338,6,0,P|28:214|-17:219,1,81.2499962806703,8|0,0:0|0:0,0:0:0:0:
287,323,71504,2,0,P|339:313|385:318,1,81.2499962806703
221,142,71671,1,8,0:0:0:0:
188,99,71754,1,0,0:0:0:0:
137,112,71837,1,0,0:0:0:0:
130,166,71920,1,0,0:0:0:0:
177,191,72005,1,8,0:0:0:0:
175,126,72088,1,0,0:0:0:0:
148,68,72171,1,0,0:0:0:0:
99,26,72254,1,0,0:0:0:0:
37,7,72338,6,0,P|-16:24|-58:42,1,81.2499962806703,12|0,0:0|0:0,0:0:0:0:
122,151,72505,2,0,P|68:134|26:116,1,81.2499962806703
235,0,72671,2,0,P|181:16|139:34,1,81.2499962806703,8|0,0:0|0:0,0:0:0:0:
319,143,72838,2,0,P|265:126|223:108,1,81.2499962806703
400,213,73005,6,0,P|453:229|495:247,1,81.2499962806703,8|0,0:0|0:0,0:0:0:0:
315,357,73172,2,0,P|368:340|410:322,1,81.2499962806703
202,206,73338,2,0,P|255:222|297:240,1,81.2499962806703,8|0,0:0|0:0,0:0:0:0:
118,349,73505,2,0,P|171:332|213:314,1,81.2499962806703
330,146,73671,5,12,0:0:0:0:
330,146,74005,5,8,0:0:0:0:
330,146,74338,5,8,0:0:0:0:
330,146,74671,5,8,0:0:0:0:
119,99,75005,5,0,0:0:0:0:
56,182,75255,2,0,L|58:290,1,100
138,338,75505,1,0,0:0:0:0:
162,333,75588,1,0,0:0:0:0:
189,327,75671,5,0,0:0:0:0:
224,292,75754,1,0,0:0:0:0:
272,282,75837,1,0,0:0:0:0:
319,299,75920,1,0,0:0:0:0:
349,338,76005,2,0,L|403:340,1,50
363,353,76171,2,0,L|417:355,1,50
458,168,76338,6,0,P|451:110|435:71,1,87.499997329712,12|0,0:0|0:0,0:0:0:0:
305,254,76505,2,0,P|298:312|282:351,1,87.499997329712
135,68,76671,2,0,P|88:32|62:0,1,87.499997329712,8|0,0:0|0:0,0:0:0:0:
133,244,76838,2,0,P|186:266|228:272,1,87.499997329712
360,102,77005,1,8,0:0:0:0:
346,53,77088,1,0,0:0:0:0:
298,43,77171,1,0,0:0:0:0:
265,81,77254,1,0,0:0:0:0:
284,127,77338,2,0,P|336:142|380:138,1,87.499997329712,8|0,0:0|0:0,0:0:0:0:
135,68,77505,2,0,P|83:82|39:78,1,87.499997329712
238,223,77671,5,12,0:0:0:0:
257,251,77754,1,0,0:0:0:0:
264,285,77838,2,0,P|253:343|226:379,1,87.499997329712
224,203,78005,5,8,0:0:0:0:
248,227,78088,1,0,0:0:0:0:
261,260,78172,2,0,P|260:319|239:359,1,87.499997329712
208,186,78338,5,8,0:0:0:0:
236,206,78421,1,0,0:0:0:0:
254,236,78505,2,0,P|263:294|250:337,1,87.499997329712
189,173,78671,5,8,0:0:0:0:
220,187,78754,1,0,0:0:0:0:
243,213,78838,2,0,P|262:268|257:313,1,87.499997329712
41,281,79005,2,0,P|129:327|88:237,1,262.499991989136,12|0,0:0|0:0,0:0:0:0:
89,149,79338,6,0,L|87:244,1,87.499997329712,8|0,0:0|0:0,0:0:0:0:
344,94,79505,2,0,L|346:189,1,87.499997329712
177,286,79671,2,0,L|175:191,1,87.499997329712,8|0,0:0|0:0,0:0:0:0:
432,341,79838,2,0,L|434:246,1,87.499997329712
250,55,80005,2,0,L|248:150,1,87.499997329712,8|0,0:0|0:0,0:0:0:0:
505,0,80172,2,0,L|507:95,1,87.499997329712
417,280,80338,5,12,0:0:0:0:
382,283,80421,1,0,0:0:0:0:
347,286,80505,2,0,L|231:297,1,87.499997329712
435,269,80671,5,8,0:0:0:0:
400,272,80754,1,0,0:0:0:0:
365,275,80838,2,0,L|249:286,1,87.499997329712
453,258,81005,5,8,0:0:0:0:
418,261,81088,1,0,0:0:0:0:
383,264,81172,2,0,L|267:275,1,87.499997329712
471,247,81338,5,8,0:0:0:0:
436,250,81421,1,0,0:0:0:0:
401,253,81505,2,0,L|285:264,1,87.499997329712
369,80,81671,6,0,P|348:35|345:-7,1,87.499997329712,12|4,0:0|0:0,0:0:0:0:
293,185,81838,2,0,P|272:140|269:98,1,87.499997329712
511,222,82005,2,0,P|482:262|447:286,1,87.499997329712,8|0,0:0|0:0,0:0:0:0:
383,209,82171,2,0,P|354:249|319:273,1,87.499997329712
171,214,82338,1,8,0:0:0:0:
147,187,82421,1,0,0:0:0:0:
124,161,82504,1,0,0:0:0:0:
101,135,82587,1,0,0:0:0:0:
78,108,82671,2,0,P|68:50|77:20,1,87.499997329712,8|0,0:0|0:0,0:0:0:0:
39,251,82838,2,0,P|49:309|40:339,1,87.499997329712
213,205,83005,5,12,0:0:0:0:
232,177,83088,1,0,0:0:0:0:
239,143,83172,2,0,P|228:85|201:49,1,87.499997329712
199,225,83339,5,8,0:0:0:0:
223,201,83422,1,0,0:0:0:0:
236,168,83506,2,0,P|235:108|214:68,1,87.499997329712
183,242,83672,5,8,0:0:0:0:
211,222,83755,1,0,0:0:0:0:
229,192,83839,2,0,P|238:133|225:90,1,87.499997329712
164,255,84005,5,8,0:0:0:0:
195,241,84088,1,0,0:0:0:0:
218,215,84172,2,0,P|237:159|232:114,1,87.499997329712
55,58,84338,6,0,P|130:96|59:39,1,262.499991989136,12|0,0:0|0:0,0:0:0:0:
13,193,84671,2,0,P|71:201|114:189,1,87.499997329712,8|0,0:0|0:0,0:0:0:0:
241,37,84838,2,0,P|299:28|342:40,1,87.499997329712
446,190,85005,2,0,P|429:163|428:178,1,87.499997329712,8|0,0:0|0:0,0:0:0:0:
279,291,85171,2,0,P|296:264|297:279,1,87.499997329712
443,357,85338,1,8,0:0:0:0:
443,357,85421,1,0,0:0:0:0:
443,357,85505,1,0,0:0:0:0:
327,143,85671,6,0,L|180:140,1,100,4|0,0:0|0:0,0:0:0:0:
313,159,86005,2,0,L|166:156,1,100
299,175,86338,2,0,L|152:172,1,100
130,202,86671,2,0,L|188:203,1,50
276,290,86838,2,0,L|226:288,1,50
331,38,87005,6,0,P|364:81|372:124,1,87.499997329712,12|0,0:0|0:0,0:0:0:0:
464,81,87171,2,0,P|471:134|456:175,1,87.499997329712
222,300,87338,6,0,P|242:249|275:221,1,87.499997329712,8|0,0:0|0:0,0:0:0:0:
192,163,87504,2,0,P|235:130|277:121,1,87.499997329712
503,263,87671,6,0,P|449:270|408:255,1,87.499997329712,8|0,0:0|0:0,0:0:0:0:
399,357,87837,2,0,P|348:336|320:303,1,87.499997329712
341,123,88005,6,0,P|329:81|331:38,1,87.499997329712,8|0,0:0|0:0,0:0:0:0:
249,185,88171,2,0,P|250:228|238:270,1,87.499997329712
24,84,88338,5,12,0:0:0:0:
63,102,88421,1,0,0:0:0:0:
103,120,88505,2,0,P|142:144|171:186,1,87.499997329712
380,177,88671,1,8,0:0:0:0:
341,195,88754,1,0,0:0:0:0:
301,213,88838,2,0,P|262:237|233:279,1,87.499997329712
24,300,89005,5,8,0:0:0:0:
63,282,89088,1,0,0:0:0:0:
103,264,89172,2,0,P|142:240|171:198,1,87.499997329712
380,207,89338,1,8,0:0:0:0:
341,189,89421,1,0,0:0:0:0:
301,171,89505,2,0,P|262:147|233:105,1,87.499997329712
0,220,89671,6,0,P|43:187|86:179,1,87.499997329712,12|0,0:0|0:0,0:0:0:0:
43,87,89837,2,0,P|96:79|137:94,1,87.499997329712
262,329,90004,6,0,P|211:308|183:275,1,87.499997329712,8|0,0:0|0:0,0:0:0:0:
125,359,90170,2,0,P|92:316|83:273,1,87.499997329712
225,48,90337,6,0,P|232:101|217:142,1,87.499997329712,8|0,0:0|0:0,0:0:0:0:
319,152,90503,2,0,P|298:202|265:230,1,87.499997329712
85,209,90671,6,0,P|43:221|0:219,1,87.499997329712,8|0,0:0|0:0,0:0:0:0:
147,302,90837,2,0,P|190:300|232:312,1,87.499997329712
404,241,91005,1,12,0:0:0:0:
423,202,91088,1,0,0:0:0:0:
427,158,91171,2,0,P|366:154|347:175,1,87.499997329712
108,241,91338,1,8,0:0:0:0:
89,202,91421,1,0,0:0:0:0:
85,158,91504,2,0,P|146:154|165:175,1,87.499997329712
418,245,91671,5,8,0:0:0:0:
439,203,91754,1,0,0:0:0:0:
444,154,91837,2,0,P|377:150|356:173,1,87.499997329712
93,245,92004,1,8,0:0:0:0:
72,203,92087,1,0,0:0:0:0:
67,154,92170,2,0,P|135:150|155:173,1,87.499997329712
256,312,92338,5,12,0:0:0:0:
241,63,92838,6,0,L|238:210,1,100
257,77,93172,2,0,L|254:224,1,100
273,91,93505,2,0,L|270:238,1,100
380,323,93838,6,0,L|377:176,1,100
396,309,94172,2,0,L|393:162,1,100
412,295,94505,2,0,L|409:148,1,100
460,109,94838,2,0,L|458:29,1,50
319,48,95005,5,4,0:0:0:0:
289,48,95088,1,0,0:0:0:0:
259,49,95171,1,0,0:0:0:0:
229,50,95254,1,0,0:0:0:0:
217,86,95338,5,0,0:0:0:0:
246,85,95422,1,0,0:0:0:0:
276,84,95505,1,0,0:0:0:0:
306,83,95588,1,0,0:0:0:0:
336,82,95671,1,0,0:0:0:0:
140,42,95838,1,0,0:0:0:0:
204,232,96005,1,0,0:0:0:0:
240,126,96171,1,0,0:0:0:0:
240,126,96255,1,0,0:0:0:0:
240,126,96338,5,4,3:0:0:0:
47,223,96588,1,0,3:0:0:0:
152,295,96755,1,0,3:0:0:0:
152,295,96838,1,0,3:0:0:0:
152,295,96921,1,0,3:0:0:0:
152,295,97005,2,0,L|165:330,3,25
245,273,97171,2,0,L|254:250,3,25
254,360,97338,1,0,0:0:0:0:
303,358,97421,1,0,0:0:0:0:
353,356,97504,1,0,0:0:0:0:
403,355,97587,1,0,0:0:0:0:
453,353,97671,6,0,L|467:264,1,74.9999977111817,12|0,0:0|0:0,0:0:0:0:
507,146,97838,1,0,0:0:0:0:
327,0,98005,6,0,L|341:89,1,74.9999977111817,8|0,0:0|0:0,0:0:0:0:
381,207,98172,1,0,0:0:0:0:
259,328,98338,1,8,0:0:0:0:
210,307,98421,1,0,0:0:0:0:
159,300,98504,1,0,0:0:0:0:
107,306,98587,1,0,0:0:0:0:
58,326,98671,2,0,L|50:232,1,74.9999977111817,8|0,0:0|0:0,0:0:0:0:
115,84,98838,1,8,0:0:0:0:
30,23,99005,5,12,0:0:0:0:
14,80,99088,1,0,0:0:0:0:
30,137,99171,1,0,0:0:0:0:
73,178,99254,1,0,0:0:0:0:
131,191,99338,2,0,L|206:160,1,74.9999977111817,8|0,0:0|0:0,0:0:0:0:
279,55,99505,1,0,0:0:0:0:
426,214,99671,2,0,L|351:182,1,74.9999977111817,8|0,0:0|0:0,0:0:0:0:
278,77,99838,1,0,0:0:0:0:
278,122,99921,1,0,0:0:0:0:
278,167,100004,1,8,0:0:0:0:
278,212,100087,1,0,0:0:0:0:
278,257,100171,1,0,0:0:0:0:
278,302,100254,1,0,0:0:0:0:
278,347,100337,5,12,0:0:0:0:
261,298,100421,1,0,0:0:0:0:
218,269,100505,2,0,L|127:255,1,74.9999977111817
77,10,100671,1,8,0:0:0:0:
85,68,100754,1,0,0:0:0:0:
118,118,100837,1,0,0:0:0:0:
169,148,100920,1,0,0:0:0:0:
229,153,101005,6,0,L|248:58,1,74.9999977111817,8|0,0:0|0:0,0:0:0:0:
323,143,101171,1,0,0:0:0:0:
323,143,101255,2,0,L|341:47,1,74.9999977111817
416,132,101421,1,0,0:0:0:0:
416,132,101505,2,0,L|434:36,1,74.9999977111817
365,296,101671,5,12,0:0:0:0:
414,291,101754,1,0,0:0:0:0:
426,243,101837,1,0,0:0:0:0:
385,216,101920,1,0,0:0:0:0:
346,245,102005,2,0,P|348:296|365:322,1,74.9999977111817,8|0,0:0|0:0,0:0:0:0:
416,132,102171,2,0,P|371:108|340:110,1,74.9999977111817
244,197,102338,1,8,0:0:0:0:
453,25,102505,1,0,0:0:0:0:
393,25,102588,1,0,0:0:0:0:
333,26,102671,1,8,0:0:0:0:
273,27,102754,1,0,0:0:0:0:
213,28,102838,1,0,0:0:0:0:
153,29,102921,1,0,0:0:0:0:
93,30,103005,6,0,L|76:112,1,74.9999977111817,12|0,0:0|0:0,0:0:0:0:
13,239,103171,1,0,0:0:0:0:
213,28,103338,6,0,L|157:90,1,74.9999977111817,8|0,0:0|0:0,0:0:0:0:
39,168,103504,1,0,0:0:0:0:
192,332,103671,6,0,L|209:250,1,74.9999977111817,8|0,0:0|0:0,0:0:0:0:
272,123,103837,1,0,0:0:0:0:
72,334,104004,6,0,L|127:271,1,74.9999977111817,8|0,0:0|0:0,0:0:0:0:
246,194,104170,1,0,0:0:0:0:
460,270,104338,5,12,0:0:0:0:
446,326,104421,1,0,0:0:0:0:
394,352,104504,1,0,0:0:0:0:
340,329,104587,1,0,0:0:0:0:
323,273,104671,2,0,P|358:242|386:235,1,74.9999977111817,8|0,0:0|0:0,0:0:0:0:
460,270,104838,2,0,P|491:305|498:333,1,74.9999977111817
261,349,105005,1,8,0:0:0:0:
115,238,105171,1,0,0:0:0:0:
159,238,105254,1,0,0:0:0:0:
204,237,105337,1,8,0:0:0:0:
249,237,105420,1,0,0:0:0:0:
294,236,105505,2,0,P|341:267|356:296,1,74.9999977111817
455,229,105671,5,12,0:0:0:0:
468,189,105755,1,0,0:0:0:0:
448,225,105838,5,0,0:0:0:0:
474,192,105922,1,0,0:0:0:0:
443,220,106005,5,8,0:0:0:0:
479,197,106089,1,0,0:0:0:0:
443,220,106171,6,0,L|445:283,1,50
369,126,106338,5,8,0:0:0:0:
352,73,106422,1,0,0:0:0:0:
377,120,106505,5,0,0:0:0:0:
342,77,106589,1,0,0:0:0:0:
383,114,106672,5,8,0:0:0:0:
336,83,106756,1,0,0:0:0:0:
387,104,106839,5,0,0:0:0:0:
332,93,106921,1,0,0:0:0:0:
387,94,107005,5,12,0:0:0:0:
162,64,107171,5,0,0:0:0:0:
162,64,107255,1,0,0:0:0:0:
162,64,107338,2,0,L|67:68,1,74.9999977111817,8|0,0:0|0:0,0:0:0:0:
232,172,107505,5,0,0:0:0:0:
232,172,107589,1,0,0:0:0:0:
232,172,107672,1,8,0:0:0:0:
179,174,107755,1,0,0:0:0:0:
127,176,107838,1,0,0:0:0:0:
74,178,107921,1,0,0:0:0:0:
22,180,108005,5,8,0:0:0:0:
45,251,108088,1,0,0:0:0:0:
98,303,108171,1,0,0:0:0:0:
168,327,108254,1,0,0:0:0:0:
242,316,108338,6,0,P|274:279|284:236,1,87.499997329712,12|0,0:0|0:0,0:0:0:0:
331,47,108505,2,0,P|362:84|372:127,1,87.499997329712
358,321,108671,1,8,0:0:0:0:
375,266,108754,1,0,0:0:0:0:
432,262,108837,1,0,0:0:0:0:
457,314,108920,1,0,0:0:0:0:
417,355,109005,2,0,P|368:362|323:358,1,87.499997329712,8|0,0:0|0:0,0:0:0:0:
268,115,109171,1,0,0:0:0:0:
286,133,109254,1,0,0:0:0:0:
300,155,109338,5,8,0:0:0:0:
240,141,109421,1,0,0:0:0:0:
179,137,109504,1,0,0:0:0:0:
118,144,109587,1,0,0:0:0:0:
155,187,109671,5,12,0:0:0:0:
190,212,109754,1,0,0:0:0:0:
230,230,109837,1,0,0:0:0:0:
272,240,109920,1,0,0:0:0:0:
245,282,110005,5,8,0:0:0:0:
209,308,110088,1,0,0:0:0:0:
169,326,110171,1,0,0:0:0:0:
127,336,110254,1,0,0:0:0:0:
139,291,110338,5,8,0:0:0:0:
114,256,110421,1,0,0:0:0:0:
96,216,110504,1,0,0:0:0:0:
86,174,110587,1,0,0:0:0:0:
56,132,110672,5,8,0:0:0:0:
30,168,110755,1,0,0:0:0:0:
12,208,110838,1,0,0:0:0:0:
2,250,110921,1,0,0:0:0:0:
0,294,111005,6,0,L|100:299,1,87.499997329712,12|0,0:0|0:0,0:0:0:0:
293,248,111171,2,0,L|205:243,1,87.499997329712
6,137,111338,6,0,L|106:142,1,87.499997329712,8|0,0:0|0:0,0:0:0:0:
343,79,111504,2,0,L|255:74,1,87.499997329712
242,288,111671,1,8,0:0:0:0:
300,269,111754,1,0,0:0:0:0:
361,266,111837,1,0,0:0:0:0:
420,279,111920,1,0,0:0:0:0:
475,306,112005,5,8,0:0:0:0:
392,323,112088,1,0,0:0:0:0:
331,265,112171,1,0,0:0:0:0:
344,182,112254,1,0,0:0:0:0:
420,146,112338,6,0,L|416:56,1,87.499997329712,12|0,0:0|0:0,0:0:0:0:
91,237,112588,2,8,L|96:328,1,87.499997329712
392,323,112838,1,0,0:0:0:0:
392,323,112921,1,8,0:0:0:0:
120,61,113088,1,0,0:0:0:0:
120,61,113171,1,0,0:0:0:0:
333,150,113338,6,0,L|423:145,1,87.499997329712
179,234,113505,2,0,L|88:238,1,87.499997329712
227,38,113671,2,0,P|216:127|183:34,1,262.499991989136,4|0,0:0|0:0,0:0:0:0:
319,19,114005,2,0,P|335:84|316:156,1,131.249995994568
270,252,114338,6,0,L|165:249,1,87.499997329712
407,288,114505,2,0,L|302:285,1,87.499997329712
304,264,114671,2,0,L|199:261,1,87.499997329712
441,300,114838,2,0,L|336:297,1,87.499997329712
456,35,115005,2,0,P|439:129|411:38,1,262.499991989136,4|0,0:0|0:0,0:0:0:0:
316,145,115339,2,0,P|303:82|319:19,1,131.249995994568
435,83,115671,6,0,L|432:188,1,87.499997329712
399,220,115838,2,0,L|396:325,1,87.499997329712
423,117,116005,2,0,L|420:222,1,87.499997329712
387,254,116171,2,0,L|384:359,1,87.499997329712
187,243,116338,5,6,0:0:0:0:
210,255,116421,1,0,0:0:0:0:
198,278,116504,1,0,0:0:0:0:
175,265,116587,1,0,0:0:0:0:
185,237,116671,5,2,0:0:0:0:
218,253,116754,1,0,0:0:0:0:
200,286,116837,1,0,0:0:0:0:
168,266,116920,1,0,0:0:0:0:
182,227,117005,5,2,0:0:0:0:
227,250,117088,1,0,0:0:0:0:
203,296,117171,1,0,0:0:0:0:
159,269,117254,1,0,0:0:0:0:
177,214,117338,5,2,0:0:0:0:
241,246,117421,1,0,0:0:0:0:
207,310,117504,1,0,0:0:0:0:
145,272,117587,1,0,0:0:0:0:
194,259,117671,5,4,0:0:0:0:
355,136,117838,1,0,0:0:0:0:
437,362,118171,1,0,0:0:0:0:
355,136,118505,5,0,0:0:0:0:
194,259,118671,2,0,L|195:358,1,62.5
260,190,118838,1,0,0:0:0:0:
192,162,118921,1,0,0:0:0:0:
125,190,119005,2,0,L|97:239,6,31.25
112,255,119338,5,0,0:0:0:0:
