osu file format v14

[General]
AudioFilename: audio.mp3
AudioLeadIn: 0
PreviewTime: -1
Countdown: 0
SampleSet: None
StackLeniency: 0.2
Mode: 0
LetterboxInBreaks: 0
WidescreenStoryboard: 1

[Editor]
DistanceSpacing: 1.1
BeatDivisor: 16
GridSize: 4
TimelineZoom: 8

[Metadata]
Title:B.B.K.K.B.K.K.
TitleUnicode:B.B.K.K.B.K.K.
Artist:nora2r
ArtistUnicode:nora2r
Creator:fanzhen0019
Version:CS7(25%)
Source:
Tags:bbkkbkk
BeatmapID:1432313
BeatmapSetID:677205

[Difficulty]
HPDrainRate:0
CircleSize:7
OverallDifficulty:0
ApproachRate:10
SliderMultiplier:3.59999990463257
SliderTickRate:0.5

[Events]
//Background and Video events
0,0,"ba.png",0,0
//Break Periods
//Storyboard Layer 0 (Background)
//Storyboard Layer 1 (Fail)
//Storyboard Layer 2 (Pass)
//Storyboard Layer 3 (Foreground)
//Storyboard Sound Samples

[TimingPoints]
90,352.941176470588,4,1,0,0,1,0
2560,-0.1,4,1,0,0,0,0
11384,88.2352941176471,4,1,0,0,1,0
11384,-50,4,1,0,0,0,0
22678,-25,4,1,0,0,0,0
31325,-50,4,1,0,0,0,0
31501,-25,4,1,0,0,0,0
33972,-25,4,1,0,0,0,1

[Colours]
Combo1 : 255,255,255
Combo2 : 255,255,255

[HitObjects]
24,4,2913,6,0,B|127:4|127:4|71:52|71:52|161:52|161:52|161:163|161:163|24:163|24:163|24:4,1,674.999982118607
332,4,3266,2,0,B|435:4|435:4|379:52|379:52|469:52|469:52|469:163|469:163|332:163|332:163|332:4,1,674.999982118607
0,172,3619,6,0,B|0:336|0:336|140:176|140:176|77:249|77:249|244:396,1,674.999982118607
284,172,3972,2,0,B|284:336|284:336|424:176|424:176|361:249|361:249|528:396,1,674.999982118607
144,4,4325,6,0,B|247:4|247:4|191:52|191:52|281:52|281:52|281:163|281:163|144:163|144:163|144:4,1,674.999982118607
0,172,4678,6,0,B|0:336|0:336|140:176|140:176|77:249|77:249|244:396,1,674.999982118607
284,172,5031,2,0,B|284:336|284:336|424:176|424:176|361:249|361:249|528:396,1,674.999982118607
24,4,5737,6,0,B|127:4|127:4|71:52|71:52|161:52|161:52|161:163|161:163|24:163|24:163|24:4,1,674.999982118607
332,4,6090,2,0,B|435:4|435:4|379:52|379:52|469:52|469:52|469:163|469:163|332:163|332:163|332:4,1,674.999982118607
0,172,6443,6,0,B|0:336|0:336|140:176|140:176|77:249|77:249|244:396,1,674.999982118607
284,172,6796,2,0,B|284:336|284:336|424:176|424:176|361:249|361:249|528:396,1,674.999982118607
144,4,7149,6,0,B|247:4|247:4|191:52|191:52|281:52|281:52|281:163|281:163|144:163|144:163|144:4,1,674.999982118607
0,172,7502,6,0,B|0:336|0:336|140:176|140:176|77:249|77:249|244:396,1,674.999982118607
284,172,7855,2,0,B|284:336|284:336|424:176|424:176|361:249|361:249|528:396,1,674.999982118607
24,84,8560,6,0,B|161:84|161:84|86:148|86:148|207:148|207:148|207:296|207:296|24:296|24:296|24:84,1,899.999976158142
320,84,8913,2,0,B|457:84|457:84|382:148|382:148|503:148|503:148|503:296|503:296|320:296|320:296|320:84,1,899.999976158142
24,84,9266,6,0,B|24:296|24:296|205:89|205:89|123:183|123:183|340:374,1,899.999976158142
320,84,9619,2,0,B|320:296|320:296|501:89|501:89|419:183|419:183|640:376,1,899.999976158142
0,16,10325,6,0,B|0:154|0:154|86:154|86:154|0:154|0:154|0:16,1,449.999988079071
168,32,10325,2,0,B|80:0|80:0|80:156|80:156|168:156|168:156|80:156|80:156|80:84|80:84|145:84|145:84|80:84|80:84|80:156|80:156|168:156|168:156|80:156|80:156|80:0|80:0|168:32,1,1124.99997019768
168,32,10325,2,0,B|252:0|252:0|208:17|208:17|208:150|208:150|208:17|208:17|252:0|252:0|168:32,1,449.999988079071
272,96,10501,6,0,B|356:124|356:124|312:109|312:109|312:243|312:243|312:109|312:109|356:124|356:124|272:96,1,449.999988079071
355,123,10501,2,0,B|355:259|355:259|355:175|355:175|423:175|423:175|423:247|423:247|423:89|423:89|423:247,1,674.999982118607
512,120,10501,2,0,B|424:88|424:88|424:244|424:244|512:244|512:244|424:244|424:244|424:172|424:172|489:172|489:172|424:172|424:172|424:244|424:244|512:244|512:244|424:244|424:244|424:88|424:88|512:120,1,1124.99997019768
0,364,10678,6,0,B|0:220|0:220|68:252|68:252|68:296|68:296|36:296|36:296|76:364|76:364|-8:364,1,449.999988079071
84,364,10678,2,0,B|104:364|104:364|84:364|84:364|80:220|80:220|167:370|167:370|80:220|80:220|84:364,1,674.999982118607
164,364,10678,2,0,B|224:364|224:364|224:292|224:292|164:292|164:292|164:216|164:216|228:244|228:244|164:216|164:216|164:292|164:292|224:292|224:292|224:364|224:364|164:364,1,674.999982118607
240,364,10678,2,0,B|300:364|300:364|300:292|300:292|240:292|240:292|240:216|240:216|304:244|304:244|240:216|240:216|240:292|240:292|300:292|300:292|300:364|300:364|240:364,1,674.999982118607
164,4,11031,6,0,B|164:160|164:160|164:76|164:76|232:76|232:76|232:32|232:32|232:76|232:76|184:76|184:76|273:181|273:181|184:76|184:76|232:76|232:76|232:32|232:32|232:76|232:76|232:32,1,899.999976158142
280,4,11031,2,0,B|280:152|280:152|280:4|280:4|280:192,1,449.999988079071
396,32,11031,2,0,B|328:4|328:4|328:164|328:164|400:164|400:164|328:164|328:164|328:4|328:4|396:32|396:32|366:20|366:20|396:32,1,674.999982118607
444,8,11031,2,0,B|444:164|444:164|444:80|444:80|512:80|512:80|512:36|512:36|512:80|512:80|464:80|464:80|553:185|553:185|464:80|464:80|512:80|512:80|512:36|512:36|512:80|512:80|512:36,1,899.999976158142
64,172,11384,6,0,B|80:148|80:148|220:148|220:148|220:168|220:168|228:188|228:188|228:208|228:208|236:220|236:220|236:48|236:48|228:60|228:60|228:84|228:84|220:104|220:104|220:132|220:132|152:132|152:132|152:100|152:100|144:92|144:92|136:92|136:92|136:44|136:44|180:44|180:44|180:40|180:40|96:40|96:40|96:44|96:44|136:44|136:44|136:92|136:92|128:92|128:92|120:100|120:100|120:132|120:132|76:132|76:132|44:132|40:148|40:148|40:172|40:172|64:172,1,1079.99997138977
64,172,11384,2,0,B|52:192|52:192|52:212|76:212|76:192|76:192|64:172,1,89.9999976158143
64,172,11428,2,0,B|52:192|52:192|52:212|76:212|76:192|76:192|64:172,1,89.9999976158143
64,256,11538,2,0,B|52:276|52:276|52:296|76:296|76:276|76:276|64:256,1,89.9999976158143
64,172,11736,6,0,B|80:148|80:148|220:148|220:148|220:168|220:168|228:188|228:188|228:208|228:208|236:220|236:220|236:48|236:48|228:60|228:60|228:84|228:84|220:104|220:104|220:132|220:132|152:132|152:132|152:100|152:100|144:92|144:92|136:92|136:92|136:44|136:44|180:44|180:44|180:40|180:40|96:40|96:40|96:44|96:44|136:44|136:44|136:92|136:92|128:92|128:92|120:100|120:100|120:132|120:132|76:132|76:132|44:132|40:148|40:148|40:172|40:172|64:172,1,1079.99997138977
64,172,11736,2,0,B|52:192|52:192|52:212|76:212|76:192|76:192|64:172,1,89.9999976158143
64,288,11913,2,0,B|52:308|52:308|52:328|76:328|76:308|76:308|64:288,1,89.9999976158143
64,172,12089,6,0,B|80:148|80:148|220:148|220:148|220:168|220:168|228:188|228:188|228:208|228:208|236:220|236:220|236:48|236:48|228:60|228:60|228:84|228:84|220:104|220:104|220:132|220:132|152:132|152:132|152:100|152:100|144:92|144:92|136:92|136:92|136:44|136:44|180:44|180:44|180:40|180:40|96:40|96:40|96:44|96:44|136:44|136:44|136:92|136:92|128:92|128:92|120:100|120:100|120:132|120:132|76:132|76:132|44:132|40:148|40:148|40:172|40:172|64:172,1,1079.99997138977
64,172,12089,2,0,B|52:192|52:192|52:212|76:212|76:192|76:192|64:172,1,89.9999976158143
64,320,12266,2,0,B|52:340|52:340|52:360|76:360|76:340|76:340|64:320,1,89.9999976158143
64,172,12441,2,0,B|80:148|80:148|220:148|220:148|220:168|220:168|228:188|228:188|228:208|228:208|236:220|236:220|236:48|236:48|228:60|228:60|228:84|228:84|220:104|220:104|220:132|220:132|152:132|152:132|152:100|152:100|144:92|144:92|136:92|136:92|136:44|136:44|180:44|180:44|180:40|180:40|96:40|96:40|96:44|96:44|136:44|136:44|136:92|136:92|128:92|128:92|120:100|120:100|120:132|120:132|76:132|76:132|44:132|40:148|40:148|40:172|40:172|64:172,1,1079.99997138977
64,172,12442,6,0,B|80:148|80:148|220:148|220:148|220:168|220:168|228:188|228:188|228:208|228:208|236:220|236:220|236:48|236:48|228:60|228:60|228:84|228:84|220:104|220:104|220:132|220:132|152:132|152:132|152:100|152:100|144:92|144:92|136:92|136:92|136:44|136:44|180:44|180:44|180:40|180:40|96:40|96:40|96:44|96:44|136:44|136:44|136:92|136:92|128:92|128:92|120:100|120:100|120:132|120:132|76:132|76:132|44:132|40:148|40:148|40:172|40:172|64:172,1,1079.99997138977
64,172,12442,2,0,B|52:192|52:192|52:212|76:212|76:192|76:192|64:172,1,89.9999976158143
64,352,12619,2,0,B|52:372|52:372|52:392|76:392|76:372|76:372|64:352,1,89.9999976158143
472,124,12795,6,0,B|472:140|472:140|456:140|456:124|456:124|456:108|472:108|472:108|488:108|488:124|488:124|488:140|472:140|472:140|472:148|472:148|472:232|472:232|532:172|532:172|532:268|532:268|532:172|532:172|492:172|492:172|492:368|492:368|492:268|492:268|452:268|452:268|452:368|452:368|452:172|452:172|424:172|424:172|408:212|408:212|380:232,1,1259.9999666214
155,240,12795,2,0,B|177:373|177:373|267:372|267:372|288:240,1,359.999990463257
364,176,12795,2,0,B|338:185|338:185|341:155|341:155|364:176,1,89.9999976158143
240,328,12972,2,0,B|249:353|249:353|219:350|219:350|240:328,1,89.9999976158143
472,124,13148,6,0,B|472:140|472:140|456:140|456:124|456:124|456:108|472:108|472:108|488:108|488:124|488:124|488:140|472:140|472:140|472:148|472:148|472:232|472:232|532:172|532:172|532:268|532:268|532:172|532:172|492:172|492:172|492:368|492:368|492:268|492:268|452:268|452:268|452:368|452:368|452:172|452:172|424:172|424:172|408:212|408:212|380:232,1,1259.9999666214
155,240,13148,2,0,B|177:373|177:373|267:372|267:372|288:240,1,359.999990463257
324,148,13148,2,0,B|306:169|306:169|293:141|293:141|324:148,1,89.9999976158143
196,312,13325,2,0,B|186:337|186:337|216:334|216:334|196:312,1,89.9999976158143
240,328,13325,2,0,B|249:353|249:353|219:350|219:350|240:328,1,89.9999976158143
472,124,13501,6,0,B|472:140|472:140|456:140|456:124|456:124|456:108|472:108|472:108|488:108|488:124|488:124|488:140|472:140|472:140|472:148|472:148|472:232|472:232|532:172|532:172|532:268|532:268|532:172|532:172|492:172|492:172|492:368|492:368|492:268|492:268|452:268|452:268|452:368|452:368|452:172|452:172|424:172|424:172|408:212|408:212|380:232,1,1259.9999666214
155,240,13501,2,0,B|177:373|177:373|267:372|267:372|288:240,1,359.999990463257
272,144,13501,2,0,B|267:171|267:171|242:153|242:153|272:144,1,89.9999976158143
248,296,13678,2,0,B|222:305|222:305|225:275|225:275|248:296,1,89.9999976158143
240,328,13678,2,0,B|249:353|249:353|219:350|219:350|240:328,1,89.9999976158143
196,312,13678,2,0,B|186:337|186:337|216:334|216:334|196:312,1,89.9999976158143
472,124,13854,6,0,B|472:140|472:140|456:140|456:124|456:124|456:108|472:108|472:108|488:108|488:124|488:124|488:140|472:140|472:140|472:148|472:148|472:232|472:232|532:172|532:172|532:268|532:268|532:172|532:172|492:172|492:172|492:368|492:368|492:268|492:268|452:268|452:268|452:368|452:368|452:172|452:172|424:172|424:172|408:212|408:212|380:232,1,1259.9999666214
155,240,13854,2,0,B|177:373|177:373|267:372|267:372|288:240,1,359.999990463257
228,164,13854,2,0,B|238:190|238:190|207:186|207:186|228:164,1,89.9999976158143
200,256,14031,2,0,B|209:281|209:281|179:278|179:278|200:256,1,89.9999976158143
196,312,14031,2,0,B|186:337|186:337|216:334|216:334|196:312,1,89.9999976158143
240,328,14031,2,0,B|249:353|249:353|219:350|219:350|240:328,1,89.9999976158143
248,296,14031,2,0,B|222:305|222:305|225:275|225:275|248:296,1,89.9999976158143
80,272,14207,6,0,B|76:248|88:216|88:216|116:208|128:172|128:172|140:156|140:156|160:156|160:156|160:104|160:104|140:104|140:104|128:88|128:88|124:80|124:80|116:72|40:72|40:72|36:80|40:88|40:88|116:88|116:88|128:104|128:104|24:104|24:104|20:116|24:124|24:124|124:124|124:124|124:140|124:140|20:140|20:140|16:148|20:160|20:160|112:172|112:172|96:180|96:180|72:152|20:176|20:176|12:184|20:192|20:192|76:180|88:216|88:216|76:248|80:272,1,1169.99996900559
80,280,14229,6,0,B|76:256|88:224|88:224|116:216|128:180|128:180|140:164|140:164|160:164|160:164|160:112|160:112|140:112|140:112|128:96|128:96|124:88|124:88|116:80|40:80|40:80|36:88|40:96|40:96|116:96|116:96|128:112|128:112|24:112|24:112|20:124|24:132|24:132|124:132|124:132|124:148|124:148|20:148|20:148|16:156|20:168|20:168|112:180|112:180|96:188|96:188|72:160|20:184|20:184|12:192|20:200|20:200|76:188|88:224|88:224|76:256|80:280,1,1169.99996900559
80,288,14251,6,0,B|76:264|88:232|88:232|116:224|128:188|128:188|140:172|140:172|160:172|160:172|160:120|160:120|140:120|140:120|128:104|128:104|124:96|124:96|116:88|40:88|40:88|36:96|40:104|40:104|116:104|116:104|128:120|128:120|24:120|24:120|20:132|24:140|24:140|124:140|124:140|124:156|124:156|20:156|20:156|16:164|20:176|20:176|112:188|112:188|96:196|96:196|72:168|20:192|20:192|12:200|20:208|20:208|76:196|88:232|88:232|76:264|80:288,1,1169.99996900559
80,296,14273,6,0,B|76:272|88:240|88:240|116:232|128:196|128:196|140:180|140:180|160:180|160:180|160:128|160:128|140:128|140:128|128:112|128:112|124:104|124:104|116:96|40:96|40:96|36:104|40:112|40:112|116:112|116:112|128:128|128:128|24:128|24:128|20:140|24:148|24:148|124:148|124:148|124:164|124:164|20:164|20:164|16:172|20:184|20:184|112:196|112:196|96:204|96:204|72:176|20:200|20:200|12:208|20:216|20:216|76:204|88:240|88:240|76:272|80:296,1,1169.99996900559
80,304,14295,6,0,B|76:280|88:248|88:248|116:240|128:204|128:204|140:188|140:188|160:188|160:188|160:136|160:136|140:136|140:136|128:120|128:120|124:112|124:112|116:104|40:104|40:104|36:112|40:120|40:120|116:120|116:120|128:136|128:136|24:136|24:136|20:148|24:156|24:156|124:156|124:156|124:172|124:172|20:172|20:172|16:180|20:192|20:192|112:204|112:204|96:212|96:212|72:184|20:208|20:208|12:216|20:224|20:224|76:212|88:248|88:248|76:280|80:304,1,1169.99996900559
80,312,14317,6,0,B|76:288|88:256|88:256|116:248|128:212|128:212|140:196|140:196|160:196|160:196|160:144|160:144|140:144|140:144|128:128|128:128|124:120|124:120|116:112|40:112|40:112|36:120|40:128|40:128|116:128|116:128|128:144|128:144|24:144|24:144|20:156|24:164|24:164|124:164|124:164|124:180|124:180|20:180|20:180|16:188|20:200|20:200|112:212|112:212|96:220|96:220|72:192|20:216|20:216|12:224|20:232|20:232|76:220|88:256|88:256|76:288|80:312,1,1169.99996900559
80,320,14339,6,0,B|76:296|88:264|88:264|116:256|128:220|128:220|140:204|140:204|160:204|160:204|160:152|160:152|140:152|140:152|128:136|128:136|124:128|124:128|116:120|40:120|40:120|36:128|40:136|40:136|116:136|116:136|128:152|128:152|24:152|24:152|20:164|24:172|24:172|124:172|124:172|124:188|124:188|20:188|20:188|16:196|20:208|20:208|112:220|112:220|96:228|96:228|72:200|20:224|20:224|12:232|20:240|20:240|76:228|88:264|88:264|76:296|80:320,1,1169.99996900559
448,96,14560,6,0,B|452:120|440:152|440:152|412:160|400:196|400:196|388:212|388:212|368:212|368:212|368:264|368:264|388:264|388:264|400:280|400:280|404:288|404:288|412:296|488:296|488:296|492:288|488:280|488:280|412:280|412:280|400:264|400:264|504:264|504:264|508:252|504:244|504:244|404:244|404:244|404:228|404:228|508:228|508:228|512:220|508:208|508:208|416:196|416:196|432:188|432:188|456:216|508:192|508:192|516:184|508:176|508:176|452:188|440:152|440:152|452:120|448:96,1,1169.99996900559
448,92,14582,6,0,B|452:116|440:148|440:148|412:156|400:192|400:192|388:208|388:208|368:208|368:208|368:260|368:260|388:260|388:260|400:276|400:276|404:284|404:284|412:292|488:292|488:292|492:284|488:276|488:276|412:276|412:276|400:260|400:260|504:260|504:260|508:248|504:240|504:240|404:240|404:240|404:224|404:224|508:224|508:224|512:216|508:204|508:204|416:192|416:192|432:184|432:184|456:212|508:188|508:188|516:180|508:172|508:172|452:184|440:148|440:148|452:116|448:92,1,1169.99996900559
448,88,14604,6,0,B|452:112|440:144|440:144|412:152|400:188|400:188|388:204|388:204|368:204|368:204|368:256|368:256|388:256|388:256|400:272|400:272|404:280|404:280|412:288|488:288|488:288|492:280|488:272|488:272|412:272|412:272|400:256|400:256|504:256|504:256|508:244|504:236|504:236|404:236|404:236|404:220|404:220|508:220|508:220|512:212|508:200|508:200|416:188|416:188|432:180|432:180|456:208|508:184|508:184|516:176|508:168|508:168|452:180|440:144|440:144|452:112|448:88,1,1169.99996900559
448,84,14626,6,0,B|452:108|440:140|440:140|412:148|400:184|400:184|388:200|388:200|368:200|368:200|368:252|368:252|388:252|388:252|400:268|400:268|404:276|404:276|412:284|488:284|488:284|492:276|488:268|488:268|412:268|412:268|400:252|400:252|504:252|504:252|508:240|504:232|504:232|404:232|404:232|404:216|404:216|508:216|508:216|512:208|508:196|508:196|416:184|416:184|432:176|432:176|456:204|508:180|508:180|516:172|508:164|508:164|452:176|440:140|440:140|452:108|448:84,1,1169.99996900559
448,80,14648,6,0,B|452:104|440:136|440:136|412:144|400:180|400:180|388:196|388:196|368:196|368:196|368:248|368:248|388:248|388:248|400:264|400:264|404:272|404:272|412:280|488:280|488:280|492:272|488:264|488:264|412:264|412:264|400:248|400:248|504:248|504:248|508:236|504:228|504:228|404:228|404:228|404:212|404:212|508:212|508:212|512:204|508:192|508:192|416:180|416:180|432:172|432:172|456:200|508:176|508:176|516:168|508:160|508:160|452:172|440:136|440:136|452:104|448:80,1,1169.99996900559
448,76,14670,6,0,B|452:100|440:132|440:132|412:140|400:176|400:176|388:192|388:192|368:192|368:192|368:244|368:244|388:244|388:244|400:260|400:260|404:268|404:268|412:276|488:276|488:276|492:268|488:260|488:260|412:260|412:260|400:244|400:244|504:244|504:244|508:232|504:224|504:224|404:224|404:224|404:208|404:208|508:208|508:208|512:200|508:188|508:188|416:176|416:176|432:168|432:168|456:196|508:172|508:172|516:164|508:156|508:156|452:168|440:132|440:132|452:100|448:76,1,1169.99996900559
80,312,14913,6,0,B|76:288|88:256|88:256|116:248|128:212|128:212|140:196|140:196|160:196|160:196|160:144|160:144|140:144|140:144|128:128|128:128|124:120|124:120|116:112|40:112|40:112|36:120|40:128|40:128|116:128|116:128|128:144|128:144|24:144|24:144|20:156|24:164|24:164|124:164|124:164|124:180|124:180|20:180|20:180|16:188|20:200|20:200|112:212|112:212|96:220|96:220|72:192|20:216|20:216|12:224|20:232|20:232|76:220|88:256|88:256|76:288|80:312,1,1169.99996900559
80,324,14935,6,0,B|76:300|88:268|88:268|116:260|128:224|128:224|140:208|140:208|160:208|160:208|160:156|160:156|140:156|140:156|128:140|128:140|124:132|124:132|116:124|40:124|40:124|36:132|40:140|40:140|116:140|116:140|128:156|128:156|24:156|24:156|20:168|24:176|24:176|124:176|124:176|124:192|124:192|20:192|20:192|16:200|20:212|20:212|112:224|112:224|96:232|96:232|72:204|20:228|20:228|12:236|20:244|20:244|76:232|88:268|88:268|76:300|80:324,1,1169.99996900559
80,336,14957,6,0,B|76:312|88:280|88:280|116:272|128:236|128:236|140:220|140:220|160:220|160:220|160:168|160:168|140:168|140:168|128:152|128:152|124:144|124:144|116:136|40:136|40:136|36:144|40:152|40:152|116:152|116:152|128:168|128:168|24:168|24:168|20:180|24:188|24:188|124:188|124:188|124:204|124:204|20:204|20:204|16:212|20:224|20:224|112:236|112:236|96:244|96:244|72:216|20:240|20:240|12:248|20:256|20:256|76:244|88:280|88:280|76:312|80:336,1,1169.99996900559
80,348,14990,6,0,B|76:324|88:292|88:292|116:284|128:248|128:248|140:232|140:232|160:232|160:232|160:180|160:180|140:180|140:180|128:164|128:164|124:156|124:156|116:148|40:148|40:148|36:156|40:164|40:164|116:164|116:164|128:180|128:180|24:180|24:180|20:192|24:200|24:200|124:200|124:200|124:216|124:216|20:216|20:216|16:224|20:236|20:236|112:248|112:248|96:256|96:256|72:228|20:252|20:252|12:260|20:268|20:268|76:256|88:292|88:292|76:324|80:348,1,1169.99996900559
80,360,15023,6,0,B|76:336|88:304|88:304|116:296|128:260|128:260|140:244|140:244|160:244|160:244|160:192|160:192|140:192|140:192|128:176|128:176|124:168|124:168|116:160|40:160|40:160|36:168|40:176|40:176|116:176|116:176|128:192|128:192|24:192|24:192|20:204|24:212|24:212|124:212|124:212|124:228|124:228|20:228|20:228|16:236|20:248|20:248|112:260|112:260|96:268|96:268|72:240|20:264|20:264|12:272|20:280|20:280|76:268|88:304|88:304|76:336|80:360,1,1169.99996900559
80,372,15045,6,0,B|76:348|88:316|88:316|116:308|128:272|128:272|140:256|140:256|160:256|160:256|160:204|160:204|140:204|140:204|128:188|128:188|124:180|124:180|116:172|40:172|40:172|36:180|40:188|40:188|116:188|116:188|128:204|128:204|24:204|24:204|20:216|24:224|24:224|124:224|124:224|124:240|124:240|20:240|20:240|16:248|20:260|20:260|112:272|112:272|96:280|96:280|72:252|20:276|20:276|12:284|20:292|20:292|76:280|88:316|88:316|76:348|80:372,1,1169.99996900559
80,384,15067,6,0,B|76:360|88:328|88:328|116:320|128:284|128:284|140:268|140:268|160:268|160:268|160:216|160:216|140:216|140:216|128:200|128:200|124:192|124:192|116:184|40:184|40:184|36:192|40:200|40:200|116:200|116:200|128:216|128:216|24:216|24:216|20:228|24:236|24:236|124:236|124:236|124:252|124:252|20:252|20:252|16:260|20:272|20:272|112:284|112:284|96:292|96:292|72:264|20:288|20:288|12:296|20:304|20:304|76:292|88:328|88:328|76:360|80:384,1,1169.99996900559
448,96,15266,6,0,B|452:120|440:152|440:152|412:160|400:196|400:196|388:212|388:212|368:212|368:212|368:264|368:264|388:264|388:264|400:280|400:280|404:288|404:288|412:296|488:296|488:296|492:288|488:280|488:280|412:280|412:280|400:264|400:264|504:264|504:264|508:252|504:244|504:244|404:244|404:244|404:228|404:228|508:228|508:228|512:220|508:208|508:208|416:196|416:196|432:188|432:188|456:216|508:192|508:192|516:184|508:176|508:176|452:188|440:152|440:152|452:120|448:96,1,1169.99996900559
448,84,15288,6,0,B|452:108|440:140|440:140|412:148|400:184|400:184|388:200|388:200|368:200|368:200|368:252|368:252|388:252|388:252|400:268|400:268|404:276|404:276|412:284|488:284|488:284|492:276|488:268|488:268|412:268|412:268|400:252|400:252|504:252|504:252|508:240|504:232|504:232|404:232|404:232|404:216|404:216|508:216|508:216|512:208|508:196|508:196|416:184|416:184|432:176|432:176|456:204|508:180|508:180|516:172|508:164|508:164|452:176|440:140|440:140|452:108|448:84,1,1169.99996900559
448,72,15310,6,0,B|452:96|440:128|440:128|412:136|400:172|400:172|388:188|388:188|368:188|368:188|368:240|368:240|388:240|388:240|400:256|400:256|404:264|404:264|412:272|488:272|488:272|492:264|488:256|488:256|412:256|412:256|400:240|400:240|504:240|504:240|508:228|504:220|504:220|404:220|404:220|404:204|404:204|508:204|508:204|512:196|508:184|508:184|416:172|416:172|432:164|432:164|456:192|508:168|508:168|516:160|508:152|508:152|452:164|440:128|440:128|452:96|448:72,1,1169.99996900559
448,60,15343,6,0,B|452:84|440:116|440:116|412:124|400:160|400:160|388:176|388:176|368:176|368:176|368:228|368:228|388:228|388:228|400:244|400:244|404:252|404:252|412:260|488:260|488:260|492:252|488:244|488:244|412:244|412:244|400:228|400:228|504:228|504:228|508:216|504:208|504:208|404:208|404:208|404:192|404:192|508:192|508:192|512:184|508:172|508:172|416:160|416:160|432:152|432:152|456:180|508:156|508:156|516:148|508:140|508:140|452:152|440:116|440:116|452:84|448:60,1,1169.99996900559
448,48,15376,6,0,B|452:72|440:104|440:104|412:112|400:148|400:148|388:164|388:164|368:164|368:164|368:216|368:216|388:216|388:216|400:232|400:232|404:240|404:240|412:248|488:248|488:248|492:240|488:232|488:232|412:232|412:232|400:216|400:216|504:216|504:216|508:204|504:196|504:196|404:196|404:196|404:180|404:180|508:180|508:180|512:172|508:160|508:160|416:148|416:148|432:140|432:140|456:168|508:144|508:144|516:136|508:128|508:128|452:140|440:104|440:104|452:72|448:48,1,1169.99996900559
448,36,15398,6,0,B|452:60|440:92|440:92|412:100|400:136|400:136|388:152|388:152|368:152|368:152|368:204|368:204|388:204|388:204|400:220|400:220|404:228|404:228|412:236|488:236|488:236|492:228|488:220|488:220|412:220|412:220|400:204|400:204|504:204|504:204|508:192|504:184|504:184|404:184|404:184|404:168|404:168|508:168|508:168|512:160|508:148|508:148|416:136|416:136|432:128|432:128|456:156|508:132|508:132|516:124|508:116|508:116|452:128|440:92|440:92|452:60|448:36,1,1169.99996900559
448,24,15420,6,0,B|452:48|440:80|440:80|412:88|400:124|400:124|388:140|388:140|368:140|368:140|368:192|368:192|388:192|388:192|400:208|400:208|404:216|404:216|412:224|488:224|488:224|492:216|488:208|488:208|412:208|412:208|400:192|400:192|504:192|504:192|508:180|504:172|504:172|404:172|404:172|404:156|404:156|508:156|508:156|512:148|508:136|508:136|416:124|416:124|432:116|432:116|456:144|508:120|508:120|516:112|508:104|508:104|452:116|440:80|440:80|452:48|448:24,1,1169.99996900559
136,184,15619,6,0,B|96:184|96:184|76:184|68:160|68:160|44:48,1,179.999995231629
312,56,15619,6,0,L|364:56,1,44.9999988079071
84,4,15619,2,0,B|84:12|84:12|76:12|76:4|76:4|76:-4|84:-4|84:-4|92:-4|92:4|92:4|92:12|84:12|84:12|96:44|96:44|84:40|84:40|104:36|104:36|124:132|124:132|184:132|184:132|184:220|184:220|176:220|176:220|176:140|176:140|104:140|104:140|84:40|84:40|92:28|92:28|84:4,1,674.999982118607
312,56,15619,2,0,L|280:88,1,44.9999988079071
228,56,15619,2,0,B|228:13|249:-7|270:-29|313:-29|313:-29|355:-29|377:-7|398:13|398:56|398:56|398:98|377:119|355:141|313:141|313:141|270:141|249:119|228:98|228:56|228:56|270:56,1,539.999985694885
136,184,15795,6,0,B|100:184|100:184|80:184|72:168|72:168|28:60,1,179.999995231629
64,12,15795,2,0,B|64:19|64:19|57:20|56:12|56:12|55:5|63:4|63:4|70:3|71:11|71:11|72:18|64:19|64:19|82:57|82:57|68:47|68:47|87:41|87:41|124:132|124:132|184:132|184:132|184:220|184:220|176:220|176:220|176:140|176:140|104:140|104:140|68:47|68:47|74:34|74:34|64:12,1,674.999982118607
312,56,15795,2,0,L|288:16,1,44.9999988079071
228,56,15795,2,0,B|228:13|249:-7|270:-29|313:-29|313:-29|355:-29|377:-7|398:13|398:56|398:56|398:98|377:119|355:141|313:141|313:141|270:141|249:119|228:98|228:56|228:56|270:56,1,539.999985694885
312,56,15795,2,0,L|312:104,1,44.9999988079071
136,184,15972,6,0,B|100:184|100:184|72:184|56:156|56:156|13:74,1,179.999995231629
44,24,15972,2,0,B|44:32|44:32|36:32|36:24|36:24|36:16|44:16|44:16|52:16|52:24|52:24|44:24|48:32|48:32|68:64|68:64|56:56|56:56|72:44|72:44|120:132|120:132|184:132|184:132|184:220|184:220|176:220|176:220|176:140|176:140|100:140|100:140|56:56|56:56|52:40|52:40|44:24,1,674.999982118607
312,56,15972,2,0,L|312:8,1,44.9999988079071
312,56,15972,2,0,L|292:100,1,44.9999988079071
228,56,15972,2,0,B|228:13|249:-7|270:-29|313:-29|313:-29|355:-29|377:-7|398:13|398:56|398:56|398:98|377:119|355:141|313:141|313:141|270:141|249:119|228:98|228:56|228:56|270:56,1,539.999985694885
136,184,16148,6,0,B|96:184|96:184|72:184|56:168|56:168|1:90,1,179.999995231629
28,36,16148,2,0,B|28:44|28:44|20:44|20:36|20:36|20:28|28:28|28:28|36:28|36:36|36:36|36:44|28:44|28:44|40:52|40:52|36:64|36:64|52:52|52:52|112:132|112:132|184:132|184:132|184:220|184:220|176:220|176:220|176:140|176:140|92:140|92:140|36:64|36:64|64:80|64:80|28:36,1,719.999980926514
228,56,16148,2,0,B|228:13|249:-7|270:-29|313:-29|313:-29|355:-29|377:-7|398:13|398:56|398:56|398:98|377:119|355:141|313:141|313:141|270:141|249:119|228:98|228:56|228:56|270:56,1,539.999985694885
312,56,16148,2,0,L|272:32,1,44.9999988079071
312,56,16148,2,0,L|336:16,1,44.9999988079071
228,56,16324,2,0,B|228:13|249:-7|270:-29|313:-29|313:-29|355:-29|377:-7|398:13|398:56|398:56|398:98|377:119|355:141|313:141|313:141|270:141|249:119|228:98|228:56|228:56|270:56,1,539.999985694885
312,56,16324,2,0,L|356:64,1,44.9999988079071
312,56,16324,2,0,L|352:84,1,44.9999988079071
0,184,16325,6,0,L|520:184,1,494.999986886978
136,184,16325,6,0,B|96:184|96:184|72:184|56:168|56:168|1:90,1,179.999995231629
0,372,16325,6,0,B|0:228|0:228|68:260|68:260|68:304|68:304|36:304|36:304|76:372|76:372|-8:372,1,449.999988079071
28,36,16325,2,0,B|28:44|28:44|20:44|20:36|20:36|20:28|28:28|28:28|36:28|36:36|36:36|36:44|28:44|28:44|40:52|40:52|36:64|36:64|52:52|52:52|112:132|112:132|184:132|184:132|184:220|184:220|176:220|176:220|176:140|176:140|92:140|92:140|36:64|36:64|64:80|64:80|28:36,1,719.999980926514
84,372,16325,2,0,B|104:372|104:372|84:372|84:372|80:228|80:228|167:378|167:378|80:228|80:228|84:372,1,674.999982118607
240,372,16325,2,0,B|300:372|300:372|300:300|300:300|240:300|240:300|240:224|240:224|304:252|304:252|240:224|240:224|240:300|240:300|300:300|300:300|300:372|300:372|240:372,1,674.999982118607
164,372,16325,2,0,B|224:372|224:372|224:300|224:300|164:300|164:300|164:224|164:224|228:252|228:252|164:224|164:224|164:300|164:300|224:300|224:300|224:372|224:372|164:372,1,674.999982118607
164,216,16678,6,0,B|164:372|164:372|164:288|164:288|232:288|232:288|232:244|232:244|232:288|232:288|184:288|184:288|273:393|273:393|184:288|184:288|232:288|232:288|232:244|232:244|232:288|232:288|232:244,1,899.999976158142
396,244,16678,2,0,B|328:216|328:216|328:376|328:376|400:376|400:376|328:376|328:376|328:216|328:216|396:244|396:244|366:232|366:232|396:244,1,674.999982118607
444,220,16678,2,0,B|444:376|444:376|444:292|444:292|512:292|512:292|512:248|512:248|512:292|512:292|464:292|464:292|553:397|553:397|464:292|464:292|512:292|512:292|512:248|512:248|512:292|512:292|512:248,1,899.999976158142
280,216,16678,2,0,B|280:364|280:364|280:216|280:216|280:404,1,449.999988079071
312,56,16678,2,0,L|352:84,1,44.9999988079071
312,56,16678,2,0,L|356:64,1,44.9999988079071
228,56,16678,2,0,B|228:13|249:-7|270:-29|313:-29|313:-29|355:-29|377:-7|398:13|398:56|398:56|398:98|377:119|355:141|313:141|313:141|270:141|249:119|228:98|228:56|228:56|270:56,1,539.999985694885
136,184,16679,6,0,B|96:184|96:184|72:184|56:168|56:168|1:90,1,179.999995231629
495,184,16679,6,0,L|0:184,1,494.999986886978
28,36,16679,2,0,B|28:44|28:44|20:44|20:36|20:36|20:28|28:28|28:28|36:28|36:36|36:36|36:44|28:44|28:44|40:52|40:52|36:64|36:64|52:52|52:52|112:132|112:132|184:132|184:132|184:220|184:220|176:220|176:220|176:140|176:140|92:140|92:140|36:64|36:64|64:80|64:80|28:36,1,719.999980926514
108,4,17031,6,0,B|107:189|107:189|43:189|43:189|43:153|43:153|175:153|175:153|175:189|175:189|175:313|175:313|107:313|107:313|107:189|107:189|143:189|143:189|143:311|143:311|143:189|143:189|175:189|175:189|107:189|107:189|107:153|107:153|107:121|107:121|15:121|15:121|15:345|15:345|203:345|203:345|203:121|203:121|107:121|107:121|107:-15,1,2159.99994277954
60,232,17031,2,0,B|60:280|60:280|56:280|56:280|56:308|56:308|56:280|56:280|64:280|64:280|64:308|64:308|64:280|64:280|60:280|60:280|60:232,1,224.999994039536
304,352,17207,2,0,B|304:262|304:262|272:294|272:294|304:262|304:262|336:294|336:294|304:262,1,269.999992847443
304,340,17218,2,0,B|304:250|304:250|272:282|272:282|304:250|304:250|336:282|336:282|304:250,1,269.999992847443
304,328,17229,2,0,B|304:238|304:238|272:270|272:270|304:238|304:238|336:270|336:270|304:238,1,269.999992847443
304,316,17240,2,0,B|304:226|304:226|272:258|272:258|304:226|304:226|336:258|336:258|304:226,1,269.999992847443
304,304,17251,2,0,B|304:214|304:214|272:246|272:246|304:214|304:214|336:246|336:246|304:214,1,269.999992847443
108,4,17384,6,0,B|107:121|107:121|43:121|43:121|43:85|43:85|175:85|175:85|175:121|175:121|175:245|175:245|107:245|107:245|107:121|107:121|143:121|143:121|143:221|143:221|143:121|143:121|175:121|175:121|107:121|107:121|107:85|107:85|107:53|107:53|15:53|15:53|15:277|15:277|203:277|203:277|203:53|203:53|107:53|107:53|108:-8,1,1979.99994754791
60,160,17384,2,0,B|60:208|60:208|56:208|56:208|56:236|56:236|56:208|56:208|64:208|64:208|64:236|64:236|64:208|64:208|60:208|60:208|60:160,1,224.999994039536
304,32,17560,2,0,B|304:122|304:122|272:90|272:90|304:122|304:122|336:90|336:90|304:122,1,269.999992847443
304,44,17571,2,0,B|304:134|304:134|272:102|272:102|304:134|304:134|336:102|336:102|304:134,1,269.999992847443
304,56,17582,2,0,B|304:146|304:146|272:114|272:114|304:146|304:146|336:114|336:114|304:146,1,269.999992847443
304,68,17593,2,0,B|304:158|304:158|272:126|272:126|304:158|304:158|336:126|336:126|304:158,1,269.999992847443
304,80,17604,2,0,B|304:170|304:170|272:138|272:138|304:170|304:170|336:138|336:138|304:170,1,269.999992847443
108,4,17736,6,0,B|107:233|107:233|43:233|43:233|43:197|43:197|175:197|175:197|175:233|175:233|175:357|175:357|107:357|107:357|107:233|107:233|143:233|143:233|142:357|142:357|143:233|143:233|175:233|175:233|107:233|107:233|107:197|107:197|107:165|107:165|15:165|15:165|15:389|15:389|203:389|203:389|203:165|203:165|107:165|107:165|108:4,1,2249.99994039536
60,276,17736,2,0,B|60:324|60:324|56:324|56:324|56:352|56:352|56:324|56:324|64:324|64:324|64:352|64:352|64:324|64:324|60:324|60:324|60:276,1,224.999994039536
304,352,17912,2,0,B|304:262|304:262|272:294|272:294|304:262|304:262|336:294|336:294|304:262,1,269.999992847443
304,340,17923,2,0,B|304:250|304:250|272:282|272:282|304:250|304:250|336:282|336:282|304:250,1,269.999992847443
304,328,17934,2,0,B|304:238|304:238|272:270|272:270|304:238|304:238|336:270|336:270|304:238,1,269.999992847443
304,316,17945,2,0,B|304:226|304:226|272:258|272:258|304:226|304:226|336:258|336:258|304:226,1,269.999992847443
304,304,17956,2,0,B|304:214|304:214|272:246|272:246|304:214|304:214|336:246|336:246|304:214,1,269.999992847443
108,4,18089,6,0,B|107:121|107:121|43:121|43:121|43:85|43:85|175:85|175:85|175:121|175:121|175:245|175:245|107:245|107:245|107:121|107:121|143:121|143:121|143:221|143:221|143:121|143:121|175:121|175:121|107:121|107:121|107:85|107:85|107:53|107:53|15:53|15:53|15:277|15:277|203:277|203:277|203:53|203:53|107:53|107:53|108:-8,1,1979.99994754791
60,204,18089,2,0,B|60:252|60:252|56:252|56:252|56:280|56:280|56:252|56:252|64:252|64:252|64:280|64:280|64:252|64:252|60:252|60:252|60:204,1,224.999994039536
304,32,18265,2,0,B|304:122|304:122|272:90|272:90|304:122|304:122|336:90|336:90|304:122,1,269.999992847443
304,44,18276,2,0,B|304:134|304:134|272:102|272:102|304:134|304:134|336:102|336:102|304:134,1,269.999992847443
304,56,18287,2,0,B|304:146|304:146|272:114|272:114|304:146|304:146|336:114|336:114|304:146,1,269.999992847443
304,68,18298,2,0,B|304:158|304:158|272:126|272:126|304:158|304:158|336:126|336:126|304:158,1,269.999992847443
304,80,18309,2,0,B|304:170|304:170|272:138|272:138|304:170|304:170|336:138|336:138|304:170,1,269.999992847443
180,260,18442,6,0,B|160:256|148:252|124:256|100:272|88:300|92:332|104:352|128:360|160:368|180:356|180:356|324:404|324:404|344:408|364:412|388:404|412:372|408:344|396:320|376:300|348:300|324:308|324:308|180:260,1,719.999980926514
220,184,18442,2,0,B|220:192|220:192|212:192|212:184|212:184|212:176|220:176|220:176|228:176|228:184|228:184|228:192|220:192|220:192|220:246|220:246|204:208|204:208|204:268|204:268|236:279|236:279|236:208|236:208|220:208|220:208|220:184,1,359.999990463257
132,152,18619,2,0,B|46:124|46:124|66:164|66:164|46:124|46:124|86:103|86:103|46:124,1,269.999992847443
120,148,18630,2,0,B|34:120|34:120|54:160|54:160|34:120|34:120|74:99|74:99|34:120,1,269.999992847443
109,144,18641,2,0,B|23:116|23:116|43:156|43:156|23:116|23:116|63:95|63:95|23:116,1,269.999992847443
97,140,18652,2,0,B|11:112|11:112|31:152|31:152|11:112|11:112|51:91|51:91|11:112,1,269.999992847443
86,137,18663,2,0,B|0:109|0:109|20:149|20:149|0:109|0:109|40:88|40:88|0:109,1,269.999992847443
180,260,18795,6,0,B|160:256|148:252|124:256|100:272|88:300|92:332|104:352|128:360|160:368|180:356|180:356|324:404|324:404|344:408|364:412|388:404|412:372|408:344|396:320|376:300|348:300|324:308|324:308|180:260,1,719.999980926514
292,208,18795,2,0,B|292:216|292:216|284:216|284:208|284:208|284:200|292:200|292:200|300:200|300:208|300:208|300:216|292:216|292:216|292:270|292:270|276:232|276:232|276:292|276:292|308:303|308:303|308:232|308:232|292:232|292:232|292:208,1,359.999990463257
380,232,18972,2,0,B|465:259|465:259|445:219|445:219|465:259|465:259|425:280|425:280|464:260,1,269.999992847443
392,236,18983,2,0,B|477:263|477:263|457:223|457:223|477:263|477:263|437:284|437:284|476:264,1,269.999992847443
403,240,18994,2,0,B|488:267|488:267|468:227|468:227|488:267|488:267|448:288|448:288|487:268,1,269.999992847443
415,244,19005,2,0,B|500:271|500:271|480:231|480:231|500:271|500:271|460:292|460:292|499:272,1,269.999992847443
426,247,19016,2,0,B|511:274|511:274|491:234|491:234|511:274|511:274|471:295|471:295|510:275,1,269.999992847443
180,260,19148,6,0,B|160:256|148:252|124:256|100:272|88:300|92:332|104:352|128:360|160:368|180:356|180:356|324:404|324:404|344:408|364:412|388:404|412:372|408:344|396:320|376:300|348:300|324:308|324:308|180:260,1,719.999980926514
196,176,19148,2,0,B|196:184|196:184|188:184|188:176|188:176|188:168|196:168|196:168|204:168|204:176|204:176|204:184|196:184|196:184|196:238|196:238|180:200|180:200|180:260|180:260|212:271|212:271|212:200|212:200|196:200|196:200|196:176,1,359.999990463257
132,152,19325,2,0,B|46:124|46:124|66:164|66:164|46:124|46:124|86:103|86:103|46:124,1,269.999992847443
120,148,19336,2,0,B|34:120|34:120|54:160|54:160|34:120|34:120|74:99|74:99|34:120,1,269.999992847443
109,144,19347,2,0,B|23:116|23:116|43:156|43:156|23:116|23:116|63:95|63:95|23:116,1,269.999992847443
97,140,19358,2,0,B|11:112|11:112|31:152|31:152|11:112|11:112|51:91|51:91|11:112,1,269.999992847443
86,137,19369,2,0,B|0:109|0:109|20:149|20:149|0:109|0:109|40:88|40:88|0:109,1,269.999992847443
180,260,19501,6,0,B|160:256|148:252|124:256|100:272|88:300|92:332|104:352|128:360|160:368|180:356|180:356|324:404|324:404|344:408|364:412|388:404|412:372|408:344|396:320|376:300|348:300|324:308|324:308|180:260,1,719.999980926514
312,216,19501,2,0,B|312:224|312:224|304:224|304:216|304:216|304:208|312:208|312:208|320:208|320:216|320:216|320:224|312:224|312:224|312:278|312:278|296:240|296:240|296:300|296:300|328:311|328:311|328:240|328:240|312:240|312:240|312:216,1,359.999990463257
380,232,19678,2,0,B|465:259|465:259|445:219|445:219|465:259|465:259|425:280|425:280|464:260,1,269.999992847443
392,236,19689,2,0,B|477:263|477:263|457:223|457:223|477:263|477:263|437:284|437:284|476:264,1,269.999992847443
403,240,19700,2,0,B|488:267|488:267|468:227|468:227|488:267|488:267|448:288|448:288|487:268,1,269.999992847443
415,244,19711,2,0,B|500:271|500:271|480:231|480:231|500:271|500:271|460:292|460:292|499:272,1,269.999992847443
426,247,19722,2,0,B|511:274|511:274|491:234|491:234|511:274|511:274|471:295|471:295|510:275,1,269.999992847443
256,192,19854,6,0,B|256:200|256:200|248:200|248:192|248:192|248:184|256:184|256:184|264:184|264:192|264:192|264:200|256:200|256:200|256:208|256:208|220:220|220:220|220:256|220:256|256:256|256:256|228:232|228:232|256:208|256:208|284:232|284:232|256:256|256:256|292:256|292:256|292:220|292:220|256:208|256:208|256:192,1,449.999988079071
152,92,19854,2,0,B|360:92|360:92|324:-12|324:-12|256:-12|256:-12|232:-24|232:-44|232:-44|232:-60|256:-68|256:-68|280:-60|280:-44|280:-44|280:-24|256:-12|256:-12|216:-12|216:-12|296:-12|296:-12|328:68|328:68|296:68|296:68|268:16|268:16|264:60|264:60|248:60|248:60|244:16|244:16|216:68|216:68|184:68|184:68|216:-12|216:-12|188:-12|188:-12|152:92,1,1259.9999666214
256,176,20031,6,0,B|256:184|256:184|248:184|248:176|248:176|248:168|256:168|256:168|264:168|264:176|264:176|264:184|256:184|256:184|256:208|256:208|220:220|220:220|220:256|220:256|256:256|256:256|240:232|240:232|256:208|256:208|272:232|272:232|256:256|256:256|292:256|292:256|292:220|292:220|256:208|256:208|256:176,1,449.999988079071
152,76,20031,2,0,B|360:76|360:76|324:-28|324:-28|256:-28|256:-28|232:-40|232:-60|232:-60|232:-76|256:-84|256:-84|280:-76|280:-60|280:-60|280:-40|256:-28|256:-28|216:-28|216:-28|296:-28|296:-28|328:52|328:52|296:52|296:52|268:0|268:0|264:44|264:44|248:44|248:44|244:0|244:0|216:52|216:52|184:52|184:52|216:-28|216:-28|188:-28|188:-28|152:76,1,1259.9999666214
256,192,20207,6,0,B|256:200|256:200|248:200|248:192|248:192|248:184|256:184|256:184|264:184|264:192|264:192|264:200|256:200|256:200|256:208|256:208|220:220|220:220|220:256|220:256|256:256|256:256|228:232|228:232|256:208|256:208|284:232|284:232|256:256|256:256|292:256|292:256|292:220|292:220|256:208|256:208|256:192,1,449.999988079071
152,104,20207,2,0,B|360:104|360:104|324:0|324:0|256:0|256:0|232:-12|232:-32|232:-32|232:-48|256:-56|256:-56|280:-48|280:-32|280:-32|280:-12|256:0|256:0|216:0|216:0|296:0|296:0|328:80|328:80|296:80|296:80|268:28|268:28|264:72|264:72|248:72|248:72|244:28|244:28|216:80|216:80|184:80|184:80|216:0|216:0|188:0|188:0|152:104,1,1259.9999666214
256,176,20384,6,0,B|256:184|256:184|248:184|248:176|248:176|248:168|256:168|256:168|264:168|264:176|264:176|264:184|256:184|256:184|256:208|256:208|220:220|220:220|220:256|220:256|256:256|256:256|240:232|240:232|256:208|256:208|272:232|272:232|256:256|256:256|292:256|292:256|292:220|292:220|256:208|256:208|256:176,1,449.999988079071
152,64,20384,2,0,B|360:64|360:64|324:-40|324:-40|256:-40|256:-40|232:-52|232:-72|232:-72|232:-88|256:-96|256:-96|280:-88|280:-72|280:-72|280:-52|256:-40|256:-40|216:-40|216:-40|296:-40|296:-40|328:40|328:40|296:40|296:40|268:-12|268:-12|264:32|264:32|248:32|248:32|244:-12|244:-12|216:40|216:40|184:40|184:40|216:-40|216:-40|188:-40|188:-40|152:64,1,1259.9999666214
256,192,20560,6,0,B|256:200|256:200|248:200|248:192|248:192|248:184|256:184|256:184|264:184|264:192|264:192|264:200|256:200|256:200|256:208|256:208|220:220|220:220|220:256|220:256|256:256|256:256|228:232|228:232|256:208|256:208|284:232|284:232|256:256|256:256|292:256|292:256|292:220|292:220|256:208|256:208|256:192,1,449.999988079071
152,116,20560,2,0,B|360:116|360:116|324:12|324:12|256:12|256:12|232:0|232:-20|232:-20|232:-36|256:-44|256:-44|280:-36|280:-20|280:-20|280:0|256:12|256:12|216:12|216:12|296:12|296:12|328:92|328:92|296:92|296:92|268:40|268:40|264:84|264:84|248:84|248:84|244:40|244:40|216:92|216:92|184:92|184:92|216:12|216:12|188:12|188:12|152:116,1,1259.9999666214
256,176,20736,6,0,B|256:184|256:184|248:184|248:176|248:176|248:168|256:168|256:168|264:168|264:176|264:176|264:184|256:184|256:184|256:208|256:208|220:220|220:220|220:256|220:256|256:256|256:256|240:232|240:232|256:208|256:208|272:232|272:232|256:256|256:256|292:256|292:256|292:220|292:220|256:208|256:208|256:176,1,449.999988079071
152,52,20736,2,0,B|360:52|360:52|324:-52|324:-52|256:-52|256:-52|232:-64|232:-84|232:-84|232:-100|256:-108|256:-108|280:-100|280:-84|280:-84|280:-64|256:-52|256:-52|216:-52|216:-52|296:-52|296:-52|328:28|328:28|296:28|296:28|268:-24|268:-24|264:20|264:20|248:20|248:20|244:-24|244:-24|216:28|216:28|184:28|184:28|216:-52|216:-52|188:-52|188:-52|152:52,1,1259.9999666214
256,192,20913,6,0,B|256:200|256:200|248:200|248:192|248:192|248:184|256:184|256:184|264:184|264:192|264:192|264:200|256:200|256:200|256:208|256:208|220:220|220:220|220:256|220:256|256:256|256:256|228:232|228:232|256:208|256:208|284:232|284:232|256:256|256:256|292:256|292:256|292:220|292:220|256:208|256:208|256:192,1,449.999988079071
152,128,20913,2,0,B|360:128|360:128|324:24|324:24|256:24|256:24|232:12|232:-8|232:-8|232:-24|256:-32|256:-32|280:-24|280:-8|280:-8|280:12|256:24|256:24|216:24|216:24|296:24|296:24|328:104|328:104|296:104|296:104|268:52|268:52|264:96|264:96|248:96|248:96|244:52|244:52|216:104|216:104|184:104|184:104|216:24|216:24|188:24|188:24|152:128,1,1259.9999666214
256,176,21089,6,0,B|256:184|256:184|248:184|248:176|248:176|248:168|256:168|256:168|264:168|264:176|264:176|264:184|256:184|256:184|256:208|256:208|220:220|220:220|220:256|220:256|256:256|256:256|240:232|240:232|256:208|256:208|272:232|272:232|256:256|256:256|292:256|292:256|292:220|292:220|256:208|256:208|256:176,1,449.999988079071
152,40,21089,2,0,B|360:40|360:40|324:-64|324:-64|256:-64|256:-64|232:-76|232:-96|232:-96|232:-112|256:-120|256:-120|280:-112|280:-96|280:-96|280:-76|256:-64|256:-64|216:-64|216:-64|296:-64|296:-64|328:16|328:16|296:16|296:16|268:-36|268:-36|264:8|264:8|248:8|248:8|244:-36|244:-36|216:16|216:16|184:16|184:16|216:-64|216:-64|188:-64|188:-64|152:40,1,1259.9999666214
100,372,21266,2,0,B|100:192|100:192|100:316|100:316|396:316|396:316|396:240|396:240|396:376,3,809.999978542328
476,248,21288,6,0,B|476:260|476:260|464:260|464:248|464:248|464:236|476:236|476:236|488:236|488:248|488:248|488:248|488:248|484:256|484:256|468:256|468:256|480:252|480:252|468:240|468:240|484:240|484:240|488:248|488:248|488:260|476:260|476:260|476:248,1,179.999995231629
160,216,21972,6,0,B|160:228|160:228|148:228|148:216|148:216|148:204|160:204|160:204|172:204|172:216|172:216|172:216|172:216|168:224|168:224|152:224|152:224|164:220|164:220|152:208|152:208|168:208|168:208|172:216|172:216|172:228|160:228|160:228|160:216,9,179.999995231629
476,248,21972,6,0,B|476:260|476:260|464:260|464:248|464:248|464:236|476:236|476:236|488:236|488:248|488:248|488:248|488:248|484:256|484:256|468:256|468:256|480:252|480:252|468:240|468:240|484:240|484:240|488:248|488:248|488:260|476:260|476:260|476:248,1,179.999995231629
476,172,21972,6,0,B|476:184|476:184|464:184|464:172|464:172|464:160|476:160|476:160|488:160|488:172|488:172|488:172|488:172|484:180|484:180|468:180|468:180|480:176|480:176|468:164|468:164|484:164|484:164|488:172|488:172|488:184|476:184|476:184|476:172,1,179.999995231629
208,240,21972,2,0,B|208:272|208:272|144:272|144:272|198:272|198:272|159:272|159:272|208:272|208:272|208:240,6,269.999992847443
100,372,21972,2,0,B|100:192|100:192|100:316|100:316|396:316|396:316|396:240|396:240|396:376,3,809.999978542328
252,272,21972,2,0,B|340:272|340:272|289:272|289:272|352:272|352:272|352:248|352:248|340:240|328:240|328:240|252:240|252:240|252:272,5,359.999990463257
80,156,22678,6,0,B|80:148|80:148|96:156|88:192|64:192|56:152|80:148|80:148|120:148|112:192|64:204|44:152|80:124|80:124|160:116|128:216|44:220|32:132|80:116|80:116|136:84|164:140|160:200|124:232|80:232|36:224|12:200|12:160|16:112|56:108|56:108|104:108|104:108|104:88|104:88|96:80|96:80|64:80|64:80|56:88|56:88|56:132|56:132|80:132|80:132|80:52|80:52|104:0|176:4|172:108|252:144|328:88,1,1304.99996542931
80,156,22854,6,0,B|80:140|80:140|96:156|88:192|64:192|56:152|80:148|80:148|120:148|112:192|64:204|44:152|80:124|80:124|160:116|128:216|44:220|32:132|80:116|80:116|136:84|164:140|160:200|124:232|80:232|36:224|12:200|12:160|16:112|56:108|56:108|104:108|104:108|104:88|104:88|96:80|96:80|64:80|64:80|56:88|56:88|56:132|56:132|80:132|80:132|80:52|80:52|104:0|176:4|172:108|252:144|328:88,1,1304.99996542931
80,156,23031,6,0,B|80:108|80:108|96:156|88:192|64:192|56:152|80:148|80:148|120:148|112:192|64:204|44:152|80:124|80:124|160:116|128:216|44:220|32:132|80:116|80:116|136:84|164:140|160:200|124:232|80:232|36:224|12:200|12:160|16:112|56:108|56:108|104:108|104:108|104:88|104:88|96:80|96:80|64:80|64:80|56:88|56:88|56:132|56:132|80:132|80:132|80:52|80:52|104:0|176:4|172:108|252:144|328:88,1,1349.99996423721
80,156,23207,6,0,B|80:108|80:108|96:156|88:192|64:192|56:152|80:148|80:148|120:148|112:192|64:204|44:152|80:96|80:96|160:116|128:216|44:220|32:132|80:116|80:116|136:84|164:140|160:200|124:232|80:232|36:224|12:200|12:160|16:112|56:108|56:108|104:108|104:108|104:88|104:88|96:80|96:80|64:80|64:80|56:88|56:88|56:132|56:132|80:132|80:132|80:52|80:52|104:0|176:4|172:108|252:144|328:88,1,1349.99996423721
80,156,23384,6,0,B|80:108|80:108|96:156|88:192|64:192|56:152|80:72|80:72|120:148|112:192|64:204|44:152|80:124|80:124|80:96|80:96|160:116|128:216|44:220|32:132|80:116|80:116|136:84|164:140|160:200|124:232|80:232|36:224|12:200|12:160|16:112|56:108|56:108|104:108|104:108|104:88|104:88|96:80|96:80|64:80|64:80|56:88|56:88|56:132|56:132|80:132|80:132|80:52|80:52|104:0|176:4|172:108|252:144|328:88,1,1439.99996185303
80,156,23560,6,0,B|80:108|80:108|96:156|88:192|64:192|56:152|80:68|80:68|120:148|112:192|64:204|44:152|80:124|80:124|80:96|80:96|160:116|128:216|44:220|32:132|80:116|80:116|136:84|164:140|160:200|124:232|80:232|36:224|12:200|12:160|16:112|56:108|56:108|96:148|96:148|104:88|104:88|96:80|96:80|64:80|64:80|56:88|56:88|56:132|56:132|80:132|80:132|80:52|80:52|104:0|176:4|172:108|252:144|328:88,1,1439.99996185303
80,156,23736,6,0,B|80:108|80:108|96:156|88:192|64:192|56:152|80:68|80:68|120:148|112:192|64:204|44:152|80:124|80:124|80:96|80:96|160:116|128:216|44:220|32:132|80:116|80:116|136:84|164:140|160:200|124:232|80:232|36:224|12:200|12:160|16:112|56:108|56:108|92:192|92:192|104:88|104:88|96:80|96:80|64:80|64:80|56:88|56:88|56:132|56:132|80:132|80:132|80:52|80:52|104:0|176:4|172:108|252:144|328:88,1,1439.99996185303
80,156,23913,6,0,B|80:108|80:108|96:156|88:192|64:192|56:152|80:68|80:68|120:148|112:192|64:204|44:152|80:124|80:124|80:96|80:96|160:116|128:216|44:220|32:132|80:116|80:116|136:84|164:140|160:200|124:232|80:232|36:224|12:200|12:160|16:112|56:108|56:108|60:200|60:200|96:208|96:208|104:88|104:88|96:80|96:80|64:80|64:80|56:88|56:88|56:132|56:132|80:132|80:132|80:52|80:52|104:0|176:4|172:108|252:144|328:88,1,1439.99996185303
256,284,24089,6,0,B|220:256|220:256|285:256|285:256|232:256|232:256|292:256|292:256|256:284,1,269.999992847443
256,284,24089,2,0,B|229:263|229:263|240:272|240:272|188:228|188:228|176:220|160:196|168:172|168:148|204:132|232:136|256:176|256:176|280:136|308:132|344:148|344:172|352:196|336:220|324:228|324:228|256:284,1,539.999985694885
256,284,24266,6,0,B|211:248|211:248|296:248|296:248|219:248|219:248|301:248|301:248|256:284,1,359.999990463257
256,284,24266,2,0,B|229:263|229:263|240:272|240:272|188:228|188:228|176:220|160:196|168:172|168:148|204:132|232:136|256:176|256:176|280:136|308:132|344:148|344:172|352:196|336:220|324:228|324:228|256:284,1,539.999985694885
256,284,24442,6,0,B|202:240|202:240|307:240|307:240|206:240|206:240|310:240|310:240|256:284,1,449.999988079071
256,284,24442,2,0,B|229:263|229:263|240:272|240:272|188:228|188:228|176:220|160:196|168:172|168:148|204:132|232:136|256:176|256:176|280:136|308:132|344:148|344:172|352:196|336:220|324:228|324:228|256:284,1,539.999985694885
256,284,24619,6,0,B|188:228|188:228|324:228|324:228|228:228|228:228|232:248|232:248|256:248|256:248|254:248|254:248|280:248|280:248|284:228|284:228|324:228|324:228|256:284,1,539.999985694885
256,284,24619,2,0,B|229:263|229:263|240:272|240:272|188:228|188:228|176:220|160:196|168:172|168:148|204:132|232:136|256:176|256:176|280:136|308:132|344:148|344:172|352:196|336:220|324:228|324:228|256:284,1,539.999985694885
256,284,24795,6,0,B|188:228|188:228|176:220|184:212|184:212|286:212|286:212|220:212|220:212|328:212|328:212|336:220|324:228|324:228|228:228|228:228|232:248|232:248|256:248|256:248|254:248|254:248|280:248|280:248|284:228|284:228|324:228|324:228|256:284,1,719.999980926514
256,284,24795,2,0,B|229:263|229:263|240:272|240:272|188:228|188:228|176:220|160:196|168:172|168:148|204:132|232:136|256:176|256:176|280:136|308:132|344:148|344:172|352:196|336:220|324:228|324:228|256:284,1,539.999985694885
256,284,24972,6,0,B|188:228|188:228|176:220|160:196|188:196|188:196|232:196|232:196|220:220|220:220|204:196|204:196|308:196|308:196|292:220|292:220|280:196|280:196|332:196|332:196|352:196|336:220|324:228|324:228|228:228|228:228|232:248|232:248|256:248|256:248|254:248|254:248|280:248|280:248|284:228|284:228|324:228|324:228|256:284,1,809.999978542328
256,284,24972,2,0,B|229:263|229:263|240:272|240:272|188:228|188:228|176:220|160:196|168:172|168:148|204:132|232:136|256:176|256:176|280:136|308:132|344:148|344:172|352:196|336:220|324:228|324:228|256:284,1,539.999985694885
256,284,25148,6,0,B|188:228|188:228|176:220|160:196|168:172|172:148|204:132|232:136|256:176|256:176|228:172|228:172|228:192|228:192|248:200|248:200|220:220|220:220|200:200|200:200|200:172|200:172|312:172|312:172|312:196|312:196|292:220|292:220|266:199|266:199|284:192|284:192|284:172|284:172|256:176|256:176|280:136|308:132|344:148|344:172|352:196|336:220|324:228|324:228|228:228|228:228|232:248|232:248|256:248|256:248|254:248|254:248|280:248|280:248|284:228|284:228|324:228|324:228|256:284,1,1169.99996900559
76,360,25236,2,0,B|-6:326|-6:326|-20:322|-42:303|-41:278|-48:255|-19:229|9:225|44:256|44:256|-2:270|-2:270|-11:294|-11:294|47:322|47:322|4:287|4:287|44:256|44:256|27:295|27:295|63:317|63:317|76:360,1,629.9999833107
436,360,25236,2,0,B|517:326|517:326|531:322|553:303|552:278|559:255|530:229|502:225|483:245|483:245|503:277|503:277|513:270|513:270|531:294|531:294|492:318|492:318|515:311|515:311|528:276|528:276|523:313|523:313|483:305|483:305|447:293|447:293|467:329|467:329|436:360,1,629.9999833107
76,360,25325,2,0,B|-11:351|-11:351|-26:351|-52:340|-59:316|-73:296|-52:263|-26:250|16:270|16:270|-24:297|-24:297|-26:322|-26:322|39:332|39:332|-13:311|-13:311|16:270|16:270|11:312|11:312|52:323|52:323|76:360,1,629.9999833107
436,360,25325,2,0,B|523:351|523:351|538:351|564:340|571:316|585:296|564:263|538:250|514:263|514:263|524:300|524:300|536:297|536:297|546:324|546:324|501:336|501:336|526:336|526:336|548:306|548:306|532:340|532:340|497:321|497:321|466:299|466:299|474:339|474:339|436:360,1,629.9999833107
184,208,25501,6,0,B|200:376|200:376|312:376|312:376|328:208,1,449.999988079071
256,28,25501,6,0,B|256:16|256:16|268:16|268:28|268:28|268:40|256:40|256:40|244:40|244:28|244:28|244:16|256:16|256:16|256:-16|256:-16|300:-16|332:28|332:28|300:72|256:72|256:72|256:68|256:68|256:72|256:72|212:72|180:28|180:28|212:-16|256:-16|256:-16|256:28,1,539.999985694885
256,196,25501,2,0,B|244:216|244:216|244:236|268:236|268:216|268:216|256:196,1,89.9999976158143
200,372,25589,6,0,B|312:372|312:372|316:344|316:344|240:344|240:344|276:344|276:344|196:344|196:344|200:372,1,359.999990463257
184,208,25678,6,0,B|200:376|200:376|312:376|312:376|328:208,1,449.999988079071
256,76,25699,2,0,B|244:96|244:96|244:116|268:116|268:96|268:96|256:76,1,89.9999976158143
256,28,25854,6,0,B|256:16|256:16|268:16|268:28|268:28|268:40|256:40|256:40|244:40|244:28|244:28|244:16|256:16|256:16|256:-16|256:-16|300:-16|332:28|332:28|300:72|256:72|256:72|256:68|256:68|256:72|256:72|212:72|180:28|180:28|212:-16|256:-16|256:-16|256:28,1,539.999985694885
184,208,25854,6,0,B|200:376|200:376|312:376|312:376|328:208,1,449.999988079071
256,228,25876,2,0,B|244:248|244:248|244:268|268:268|268:248|268:248|256:228,1,89.9999976158143
200,372,25942,6,0,B|312:372|312:372|317:320|317:320|224:320|224:320|288:320|288:320|292:352|292:352|220:352|220:352|224:320|224:320|194:320|194:320|200:372,1,539.999985694885
184,208,26031,6,0,B|200:376|200:376|312:376|312:376|328:208,1,449.999988079071
256,76,26052,2,0,B|244:96|244:96|244:116|268:116|268:96|268:96|256:76,1,89.9999976158143
256,28,26207,6,0,B|256:16|256:16|268:16|268:28|268:28|268:40|256:40|256:40|244:40|244:28|244:28|244:16|256:16|256:16|256:-16|256:-16|300:-16|332:28|332:28|300:72|256:72|256:72|256:68|256:68|256:72|256:72|212:72|180:28|180:28|212:-16|256:-16|256:-16|256:28,1,539.999985694885
184,208,26207,2,0,B|200:376|200:376|312:376|312:376|328:208,1,449.999988079071
256,260,26229,2,0,B|244:280|244:280|244:300|268:300|268:280|268:280|256:260,1,89.9999976158143
200,372,26295,6,0,B|312:372|312:372|320:280|320:280|220:280|220:280|292:280|292:280|292:308|292:308|232:308|232:308|236:336|236:336|276:336|276:336|280:308|280:308|292:308|292:308|292:356|292:356|252:356|252:356|257:356|257:356|220:356|220:356|220:280|220:280|192:280|192:280|200:372,1,899.999976158143
184,208,26384,2,0,B|200:376|200:376|312:376|312:376|328:208,1,449.999988079071
256,76,26406,2,0,B|244:96|244:96|244:116|268:116|268:96|268:96|256:76,1,89.9999976158143
256,28,26560,6,0,B|256:16|256:16|268:16|268:28|268:28|268:40|256:40|256:40|244:40|244:28|244:28|244:16|256:16|256:16|256:-16|256:-16|300:-16|332:28|332:28|300:72|256:72|256:72|256:68|256:68|256:72|256:72|212:72|180:28|180:28|212:-16|256:-16|256:-16|256:28,1,539.999985694885
184,208,26560,2,0,B|200:376|200:376|312:376|312:376|328:208,1,449.999988079071
256,292,26582,2,0,B|244:312|244:312|244:332|268:332|268:312|268:312|256:292,1,89.9999976158143
200,372,26648,6,0,B|184:216|184:216|328:216|328:216|312:372|312:372|280:372|280:372|232:372|232:372|280:372|280:372|292:248|292:248|256:248|256:248|256:336|256:336|256:308|256:308|256:336|256:336|256:248|256:248|220:248|220:248|232:372|232:372|200:372,1,1169.99996900559
184,208,26737,2,0,B|200:376|200:376|312:376|312:376|328:208,1,449.999988079071
256,76,26759,2,0,B|244:96|244:96|244:116|268:116|268:96|268:96|256:76,1,89.9999976158143
0,160,26913,6,0,B|0:176|0:176|-16:176|-16:160|-16:160|-16:144|0:144|0:144|16:144|16:160|16:160|16:176|0:184|0:184|0:204|0:204|-40:208|-40:208|-80:300|-80:300|-40:217|-40:217|0:204|0:204|40:208|40:208|80:300|80:300|40:218|40:218|0:204|0:204|-4:216|-4:216|4:216|4:216|-72:372|-72:372|-20:372|-20:372|-20:468|-20:468|-20:372|-20:372|20:372|20:372|20:468|20:468|20:372|20:372|72:372|72:372|-4:216|-4:216|0:244|0:244|-36:348|-36:348|36:348|36:348|24:320|24:320|0:320|0:320|0:256|0:256|0:284|0:284|0:160,1,2069.99994516373
512,160,26913,6,0,B|512:176|512:176|496:176|496:160|496:160|496:144|512:144|512:144|528:144|528:160|528:160|528:176|512:184|512:184|512:208|512:208|452:212|452:212|452:296|452:296|452:208|452:208|512:208|512:208|572:212|572:212|572:296|572:296|572:208|572:208|512:208|512:208|492:232|492:232|492:340|492:340|492:468|492:468|492:340|492:340|532:340|532:340|532:468|532:468|532:340|532:340|532:232|532:232|511:329|511:329|512:160,1,1799.99995231629
120,44,26913,6,0,B|112:66|112:66|127:21|127:21|120:44|120:44|215:73|215:73|203:111|203:111|383:166|383:166|393:135|393:135|412:141|412:141|414:134|414:134|452:145|452:145|414:134|414:134|416:126|416:126|397:120|397:120|407:89|407:89|227:34|227:34|215:73|215:73|261:87|261:87|254:110|254:110|269:60|269:60|261:87|261:87|162:56|162:56|213:72|213:72|120:44,1,1259.9999666214
394,127,26913,2,0,B|399:107|399:107|308:79|308:79|302:98|302:98|387:124|387:124|302:98|302:98|296:118|296:118|388:146|388:146|394:127,1,449.999988079071
131,47,27089,6,0,B|123:69|123:69|138:24|138:24|131:47|131:47|215:72|215:72|203:110|203:110|383:165|383:165|392:135|392:135|411:141|411:141|414:133|414:133|452:145|452:145|414:133|414:133|416:125|416:125|397:120|397:120|406:89|406:89|226:34|226:34|215:72|215:72|272:90|272:90|265:113|265:113|280:63|280:63|272:90|272:90|161:56|161:56|213:72|213:72|131:47,1,1259.9999666214
0,160,27089,6,0,B|0:176|0:176|-16:176|-16:160|-16:160|-16:144|0:144|0:144|16:144|16:160|16:160|16:176|0:184|0:184|0:204|0:204|-40:208|-40:208|-80:300|-80:300|-40:217|-40:217|0:204|0:204|40:208|40:208|80:300|80:300|40:218|40:218|0:204|0:204|-4:216|-4:216|4:216|4:216|-72:372|-72:372|-20:372|-20:372|-20:468|-20:468|-20:372|-20:372|20:372|20:372|20:468|20:468|20:372|20:372|72:372|72:372|-4:216|-4:216|0:244|0:244|-36:348|-36:348|36:348|36:348|24:320|24:320|0:320|0:320|0:256|0:256|0:284|0:284|0:160,1,2069.99994516373
512,160,27089,6,0,B|512:176|512:176|496:176|496:160|496:160|496:144|512:144|512:144|528:144|528:160|528:160|528:176|512:184|512:184|512:208|512:208|452:212|452:212|452:296|452:296|452:208|452:208|512:208|512:208|572:212|572:212|572:296|572:296|572:208|572:208|512:208|512:208|492:232|492:232|492:340|492:340|492:468|492:468|492:340|492:340|532:340|532:340|532:468|532:468|532:340|532:340|532:232|532:232|511:329|511:329|512:160,1,1799.99995231629
394,127,27089,2,0,B|399:107|399:107|319:83|319:83|313:102|313:102|367:118|367:118|313:102|313:102|307:121|307:121|388:146|388:146|394:127,1,359.999990463257
154,53,27266,6,0,B|146:75|146:75|161:30|161:30|154:53|154:53|215:71|215:71|203:109|203:109|383:164|383:164|392:134|392:134|411:140|411:140|414:132|414:132|452:144|452:144|414:132|414:132|416:124|416:124|397:119|397:119|406:88|406:88|226:33|226:33|215:71|215:71|295:96|295:96|288:119|288:119|302:73|302:73|295:96|295:96|169:57|169:57|267:87|267:87|154:53,1,1349.99996423721
512,160,27266,6,0,B|512:176|512:176|496:176|496:160|496:160|496:144|512:144|512:144|528:144|528:160|528:160|528:176|512:184|512:184|512:208|512:208|452:212|452:212|452:296|452:296|452:208|452:208|512:208|512:208|572:212|572:212|572:296|572:296|572:208|572:208|512:208|512:208|492:232|492:232|492:340|492:340|492:468|492:468|492:340|492:340|532:340|532:340|532:468|532:468|532:340|532:340|532:232|532:232|511:329|511:329|512:160,1,1799.99995231629
0,160,27266,6,0,B|0:176|0:176|-16:176|-16:160|-16:160|-16:144|0:144|0:144|16:144|16:160|16:160|16:176|0:184|0:184|0:204|0:204|-40:208|-40:208|-80:300|-80:300|-40:217|-40:217|0:204|0:204|40:208|40:208|80:300|80:300|40:218|40:218|0:204|0:204|-4:216|-4:216|4:216|4:216|-72:372|-72:372|-20:372|-20:372|-20:468|-20:468|-20:372|-20:372|20:372|20:372|20:468|20:468|20:372|20:372|72:372|72:372|-4:216|-4:216|0:244|0:244|-36:348|-36:348|36:348|36:348|24:320|24:320|0:320|0:320|0:256|0:256|0:284|0:284|0:160,1,2069.99994516373
394,127,27266,2,0,B|399:107|399:107|342:90|342:90|336:109|336:109|370:119|370:119|336:109|336:109|330:128|330:128|388:146|388:146|394:127,1,269.999992847443
172,60,27442,6,0,B|164:82|164:82|179:37|179:37|172:60|172:60|214:72|214:72|202:111|202:111|382:166|382:166|391:135|391:135|410:141|410:141|412:133|412:133|451:145|451:145|412:133|412:133|415:126|415:126|396:120|396:120|405:89|405:89|225:34|225:34|214:72|214:72|313:103|313:103|306:126|306:126|320:80|320:80|313:103|313:103|183:63|183:63|281:93|281:93|172:60,1,1349.99996423721
0,160,27442,6,0,B|0:176|0:176|-16:176|-16:160|-16:160|-16:144|0:144|0:144|16:144|16:160|16:160|16:176|0:184|0:184|0:204|0:204|-40:208|-40:208|-80:300|-80:300|-40:217|-40:217|0:204|0:204|40:208|40:208|80:300|80:300|40:218|40:218|0:204|0:204|-4:216|-4:216|4:216|4:216|-72:372|-72:372|-20:372|-20:372|-20:468|-20:468|-20:372|-20:372|20:372|20:372|20:468|20:468|20:372|20:372|72:372|72:372|-4:216|-4:216|0:244|0:244|-36:348|-36:348|36:348|36:348|24:320|24:320|0:320|0:320|0:256|0:256|0:284|0:284|0:160,1,2069.99994516373
512,160,27442,6,0,B|512:176|512:176|496:176|496:160|496:160|496:144|512:144|512:144|528:144|528:160|528:160|528:176|512:184|512:184|512:208|512:208|452:212|452:212|452:296|452:296|452:208|452:208|512:208|512:208|572:212|572:212|572:296|572:296|572:208|572:208|512:208|512:208|492:232|492:232|492:340|492:340|492:468|492:468|492:340|492:340|532:340|532:340|532:468|532:468|532:340|532:340|532:232|532:232|511:329|511:329|512:160,1,1799.99995231629
394,127,27442,2,0,B|399:107|399:107|361:96|361:96|355:115|355:115|365:118|365:118|355:115|355:115|349:134|349:134|388:146|388:146|394:127,1,179.999995231629
172,60,27619,6,0,B|164:82|164:82|179:37|179:37|172:60|172:60|214:72|214:72|202:111|202:111|382:166|382:166|391:135|391:135|410:141|410:141|412:133|412:133|451:145|451:145|412:133|412:133|415:126|415:126|396:120|396:120|391:135|391:135|400:104|400:104|405:89|405:89|225:34|225:34|214:72|214:72|351:114|351:114|344:137|344:137|358:92|358:92|351:114|351:114|183:63|183:63|314:103|314:103|172:60,1,1529.99995946884
512,160,27619,6,0,B|512:176|512:176|496:176|496:160|496:160|496:144|512:144|512:144|528:144|528:160|528:160|528:176|512:184|512:184|512:208|512:208|452:212|452:212|452:296|452:296|452:208|452:208|512:208|512:208|572:212|572:212|572:296|572:296|572:208|572:208|512:208|512:208|492:232|492:232|492:340|492:340|492:468|492:468|492:340|492:340|532:340|532:340|532:468|532:468|532:340|532:340|532:232|532:232|511:329|511:329|512:160,1,1799.99995231629
0,160,27619,6,0,B|0:176|0:176|-16:176|-16:160|-16:160|-16:144|0:144|0:144|16:144|16:160|16:160|16:176|0:184|0:184|0:204|0:204|-40:208|-40:208|-80:300|-80:300|-40:217|-40:217|0:204|0:204|40:208|40:208|80:300|80:300|40:218|40:218|0:204|0:204|-4:216|-4:216|4:216|4:216|-72:372|-72:372|-20:372|-20:372|-20:468|-20:468|-20:372|-20:372|20:372|20:372|20:468|20:468|20:372|20:372|72:372|72:372|-4:216|-4:216|0:244|0:244|-36:348|-36:348|36:348|36:348|24:320|24:320|0:320|0:320|0:256|0:256|0:284|0:284|0:160,1,2069.99994516373
112,360,27619,6,0,B|112:216|112:216|180:248|180:248|180:292|180:292|148:292|148:292|188:360|188:360|104:360,1,449.999988079071
276,360,27619,2,0,B|336:360|336:360|336:288|336:288|276:288|276:288|276:212|276:212|340:240|340:240|276:212|276:212|276:288|276:288|336:288|336:288|336:360|336:360|276:360,1,674.999982118607
196,360,27619,2,0,B|216:360|216:360|196:360|196:360|192:216|192:216|279:366|279:366|192:216|192:216|196:360,1,674.999982118607
352,360,27619,2,0,B|412:360|412:360|412:288|412:288|352:288|352:288|352:212|352:212|416:240|416:240|352:212|352:212|352:288|352:288|412:288|412:288|412:360|412:360|352:360,1,674.999982118607
80,206,27972,6,0,B|80:362|80:362|80:278|80:278|148:278|148:278|148:234|148:234|148:278|148:278|100:278|100:278|189:383|189:383|100:278|100:278|148:278|148:278|148:234|148:234|148:278|148:278|148:234,1,899.999976158142
512,160,27972,6,0,B|512:176|512:176|496:176|496:160|496:160|496:144|512:144|512:144|528:144|528:160|528:160|528:176|512:184|512:184|512:208|512:208|452:212|452:212|452:296|452:296|452:208|452:208|512:208|512:208|572:212|572:212|572:296|572:296|572:208|572:208|512:208|512:208|492:232|492:232|492:340|492:340|492:468|492:468|492:340|492:340|532:340|532:340|532:468|532:468|532:340|532:340|532:232|532:232|511:329|511:329|512:160,1,1799.99995231629
172,60,27972,6,0,B|164:82|164:82|179:37|179:37|172:60|172:60|214:72|214:72|202:111|202:111|382:166|382:166|391:135|391:135|410:141|410:141|412:133|412:133|451:145|451:145|412:133|412:133|415:126|415:126|396:120|396:120|391:135|391:135|400:104|400:104|405:89|405:89|225:34|225:34|214:72|214:72|351:114|351:114|344:137|344:137|358:92|358:92|351:114|351:114|183:63|183:63|314:103|314:103|172:60,1,1529.99995946884
0,160,27972,6,0,B|0:176|0:176|-16:176|-16:160|-16:160|-16:144|0:144|0:144|16:144|16:160|16:160|16:176|0:184|0:184|0:204|0:204|-40:208|-40:208|-80:300|-80:300|-40:217|-40:217|0:204|0:204|40:208|40:208|80:300|80:300|40:218|40:218|0:204|0:204|-4:216|-4:216|4:216|4:216|-72:372|-72:372|-20:372|-20:372|-20:468|-20:468|-20:372|-20:372|20:372|20:372|20:468|20:468|20:372|20:372|72:372|72:372|-4:216|-4:216|0:244|0:244|-36:348|-36:348|36:348|36:348|24:320|24:320|0:320|0:320|0:256|0:256|0:284|0:284|0:160,1,2069.99994516373
360,210,27972,2,0,B|360:366|360:366|360:282|360:282|428:282|428:282|428:238|428:238|428:282|428:282|380:282|380:282|469:387|469:387|380:282|380:282|428:282|428:282|428:238|428:238|428:282|428:282|428:238,1,899.999976158142
196,206,27972,2,0,B|196:354|196:354|196:206|196:206|196:394,1,449.999988079071
312,234,27972,2,0,B|244:206|244:206|244:366|244:366|316:366|316:366|244:366|244:366|244:206|244:206|312:234|312:234|282:222|282:222|312:234,1,674.999982118607
212,116,28325,6,0,B|216:84|212:44|176:-16|92:-44|12:-24|-36:24|-72:144|-20:228|68:240|140:228|156:204|156:204|80:132|80:132|60:132|60:132|48:108|48:108|52:84|52:84|80:120|114:105|129:94|152:80|148:32|124:12|96:0|72:4|42:25|36:52|52:84|52:84|24:68|24:68|28:132|28:132|36:160|36:160|76:160|76:160|40:160|40:160|56:180|56:180|116:192|116:192|80:132|80:132|92:116|92:116|92:116|92:116|164:116|164:116|156:76|156:76|144:28|144:28|200:68|200:68|184:92|184:92|131:116|131:116|164:116|164:116|212:116,1,1799.99995231629
300,116,28325,6,0,B|296:84|300:44|336:-16|420:-44|500:-24|548:24|584:144|532:228|444:240|372:228|356:204|356:204|432:132|432:132|420:116|420:116|308:116|308:116|412:116|412:116|347:116|347:116|372:116|372:116|300:116,1,1079.99997138977
256,28,28325,6,0,B|456:364|456:364|223:364|223:364|352:364|352:364|55:364|55:364|256:28,1,1439.99996185303
256,252,28325,6,0,B|244:156|244:156|248:140|264:140|268:156|268:156|248:156|248:156|264:156|264:156|268:156|268:156|256:252,1,269.999992847443
256,312,28325,1,0,0:0:0:0:
424,60,28391,1,0,0:0:0:0:
208,88,28501,6,0,B|203:56|189:18|139:-30|50:-35|-21:4|-55:63|-59:188|12:256|101:245|167:214|176:187|176:187|84:137|84:137|65:142|65:142|47:122|47:122|45:98|45:98|81:126|110:102|122:88|140:68|124:23|96:10|65:5|43:16|20:44|21:71|45:98|45:98|13:90|13:90|34:151|34:151|49:176|49:176|88:165|88:165|53:175|53:175|73:190|73:190|134:186|134:186|84:137|84:137|92:119|92:119|92:119|92:119|161:100|161:100|143:63|143:63|119:20|119:20|183:44|183:44|174:72|174:72|129:108|129:108|161:100|161:100|208:88,1,1799.99995231629
304,88,28501,6,0,B|308:56|322:18|372:-30|461:-35|533:4|567:63|571:188|499:256|410:245|344:214|335:187|335:187|427:137|427:137|419:119|419:119|311:90|311:90|412:116|412:116|349:100|349:100|373:106|373:106|304:88,1,1079.99997138977
439,66,28567,1,0,0:0:0:0:
256,252,28678,6,0,B|244:156|244:156|248:140|264:140|268:156|268:156|248:156|248:156|264:156|264:156|268:156|268:156|256:252,1,269.999992847443
256,28,28678,6,0,B|456:364|456:364|223:364|223:364|352:364|352:364|55:364|55:364|256:28,1,1439.99996185303
314,61,28678,6,0,B|326:31|350:-1|411:-35|497:-17|557:39|574:105|545:227|458:273|376:240|320:193|318:165|318:165|420:140|420:140|417:121|417:121|320:65|320:65|410:117|410:117|354:84|354:84|376:97|376:97|314:61,1,1079.99997138977
198,61,28678,6,0,B|185:31|162:-1|100:-35|14:-17|-45:39|-62:105|-33:227|53:273|135:240|191:193|193:165|193:165|91:140|91:140|74:150|74:150|51:136|51:136|43:113|43:113|85:130|107:100|115:83|128:59|100:20|69:14|39:18|20:34|5:67|13:93|43:113|43:113|11:113|11:113|46:166|46:166|67:187|67:187|102:167|102:167|71:185|71:185|94:194|94:194|152:174|152:174|91:140|91:140|94:121|94:121|94:121|94:121|156:85|156:85|129:54|129:54|95:18|95:18|163:25|163:25|161:54|161:54|127:101|127:101|156:85|156:85|198:61,1,1799.99995231629
256,312,28678,1,0,0:0:0:0:
451,74,28744,1,0,0:0:0:0:
180,36,28854,6,0,B|159:10|128:-14|60:-29|-18:11|-59:82|-58:150|2:259|99:280|169:225|210:165|204:137|204:137|99:142|99:142|85:156|85:156|60:148|60:148|45:128|45:128|91:133|104:98|106:80|112:54|75:23|44:27|15:38|2:58|-3:95|11:118|45:128|45:128|14:137|14:137|63:179|63:179|89:193|89:193|117:164|117:164|92:190|92:190|117:192|117:192|167:157|167:157|99:142|99:142|96:122|96:122|96:122|96:122|146:70|146:70|112:48|112:48|69:23|69:23|137:11|137:11|143:39|143:39|123:94|123:94|146:70|146:70|180:36,1,1799.99995231629
332,36,28854,6,0,B|352:10|383:-14|451:-29|530:11|571:82|570:150|509:259|412:280|342:225|301:165|307:137|307:137|412:142|412:142|415:122|415:122|337:41|337:41|409:116|409:116|364:69|364:69|382:87|382:87|332:36,1,1079.99997138977
461,86,28920,1,0,0:0:0:0:
256,28,29031,6,0,B|456:364|456:364|223:364|223:364|352:364|352:364|55:364|55:364|256:28,1,1439.99996185303
256,252,29031,6,0,B|244:156|244:156|248:140|264:140|268:156|268:156|248:156|248:156|264:156|264:156|268:156|268:156|256:252,1,269.999992847443
362,14,29031,6,0,B|389:-2|427:-15|497:-6|556:58|571:139|546:203|451:284|354:271|307:195|288:125|304:100|304:100|401:141|401:141|410:123|410:123|365:21|365:21|407:116|407:116|381:56|381:56|391:79|391:79|362:14,1,1079.99997138977
150,14,29031,6,0,B|122:-2|84:-15|14:-6|-44:58|-59:139|-34:203|60:284|157:271|204:195|223:125|207:100|207:100|110:141|110:141|102:159|102:159|75:160|75:160|55:147|55:147|99:136|100:99|96:80|92:54|47:38|19:52|-3:72|-9:96|-2:132|19:148|55:147|55:147|29:166|29:166|89:188|89:188|118:192|118:192|134:156|134:156|120:189|120:189|145:182|145:182|180:132|180:132|110:141|110:141|101:123|101:123|101:123|101:123|130:57|130:57|90:48|90:48|41:40|41:40|101:5|101:5|116:29|116:29|117:87|117:87|130:57|130:57|150:14,1,1799.99995231629
256,312,29031,1,0,0:0:0:0:
467,105,29097,1,0,0:0:0:0:
108,3,29207,6,0,B|75:-1|36:3|-24:39|-52:122|-32:202|15:251|135:287|220:234|232:146|220:75|196:59|196:59|124:135|124:135|123:154|123:154|100:166|100:166|76:162|76:162|112:135|96:101|85:85|72:63|23:67|4:90|-8:119|-4:143|16:173|43:178|76:162|76:162|59:190|59:190|123:186|123:186|151:179|151:179|152:139|152:139|152:175|152:175|171:158|171:158|184:99|184:99|124:135|124:135|108:122|108:122|108:122|108:122|108:51|108:51|68:59|68:59|20:71|20:71|60:14|60:14|84:31|84:31|107:83|107:83|108:51|108:51|108:3,1,1799.99995231629
404,3,29207,6,0,B|436:-1|476:3|536:39|564:122|544:202|496:251|376:287|292:234|280:146|292:75|316:59|316:59|388:135|388:135|404:122|404:122|404:10|404:10|404:115|404:115|404:50|404:50|404:75|404:75|404:3,1,1079.99997138977
463,128,29273,1,0,0:0:0:0:
256,252,29384,6,0,B|244:156|244:156|248:140|264:140|268:156|268:156|248:156|248:156|264:156|264:156|268:156|268:156|256:252,1,269.999992847443
256,28,29384,6,0,B|456:364|456:364|223:364|223:364|352:364|352:364|55:364|55:364|256:28,1,1439.99996185303
54,14,29384,6,0,B|24:26|-8:49|-42:111|-24:197|32:257|98:274|220:245|266:158|233:76|186:20|158:18|158:18|133:120|133:120|143:137|143:137|129:160|129:160|106:168|106:168|123:126|93:104|76:96|52:83|13:111|7:142|11:172|27:191|60:206|86:198|106:168|106:168|106:200|106:200|159:165|159:165|180:144|180:144|160:109|160:109|178:140|178:140|187:117|187:117|167:59|167:59|133:120|133:120|114:117|114:117|114:117|114:117|78:55|78:55|47:82|47:82|11:116|11:116|18:48|18:48|47:50|47:50|94:84|94:84|78:55|78:55|54:14,1,1799.99995231629
458,14,29384,6,0,B|487:26|520:49|554:111|536:197|479:257|413:274|291:245|245:158|278:76|325:20|353:18|353:18|378:120|378:120|398:117|398:117|454:20|454:20|402:110|402:110|434:54|434:54|422:76|422:76|458:14,1,1079.99997138977
256,312,29384,1,0,0:0:0:0:
447,151,29450,1,0,0:0:0:0:
2,77,29560,6,0,B|-10:106|-16:146|2:213|76:262|158:263|217:230|283:123|255:28|173:-5|100:-12|78:6|78:6|133:95|133:95|152:100|152:100|158:127|158:127|148:149|148:149|130:107|93:112|76:119|50:127|42:174|60:200|84:219|108:221|142:208|155:184|148:149|148:149|171:172|171:172|183:109|183:109|183:80|183:80|144:69|144:69|179:79|179:79|169:55|169:55|114:28|114:28|133:95|133:95|117:108|117:108|117:108|117:108|48:89|48:89|45:130|45:130|44:179|44:179|1:126|1:126|22:107|22:107|80:97|80:97|48:89|48:89|2:77,1,1799.99995231629
510,77,29560,6,0,B|522:106|528:146|509:213|435:262|353:263|294:230|228:123|256:28|338:-5|411:-12|433:6|433:6|378:95|378:95|394:108|394:108|502:79|502:79|401:105|401:105|464:89|464:89|440:95|440:95|510:77,1,1079.99997138977
406,166,29626,1,0,0:0:0:0:
148,104,29736,6,0,B|233:104|233:104|196:104|196:104|260:104|260:104|260:72|260:72|252:48|252:48|240:76|240:76|188:76|188:76|220:76|220:76|228:32|228:32|252:12|252:12|280:48|280:48|292:80|292:80|260:104|260:104|316:104|316:104|360:80|360:80|352:56|352:56|324:68|324:68|320:80|320:80|316:104|316:104|348:104|348:104|376:100|396:88|400:40|372:16|332:24|316:68|296:104|296:104|268:56|340:-28|252:-28|212:-24|196:24|212:60|212:60|184:44|164:48|160:64|164:92|164:92|136:80|120:100|148:104,1,1349.99996423721
96,152,29736,6,0,B|68:187|68:187|96:152|96:152|68:187|68:187|96:152,1,179.999995231629
488,176,29736,2,0,B|460:211|460:211|488:176|488:176|460:211|460:211|488:176,1,179.999995231629
156,184,29736,2,0,B|128:219|128:219|156:184|156:184|128:219|128:219|156:184,1,179.999995231629
96,252,29736,2,0,B|68:287|68:287|96:252|96:252|68:287|68:287|96:252,1,179.999995231629
376,120,29736,2,0,B|348:155|348:155|376:120|376:120|348:155|348:155|376:120,1,179.999995231629
404,208,29736,2,0,B|376:243|376:243|404:208|404:208|376:243|376:243|404:208,1,179.999995231629
436,264,29736,2,0,B|408:299|408:299|436:264|436:264|408:299|408:299|436:264,1,179.999995231629
148,104,29913,6,0,B|233:104|233:104|196:104|196:104|260:104|260:104|260:72|260:72|252:48|252:48|240:76|240:76|188:76|188:76|220:76|220:76|228:32|228:32|252:12|252:12|280:48|280:48|292:80|292:80|260:104|260:104|316:104|316:104|360:80|360:80|352:56|352:56|324:68|324:68|320:80|320:80|316:104|316:104|348:104|348:104|376:100|396:88|400:40|372:16|332:24|316:68|296:104|296:104|268:56|340:-28|252:-28|212:-24|196:24|212:60|212:60|184:44|164:48|160:64|164:92|164:92|136:80|120:100|148:104,1,1349.99996423721
256,176,29913,6,0,B|256:192|256:192|240:192|240:176|240:176|240:160|256:160|256:160|272:160|272:176|272:176|272:192|256:200|256:200|256:224|256:224|196:228|196:228|196:312|196:312|196:224|196:224|256:224|256:224|316:228|316:228|316:312|316:312|316:224|316:224|256:224|256:224|236:248|236:248|236:356|236:356|236:484|236:484|236:356|236:356|276:356|276:356|276:484|276:484|276:356|276:356|276:248|276:248|255:345|255:345|256:176,1,1799.99995231629
148,104,30089,6,0,B|233:104|233:104|196:104|196:104|260:104|260:104|260:72|260:72|252:48|252:48|240:76|240:76|188:76|188:76|220:76|220:76|228:32|228:32|252:12|252:12|280:48|280:48|292:80|292:80|260:104|260:104|316:104|316:104|360:80|360:80|352:56|352:56|324:68|324:68|320:80|320:80|316:104|316:104|348:104|348:104|376:100|396:88|400:40|372:16|332:24|316:68|296:104|296:104|268:56|340:-28|252:-28|212:-24|196:24|212:60|212:60|184:44|164:48|160:64|164:92|164:92|136:80|120:100|148:104,1,1349.99996423721
184,148,30089,2,0,B|156:183|156:183|184:148|184:148|156:183|156:183|184:148,1,179.999995231629
464,228,30089,2,0,B|436:263|436:263|464:228|464:228|436:263|436:263|464:228,1,179.999995231629
348,156,30089,2,0,B|320:191|320:191|348:156|348:156|320:191|320:191|348:156,1,179.999995231629
388,256,30089,2,0,B|360:291|360:291|388:256|388:256|360:291|360:291|388:256,1,179.999995231629
432,132,30089,2,0,B|404:167|404:167|432:132|432:132|404:167|404:167|432:132,1,179.999995231629
56,120,30089,2,0,B|28:155|28:155|56:120|56:120|28:155|28:155|56:120,1,179.999995231629
72,204,30089,2,0,B|44:239|44:239|72:204|72:204|44:239|44:239|72:204,1,179.999995231629
148,288,30089,2,0,B|120:323|120:323|148:288|148:288|120:323|120:323|148:288,1,179.999995231629
148,104,30266,6,0,B|233:104|233:104|196:104|196:104|260:104|260:104|260:72|260:72|252:48|252:48|240:76|240:76|188:76|188:76|220:76|220:76|228:32|228:32|252:12|252:12|280:48|280:48|292:80|292:80|260:104|260:104|316:104|316:104|360:80|360:80|352:56|352:56|324:68|324:68|320:80|320:80|316:104|316:104|348:104|348:104|376:100|396:88|400:40|372:16|332:24|316:68|296:104|296:104|268:56|340:-28|252:-28|212:-24|196:24|212:60|212:60|184:44|164:48|160:64|164:92|164:92|136:80|120:100|148:104,1,1349.99996423721
256,176,30266,6,0,B|256:192|256:192|240:192|240:176|240:176|240:160|256:160|256:160|272:160|272:176|272:176|272:192|256:200|256:200|256:224|256:224|196:228|196:228|196:312|196:312|196:224|196:224|256:224|256:224|316:228|316:228|316:312|316:312|316:224|316:224|256:224|256:224|236:248|236:248|236:356|236:356|236:484|236:484|236:356|236:356|276:356|276:356|276:484|276:484|276:356|276:356|276:248|276:248|255:345|255:345|256:176,1,1799.99995231629
96,152,30442,6,0,B|68:187|68:187|96:152|96:152|68:187|68:187|96:152,1,179.999995231629
148,104,30442,6,0,B|233:104|233:104|196:104|196:104|260:104|260:104|260:72|260:72|252:48|252:48|240:76|240:76|188:76|188:76|220:76|220:76|228:32|228:32|252:12|252:12|280:48|280:48|292:80|292:80|260:104|260:104|316:104|316:104|360:80|360:80|352:56|352:56|324:68|324:68|320:80|320:80|316:104|316:104|348:104|348:104|376:100|396:88|400:40|372:16|332:24|316:68|296:104|296:104|268:56|340:-28|252:-28|212:-24|196:24|212:60|212:60|184:44|164:48|160:64|164:92|164:92|136:80|120:100|148:104,1,1349.99996423721
376,120,30442,2,0,B|348:155|348:155|376:120|376:120|348:155|348:155|376:120,1,179.999995231629
96,252,30442,2,0,B|68:287|68:287|96:252|96:252|68:287|68:287|96:252,1,179.999995231629
436,264,30442,2,0,B|408:299|408:299|436:264|436:264|408:299|408:299|436:264,1,179.999995231629
404,208,30442,2,0,B|376:243|376:243|404:208|404:208|376:243|376:243|404:208,1,179.999995231629
156,184,30442,2,0,B|128:219|128:219|156:184|156:184|128:219|128:219|156:184,1,179.999995231629
488,176,30442,2,0,B|460:211|460:211|488:176|488:176|460:211|460:211|488:176,1,179.999995231629
148,104,30619,6,0,B|233:104|233:104|196:104|196:104|260:104|260:104|260:72|260:72|252:48|252:48|240:76|240:76|188:76|188:76|220:76|220:76|228:32|228:32|252:12|252:12|280:48|280:48|292:80|292:80|260:104|260:104|316:104|316:104|360:80|360:80|352:56|352:56|324:68|324:68|320:80|320:80|316:104|316:104|348:104|348:104|376:100|396:88|400:40|372:16|332:24|316:68|296:104|296:104|268:56|340:-28|252:-28|212:-24|196:24|212:60|212:60|184:44|164:48|160:64|164:92|164:92|136:80|120:100|148:104,1,1349.99996423721
256,176,30619,6,0,B|256:192|256:192|240:192|240:176|240:176|240:160|256:160|256:160|272:160|272:176|272:176|272:192|256:200|256:200|256:224|256:224|196:228|196:228|196:312|196:312|196:224|196:224|256:224|256:224|316:228|316:228|316:312|316:312|316:224|316:224|256:224|256:224|236:248|236:248|236:356|236:356|236:484|236:484|236:356|236:356|276:356|276:356|276:484|276:484|276:356|276:356|276:248|276:248|255:345|255:345|256:176,1,1799.99995231629
148,104,30795,6,0,B|233:104|233:104|196:104|196:104|260:104|260:104|260:72|260:72|252:48|252:48|240:76|240:76|188:76|188:76|220:76|220:76|228:32|228:32|252:12|252:12|280:48|280:48|292:80|292:80|260:104|260:104|316:104|316:104|360:80|360:80|352:56|352:56|324:68|324:68|320:80|320:80|316:104|316:104|348:104|348:104|376:100|396:88|400:40|372:16|332:24|316:68|296:104|296:104|268:56|340:-28|252:-28|212:-24|196:24|212:60|212:60|184:44|164:48|160:64|164:92|164:92|136:80|120:100|148:104,1,1349.99996423721
56,120,30795,2,0,B|28:155|28:155|56:120|56:120|28:155|28:155|56:120,1,179.999995231629
432,132,30795,2,0,B|404:167|404:167|432:132|432:132|404:167|404:167|432:132,1,179.999995231629
148,288,30795,2,0,B|120:323|120:323|148:288|148:288|120:323|120:323|148:288,1,179.999995231629
72,204,30795,2,0,B|44:239|44:239|72:204|72:204|44:239|44:239|72:204,1,179.999995231629
388,256,30795,2,0,B|360:291|360:291|388:256|388:256|360:291|360:291|388:256,1,179.999995231629
184,148,30795,2,0,B|156:183|156:183|184:148|184:148|156:183|156:183|184:148,1,179.999995231629
348,156,30795,2,0,B|320:191|320:191|348:156|348:156|320:191|320:191|348:156,1,179.999995231629
464,228,30795,2,0,B|436:263|436:263|464:228|464:228|436:263|436:263|464:228,1,179.999995231629
392,316,31148,6,0,B|392:260|392:260|280:260|280:260|312:288|312:288|364:288|364:288|324:288|324:288|392:288|392:288|392:244|392:244|264:244|264:244|256:244|256:252|256:252|316:316|316:316|392:316,1,719.999980926514
248,168,31148,2,0,B|248:176|248:176|240:176|240:168|240:168|240:160|248:160|248:160|256:160|256:168|256:168|256:176|248:176|248:176|256:168|256:168|248:160|248:160|248:176|248:176|248:168,1,89.9999976158143
240,308,31148,2,0,B|200:260|200:260|200:212|200:212|120:252|120:252|120:400|120:400|120:404|116:404|116:400|116:400|116:236|116:236|192:196|192:196|208:200|200:212|200:212|200:252|200:252|200:216|200:216|200:260|200:260|240:308,1,809.999978542328
336,240,31325,6,0,B|336:228|347:221|347:221|336:228|336:240,1,44.9999988079071
288,236,31325,2,0,B|288:212|296:200|305:195|305:195|292:212|288:236,1,89.9999976158143
392,316,31501,6,0,B|392:260|392:260|280:260|280:260|312:288|312:288|364:288|364:288|324:288|324:288|392:288|392:288|392:244|392:244|264:244|264:244|256:244|256:252|256:252|316:316|316:316|392:316,1,719.999980926514
248,168,31501,2,0,B|248:176|248:176|240:176|240:168|240:168|240:160|248:160|248:160|256:160|256:168|256:168|256:176|248:176|248:176|256:168|256:168|248:160|248:160|248:176|248:176|248:168,1,89.9999976158143
240,308,31501,2,0,B|200:260|200:260|200:212|200:212|120:252|120:252|120:400|120:400|120:404|116:404|116:400|116:400|116:236|116:236|192:196|192:196|208:200|200:212|200:212|200:252|200:252|200:216|200:216|200:260|200:260|240:308,1,809.999978542328
288,236,31678,2,0,B|292:208|304:176|335:165|335:165|304:176|292:208|288:236,1,179.999995231629
336,240,31678,2,0,B|352:208|366:208|366:208|352:208|336:240,1,89.9999976158143
392,316,31854,6,0,B|392:260|392:260|280:260|280:260|312:288|312:288|364:288|364:288|324:288|324:288|392:288|392:288|392:244|392:244|264:244|264:244|256:244|256:252|256:252|316:316|316:316|392:316,1,719.999980926514
240,308,31854,2,0,B|200:260|200:260|200:212|200:212|120:252|120:252|120:400|120:400|120:404|116:404|116:400|116:400|116:236|116:236|192:196|192:196|208:200|200:212|200:212|200:252|200:252|200:216|200:216|200:260|200:260|240:308,1,809.999978542328
248,168,31854,2,0,B|248:176|248:176|240:176|240:168|240:168|240:160|248:160|248:160|256:160|256:168|256:168|256:176|248:176|248:176|256:168|256:168|248:160|248:160|248:176|248:176|248:168,1,89.9999976158143
336,240,32031,6,0,B|336:228|347:221|347:221|336:228|336:240,1,44.9999988079071
288,236,32031,2,0,B|288:212|296:200|305:195|305:195|292:212|288:236,1,89.9999976158143
392,316,32207,6,0,B|392:260|392:260|280:260|280:260|312:288|312:288|364:288|364:288|324:288|324:288|392:288|392:288|392:244|392:244|264:244|264:244|256:244|256:252|256:252|316:316|316:316|392:316,1,719.999980926514
248,168,32207,2,0,B|248:176|248:176|240:176|240:168|240:168|240:160|248:160|248:160|256:160|256:168|256:168|256:176|248:176|248:176|256:168|256:168|248:160|248:160|248:176|248:176|248:168,1,89.9999976158143
240,308,32207,2,0,B|200:260|200:260|200:212|200:212|120:252|120:252|120:400|120:400|120:404|116:404|116:400|116:400|116:236|116:236|192:196|192:196|208:200|200:212|200:212|200:252|200:252|200:216|200:216|200:260|200:260|240:308,1,809.999978542328
336,240,32384,2,0,B|352:208|366:208|366:208|352:208|336:240,1,89.9999976158143
288,236,32384,2,0,B|292:208|304:176|335:165|335:165|304:176|292:208|288:236,1,179.999995231629
256,192,32560,12,0,33619,0:0:0:0:
32,56,33619,6,0,B|87:56|87:56|57:81|57:81|105:81|105:81|105:140|105:140|32:140|32:140|32:56,1,359.999990463257
148,56,33619,6,0,B|203:56|203:56|173:81|173:81|221:81|221:81|221:140|221:140|148:140|148:140|148:56,1,359.999990463257
96,244,33619,6,0,B|151:244|151:244|121:269|121:269|169:269|169:269|169:328|169:328|96:328|96:328|96:244,1,359.999990463257
264,56,33619,2,0,B|264:143|264:143|338:58|338:58|305:97|305:97|394:175,1,359.999990463257
384,56,33619,2,0,B|384:143|384:143|458:58|458:58|425:97|425:97|514:175,1,359.999990463257
332,244,33619,2,0,B|332:331|332:331|406:246|406:246|373:285|373:285|462:363,1,359.999990463257
212,244,33619,2,0,B|212:331|212:331|286:246|286:246|253:285|253:285|342:363,1,359.999990463257
