osu file format v14

[General]
AudioFilename: audio.mp3
AudioLeadIn: 0
PreviewTime: 10148
Countdown: 0
SampleSet: Soft
StackLeniency: 0.7
Mode: 3
LetterboxInBreaks: 0
SpecialStyle: 0
WidescreenStoryboard: 1

[Editor]
Bookmarks: 11385,16326,48757,49813,50428,50879,77737,78090,82324,87971,89383,96089,103147,104559,105971,107383,108794,110206,111618,113030,114441,115853,117265
DistanceSpacing: 1.5
BeatDivisor: 4
GridSize: 8
TimelineZoom: 3.199999

[Metadata]
Title:B.B.K.K.B.K.K.
TitleUnicode:B.B.K.K.B.K.K.
Artist:nora2r
ArtistUnicode:nora2r
Creator:RemiFlan
Version:KICK KICK KICK KICK KICK KICK
Source:BMS
Tags:sv bbkkbkk bass kick
BeatmapID:1123676
BeatmapSetID:530022

[Difficulty]
HPDrainRate:6.9
CircleSize:4
OverallDifficulty:8.6
ApproachRate:5
SliderMultiplier:1.4
SliderTickRate:1

[Events]
//Background and Video events
0,0,"top kick.jpg",0,0
//Break Periods
//Storyboard Layer 0 (Background)
//Storyboard Layer 1 (Fail)
//Storyboard Layer 2 (Pass)
//Storyboard Layer 3 (Foreground)
//Storyboard Layer 4 (Overlay)
//Storyboard Sound Samples

[TimingPoints]
0,352.941176470588,4,2,0,69,1,0
90,600000000,4,2,0,69,1,0
266,352.941176470588,4,2,0,69,1,0
442,600000000,4,2,0,69,1,0
619,352.941176470588,4,2,0,69,1,0
795,600000000,4,2,0,69,1,0
972,352.941176470588,4,2,0,69,1,0
1148,600000000,4,2,0,69,1,0
1325,352.941176470588,4,2,0,69,1,0
1501,600000000,4,2,0,69,1,0
1678,352.941176470588,4,2,0,69,1,0
1854,600000000,4,2,0,69,1,0
2031,352.941176470588,4,2,0,69,1,0
2207,600000000,4,2,0,69,1,0
2560,352.941176470588,4,2,0,69,1,0
2913,600000000,4,2,0,69,1,0
3090,352.941176470588,4,2,0,69,1,0
3266,600000000,4,2,0,69,1,0
3442,352.941176470588,4,2,0,69,1,0
3619,600000000,4,2,0,69,1,0
3795,352.941176470588,4,2,0,69,1,0
3972,600000000,4,2,0,69,1,0
4148,352.941176470588,4,2,0,69,1,0
4325,600000000,4,2,0,69,1,0
4501,352.941176470588,4,2,0,69,1,0
4678,600000000,4,2,0,69,1,0
4854,352.941176470588,4,2,0,69,1,0
5031,600000000,4,2,0,69,1,0
5384,352.941176470588,4,2,0,69,1,0
5737,600000000,4,2,0,69,1,0
5913,352.941176470588,4,2,0,69,1,0
6090,600000000,4,2,0,69,1,0
6266,352.941176470588,4,2,0,69,1,0
6442,600000000,4,2,0,69,1,0
6619,352.941176470588,4,2,0,69,1,0
6795,600000000,4,2,0,69,1,0
6972,352.941176470588,4,2,0,69,1,0
7148,600000000,4,2,0,69,1,0
7325,352.941176470588,4,2,0,69,1,0
7501,600000000,4,2,0,69,1,0
7678,352.941176470588,4,2,0,69,1,0
7854,600000000,4,2,0,69,1,0
8031,352.941176470588,4,2,0,69,1,0
8207,600000000,4,2,0,69,1,0
8384,352.941176470588,4,2,0,69,1,0
8560,600000000,4,2,0,69,1,0
8737,352.941176470588,4,2,0,69,1,0
8913,600000000,4,2,0,69,1,0
9090,352.941176470588,4,2,0,69,1,0
9266,600000000,4,2,0,69,1,0
9442,352.941176470588,4,2,0,69,1,0
9619,600000000,4,2,0,69,1,0
9795,352.941176470588,4,2,0,69,1,0
9972,600000000,4,2,0,69,1,0
10148,352.941176470588,4,2,0,69,1,0
10325,-52.6315789473684,4,2,0,69,0,0
10369,-1000,4,2,0,69,0,0
10413,-100,4,2,0,69,0,0
10501,-52.6315789473684,4,2,0,69,0,0
10545,-1000,4,2,0,69,0,0
10589,-100,4,2,0,69,0,0
10678,-52.6315789473684,4,2,0,69,0,0
10722,-1000,4,2,0,69,0,0
10766,-100,4,2,0,69,0,0
11030,-52.6315789473684,4,2,0,69,0,0
11118,-1000,4,2,0,69,0,0
11206,-100,4,2,0,69,0,0
11384,352.941176470588,4,2,0,69,1,8
11384,-52.6315789473684,4,2,0,69,0,0
11407,-1000,4,2,0,69,0,0
11429,-100,4,2,0,69,0,0
11737,-52.6315789473684,4,2,0,69,0,0
11760,-1000,4,2,0,69,0,0
11782,-100,4,2,0,69,0,0
12090,-52.6315789473684,4,2,0,69,0,0
12112,-1000,4,2,0,69,0,0
12135,-100,4,2,0,69,0,0
12443,-52.6315789473684,4,2,0,69,0,0
12465,-1000,4,2,0,69,0,0
12487,-100,4,2,0,69,0,0
12796,-52.6315789473684,4,2,0,69,0,0
12818,-1000,4,2,0,69,0,0
12840,-100,4,2,0,69,0,0
13149,-52.6315789473684,4,2,0,69,0,0
13171,-1000,4,2,0,69,0,0
13193,-100,4,2,0,69,0,0
13502,-52.6315789473684,4,2,0,69,0,0
13524,-1000,4,2,0,69,0,0
13546,-100,4,2,0,69,0,0
13855,-52.6315789473684,4,2,0,69,0,0
13877,-1000,4,2,0,69,0,0
13899,-100,4,2,0,69,0,0
14208,-52.6315789473684,4,2,0,69,0,0
14230,-1000,4,2,0,69,0,0
14252,-100,4,2,0,69,0,0
14561,-52.6315789473684,4,2,0,69,0,0
14583,-1000,4,2,0,69,0,0
14605,-100,4,2,0,69,0,0
14914,-52.6315789473684,4,2,0,69,0,0
14936,-1000,4,2,0,69,0,0
14958,-100,4,2,0,69,0,0
15267,-52.6315789473684,4,2,0,69,0,0
15289,-1000,4,2,0,69,0,0
15311,-100,4,2,0,69,0,0
15620,-52.6315789473684,4,2,0,69,0,0
15642,-1000,4,2,0,69,0,0
15664,-100,4,2,0,69,0,0
16017,-100,4,2,0,69,0,0
16326,1.426228323,4,2,0,69,1,0
16348,600000000,4,2,0,69,1,0
16501,352.941176470588,4,2,0,69,1,0
16679,1.426228323,4,2,0,69,1,0
16701,600000000,4,2,0,69,1,0
16854,352.941176470588,4,2,0,69,1,0
17031,352.941176470588,4,2,0,69,1,0
17031,-52.6315789473684,4,2,0,69,0,0
17054,-1000,4,2,0,69,0,0
17076,-100,4,2,0,69,0,0
17384,-52.6315789473684,4,2,0,69,0,0
17407,-1000,4,2,0,69,0,0
17429,-100,4,2,0,69,0,0
17737,-52.6315789473684,4,2,0,69,0,0
17759,-1000,4,2,0,69,0,0
17782,-100,4,2,0,69,0,0
18090,-52.6315789473684,4,2,0,69,0,0
18112,-1000,4,2,0,69,0,0
18134,-100,4,2,0,69,0,0
18443,-52.6315789473684,4,2,0,69,0,0
18465,-1000,4,2,0,69,0,0
18487,-100,4,2,0,69,0,0
18796,-52.6315789473684,4,2,0,69,0,0
18818,-1000,4,2,0,69,0,0
18840,-100,4,2,0,69,0,0
19149,-52.6315789473684,4,2,0,69,0,0
19171,-1000,4,2,0,69,0,0
19193,-100,4,2,0,69,0,0
19502,-52.6315789473684,4,2,0,69,0,0
19524,-1000,4,2,0,69,0,0
19546,-100,4,2,0,69,0,0
19855,-52.6315789473684,4,2,0,69,0,0
19877,-1000,4,2,0,69,0,0
19899,-100,4,2,0,69,0,0
20208,-52.6315789473684,4,2,0,69,0,0
20230,-1000,4,2,0,69,0,0
20252,-100,4,2,0,69,0,0
20561,-52.6315789473684,4,2,0,69,0,0
20583,-1000,4,2,0,69,0,0
20605,-100,4,2,0,69,0,0
20914,-52.6315789473684,4,2,0,69,0,0
20936,-1000,4,2,0,69,0,0
20958,-100,4,2,0,69,0,0
21267,-52.6315789473684,4,2,0,69,0,0
21289,-1000,4,2,0,69,0,0
21311,-100,4,2,0,69,0,0
21973,-52.6315789473684,4,2,0,69,0,0
21995,-1000,4,2,0,69,0,0
22017,-100,4,2,0,69,0,0
22679,-52.6315789473684,4,2,0,69,0,0
22701,-1000,4,2,0,69,0,0
22723,-100,4,2,0,69,0,0
23031,-52.6315789473684,4,2,0,69,0,0
23054,-1000,4,2,0,69,0,0
23076,-100,4,2,0,69,0,0
23384,-52.6315789473684,4,2,0,69,0,0
23406,-1000,4,2,0,69,0,0
23429,-100,4,2,0,69,0,0
23737,-52.6315789473684,4,2,0,69,0,0
23759,-1000,4,2,0,69,0,0
23781,-100,4,2,0,69,0,0
24090,-52.6315789473684,4,2,0,69,0,0
24112,-1000,4,2,0,69,0,0
24134,-100,4,2,0,69,0,0
24443,-52.6315789473684,4,2,0,69,0,0
24465,-1000,4,2,0,69,0,0
24487,-100,4,2,0,69,0,0
24796,-52.6315789473684,4,2,0,69,0,0
24818,-1000,4,2,0,69,0,0
24840,-100,4,2,0,69,0,0
25149,-52.6315789473684,4,2,0,69,0,0
25171,-1000,4,2,0,69,0,0
25193,-100,4,2,0,69,0,0
25502,-52.6315789473684,4,2,0,69,0,0
25524,-1000,4,2,0,69,0,0
25546,-100,4,2,0,69,0,0
25855,-52.6315789473684,4,2,0,69,0,0
25877,-1000,4,2,0,69,0,0
25899,-100,4,2,0,69,0,0
26208,-52.6315789473684,4,2,0,69,0,0
26230,-1000,4,2,0,69,0,0
26252,-100,4,2,0,69,0,0
26561,-52.6315789473684,4,2,0,69,0,0
26583,-1000,4,2,0,69,0,0
26605,-100,4,2,0,69,0,0
26914,-52.6315789473684,4,2,0,69,0,0
26936,-1000,4,2,0,69,0,0
26958,-100,4,2,0,69,0,0
27267,-52.6315789473684,4,2,0,69,0,0
27289,-1000,4,2,0,69,0,0
27311,-100,4,2,0,69,0,0
27620,1.426228323,4,2,0,69,1,0
27642,600000000,4,2,0,69,1,0
27796,352.941176470588,4,2,0,69,1,0
27973,1.426228323,4,2,0,69,1,0
27995,600000000,4,2,0,69,1,0
28149,352.941176470588,4,2,0,69,1,0
28325,352.941176470588,4,2,0,69,1,0
28325,-52.6315789473684,4,2,0,69,0,0
28348,-1000,4,2,0,69,0,0
28370,-100,4,2,0,69,0,0
28678,-52.6315789473684,4,2,0,69,0,0
28701,-1000,4,2,0,69,0,0
28723,-100,4,2,0,69,0,0
29031,-52.6315789473684,4,2,0,69,0,0
29053,-1000,4,2,0,69,0,0
29076,-100,4,2,0,69,0,0
29384,-52.6315789473684,4,2,0,69,0,0
29406,-1000,4,2,0,69,0,0
29428,-100,4,2,0,69,0,0
29737,-52.6315789473684,4,2,0,69,0,0
29759,-1000,4,2,0,69,0,0
29781,-100,4,2,0,69,0,0
30090,-52.6315789473684,4,2,0,69,0,0
30112,-1000,4,2,0,69,0,0
30134,-100,4,2,0,69,0,0
30443,-52.6315789473684,4,2,0,69,0,0
30465,-1000,4,2,0,69,0,0
30487,-100,4,2,0,69,0,0
30796,-52.6315789473684,4,2,0,69,0,0
30818,-1000,4,2,0,69,0,0
30840,-100,4,2,0,69,0,0
31149,-52.6315789473684,4,2,0,69,0,0
31171,-1000,4,2,0,69,0,0
31193,-100,4,2,0,69,0,0
31502,-52.6315789473684,4,2,0,69,0,0
31524,-1000,4,2,0,69,0,0
31546,-100,4,2,0,69,0,0
31855,-52.6315789473684,4,2,0,69,0,0
31877,-1000,4,2,0,69,0,0
31899,-100,4,2,0,69,0,0
32208,-52.6315789473684,4,2,0,69,0,0
32230,-1000,4,2,0,69,0,0
32252,-100,4,2,0,69,0,0
32561,-10,4,2,0,69,0,8
32583,-10000,4,2,0,69,0,8
32605,-200,4,2,0,69,0,8
32914,705.882352941176,1,2,0,69,1,0
32916,705.882352941176,1,2,0,69,1,0
32918,705.882352941176,1,2,0,69,1,0
32920,705.882352941176,1,2,0,69,1,0
32922,705.882352941176,1,2,0,69,1,0
32924,705.882352941176,1,2,0,69,1,0
32926,705.882352941176,1,2,0,69,1,0
32928,705.882352941176,1,2,0,69,1,0
32930,705.882352941176,1,2,0,69,1,0
32932,705.882352941176,1,2,0,69,1,0
32934,705.882352941176,1,2,0,69,1,0
32936,705.882352941176,1,2,0,69,1,0
32938,705.882352941176,1,2,0,69,1,0
32940,705.882352941176,1,2,0,69,1,0
32942,705.882352941176,1,2,0,69,1,0
32944,705.882352941176,1,2,0,69,1,0
32946,705.882352941176,1,2,0,69,1,0
32948,705.882352941176,1,2,0,69,1,0
32950,705.882352941176,1,2,0,69,1,0
32952,705.882352941176,1,2,0,69,1,0
32954,705.882352941176,1,2,0,69,1,0
32956,705.882352941176,1,2,0,69,1,0
32958,705.882352941176,1,2,0,69,1,0
32960,705.882352941176,1,2,0,69,1,0
32962,705.882352941176,1,2,0,69,1,0
32964,705.882352941176,1,2,0,69,1,0
32966,705.882352941176,1,2,0,69,1,0
32968,705.882352941176,1,2,0,69,1,0
32970,705.882352941176,1,2,0,69,1,0
32972,705.882352941176,1,2,0,69,1,0
32974,705.882352941176,1,2,0,69,1,0
32976,705.882352941176,1,2,0,69,1,0
32978,705.882352941176,1,2,0,69,1,0
32980,705.882352941176,1,2,0,69,1,0
32982,705.882352941176,1,2,0,69,1,0
32984,705.882352941176,1,2,0,69,1,0
32986,705.882352941176,1,2,0,69,1,0
32988,705.882352941176,1,2,0,69,1,0
32990,705.882352941176,1,2,0,69,1,0
32992,705.882352941176,1,2,0,69,1,0
32994,705.882352941176,1,2,0,69,1,0
32996,705.882352941176,1,2,0,69,1,0
32998,705.882352941176,1,2,0,69,1,0
33000,705.882352941176,1,2,0,69,1,0
33002,705.882352941176,1,2,0,69,1,0
33004,705.882352941176,1,2,0,69,1,0
33006,705.882352941176,1,2,0,69,1,0
33008,705.882352941176,1,2,0,69,1,0
33010,705.882352941176,1,2,0,69,1,0
33012,705.882352941176,1,2,0,69,1,0
33014,705.882352941176,1,2,0,69,1,0
33016,705.882352941176,1,2,0,69,1,0
33018,705.882352941176,1,2,0,69,1,0
33020,705.882352941176,1,2,0,69,1,0
33022,705.882352941176,1,2,0,69,1,0
33024,705.882352941176,1,2,0,69,1,0
33026,705.882352941176,1,2,0,69,1,0
33028,705.882352941176,1,2,0,69,1,0
33030,705.882352941176,1,2,0,69,1,0
33032,705.882352941176,1,2,0,69,1,0
33034,705.882352941176,1,2,0,69,1,0
33036,705.882352941176,1,2,0,69,1,0
33038,705.882352941176,1,2,0,69,1,0
33040,705.882352941176,1,2,0,69,1,0
33042,705.882352941176,1,2,0,69,1,0
33044,705.882352941176,1,2,0,69,1,0
33046,705.882352941176,1,2,0,69,1,0
33048,705.882352941176,1,2,0,69,1,0
33050,705.882352941176,1,2,0,69,1,0
33052,705.882352941176,1,2,0,69,1,0
33054,705.882352941176,1,2,0,69,1,0
33056,705.882352941176,1,2,0,69,1,0
33058,705.882352941176,1,2,0,69,1,0
33060,705.882352941176,1,2,0,69,1,0
33062,705.882352941176,1,2,0,69,1,0
33064,705.882352941176,1,2,0,69,1,0
33066,705.882352941176,1,2,0,69,1,0
33068,705.882352941176,1,2,0,69,1,0
33070,705.882352941176,1,2,0,69,1,0
33072,705.882352941176,1,2,0,69,1,0
33074,705.882352941176,1,2,0,69,1,0
33076,705.882352941176,1,2,0,69,1,0
33078,705.882352941176,1,2,0,69,1,0
33080,705.882352941176,1,2,0,69,1,0
33082,705.882352941176,1,2,0,69,1,0
33084,705.882352941176,1,2,0,69,1,0
33086,705.882352941176,1,2,0,69,1,0
33088,705.882352941176,1,2,0,69,1,0
33090,705.882352941176,1,2,0,69,1,0
33092,705.882352941176,1,2,0,69,1,0
33094,705.882352941176,1,2,0,69,1,0
33096,705.882352941176,1,2,0,69,1,0
33098,705.882352941176,1,2,0,69,1,0
33100,705.882352941176,1,2,0,69,1,0
33102,705.882352941176,1,2,0,69,1,0
33104,705.882352941176,1,2,0,69,1,0
33106,705.882352941176,1,2,0,69,1,0
33108,705.882352941176,1,2,0,69,1,0
33110,705.882352941176,1,2,0,69,1,0
33112,705.882352941176,1,2,0,69,1,0
33114,705.882352941176,1,2,0,69,1,0
33116,705.882352941176,1,2,0,69,1,0
33118,705.882352941176,1,2,0,69,1,0
33120,705.882352941176,1,2,0,69,1,0
33122,705.882352941176,1,2,0,69,1,0
33124,705.882352941176,1,2,0,69,1,0
33126,705.882352941176,1,2,0,69,1,0
33128,705.882352941176,1,2,0,69,1,0
33130,705.882352941176,1,2,0,69,1,0
33132,705.882352941176,1,2,0,69,1,0
33134,705.882352941176,1,2,0,69,1,0
33136,705.882352941176,1,2,0,69,1,0
33138,705.882352941176,1,2,0,69,1,0
33140,705.882352941176,1,2,0,69,1,0
33142,705.882352941176,1,2,0,69,1,0
33144,705.882352941176,1,2,0,69,1,0
33146,705.882352941176,1,2,0,69,1,0
33148,705.882352941176,1,2,0,69,1,0
33150,705.882352941176,1,2,0,69,1,0
33152,705.882352941176,1,2,0,69,1,0
33154,705.882352941176,1,2,0,69,1,0
33156,705.882352941176,1,2,0,69,1,0
33158,705.882352941176,1,2,0,69,1,0
33160,705.882352941176,1,2,0,69,1,0
33162,705.882352941176,1,2,0,69,1,0
33164,705.882352941176,1,2,0,69,1,0
33166,705.882352941176,1,2,0,69,1,0
33168,705.882352941176,1,2,0,69,1,0
33170,705.882352941176,1,2,0,69,1,0
33172,705.882352941176,1,2,0,69,1,0
33174,705.882352941176,1,2,0,69,1,0
33176,705.882352941176,1,2,0,69,1,0
33178,705.882352941176,1,2,0,69,1,0
33180,705.882352941176,1,2,0,69,1,0
33182,705.882352941176,1,2,0,69,1,0
33184,705.882352941176,1,2,0,69,1,0
33186,705.882352941176,1,2,0,69,1,0
33188,705.882352941176,1,2,0,69,1,0
33190,705.882352941176,1,2,0,69,1,0
33192,705.882352941176,1,2,0,69,1,0
33194,705.882352941176,1,2,0,69,1,0
33196,705.882352941176,1,2,0,69,1,0
33198,705.882352941176,1,2,0,69,1,0
33200,705.882352941176,1,2,0,69,1,0
33202,705.882352941176,1,2,0,69,1,0
33204,705.882352941176,1,2,0,69,1,0
33206,705.882352941176,1,2,0,69,1,0
33208,705.882352941176,1,2,0,69,1,0
33210,705.882352941176,1,2,0,69,1,0
33212,705.882352941176,1,2,0,69,1,0
33214,705.882352941176,1,2,0,69,1,0
33216,705.882352941176,1,2,0,69,1,0
33218,705.882352941176,1,2,0,69,1,0
33220,705.882352941176,1,2,0,69,1,0
33222,705.882352941176,1,2,0,69,1,0
33224,705.882352941176,1,2,0,69,1,0
33226,705.882352941176,1,2,0,69,1,0
33228,705.882352941176,1,2,0,69,1,0
33230,705.882352941176,1,2,0,69,1,0
33232,705.882352941176,1,2,0,69,1,0
33234,705.882352941176,1,2,0,69,1,0
33236,705.882352941176,1,2,0,69,1,0
33238,705.882352941176,1,2,0,69,1,0
33240,705.882352941176,1,2,0,69,1,0
33242,705.882352941176,1,2,0,69,1,0
33244,705.882352941176,1,2,0,69,1,0
33246,705.882352941176,1,2,0,69,1,0
33248,705.882352941176,1,2,0,69,1,0
33250,705.882352941176,1,2,0,69,1,0
33252,705.882352941176,1,2,0,69,1,0
33254,705.882352941176,1,2,0,69,1,0
33256,705.882352941176,1,2,0,69,1,0
33258,705.882352941176,1,2,0,69,1,0
33260,705.882352941176,1,2,0,69,1,0
33262,705.882352941176,1,2,0,69,1,0
33264,705.882352941176,1,2,0,69,1,0
33266,705.882352941176,1,2,0,69,1,0
33268,705.882352941176,1,2,0,69,1,0
33270,705.882352941176,1,2,0,69,1,0
33272,705.882352941176,1,2,0,69,1,0
33274,705.882352941176,1,2,0,69,1,0
33276,705.882352941176,1,2,0,69,1,0
33278,705.882352941176,1,2,0,69,1,0
33280,705.882352941176,1,2,0,69,1,0
33282,705.882352941176,1,2,0,69,1,0
33284,705.882352941176,1,2,0,69,1,0
33286,705.882352941176,1,2,0,69,1,0
33288,705.882352941176,1,2,0,69,1,0
33290,705.882352941176,1,2,0,69,1,0
33292,705.882352941176,1,2,0,69,1,0
33294,705.882352941176,1,2,0,69,1,0
33296,705.882352941176,1,2,0,69,1,0
33298,705.882352941176,1,2,0,69,1,0
33300,705.882352941176,1,2,0,69,1,0
33302,705.882352941176,1,2,0,69,1,0
33304,705.882352941176,1,2,0,69,1,0
33306,705.882352941176,1,2,0,69,1,0
33308,705.882352941176,1,2,0,69,1,0
33310,705.882352941176,1,2,0,69,1,0
33312,705.882352941176,1,2,0,69,1,0
33314,705.882352941176,1,2,0,69,1,0
33316,705.882352941176,1,2,0,69,1,0
33318,705.882352941176,1,2,0,69,1,0
33320,705.882352941176,1,2,0,69,1,0
33322,705.882352941176,1,2,0,69,1,0
33324,705.882352941176,1,2,0,69,1,0
33326,705.882352941176,1,2,0,69,1,0
33328,705.882352941176,1,2,0,69,1,0
33330,705.882352941176,1,2,0,69,1,0
33332,705.882352941176,1,2,0,69,1,0
33334,705.882352941176,1,2,0,69,1,0
33336,705.882352941176,1,2,0,69,1,0
33338,705.882352941176,1,2,0,69,1,0
33340,705.882352941176,1,2,0,69,1,0
33342,705.882352941176,1,2,0,69,1,0
33344,705.882352941176,1,2,0,69,1,0
33346,705.882352941176,1,2,0,69,1,0
33348,705.882352941176,1,2,0,69,1,0
33350,705.882352941176,1,2,0,69,1,0
33352,705.882352941176,1,2,0,69,1,0
33354,705.882352941176,1,2,0,69,1,0
33356,705.882352941176,1,2,0,69,1,0
33358,705.882352941176,1,2,0,69,1,0
33360,705.882352941176,1,2,0,69,1,0
33362,705.882352941176,1,2,0,69,1,0
33364,705.882352941176,1,2,0,69,1,0
33366,705.882352941176,1,2,0,69,1,0
33368,705.882352941176,1,2,0,69,1,0
33370,705.882352941176,1,2,0,69,1,0
33372,705.882352941176,1,2,0,69,1,0
33374,705.882352941176,1,2,0,69,1,0
33376,705.882352941176,1,2,0,69,1,0
33378,705.882352941176,1,2,0,69,1,0
33380,705.882352941176,1,2,0,69,1,0
33382,705.882352941176,1,2,0,69,1,0
33384,705.882352941176,1,2,0,69,1,0
33386,705.882352941176,1,2,0,69,1,0
33388,705.882352941176,1,2,0,69,1,0
33390,705.882352941176,1,2,0,69,1,0
33392,705.882352941176,1,2,0,69,1,0
33394,705.882352941176,1,2,0,69,1,0
33396,705.882352941176,1,2,0,69,1,0
33398,705.882352941176,1,2,0,69,1,0
33400,705.882352941176,1,2,0,69,1,0
33402,705.882352941176,1,2,0,69,1,0
33404,705.882352941176,1,2,0,69,1,0
33406,705.882352941176,1,2,0,69,1,0
33408,705.882352941176,1,2,0,69,1,0
33410,705.882352941176,1,2,0,69,1,0
33412,705.882352941176,1,2,0,69,1,0
33414,705.882352941176,1,2,0,69,1,0
33416,705.882352941176,1,2,0,69,1,0
33418,705.882352941176,1,2,0,69,1,0
33420,705.882352941176,1,2,0,69,1,0
33422,705.882352941176,1,2,0,69,1,0
33424,705.882352941176,1,2,0,69,1,0
33426,705.882352941176,1,2,0,69,1,0
33428,705.882352941176,1,2,0,69,1,0
33430,705.882352941176,1,2,0,69,1,0
33432,705.882352941176,1,2,0,69,1,0
33434,705.882352941176,1,2,0,69,1,0
33436,705.882352941176,1,2,0,69,1,0
33438,705.882352941176,1,2,0,69,1,0
33440,705.882352941176,1,2,0,69,1,0
33442,705.882352941176,1,2,0,69,1,0
33444,705.882352941176,1,2,0,69,1,0
33446,705.882352941176,1,2,0,69,1,0
33448,705.882352941176,1,2,0,69,1,0
33450,705.882352941176,1,2,0,69,1,0
33452,705.882352941176,1,2,0,69,1,0
33454,705.882352941176,1,2,0,69,1,0
33456,705.882352941176,1,2,0,69,1,0
33458,705.882352941176,1,2,0,69,1,0
33460,705.882352941176,1,2,0,69,1,0
33462,705.882352941176,1,2,0,69,1,0
33464,705.882352941176,1,2,0,69,1,0
33466,705.882352941176,1,2,0,69,1,0
33468,705.882352941176,1,2,0,69,1,0
33470,705.882352941176,1,2,0,69,1,0
33472,705.882352941176,1,2,0,69,1,0
33474,705.882352941176,1,2,0,69,1,0
33476,705.882352941176,1,2,0,69,1,0
33478,705.882352941176,1,2,0,69,1,0
33480,705.882352941176,1,2,0,69,1,0
33482,705.882352941176,1,2,0,69,1,0
33484,705.882352941176,1,2,0,69,1,0
33486,705.882352941176,1,2,0,69,1,0
33488,705.882352941176,1,2,0,69,1,0
33490,705.882352941176,1,2,0,69,1,0
33492,705.882352941176,1,2,0,69,1,0
33494,705.882352941176,1,2,0,69,1,0
33496,705.882352941176,1,2,0,69,1,0
33498,705.882352941176,1,2,0,69,1,0
33500,705.882352941176,1,2,0,69,1,0
33502,705.882352941176,1,2,0,69,1,0
33504,705.882352941176,1,2,0,69,1,0
33506,705.882352941176,1,2,0,69,1,0
33508,705.882352941176,1,2,0,69,1,0
33510,705.882352941176,1,2,0,69,1,0
33512,705.882352941176,1,2,0,69,1,0
33514,705.882352941176,1,2,0,69,1,0
33516,705.882352941176,1,2,0,69,1,0
33518,705.882352941176,1,2,0,69,1,0
33520,705.882352941176,1,2,0,69,1,0
33522,705.882352941176,1,2,0,69,1,0
33524,705.882352941176,1,2,0,69,1,0
33526,705.882352941176,1,2,0,69,1,0
33528,705.882352941176,1,2,0,69,1,0
33530,705.882352941176,1,2,0,69,1,0
33532,705.882352941176,1,2,0,69,1,0
33534,705.882352941176,1,2,0,69,1,0
33536,705.882352941176,1,2,0,69,1,0
33538,705.882352941176,1,2,0,69,1,0
33540,705.882352941176,1,2,0,69,1,0
33542,705.882352941176,1,2,0,69,1,0
33544,705.882352941176,1,2,0,69,1,0
33546,705.882352941176,1,2,0,69,1,0
33548,705.882352941176,1,2,0,69,1,0
33550,705.882352941176,1,2,0,69,1,0
33552,705.882352941176,1,2,0,69,1,0
33554,705.882352941176,1,2,0,69,1,0
33556,705.882352941176,1,2,0,69,1,0
33558,705.882352941176,1,2,0,69,1,0
33560,705.882352941176,1,2,0,69,1,0
33562,705.882352941176,1,2,0,69,1,0
33564,705.882352941176,1,2,0,69,1,0
33566,705.882352941176,1,2,0,69,1,0
33568,705.882352941176,1,2,0,69,1,0
33570,705.882352941176,1,2,0,69,1,0
33572,705.882352941176,1,2,0,69,1,0
33574,705.882352941176,1,2,0,69,1,0
33576,705.882352941176,1,2,0,69,1,0
33578,705.882352941176,1,2,0,69,1,0
33580,705.882352941176,1,2,0,69,1,0
33582,705.882352941176,1,2,0,69,1,0
33584,705.882352941176,1,2,0,69,1,0
33586,705.882352941176,1,2,0,69,1,0
33588,705.882352941176,1,2,0,69,1,0
33590,705.882352941176,1,2,0,69,1,0
33592,705.882352941176,1,2,0,69,1,0
33594,705.882352941176,1,2,0,69,1,0
33596,705.882352941176,1,2,0,69,1,0
33598,705.882352941176,1,2,0,69,1,0
33598,-50,4,2,0,69,0,81
33600,705.882352941176,1,2,0,69,1,0
33602,705.882352941176,1,2,0,69,1,0
33604,705.882352941176,1,2,0,69,1,0
33606,705.882352941176,1,2,0,69,1,0
33608,705.882352941176,1,2,0,69,1,0
33610,705.882352941176,1,2,0,69,1,0
33612,705.882352941176,1,2,0,69,1,0
33614,705.882352941176,1,2,0,69,1,0
33616,705.882352941176,1,2,0,69,1,0
33618,705.882352941176,1,2,0,69,1,0
33620,3.52941176470588,4,2,0,69,1,0
33642,600000000,4,2,0,69,1,0
33796,352.941176470588,4,2,0,69,1,0
33973,600000000,4,2,0,69,1,1
34059,352.941176470588,4,2,0,69,1,1
34148,600000000,4,2,0,69,1,1
34237,352.941176470588,4,2,0,69,1,1
34325,600000000,4,2,0,69,1,1
34414,352.941176470588,4,2,0,69,1,1
34502,600000000,4,2,0,69,1,1
34590,352.941176470588,4,2,0,69,1,1
34678,600000000,4,2,0,69,1,1
34767,352.941176470588,4,2,0,69,1,1
34855,600000000,4,2,0,69,1,1
34943,352.941176470588,4,2,0,69,1,1
35031,600000000,4,2,0,69,1,1
35120,352.941176470588,4,2,0,69,1,1
35208,600000000,4,2,0,69,1,1
35296,352.941176470588,4,2,0,69,1,1
35384,600000000,4,2,0,69,1,1
35473,352.941176470588,4,2,0,69,1,1
35561,600000000,4,2,0,69,1,1
35649,352.941176470588,4,2,0,69,1,1
35737,600000000,4,2,0,69,1,1
35825,352.941176470588,4,2,0,69,1,1
35914,600000000,4,2,0,69,1,1
36002,352.941176470588,4,2,0,69,1,1
36090,600000000,4,2,0,69,1,1
36178,352.941176470588,4,2,0,69,1,1
36267,600000000,4,2,0,69,1,1
36355,352.941176470588,4,2,0,69,1,1
36443,600000000,4,2,0,69,1,1
36531,352.941176470588,4,2,0,69,1,1
36620,600000000,4,2,0,69,1,1
36708,352.941176470588,4,2,0,69,1,1
36796,600000000,4,2,0,69,1,1
36884,352.941176470588,4,2,0,69,1,1
36973,600000000,4,2,0,69,1,1
37060,352.941176470588,4,2,0,69,1,1
37149,600000000,4,2,0,69,1,1
37237,352.941176470588,4,2,0,69,1,1
37325,600000000,4,2,0,69,1,1
37414,352.941176470588,4,2,0,69,1,1
37502,600000000,4,2,0,69,1,1
37590,352.941176470588,4,2,0,69,1,1
37678,600000000,4,2,0,69,1,1
37767,352.941176470588,4,2,0,69,1,1
37855,600000000,4,2,0,69,1,1
37943,352.941176470588,4,2,0,69,1,1
38031,600000000,4,2,0,69,1,1
38120,352.941176470588,4,2,0,69,1,1
38208,600000000,4,2,0,69,1,1
38296,352.941176470588,4,2,0,69,1,1
38384,600000000,4,2,0,69,1,1
38473,352.941176470588,4,2,0,69,1,1
38561,600000000,4,2,0,69,1,1
38649,352.941176470588,4,2,0,69,1,1
38737,600000000,4,2,0,69,1,1
38825,352.941176470588,4,2,0,69,1,1
38914,600000000,4,2,0,69,1,1
39001,352.941176470588,4,2,0,69,1,1
39090,600000000,4,2,0,69,1,1
39178,352.941176470588,4,2,0,69,1,1
39266,600000000,4,2,0,69,1,1
39355,352.941176470588,4,2,0,69,1,1
39443,600000000,4,2,0,69,1,1
39531,352.941176470588,4,2,0,69,1,1
39620,600000000,4,2,0,69,1,1
39708,352.941176470588,4,2,0,69,1,1
39796,600000000,4,2,0,69,1,1
39884,352.941176470588,4,2,0,69,1,1
39973,600000000,4,2,0,69,1,1
40061,352.941176470588,4,2,0,69,1,1
40149,600000000,4,2,0,69,1,1
40237,352.941176470588,4,2,0,69,1,1
40325,600000000,4,2,0,69,1,1
40414,352.941176470588,4,2,0,69,1,1
40502,600000000,4,2,0,69,1,1
40590,352.941176470588,4,2,0,69,1,1
40678,600000000,4,2,0,69,1,1
40767,352.941176470588,4,2,0,69,1,1
40855,600000000,4,2,0,69,1,1
40943,352.941176470588,4,2,0,69,1,1
41031,600000000,4,2,0,69,1,1
41120,352.941176470588,4,2,0,69,1,1
41208,600000000,4,2,0,69,1,1
41296,352.941176470588,4,2,0,69,1,1
41384,600000000,4,2,0,69,1,1
41472,352.941176470588,4,2,0,69,1,1
41561,600000000,4,2,0,69,1,1
41649,352.941176470588,4,2,0,69,1,1
41737,600000000,4,2,0,69,1,1
41825,352.941176470588,4,2,0,69,1,1
41914,600000000,4,2,0,69,1,1
42001,352.941176470588,4,2,0,69,1,1
42090,600000000,4,2,0,69,1,1
42178,352.941176470588,4,2,0,69,1,1
42267,600000000,4,2,0,69,1,1
42355,352.941176470588,4,2,0,69,1,1
42443,600000000,4,2,0,69,1,1
42531,352.941176470588,4,2,0,69,1,1
42620,600000000,4,2,0,69,1,1
42708,352.941176470588,4,2,0,69,1,1
42796,600000000,4,2,0,69,1,1
42884,352.941176470588,4,2,0,69,1,1
42972,600000000,4,2,0,69,1,1
43061,352.941176470588,4,2,0,69,1,1
43149,600000000,4,2,0,69,1,1
43237,352.941176470588,4,2,0,69,1,1
43325,600000000,4,2,0,69,1,1
43414,352.941176470588,4,2,0,69,1,1
43502,600000000,4,2,0,69,1,1
43590,352.941176470588,4,2,0,69,1,1
43678,600000000,4,2,0,69,1,1
43767,352.941176470588,4,2,0,69,1,1
43855,600000000,4,2,0,69,1,1
43943,352.941176470588,4,2,0,69,1,1
44031,600000000,4,2,0,69,1,1
44119,352.941176470588,4,2,0,69,1,1
44208,600000000,4,2,0,69,1,1
44296,352.941176470588,4,2,0,69,1,1
44384,600000000,4,2,0,69,1,1
44473,352.941176470588,4,2,0,69,1,1
44561,600000000,4,2,0,69,1,1
44649,352.941176470588,4,2,0,69,1,1
44737,600000000,4,2,0,69,1,1
44826,352.941176470588,4,2,0,69,1,1
44914,600000000,4,2,0,69,1,1
45002,352.941176470588,4,2,0,69,1,1
45090,600000000,4,2,0,69,1,1
45179,352.941176470588,4,2,0,69,1,1
45267,600000000,4,2,0,69,1,1
45355,352.941176470588,4,2,0,69,1,1
45443,600000000,4,2,0,69,1,1
45532,352.941176470588,4,2,0,69,1,1
45620,600000000,4,2,0,69,1,1
45708,352.941176470588,4,2,0,69,1,1
45796,600000000,4,2,0,69,1,1
45884,352.941176470588,4,2,0,69,1,1
45973,600000000,4,2,0,69,1,1
46061,352.941176470588,4,2,0,69,1,1
46149,600000000,4,2,0,69,1,1
46237,352.941176470588,4,2,0,69,1,1
46326,600000000,4,2,0,69,1,1
46414,352.941176470588,4,2,0,69,1,1
46502,600000000,4,2,0,69,1,1
46590,352.941176470588,4,2,0,69,1,1
46679,600000000,4,2,0,69,1,1
46767,352.941176470588,4,2,0,69,1,1
46855,600000000,4,2,0,69,1,1
46943,352.941176470588,4,2,0,69,1,1
47032,600000000,4,2,0,69,1,1
47120,352.941176470588,4,2,0,69,1,1
47208,600000000,4,2,0,69,1,1
47296,352.941176470588,4,2,0,69,1,1
47384,600000000,4,2,0,69,1,1
47473,352.941176470588,4,2,0,69,1,1
47561,600000000,4,2,0,69,1,1
47649,352.941176470588,4,2,0,69,1,1
47737,600000000,4,2,0,69,1,1
47826,352.941176470588,4,2,0,69,1,1
47914,600000000,4,2,0,69,1,1
48002,352.941176470588,4,2,0,69,1,1
48090,600000000,4,2,0,69,1,1
48179,352.941176470588,4,2,0,69,1,1
48267,600000000,4,2,0,69,1,1
48355,352.941176470588,4,2,0,69,1,1
48443,600000000,4,2,0,69,1,1
48532,352.941176470588,4,2,0,69,1,1
48620,600000000,4,2,0,69,1,1
48708,352.941176470588,4,2,0,69,1,1
48796,600000000,4,2,0,69,1,1
48884,352.941176470588,4,2,0,69,1,1
48973,600000000,4,2,0,69,1,1
49061,352.941176470588,4,2,0,69,1,1
49149,600000000,4,2,0,69,1,1
49237,352.941176470588,4,2,0,69,1,1
49326,600000000,4,2,0,69,1,1
49414,352.941176470588,4,2,0,69,1,1
49502,600000000,4,2,0,69,1,1
49590,352.941176470588,4,2,0,69,1,1
49679,600000000,4,2,0,69,1,1
49767,352.941176470588,4,2,0,69,1,1
49855,600000000,4,2,0,69,1,1
49943,352.941176470588,4,2,0,69,1,1
50032,600000000,4,2,0,69,1,1
50120,352.941176470588,4,2,0,69,1,1
50208,600000000,4,2,0,69,1,1
50296,352.941176470588,4,2,0,69,1,1
50384,600000000,4,2,0,69,1,1
50428,352.941176470588,4,2,0,69,1,1
50473,600000000,4,2,0,69,1,1
50516,352.941176470588,4,2,0,69,1,1
50561,600000000,4,2,0,69,1,1
50649,352.941176470588,4,2,0,69,1,1
50737,600000000,4,2,0,69,1,1
50826,352.941176470588,4,2,0,69,1,1
50914,600000000,4,2,0,69,1,1
51002,352.941176470588,4,2,0,69,1,1
51090,600000000,4,2,0,69,1,1
51179,352.941176470588,4,2,0,69,1,1
51267,600000000,4,2,0,69,1,1
51355,352.941176470588,4,2,0,69,1,1
51443,600000000,4,2,0,69,1,1
51487,352.941176470588,4,2,0,69,1,1
51532,600000000,4,2,0,69,1,1
51576,352.941176470588,4,2,0,69,1,1
51620,600000000,4,2,0,69,1,1
51708,352.941176470588,4,2,0,69,1,1
51796,600000000,4,2,0,69,1,1
51884,352.941176470588,4,2,0,69,1,1
51973,600000000,4,2,0,69,1,1
52061,352.941176470588,4,2,0,69,1,1
52149,600000000,4,2,0,69,1,1
52237,352.941176470588,4,2,0,69,1,1
52326,600000000,4,2,0,69,1,1
52414,352.941176470588,4,2,0,69,1,1
52502,600000000,4,2,0,69,1,1
52590,352.941176470588,4,2,0,69,1,1
52679,600000000,4,2,0,69,1,1
52767,352.941176470588,4,2,0,69,1,1
52855,600000000,4,2,0,69,1,1
52899,352.941176470588,4,2,0,69,1,1
52943,600000000,4,2,0,69,1,1
52987,352.941176470588,4,2,0,69,1,1
53032,600000000,4,2,0,69,1,1
53120,352.941176470588,4,2,0,69,1,1
53208,600000000,4,2,0,69,1,1
53296,352.941176470588,4,2,0,69,1,1
53384,600000000,4,2,0,69,1,1
53473,352.941176470588,4,2,0,69,1,1
53561,600000000,4,2,0,69,1,1
53649,352.941176470588,4,2,0,69,1,1
53737,600000000,4,2,0,69,1,1
53782,352.941176470588,4,2,0,69,1,1
53782,-71.4285714285714,4,2,0,69,0,1
53826,600000000,4,2,0,69,1,1
53870,352.941176470588,4,2,0,69,1,1
53870,-71.4285714285714,4,2,0,69,0,1
53914,600000000,4,2,0,69,1,1
53958,352.941176470588,4,2,0,69,1,1
53958,-71.4285714285714,4,2,0,69,0,1
54002,600000000,4,2,0,69,1,1
54046,352.941176470588,4,2,0,69,1,1
54046,-71.4285714285714,4,2,0,69,0,1
54090,600000000,4,2,0,69,1,1
54134,352.941176470588,4,2,0,69,1,1
54134,-71.4285714285714,4,2,0,69,0,1
54179,600000000,4,2,0,69,1,1
54223,352.941176470588,4,2,0,69,1,1
54223,-71.4285714285714,4,2,0,69,0,1
54267,600000000,4,2,0,69,1,1
54311,352.941176470588,4,2,0,69,1,1
54311,-71.4285714285714,4,2,0,69,0,1
54355,600000000,4,2,0,69,1,1
54399,352.941176470588,4,2,0,69,1,1
54399,-71.4285714285714,4,2,0,69,0,1
54443,600000000,4,2,0,69,1,1
54487,352.941176470588,4,2,0,69,1,1
54487,-71.4285714285714,4,2,0,69,0,1
54532,600000000,4,2,0,69,1,1
54576,352.941176470588,4,2,0,69,1,1
54576,-71.4285714285714,4,2,0,69,0,1
54620,600000000,4,2,0,69,1,1
54664,352.941176470588,4,2,0,69,1,1
54664,-71.4285714285714,4,2,0,69,0,1
54708,600000000,4,2,0,69,1,1
54752,352.941176470588,4,2,0,69,1,1
54752,-71.4285714285714,4,2,0,69,0,1
54796,600000000,4,2,0,69,1,1
54840,352.941176470588,4,2,0,69,1,1
54840,-71.4285714285714,4,2,0,69,0,1
54884,600000000,4,2,0,69,1,1
54929,352.941176470588,4,2,0,69,1,1
54929,-71.4285714285714,4,2,0,69,0,1
54973,600000000,4,2,0,69,1,1
55017,352.941176470588,4,2,0,69,1,1
55017,-71.4285714285714,4,2,0,69,0,1
55061,600000000,4,2,0,69,1,1
55105,352.941176470588,4,2,0,69,1,1
55149,352.941176470588,4,2,0,69,1,0
55149,-100,4,2,0,69,0,0
55502,-52.6315789473684,4,2,0,69,0,0
55546,-1000,4,2,0,69,0,0
55590,-100,4,2,0,69,0,0
55678,-52.6315789473684,4,2,0,69,0,0
55722,-1000,4,2,0,69,0,0
55766,-100,4,2,0,69,0,0
55854,-52.6315789473684,4,2,0,69,0,0
55899,-1000,4,2,0,69,0,0
55943,-100,4,2,0,69,0,0
56207,-66.6666666666667,4,2,0,69,0,0
56296,-200,4,2,0,69,0,0
56384,-100,4,2,0,69,0,0
56561,600000000,4,2,0,69,1,0
57090,352.941176470588,4,2,0,69,1,0
57973,600000000,4,2,0,69,1,0
58502,352.941176470588,4,2,0,69,1,0
59384,600000000,4,2,0,69,1,0
59914,352.941176470588,4,2,0,69,1,0
60796,600000000,4,2,0,69,1,0
61149,352.941176470588,4,2,0,69,1,0
62208,600000000,4,2,0,69,1,0
62737,352.941176470588,4,2,0,69,1,0
63620,600000000,4,2,0,69,1,0
64149,352.941176470588,4,2,0,69,1,0
65032,600000000,4,2,0,69,1,0
65561,352.941176470588,4,2,0,69,1,0
66443,600000000,4,2,0,69,1,0
66796,352.941176470588,4,2,0,69,1,0
67854,352.941176470588,4,2,0,69,1,0
67855,352.941176470588,4,2,0,64,1,0
67855,-111.111111111111,4,2,0,64,0,0
68206,-117.647058823529,4,2,0,64,0,0
68559,-125,4,2,0,59,0,0
68912,-133.333333333333,4,2,0,59,0,0
69265,-142.857142857143,4,2,0,54,0,0
69618,-153.846153846154,4,2,0,54,0,0
69971,-166.666666666667,4,2,0,49,0,0
70324,-181.818181818182,4,2,0,49,0,0
70677,-200,4,2,0,49,0,0
71030,-181.818181818182,4,2,0,49,0,0
71383,-166.666666666667,4,2,0,54,0,0
71736,-153.846153846154,4,2,0,54,0,0
72089,-142.857142857143,4,2,0,59,0,0
72442,-133.333333333333,4,2,0,59,0,0
72795,-125,4,2,0,64,0,0
73148,-117.647058823529,4,2,0,64,0,0
73501,-66.6666666666667,4,2,0,69,0,0
73545,-142.857142857143,4,2,0,69,0,0
73854,-66.6666666666667,4,2,0,69,0,0
73898,-142.857142857143,4,2,0,69,0,0
74206,-66.6666666666667,4,2,0,69,0,0
74251,-142.857142857143,4,2,0,69,0,0
74559,-66.6666666666667,4,2,0,69,0,0
74604,-142.857142857143,4,2,0,69,0,0
74912,-66.6666666666667,4,2,0,69,0,0
74956,-142.857142857143,4,2,0,69,0,0
75265,-66.6666666666667,4,2,0,69,0,0
75309,-142.857142857143,4,2,0,69,0,0
75618,-66.6666666666667,4,2,0,69,0,0
75662,-142.857142857143,4,2,0,69,0,0
75971,-66.6666666666667,4,2,0,69,0,0
76015,-142.857142857143,4,2,0,69,0,0
76324,-133.333333333333,4,2,0,69,0,0
76501,-125,4,2,0,69,0,0
76677,-117.647058823529,4,2,0,69,0,0
76854,-111.111111111111,4,2,0,69,0,0
77030,-105.263157894737,4,2,0,69,0,0
77206,-100,4,2,0,69,0,0
77383,-95.2380952380952,4,2,0,69,0,0
77559,-90.9090909090909,4,2,0,69,0,0
77736,3.52941176470588,4,2,0,69,1,0
77758,600000000,4,2,0,69,1,0
77912,352.941176470588,4,2,0,69,1,0
78088,-66.6666666666667,4,2,0,69,0,0
78132,-200,4,2,0,69,0,0
78264,-66.6666666666667,4,2,0,69,0,0
78308,-200,4,2,0,69,0,0
78441,-66.6666666666667,4,2,0,69,0,0
78485,-200,4,2,0,69,0,0
78617,-66.6666666666667,4,2,0,69,0,0
78661,-200,4,2,0,69,0,0
78794,-66.6666666666667,4,2,0,69,0,0
78838,-200,4,2,0,69,0,0
78970,-66.6666666666667,4,2,0,69,0,0
79014,-200,4,2,0,69,0,0
79148,352.941176470588,4,2,0,69,1,0
79149,352.941176470588,4,2,0,69,1,0
79149,-52.6315789473684,4,2,0,69,0,0
79170,-1000,4,2,0,69,0,0
79192,-100,4,2,0,69,0,0
79500,-52.6315789473684,4,2,0,69,0,0
79523,-1000,4,2,0,69,0,0
79545,-100,4,2,0,69,0,0
79853,-52.6315789473684,4,2,0,69,0,0
79875,-1000,4,2,0,69,0,0
79898,-100,4,2,0,69,0,0
80206,-52.6315789473684,4,2,0,69,0,0
80228,-1000,4,2,0,69,0,0
80250,-100,4,2,0,69,0,0
80559,-52.6315789473684,4,2,0,69,0,0
80581,-1000,4,2,0,69,0,0
80603,-100,4,2,0,69,0,0
80912,-52.6315789473684,4,2,0,69,0,0
80934,-1000,4,2,0,69,0,0
80956,-100,4,2,0,69,0,0
81265,-52.6315789473684,4,2,0,69,0,0
81287,-1000,4,2,0,69,0,0
81309,-100,4,2,0,69,0,0
81618,-52.6315789473684,4,2,0,69,0,0
81640,-1000,4,2,0,69,0,0
81662,-100,4,2,0,69,0,0
81971,-52.6315789473684,4,2,0,69,0,0
81993,-1000,4,2,0,69,0,0
82015,-100,4,2,0,69,0,0
82324,-52.6315789473684,4,2,0,69,0,0
82346,-1000,4,2,0,69,0,0
82368,-100,4,2,0,69,0,0
82677,-52.6315789473684,4,2,0,69,0,0
82699,-1000,4,2,0,69,0,0
82721,-100,4,2,0,69,0,0
83030,-52.6315789473684,4,2,0,69,0,0
83052,-1000,4,2,0,69,0,0
83074,-100,4,2,0,69,0,0
83383,-52.6315789473684,4,2,0,69,0,0
83405,-1000,4,2,0,69,0,0
83427,-100,4,2,0,69,0,0
83736,-52.6315789473684,4,2,0,69,0,0
83758,-1000,4,2,0,69,0,0
83780,-100,4,2,0,69,0,0
84089,-52.6315789473684,4,2,0,69,0,0
84111,-1000,4,2,0,69,0,0
84133,-100,4,2,0,69,0,0
84441,-52.6315789473684,4,2,0,69,0,0
84464,-1000,4,2,0,69,0,0
84486,-100,4,2,0,69,0,0
84794,-52.6315789473684,4,2,0,69,0,0
84816,-1000,4,2,0,69,0,0
84839,-100,4,2,0,69,0,0
85147,-52.6315789473684,4,2,0,69,0,0
85169,-1000,4,2,0,69,0,0
85191,-100,4,2,0,69,0,0
85500,-52.6315789473684,4,2,0,69,0,0
85522,-1000,4,2,0,69,0,0
85544,-100,4,2,0,69,0,0
85853,-52.6315789473684,4,2,0,69,0,0
85875,-1000,4,2,0,69,0,0
85897,-100,4,2,0,69,0,0
86206,-52.6315789473684,4,2,0,69,0,0
86228,-1000,4,2,0,69,0,0
86250,-100,4,2,0,69,0,0
86559,-52.6315789473684,4,2,0,69,0,0
86581,-1000,4,2,0,69,0,0
86603,-100,4,2,0,69,0,0
86912,-52.6315789473684,4,2,0,69,0,0
86934,-1000,4,2,0,69,0,0
86956,-100,4,2,0,69,0,0
87265,-52.6315789473684,4,2,0,69,0,0
87287,-1000,4,2,0,69,0,0
87309,-100,4,2,0,69,0,0
87618,-52.6315789473684,4,2,0,69,0,0
87640,-1000,4,2,0,69,0,0
87662,-100,4,2,0,69,0,0
87971,-52.6315789473684,4,2,0,69,0,0
87993,-1000,4,2,0,69,0,0
88015,-100,4,2,0,69,0,0
88324,-52.6315789473684,4,2,0,69,0,0
88346,-1000,4,2,0,69,0,0
88368,-100,4,2,0,69,0,0
88677,-52.6315789473684,4,2,0,69,0,0
88699,-1000,4,2,0,69,0,0
88721,-100,4,2,0,69,0,0
89030,3.52941176470588,4,2,0,69,1,0
89052,600000000,4,2,0,69,1,0
89206,352.941176470588,4,2,0,69,1,0
89383,3.52941176470588,4,2,0,69,1,0
89405,600000000,4,2,0,69,1,0
89471,352.941176470588,4,2,0,69,1,0
89559,3.52941176470588,4,2,0,69,1,0
89581,600000000,4,2,0,69,1,0
89648,352.941176470588,4,2,0,69,1,0
89736,3.52941176470588,4,2,0,69,1,0
89758,600000000,4,2,0,69,1,0
89824,352.941176470588,4,2,0,69,1,0
89912,3.52941176470588,4,2,0,69,1,0
89934,600000000,4,2,0,69,1,0
90000,352.941176470588,4,2,0,69,1,0
90089,3.52941176470588,4,2,0,69,1,0
90111,600000000,4,2,0,69,1,0
90177,352.941176470588,4,2,0,69,1,0
90265,3.52941176470588,4,2,0,69,1,0
90287,600000000,4,2,0,69,1,0
90353,352.941176470588,4,2,0,69,1,0
90442,352.941176470588,4,2,0,69,1,0
90443,352.941176470588,4,2,0,69,1,0
90443,-52.6315789473684,4,2,0,69,0,0
90464,-1000,4,2,0,69,0,0
90486,-100,4,2,0,69,0,0
90794,-52.6315789473684,4,2,0,69,0,0
90817,-1000,4,2,0,69,0,0
90839,-100,4,2,0,69,0,0
91147,-52.6315789473684,4,2,0,69,0,0
91169,-1000,4,2,0,69,0,0
91192,-100,4,2,0,69,0,0
91500,-52.6315789473684,4,2,0,69,0,0
91522,-1000,4,2,0,69,0,0
91544,-100,4,2,0,69,0,0
91853,-52.6315789473684,4,2,0,69,0,0
91875,-1000,4,2,0,69,0,0
91897,-100,4,2,0,69,0,0
92206,-52.6315789473684,4,2,0,69,0,0
92228,-1000,4,2,0,69,0,0
92250,-100,4,2,0,69,0,0
92559,-52.6315789473684,4,2,0,69,0,0
92581,-1000,4,2,0,69,0,0
92603,-100,4,2,0,69,0,0
92912,-52.6315789473684,4,2,0,69,0,0
92934,-1000,4,2,0,69,0,0
92956,-100,4,2,0,69,0,0
93265,-52.6315789473684,4,2,0,69,0,0
93287,-1000,4,2,0,69,0,0
93309,-100,4,2,0,69,0,0
93618,-52.6315789473684,4,2,0,69,0,0
93640,-1000,4,2,0,69,0,0
93662,-100,4,2,0,69,0,0
93971,-52.6315789473684,4,2,0,69,0,0
93993,-1000,4,2,0,69,0,0
94015,-100,4,2,0,69,0,0
94324,-52.6315789473684,4,2,0,69,0,0
94346,-1000,4,2,0,69,0,0
94368,-100,4,2,0,69,0,0
94677,-52.6315789473684,4,2,0,69,0,0
94699,-1000,4,2,0,69,0,0
94721,-100,4,2,0,69,0,0
95030,-52.6315789473684,4,2,0,69,0,0
95052,-1000,4,2,0,69,0,0
95074,-100,4,2,0,69,0,0
95383,-52.6315789473684,4,2,0,69,0,0
95405,-1000,4,2,0,69,0,0
95427,-100,4,2,0,69,0,0
95735,-52.6315789473684,4,2,0,69,0,0
95758,-1000,4,2,0,69,0,0
95780,-100,4,2,0,69,0,0
96088,-52.6315789473684,4,2,0,69,0,0
96110,-1000,4,2,0,69,0,0
96133,-100,4,2,0,69,0,0
96441,-52.6315789473684,4,2,0,69,0,0
96463,-1000,4,2,0,69,0,0
96485,-100,4,2,0,69,0,0
96794,-52.6315789473684,4,2,0,69,0,0
96816,-1000,4,2,0,69,0,0
96838,-100,4,2,0,69,0,0
97147,-52.6315789473684,4,2,0,69,0,0
97169,-1000,4,2,0,69,0,0
97191,-100,4,2,0,69,0,0
97500,-52.6315789473684,4,2,0,69,0,0
97522,-1000,4,2,0,69,0,0
97544,-100,4,2,0,69,0,0
97853,-52.6315789473684,4,2,0,69,0,0
97875,-1000,4,2,0,69,0,0
97897,-100,4,2,0,69,0,0
98206,-52.6315789473684,4,2,0,69,0,0
98228,-1000,4,2,0,69,0,0
98250,-100,4,2,0,69,0,0
98559,-52.6315789473684,4,2,0,69,0,0
98581,-1000,4,2,0,69,0,0
98603,-100,4,2,0,69,0,0
98912,-52.6315789473684,4,2,0,69,0,0
98934,-1000,4,2,0,69,0,0
98956,-100,4,2,0,69,0,0
101383,-10,4,2,0,69,0,0
101405,-1000,4,2,0,69,0,0
101559,-100,4,2,0,69,0,0
101737,352.941176470588,4,2,0,69,1,1
101737,-52.6315789473684,4,2,0,69,0,1
101759,-1000,4,2,0,69,0,1
101781,-100,4,2,0,69,0,1
102089,-52.6315789473684,4,2,0,69,0,1
102112,-1000,4,2,0,69,0,1
102134,-100,4,2,0,69,0,1
102442,-52.6315789473684,4,2,0,69,0,1
102464,-1000,4,2,0,69,0,1
102487,-100,4,2,0,69,0,1
102795,-52.6315789473684,4,2,0,69,0,1
102817,-1000,4,2,0,69,0,1
102839,-100,4,2,0,69,0,1
103147,3.52941176470588,4,2,0,69,1,1
103148,352.941176470588,4,2,0,69,1,1
103501,-52.6315789473684,4,2,0,69,0,1
103523,-1000,4,2,0,69,0,1
103545,-100,4,2,0,69,0,1
103854,-52.6315789473684,4,2,0,69,0,1
103876,-1000,4,2,0,69,0,1
103898,-100,4,2,0,69,0,1
104207,-52.6315789473684,4,2,0,69,0,1
104229,-1000,4,2,0,69,0,1
104251,-100,4,2,0,69,0,1
104559,3.52941176470588,4,2,0,69,1,1
104560,352.941176470588,4,2,0,69,1,1
104913,-52.6315789473684,4,2,0,69,0,1
104935,-1000,4,2,0,69,0,1
104957,-100,4,2,0,69,0,1
105266,-52.6315789473684,4,2,0,69,0,1
105288,-1000,4,2,0,69,0,1
105310,-100,4,2,0,69,0,1
105619,-52.6315789473684,4,2,0,69,0,1
105641,-1000,4,2,0,69,0,1
105663,-100,4,2,0,69,0,1
105971,3.52941176470588,4,2,0,69,1,1
105972,352.941176470588,4,2,0,69,1,1
106325,-52.6315789473684,4,2,0,69,0,1
106347,-1000,4,2,0,69,0,1
106369,-100,4,2,0,69,0,1
106678,-52.6315789473684,4,2,0,69,0,1
106700,-1000,4,2,0,69,0,1
106722,-100,4,2,0,69,0,1
107030,-52.6315789473684,4,2,0,69,0,1
107053,-1000,4,2,0,69,0,1
107075,-100,4,2,0,69,0,1
107383,3.52941176470588,4,2,0,69,1,1
107384,352.941176470588,4,2,0,69,1,1
107736,-52.6315789473684,4,2,0,69,0,1
107758,-1000,4,2,0,69,0,1
107780,-100,4,2,0,69,0,1
108089,-52.6315789473684,4,2,0,69,0,1
108111,-1000,4,2,0,69,0,1
108133,-100,4,2,0,69,0,1
108442,-52.6315789473684,4,2,0,69,0,1
108464,-1000,4,2,0,69,0,1
108486,-100,4,2,0,69,0,1
108795,3.52941176470588,4,2,0,69,1,1
108796,352.941176470588,4,2,0,69,1,1
109148,-52.6315789473684,4,2,0,69,0,1
109170,-1000,4,2,0,69,0,1
109192,-100,4,2,0,69,0,1
109501,-52.6315789473684,4,2,0,69,0,1
109523,-1000,4,2,0,69,0,1
109545,-100,4,2,0,69,0,1
109854,-52.6315789473684,4,2,0,69,0,1
109876,-1000,4,2,0,69,0,1
109898,-100,4,2,0,69,0,1
110207,3.52941176470588,4,2,0,69,1,1
110208,352.941176470588,4,2,0,69,1,1
110559,-52.6315789473684,4,2,0,69,0,1
110581,-1000,4,2,0,69,0,1
110603,-100,4,2,0,69,0,1
110913,-52.6315789473684,4,2,0,69,0,1
110935,-1000,4,2,0,69,0,1
110957,-100,4,2,0,69,0,1
111265,-52.6315789473684,4,2,0,69,0,1
111287,-1000,4,2,0,69,0,1
111309,-100,4,2,0,69,0,1
111619,3.52941176470588,4,2,0,69,1,1
111620,352.941176470588,4,2,0,69,1,1
111972,-52.6315789473684,4,2,0,69,0,1
111994,-1000,4,2,0,69,0,1
112016,-100,4,2,0,69,0,1
112325,-52.6315789473684,4,2,0,69,0,1
112347,-1000,4,2,0,69,0,1
112369,-100,4,2,0,69,0,1
112678,-52.6315789473684,4,2,0,69,0,1
112700,-1000,4,2,0,69,0,1
112722,-100,4,2,0,69,0,1
113031,3.52941176470588,4,2,0,69,1,1
113032,352.941176470588,4,2,0,69,1,1
113383,-52.6315789473684,4,2,0,69,0,1
113406,-1000,4,2,0,69,0,1
113428,-100,4,2,0,69,0,1
113736,-52.6315789473684,4,2,0,69,0,1
113758,-1000,4,2,0,69,0,1
113781,-100,4,2,0,69,0,1
114089,-52.6315789473684,4,2,0,69,0,1
114111,-1000,4,2,0,69,0,1
114133,-100,4,2,0,69,0,1
114442,3.52941176470588,4,2,0,69,1,1
114443,352.941176470588,4,2,0,69,1,1
114795,-52.6315789473684,4,2,0,69,0,1
114817,-1000,4,2,0,69,0,1
114839,-100,4,2,0,69,0,1
115148,-52.6315789473684,4,2,0,69,0,1
115170,-1000,4,2,0,69,0,1
115192,-100,4,2,0,69,0,1
115501,-52.6315789473684,4,2,0,69,0,1
115523,-1000,4,2,0,69,0,1
115545,-100,4,2,0,69,0,1
115854,3.52941176470588,4,2,0,69,1,1
115855,352.941176470588,4,2,0,69,1,1
116207,-52.6315789473684,4,2,0,69,0,1
116229,-1000,4,2,0,69,0,1
116251,-100,4,2,0,69,0,1
116560,-52.6315789473684,4,2,0,69,0,1
116582,-1000,4,2,0,69,0,1
116604,-100,4,2,0,69,0,1
116913,-52.6315789473684,4,2,0,69,0,1
116935,-1000,4,2,0,69,0,1
116957,-100,4,2,0,69,0,1
117266,3.52941176470588,4,2,0,69,1,1
117267,352.941176470588,4,2,0,69,1,1
117619,-52.6315789473684,4,2,0,69,0,1
117641,-1000,4,2,0,69,0,1
117663,-100,4,2,0,69,0,1
117972,-52.6315789473684,4,2,0,69,0,1
117994,-1000,4,2,0,69,0,1
118016,-100,4,2,0,69,0,1
118324,-52.6315789473684,4,2,0,69,0,1
118347,-1000,4,2,0,69,0,1
118369,-100,4,2,0,69,0,1
118677,-52.6315789473684,4,2,0,69,0,1
118699,-1000,4,2,0,69,0,1
118722,-100,4,2,0,69,0,1
119030,-52.6315789473684,4,2,0,69,0,1
119052,-1000,4,2,0,69,0,1
119074,-100,4,2,0,69,0,1
119383,-52.6315789473684,4,2,0,69,0,1
119405,-1000,4,2,0,69,0,1
119427,-100,4,2,0,69,0,1
119736,-52.6315789473684,4,2,0,69,0,1
119758,-1000,4,2,0,69,0,1
119780,-100,4,2,0,69,0,1
120089,-52.6315789473684,4,2,0,69,0,1
120111,-1000,4,2,0,69,0,1
120133,-100,4,2,0,69,0,1
120442,-52.6315789473684,4,2,0,69,0,1
120464,-1000,4,2,0,69,0,1
120486,-100,4,2,0,69,0,1
120795,-52.6315789473684,4,2,0,69,0,1
120817,-1000,4,2,0,69,0,1
120839,-100,4,2,0,69,0,1
121148,-52.6315789473684,4,2,0,69,0,1
121170,-1000,4,2,0,69,0,1
121192,-100,4,2,0,69,0,1
121501,-52.6315789473684,4,2,0,69,0,1
121523,-1000,4,2,0,69,0,1
121545,-100,4,2,0,69,0,1
121854,-52.6315789473684,4,2,0,69,0,1
121876,-1000,4,2,0,69,0,1
121898,-100,4,2,0,69,0,1
122207,-52.6315789473684,4,2,0,69,0,1
122229,-1000,4,2,0,69,0,1
122251,-100,4,2,0,69,0,1
122560,-52.6315789473684,4,2,0,69,0,1
122582,-1000,4,2,0,69,0,1
122604,-100,4,2,0,69,0,1
122911,-100,4,2,0,69,0,0
123264,-52.6315789473684,4,2,0,69,0,0
123309,-1000,4,2,0,69,0,0
123353,-100,4,2,0,69,0,0
123441,-52.6315789473684,4,2,0,69,0,0
123485,-1000,4,2,0,69,0,0
123529,-100,4,2,0,69,0,0
123617,-52.6315789473684,4,2,0,69,0,0
123662,-1000,4,2,0,69,0,0
123706,-100,4,2,0,69,0,0
123970,-1000,4,2,0,69,0,0
124279,-16.6666666666667,4,2,0,69,0,0

[HitObjects]
64,192,88,5,0,0:0:0:0:
64,192,442,1,0,0:0:0:0:
192,192,795,1,0,0:0:0:0:
192,192,1148,1,0,0:0:0:0:
320,192,1501,1,0,0:0:0:0:
320,192,1854,1,0,0:0:0:0:
64,192,2207,1,0,0:0:0:0:
320,192,2913,1,0,0:0:0:0:
192,192,2913,1,0,0:0:0:0:
320,192,3266,1,0,0:0:0:0:
192,192,3619,1,0,0:0:0:0:
64,192,3619,1,0,0:0:0:0:
192,192,3972,1,0,0:0:0:0:
448,192,4325,1,0,0:0:0:0:
64,192,4325,1,0,0:0:0:0:
448,192,4678,1,0,0:0:0:0:
320,192,5031,1,0,0:0:0:0:
192,192,5737,1,0,0:0:0:0:
320,192,5737,1,0,0:0:0:0:
192,192,6090,1,0,0:0:0:0:
448,192,6090,1,0,0:0:0:0:
64,192,6442,1,0,0:0:0:0:
192,192,6442,1,0,0:0:0:0:
64,192,6795,1,0,0:0:0:0:
448,192,6795,1,0,0:0:0:0:
320,192,7148,1,0,0:0:0:0:
192,192,7148,1,0,0:0:0:0:
320,192,7501,1,0,0:0:0:0:
448,192,7501,1,0,0:0:0:0:
192,192,7854,1,0,0:0:0:0:
320,192,7854,1,0,0:0:0:0:
448,192,8207,1,0,0:0:0:0:
320,192,8560,1,0,0:0:0:0:
192,192,8560,1,0,0:0:0:0:
320,192,8913,1,0,0:0:0:0:
192,192,8913,1,0,0:0:0:0:
448,192,8913,1,0,0:0:0:0:
448,192,9266,1,0,0:0:0:0:
64,192,9266,1,0,0:0:0:0:
448,192,9619,1,0,0:0:0:0:
192,192,9619,1,0,0:0:0:0:
320,192,9619,1,0,0:0:0:0:
320,192,9972,1,0,0:0:0:0:
448,192,9972,1,0,0:0:0:0:
64,192,9972,1,0,0:0:0:0:
192,192,10324,1,0,0:0:0:0:
192,192,10500,1,0,0:0:0:0:
192,192,10677,1,0,0:0:0:0:
192,192,11030,1,0,0:0:0:0:
64,192,11383,1,0,0:0:0:0:
320,192,11383,1,0,0:0:0:0:
448,192,11383,1,0,0:0:0:0:
192,192,11560,1,0,0:0:0:0:
320,192,11648,1,0,0:0:0:0:
448,192,11736,1,0,0:0:0:0:
64,192,11736,1,0,0:0:0:0:
320,192,11913,1,0,0:0:0:0:
64,192,12089,1,0,0:0:0:0:
192,192,12089,1,0,0:0:0:0:
320,192,12266,1,0,0:0:0:0:
64,192,12442,1,0,0:0:0:0:
192,192,12442,1,0,0:0:0:0:
64,192,12619,1,0,0:0:0:0:
192,192,12795,1,0,0:0:0:0:
448,192,12795,1,0,0:0:0:0:
320,192,12972,1,0,0:0:0:0:
448,192,13060,1,0,0:0:0:0:
64,192,13148,1,0,0:0:0:0:
192,192,13148,1,0,0:0:0:0:
320,192,13325,1,0,0:0:0:0:
448,192,13501,1,0,0:0:0:0:
192,192,13501,1,0,0:0:0:0:
64,192,13678,1,0,0:0:0:0:
448,192,13854,1,0,0:0:0:0:
320,192,13854,1,0,0:0:0:0:
192,192,14031,1,0,0:0:0:0:
64,192,14207,1,0,0:0:0:0:
320,192,14207,1,0,0:0:0:0:
448,192,14383,1,0,0:0:0:0:
320,192,14472,1,0,0:0:0:0:
64,192,14560,1,0,0:0:0:0:
192,192,14560,1,0,0:0:0:0:
448,192,14736,1,0,0:0:0:0:
64,192,14913,1,0,0:0:0:0:
320,192,14913,1,0,0:0:0:0:
192,192,15089,1,0,0:0:0:0:
64,192,15266,1,0,0:0:0:0:
320,192,15266,1,0,0:0:0:0:
192,192,15442,1,0,0:0:0:0:
320,192,15619,1,0,0:0:0:0:
448,192,15619,1,0,0:0:0:0:
192,192,15795,1,0,0:0:0:0:
64,192,15883,1,0,0:0:0:0:
192,192,15972,1,0,0:0:0:0:
320,192,15972,1,0,0:0:0:0:
448,192,16148,1,0,0:0:0:0:
320,192,16325,1,0,0:0:0:0:
64,192,16325,1,0,0:0:0:0:
192,192,16679,1,0,0:0:0:0:
64,192,16679,1,0,0:0:0:0:
192,192,17032,1,0,0:0:0:0:
320,192,17032,1,0,0:0:0:0:
448,192,17032,1,0,0:0:0:0:
192,192,17207,1,0,0:0:0:0:
320,192,17295,1,0,0:0:0:0:
64,192,17383,1,0,0:0:0:0:
448,192,17383,1,0,0:0:0:0:
192,192,17560,1,0,0:0:0:0:
192,192,17736,1,0,0:0:0:0:
320,192,17736,1,0,0:0:0:0:
320,192,17913,1,0,0:0:0:0:
64,192,18089,1,0,0:0:0:0:
448,192,18089,1,0,0:0:0:0:
192,192,18266,1,0,0:0:0:0:
192,192,18442,1,0,0:0:0:0:
320,192,18442,1,0,0:0:0:0:
192,192,18619,1,0,0:0:0:0:
64,192,18707,1,0,0:0:0:0:
320,192,18795,1,0,0:0:0:0:
448,192,18795,1,0,0:0:0:0:
192,192,18972,1,0,0:0:0:0:
64,192,19148,1,0,0:0:0:0:
192,192,19148,1,0,0:0:0:0:
320,192,19325,128,0,19501:0:0:0:0:
64,192,19501,1,0,0:0:0:0:
192,192,19501,1,0,0:0:0:0:
320,192,19678,128,0,19854:0:0:0:0:
64,192,19854,1,0,0:0:0:0:
192,192,19854,1,0,0:0:0:0:
448,192,20031,1,0,0:0:0:0:
320,192,20119,1,0,0:0:0:0:
448,192,20207,1,0,0:0:0:0:
192,192,20207,1,0,0:0:0:0:
64,192,20383,1,0,0:0:0:0:
448,192,20560,1,0,0:0:0:0:
320,192,20560,1,0,0:0:0:0:
64,192,20736,1,0,0:0:0:0:
320,192,20913,1,0,0:0:0:0:
192,192,20913,1,0,0:0:0:0:
320,192,21089,1,0,0:0:0:0:
64,192,21266,1,0,0:0:0:0:
448,192,21266,1,0,0:0:0:0:
320,192,21442,1,0,0:0:0:0:
64,192,21530,128,0,21707:0:0:0:0:
64,192,21795,128,0,21972:0:0:0:0:
320,192,21972,1,0,0:0:0:0:
448,192,21972,1,0,0:0:0:0:
192,192,22148,1,0,0:0:0:0:
64,192,22236,128,0,22413:0:0:0:0:
64,192,22501,128,0,22678:0:0:0:0:
320,192,22678,1,0,0:0:0:0:
192,192,22678,1,0,0:0:0:0:
448,192,22678,1,0,0:0:0:0:
192,192,22854,1,0,0:0:0:0:
320,192,22942,1,0,0:0:0:0:
448,192,23030,1,0,0:0:0:0:
64,192,23030,1,0,0:0:0:0:
192,192,23030,1,0,0:0:0:0:
320,192,23119,1,0,0:0:0:0:
64,192,23295,1,0,0:0:0:0:
320,192,23383,1,0,0:0:0:0:
448,192,23383,1,0,0:0:0:0:
192,192,23472,1,0,0:0:0:0:
192,192,23648,1,0,0:0:0:0:
320,192,23736,1,0,0:0:0:0:
448,192,23736,1,0,0:0:0:0:
64,192,23736,1,0,0:0:0:0:
192,192,23825,1,0,0:0:0:0:
448,192,23913,1,0,0:0:0:0:
192,192,24089,1,0,0:0:0:0:
64,192,24089,1,0,0:0:0:0:
320,192,24266,1,0,0:0:0:0:
448,192,24354,1,0,0:0:0:0:
64,192,24442,1,0,0:0:0:0:
192,192,24442,1,0,0:0:0:0:
320,192,24442,1,0,0:0:0:0:
448,192,24530,1,0,0:0:0:0:
192,192,24707,1,0,0:0:0:0:
448,192,24795,1,0,0:0:0:0:
64,192,24795,1,0,0:0:0:0:
320,192,24883,1,0,0:0:0:0:
64,192,25060,1,0,0:0:0:0:
192,192,25148,1,0,0:0:0:0:
320,192,25148,1,0,0:0:0:0:
448,192,25148,1,0,0:0:0:0:
64,192,25236,1,0,0:0:0:0:
192,192,25325,1,0,0:0:0:0:
320,192,25501,1,0,0:0:0:0:
64,192,25501,1,0,0:0:0:0:
448,192,25501,1,0,0:0:0:0:
192,192,25678,1,0,0:0:0:0:
64,192,25766,1,0,0:0:0:0:
320,192,25854,1,0,0:0:0:0:
448,192,25854,1,0,0:0:0:0:
192,192,25854,1,0,0:0:0:0:
64,192,25942,1,0,0:0:0:0:
448,192,26119,1,0,0:0:0:0:
320,192,26207,1,0,0:0:0:0:
192,192,26207,1,0,0:0:0:0:
64,192,26295,1,0,0:0:0:0:
448,192,26472,1,0,0:0:0:0:
320,192,26560,1,0,0:0:0:0:
64,192,26560,1,0,0:0:0:0:
192,192,26560,1,0,0:0:0:0:
448,192,26648,1,0,0:0:0:0:
64,192,26736,1,0,0:0:0:0:
320,192,26913,1,0,0:0:0:0:
448,192,26913,1,0,0:0:0:0:
192,192,26913,1,0,0:0:0:0:
64,192,27089,1,0,0:0:0:0:
192,192,27178,1,0,0:0:0:0:
448,192,27266,1,0,0:0:0:0:
320,192,27266,1,0,0:0:0:0:
64,192,27266,1,0,0:0:0:0:
192,192,27354,1,0,0:0:0:0:
320,192,27530,1,0,0:0:0:0:
448,192,27619,1,0,0:0:0:0:
192,192,27619,1,0,0:0:0:0:
448,192,27973,1,0,0:0:0:0:
320,192,27973,1,0,0:0:0:0:
64,192,28325,1,0,0:0:0:0:
320,192,28325,1,0,0:0:0:0:
192,192,28325,1,0,0:0:0:0:
448,192,28501,1,0,0:0:0:0:
320,192,28589,1,0,0:0:0:0:
64,192,28677,1,0,0:0:0:0:
192,192,28677,1,0,0:0:0:0:
448,192,28677,1,0,0:0:0:0:
320,192,28766,1,0,0:0:0:0:
64,192,28942,1,0,0:0:0:0:
192,192,29030,1,0,0:0:0:0:
320,192,29030,1,0,0:0:0:0:
448,192,29119,1,0,0:0:0:0:
448,192,29295,1,0,0:0:0:0:
320,192,29383,1,0,0:0:0:0:
192,192,29383,1,0,0:0:0:0:
64,192,29383,1,0,0:0:0:0:
448,192,29472,1,0,0:0:0:0:
192,192,29560,1,0,0:0:0:0:
448,192,29736,1,0,0:0:0:0:
64,192,29736,1,0,0:0:0:0:
320,192,29736,1,0,0:0:0:0:
192,192,29913,1,0,0:0:0:0:
64,192,30001,1,0,0:0:0:0:
320,192,30089,1,0,0:0:0:0:
192,192,30089,1,0,0:0:0:0:
448,192,30089,1,0,0:0:0:0:
64,192,30177,1,0,0:0:0:0:
448,192,30354,1,0,0:0:0:0:
64,192,30442,1,0,0:0:0:0:
320,192,30442,1,0,0:0:0:0:
192,192,30530,1,0,0:0:0:0:
448,192,30707,1,0,0:0:0:0:
192,192,30795,1,0,0:0:0:0:
320,192,30795,1,0,0:0:0:0:
64,192,30795,1,0,0:0:0:0:
448,192,30883,1,0,0:0:0:0:
192,192,30972,1,0,0:0:0:0:
448,192,31148,5,0,0:0:0:0:
320,192,31148,1,0,0:0:0:0:
64,192,31148,1,0,0:0:0:0:
192,192,31325,1,0,0:0:0:0:
448,192,31413,1,0,0:0:0:0:
64,192,31501,1,0,0:0:0:0:
192,192,31501,1,0,0:0:0:0:
320,192,31501,1,0,0:0:0:0:
448,192,31589,1,0,0:0:0:0:
64,192,31766,1,0,0:0:0:0:
320,192,31854,1,0,0:0:0:0:
192,192,31854,1,0,0:0:0:0:
448,192,31942,1,0,0:0:0:0:
448,192,32119,1,0,0:0:0:0:
64,192,32207,1,0,0:0:0:0:
192,192,32207,1,0,0:0:0:0:
320,192,32207,1,0,0:0:0:0:
448,192,32295,5,0,0:0:0:0:
320,192,32383,1,0,0:0:0:0:
192,192,32561,1,0,0:0:0:0:
64,192,32561,1,0,0:0:0:0:
448,192,32914,128,0,33620:0:0:0:0:
192,192,33620,5,0,0:0:0:0:
320,192,33620,1,0,0:0:0:0:
64,192,33620,1,0,0:0:0:0:
448,192,33973,5,0,0:0:0:0:
320,192,33973,1,0,0:0:0:0:
64,192,33973,1,0,0:0:0:0:
192,192,34149,1,0,0:0:0:0:
64,192,34326,1,0,0:0:0:0:
320,192,34326,1,0,0:0:0:0:
192,192,34502,1,0,0:0:0:0:
64,192,34678,1,0,0:0:0:0:
448,192,34679,1,0,0:0:0:0:
320,192,34855,1,0,0:0:0:0:
448,192,35031,1,0,0:0:0:0:
192,192,35032,1,0,0:0:0:0:
320,192,35208,1,0,0:0:0:0:
192,192,35384,1,0,0:0:0:0:
64,192,35384,1,0,0:0:0:0:
320,192,35561,1,0,0:0:0:0:
64,192,35737,1,0,0:0:0:0:
448,192,35737,1,0,0:0:0:0:
320,192,35914,1,0,0:0:0:0:
192,192,36090,1,0,0:0:0:0:
64,192,36090,1,0,0:0:0:0:
320,192,36267,1,0,0:0:0:0:
192,192,36443,1,0,0:0:0:0:
64,192,36443,1,0,0:0:0:0:
448,192,36620,1,0,0:0:0:0:
320,192,36796,1,0,0:0:0:0:
192,192,36796,1,0,0:0:0:0:
64,192,36973,1,0,0:0:0:0:
192,192,37149,1,0,0:0:0:0:
320,192,37149,1,0,0:0:0:0:
448,192,37325,1,0,0:0:0:0:
64,192,37502,1,0,0:0:0:0:
320,192,37502,1,0,0:0:0:0:
192,192,37678,1,0,0:0:0:0:
448,192,37855,1,0,0:0:0:0:
64,192,37855,1,0,0:0:0:0:
192,192,38031,1,0,0:0:0:0:
320,192,38208,1,0,0:0:0:0:
448,192,38208,1,0,0:0:0:0:
192,192,38384,1,0,0:0:0:0:
64,192,38561,1,0,0:0:0:0:
448,192,38561,1,0,0:0:0:0:
320,192,38737,1,0,0:0:0:0:
64,192,38914,1,0,0:0:0:0:
448,192,38914,1,0,0:0:0:0:
192,192,39090,1,0,0:0:0:0:
320,192,39267,1,0,0:0:0:0:
448,192,39267,1,0,0:0:0:0:
192,192,39443,1,0,0:0:0:0:
64,192,39620,1,0,0:0:0:0:
320,192,39620,1,0,0:0:0:0:
192,192,39796,1,0,0:0:0:0:
64,192,39973,1,0,0:0:0:0:
320,192,39973,1,0,0:0:0:0:
192,192,40149,1,0,0:0:0:0:
320,192,40325,1,0,0:0:0:0:
448,192,40325,1,0,0:0:0:0:
64,192,40502,1,0,0:0:0:0:
448,192,40678,1,0,0:0:0:0:
192,192,40678,1,0,0:0:0:0:
320,192,40855,1,0,0:0:0:0:
192,192,41031,1,0,0:0:0:0:
64,192,41031,1,0,0:0:0:0:
320,192,41208,1,0,0:0:0:0:
64,192,41384,1,0,0:0:0:0:
448,192,41384,1,0,0:0:0:0:
320,192,41561,1,0,0:0:0:0:
192,192,41737,1,0,0:0:0:0:
64,192,41737,1,0,0:0:0:0:
320,192,41914,1,0,0:0:0:0:
192,192,42090,1,0,0:0:0:0:
64,192,42090,1,0,0:0:0:0:
448,192,42267,1,0,0:0:0:0:
320,192,42443,1,0,0:0:0:0:
192,192,42443,1,0,0:0:0:0:
64,192,42620,1,0,0:0:0:0:
192,192,42796,1,0,0:0:0:0:
320,192,42796,1,0,0:0:0:0:
448,192,42972,1,0,0:0:0:0:
64,192,43149,1,0,0:0:0:0:
320,192,43149,1,0,0:0:0:0:
192,192,43325,1,0,0:0:0:0:
448,192,43502,1,0,0:0:0:0:
64,192,43502,1,0,0:0:0:0:
192,192,43678,1,0,0:0:0:0:
64,192,43855,1,0,0:0:0:0:
448,192,43855,1,0,0:0:0:0:
192,192,43855,1,0,0:0:0:0:
320,192,44031,1,0,0:0:0:0:
192,192,44208,1,0,0:0:0:0:
64,192,44208,1,0,0:0:0:0:
192,192,44384,1,0,0:0:0:0:
448,192,44384,1,0,0:0:0:0:
448,192,44561,1,0,0:0:0:0:
64,192,44561,1,0,0:0:0:0:
192,192,44737,1,0,0:0:0:0:
320,192,44737,1,0,0:0:0:0:
448,192,44914,1,0,0:0:0:0:
192,192,44914,1,0,0:0:0:0:
320,192,45090,1,0,0:0:0:0:
64,192,45090,1,0,0:0:0:0:
192,192,45267,1,0,0:0:0:0:
64,192,45267,1,0,0:0:0:0:
448,192,45267,1,0,0:0:0:0:
192,192,45443,1,0,0:0:0:0:
320,192,45620,1,0,0:0:0:0:
448,192,45620,1,0,0:0:0:0:
320,192,45796,1,0,0:0:0:0:
192,192,45973,1,0,0:0:0:0:
64,192,45973,1,0,0:0:0:0:
192,192,46149,1,0,0:0:0:0:
320,192,46326,1,0,0:0:0:0:
448,192,46326,1,0,0:0:0:0:
320,192,46502,1,0,0:0:0:0:
192,192,46679,1,0,0:0:0:0:
64,192,46679,1,0,0:0:0:0:
192,192,46855,1,0,0:0:0:0:
448,192,47032,1,0,0:0:0:0:
320,192,47032,1,0,0:0:0:0:
320,192,47208,1,0,0:0:0:0:
64,192,47384,1,0,0:0:0:0:
448,192,47384,1,0,0:0:0:0:
64,192,47561,1,0,0:0:0:0:
192,192,47737,1,0,0:0:0:0:
448,192,47737,1,0,0:0:0:0:
448,192,47914,1,0,0:0:0:0:
64,192,48090,1,0,0:0:0:0:
192,192,48090,1,0,0:0:0:0:
320,192,48090,1,0,0:0:0:0:
192,192,48267,1,0,0:0:0:0:
320,192,48443,1,0,0:0:0:0:
448,192,48443,1,0,0:0:0:0:
320,192,48620,1,0,0:0:0:0:
64,192,48796,1,0,0:0:0:0:
448,192,48796,1,0,0:0:0:0:
448,192,48973,1,0,0:0:0:0:
192,192,49149,1,0,0:0:0:0:
320,192,49149,1,0,0:0:0:0:
192,192,49326,1,0,0:0:0:0:
320,192,49502,1,0,0:0:0:0:
64,192,49502,1,0,0:0:0:0:
320,192,49679,1,0,0:0:0:0:
64,192,49855,1,0,0:0:0:0:
448,192,49855,1,0,0:0:0:0:
448,192,50032,1,0,0:0:0:0:
192,192,50208,1,0,0:0:0:0:
320,192,50208,1,0,0:0:0:0:
192,192,50384,1,0,0:0:0:0:
320,192,50472,1,0,0:0:0:0:
448,192,50561,1,0,0:0:0:0:
64,192,50561,1,0,0:0:0:0:
448,192,50737,1,0,0:0:0:0:
320,192,50737,1,0,0:0:0:0:
192,192,50914,1,0,0:0:0:0:
64,192,50914,1,0,0:0:0:0:
320,192,50914,1,0,0:0:0:0:
64,192,51090,1,0,0:0:0:0:
192,192,51267,1,0,0:0:0:0:
320,192,51267,1,0,0:0:0:0:
320,192,51443,1,0,0:0:0:0:
448,192,51443,1,0,0:0:0:0:
192,192,51532,1,0,0:0:0:0:
64,192,51620,1,0,0:0:0:0:
448,192,51620,1,0,0:0:0:0:
320,192,51796,1,0,0:0:0:0:
448,192,51973,1,0,0:0:0:0:
192,192,51973,1,0,0:0:0:0:
64,192,52149,1,0,0:0:0:0:
320,192,52149,1,0,0:0:0:0:
192,192,52326,1,0,0:0:0:0:
448,192,52326,1,0,0:0:0:0:
320,192,52326,1,0,0:0:0:0:
448,192,52502,1,0,0:0:0:0:
64,192,52679,1,0,0:0:0:0:
320,192,52679,1,0,0:0:0:0:
192,192,52855,1,0,0:0:0:0:
320,192,52943,1,0,0:0:0:0:
448,192,53032,1,0,0:0:0:0:
64,192,53032,1,0,0:0:0:0:
192,192,53208,1,0,0:0:0:0:
320,192,53208,1,0,0:0:0:0:
448,192,53384,1,0,0:0:0:0:
320,192,53384,1,0,0:0:0:0:
192,192,53561,1,0,0:0:0:0:
320,192,53561,1,0,0:0:0:0:
448,192,53737,1,0,0:0:0:0:
64,192,53737,1,0,0:0:0:0:
192,192,53737,1,0,0:0:0:0:
320,192,53826,1,0,0:0:0:0:
192,192,53914,1,0,0:0:0:0:
64,192,54002,1,0,0:0:0:0:
448,192,54090,1,0,0:0:0:0:
320,192,54090,1,0,0:0:0:0:
192,192,54179,1,0,0:0:0:0:
64,192,54267,1,0,0:0:0:0:
192,192,54355,1,0,0:0:0:0:
448,192,54443,1,0,0:0:0:0:
320,192,54443,1,0,0:0:0:0:
64,192,54532,1,0,0:0:0:0:
192,192,54620,1,0,0:0:0:0:
320,192,54708,1,0,0:0:0:0:
64,192,54796,1,0,0:0:0:0:
448,192,54796,1,0,0:0:0:0:
320,192,54884,1,0,0:0:0:0:
192,192,54973,1,0,0:0:0:0:
64,192,55061,1,0,0:0:0:0:
192,192,55501,5,0,0:0:0:0:
192,192,55678,1,0,0:0:0:0:
192,192,55854,1,0,0:0:0:0:
192,192,56207,1,0,0:0:0:0:
320,192,56561,1,0,0:0:0:0:
448,192,56561,128,0,57973:0:0:0:0:
320,192,57266,1,0,0:0:0:0:
192,192,57442,1,0,0:0:0:0:
64,192,57619,1,0,0:0:0:0:
320,192,57795,1,0,0:0:0:0:
64,192,57973,128,0,59384:0:0:0:0:
192,192,57973,1,0,0:0:0:0:
320,192,57973,1,0,0:0:0:0:
320,192,58678,1,0,0:0:0:0:
448,192,58854,1,0,0:0:0:0:
192,192,59031,1,0,0:0:0:0:
320,192,59207,1,0,0:0:0:0:
448,192,59384,1,0,0:0:0:0:
320,192,59384,1,0,0:0:0:0:
192,192,59384,128,0,60796:0:0:0:0:
448,192,60090,1,0,0:0:0:0:
320,192,60266,1,0,0:0:0:0:
64,192,60443,1,0,0:0:0:0:
448,192,60619,1,0,0:0:0:0:
320,192,60796,128,0,62208:0:0:0:0:
448,192,60796,1,0,0:0:0:0:
64,192,60796,1,0,0:0:0:0:
192,192,61325,1,0,0:0:0:0:
448,192,61501,1,0,0:0:0:0:
192,192,61678,1,0,0:0:0:0:
64,192,61854,1,0,0:0:0:0:
448,192,62031,1,0,0:0:0:0:
64,192,62208,128,0,63620:0:0:0:0:
192,192,62208,1,0,0:0:0:0:
448,192,62208,1,0,0:0:0:0:
320,192,62913,1,0,0:0:0:0:
448,192,63089,1,0,0:0:0:0:
192,192,63266,1,0,0:0:0:0:
448,192,63442,1,0,0:0:0:0:
192,192,63620,128,0,65032:0:0:0:0:
320,192,63620,1,0,0:0:0:0:
448,192,63620,1,0,0:0:0:0:
448,192,64325,1,0,0:0:0:0:
64,192,64501,1,0,0:0:0:0:
448,192,64678,1,0,0:0:0:0:
64,192,64854,1,0,0:0:0:0:
320,192,65032,1,0,0:0:0:0:
448,192,65032,128,0,66443:0:0:0:0:
64,192,65032,1,0,0:0:0:0:
320,192,65737,1,0,0:0:0:0:
192,192,65913,1,0,0:0:0:0:
64,192,66090,1,0,0:0:0:0:
192,192,66266,1,0,0:0:0:0:
320,192,66443,128,0,67854:0:0:0:0:
192,192,66443,1,0,0:0:0:0:
64,192,66443,1,0,0:0:0:0:
448,192,66972,1,0,0:0:0:0:
192,192,67148,1,0,0:0:0:0:
64,192,67325,1,0,0:0:0:0:
448,192,67501,1,0,0:0:0:0:
192,192,67678,1,0,0:0:0:0:
64,192,67855,1,0,0:0:0:0:
448,192,67855,1,0,0:0:0:0:
192,192,68031,1,0,0:0:0:0:
448,192,68207,1,0,0:0:0:0:
192,192,68384,1,0,0:0:0:0:
448,192,68560,1,0,0:0:0:0:
64,192,68560,1,0,0:0:0:0:
192,192,68737,1,0,0:0:0:0:
320,192,68737,1,0,0:0:0:0:
448,192,68913,1,0,0:0:0:0:
64,192,68913,1,0,0:0:0:0:
192,192,69090,1,0,0:0:0:0:
320,192,69090,1,0,0:0:0:0:
320,192,69266,1,0,0:0:0:0:
448,192,69266,1,0,0:0:0:0:
64,192,69443,1,0,0:0:0:0:
320,192,69619,1,0,0:0:0:0:
64,192,69796,1,0,0:0:0:0:
320,192,69972,1,0,0:0:0:0:
192,192,69972,1,0,0:0:0:0:
64,192,70149,1,0,0:0:0:0:
448,192,70149,1,0,0:0:0:0:
320,192,70325,1,0,0:0:0:0:
448,192,70325,1,0,0:0:0:0:
64,192,70502,1,0,0:0:0:0:
192,192,70502,1,0,0:0:0:0:
320,192,70678,1,0,0:0:0:0:
192,192,70678,1,0,0:0:0:0:
192,192,70855,1,0,0:0:0:0:
320,192,71031,1,0,0:0:0:0:
192,192,71207,1,0,0:0:0:0:
320,192,71384,1,0,0:0:0:0:
448,192,71384,1,0,0:0:0:0:
192,192,71560,1,0,0:0:0:0:
64,192,71560,1,0,0:0:0:0:
320,192,71737,1,0,0:0:0:0:
64,192,71737,1,0,0:0:0:0:
192,192,71913,1,0,0:0:0:0:
448,192,71913,1,0,0:0:0:0:
320,192,72090,1,0,0:0:0:0:
448,192,72090,1,0,0:0:0:0:
64,192,72266,1,0,0:0:0:0:
320,192,72443,1,0,0:0:0:0:
64,192,72619,1,0,0:0:0:0:
192,192,72619,1,0,0:0:0:0:
320,192,72796,1,0,0:0:0:0:
448,192,72796,1,0,0:0:0:0:
64,192,72972,1,0,0:0:0:0:
192,192,72972,1,0,0:0:0:0:
320,192,73149,1,0,0:0:0:0:
448,192,73149,1,0,0:0:0:0:
320,192,73325,1,0,0:0:0:0:
192,192,73325,1,0,0:0:0:0:
64,192,73502,1,0,0:0:0:0:
320,192,73502,1,0,0:0:0:0:
320,192,73678,1,0,0:0:0:0:
64,192,73855,1,0,0:0:0:0:
320,192,73855,1,0,0:0:0:0:
320,192,74031,1,0,0:0:0:0:
320,192,74207,1,0,0:0:0:0:
64,192,74207,1,0,0:0:0:0:
320,192,74384,1,0,0:0:0:0:
64,192,74560,1,0,0:0:0:0:
320,192,74560,1,0,0:0:0:0:
320,192,74737,1,0,0:0:0:0:
192,192,74913,1,0,0:0:0:0:
448,192,74913,1,0,0:0:0:0:
448,192,75090,1,0,0:0:0:0:
192,192,75266,1,0,0:0:0:0:
448,192,75266,1,0,0:0:0:0:
448,192,75443,1,0,0:0:0:0:
192,192,75619,1,0,0:0:0:0:
448,192,75619,1,0,0:0:0:0:
448,192,75796,1,0,0:0:0:0:
192,192,75972,1,0,0:0:0:0:
448,192,75972,1,0,0:0:0:0:
448,192,76149,1,0,0:0:0:0:
192,192,76325,1,0,0:0:0:0:
448,192,76413,1,0,0:0:0:0:
192,192,76502,1,0,0:0:0:0:
448,192,76590,1,0,0:0:0:0:
192,192,76678,1,0,0:0:0:0:
320,192,76766,1,0,0:0:0:0:
192,192,76855,1,0,0:0:0:0:
320,192,76943,1,0,0:0:0:0:
64,192,77031,1,0,0:0:0:0:
320,192,77119,1,0,0:0:0:0:
64,192,77207,1,0,0:0:0:0:
320,192,77296,1,0,0:0:0:0:
64,192,77384,1,0,0:0:0:0:
192,192,77472,1,0,0:0:0:0:
64,192,77560,1,0,0:0:0:0:
192,192,77649,1,0,0:0:0:0:
320,192,77736,1,0,0:0:0:0:
448,192,77736,1,0,0:0:0:0:
448,192,78088,1,0,0:0:0:0:
320,192,78264,1,0,0:0:0:0:
448,192,78441,1,0,0:0:0:0:
320,192,78617,1,0,0:0:0:0:
192,192,78794,1,0,0:0:0:0:
64,192,78970,1,0,0:0:0:0:
320,192,79147,1,0,0:0:0:0:
192,192,79147,1,0,0:0:0:0:
448,192,79147,1,0,0:0:0:0:
192,192,79325,1,0,0:0:0:0:
64,192,79413,1,0,0:0:0:0:
448,192,79501,1,0,0:0:0:0:
320,192,79501,1,0,0:0:0:0:
192,192,79678,1,0,0:0:0:0:
448,192,79678,1,0,0:0:0:0:
448,192,79854,1,0,0:0:0:0:
64,192,79854,1,0,0:0:0:0:
192,192,79943,1,0,0:0:0:0:
320,192,80031,1,0,0:0:0:0:
448,192,80119,1,0,0:0:0:0:
64,192,80207,1,0,0:0:0:0:
192,192,80207,1,0,0:0:0:0:
320,192,80296,1,0,0:0:0:0:
448,192,80384,1,0,0:0:0:0:
192,192,80472,1,0,0:0:0:0:
64,192,80560,1,0,0:0:0:0:
320,192,80560,1,0,0:0:0:0:
448,192,80649,1,0,0:0:0:0:
192,192,80737,1,0,0:0:0:0:
320,192,80825,1,0,0:0:0:0:
448,192,80913,1,0,0:0:0:0:
64,192,80913,1,0,0:0:0:0:
192,192,81090,1,0,0:0:0:0:
448,192,81090,1,0,0:0:0:0:
320,192,81178,1,0,0:0:0:0:
448,192,81266,1,0,0:0:0:0:
64,192,81266,1,0,0:0:0:0:
192,192,81354,1,0,0:0:0:0:
448,192,81443,1,0,0:0:0:0:
320,192,81531,1,0,0:0:0:0:
448,192,81619,1,0,0:0:0:0:
64,192,81619,1,0,0:0:0:0:
192,192,81796,1,0,0:0:0:0:
448,192,81972,1,0,0:0:0:0:
64,192,81972,1,0,0:0:0:0:
320,192,82149,1,0,0:0:0:0:
448,192,82149,1,0,0:0:0:0:
192,192,82325,1,0,0:0:0:0:
64,192,82325,1,0,0:0:0:0:
448,192,82501,1,0,0:0:0:0:
192,192,82590,1,0,0:0:0:0:
448,192,82678,1,0,0:0:0:0:
64,192,82678,1,0,0:0:0:0:
320,192,82766,1,0,0:0:0:0:
192,192,82854,1,0,0:0:0:0:
448,192,82943,1,0,0:0:0:0:
320,192,82943,1,0,0:0:0:0:
64,192,83031,1,0,0:0:0:0:
192,192,83031,1,0,0:0:0:0:
320,192,83119,1,0,0:0:0:0:
448,192,83207,1,0,0:0:0:0:
64,192,83207,1,0,0:0:0:0:
192,192,83296,1,0,0:0:0:0:
64,192,83384,1,0,0:0:0:0:
320,192,83384,1,0,0:0:0:0:
448,192,83472,1,0,0:0:0:0:
192,192,83472,1,0,0:0:0:0:
64,192,83560,1,0,0:0:0:0:
320,192,83649,1,0,0:0:0:0:
448,192,83737,1,0,0:0:0:0:
64,192,83737,1,0,0:0:0:0:
448,192,83913,1,0,0:0:0:0:
320,192,84001,1,0,0:0:0:0:
448,192,84090,1,0,0:0:0:0:
64,192,84090,1,0,0:0:0:0:
192,192,84090,1,0,0:0:0:0:
320,192,84178,1,0,0:0:0:0:
448,192,84266,1,0,0:0:0:0:
192,192,84354,1,0,0:0:0:0:
448,192,84443,1,0,0:0:0:0:
64,192,84443,1,0,0:0:0:0:
320,192,84531,1,0,0:0:0:0:
192,192,84619,1,0,0:0:0:0:
320,192,84707,1,0,0:0:0:0:
448,192,84796,1,0,0:0:0:0:
64,192,84796,1,0,0:0:0:0:
320,192,84972,1,0,0:0:0:0:
448,192,85149,1,0,0:0:0:0:
64,192,85149,1,0,0:0:0:0:
320,192,85237,1,0,0:0:0:0:
192,192,85325,1,0,0:0:0:0:
320,192,85413,1,0,0:0:0:0:
64,192,85501,1,0,0:0:0:0:
192,192,85501,1,0,0:0:0:0:
448,192,85590,1,0,0:0:0:0:
192,192,85678,1,0,0:0:0:0:
448,192,85766,1,0,0:0:0:0:
320,192,85766,1,0,0:0:0:0:
64,192,85854,1,0,0:0:0:0:
192,192,85854,1,0,0:0:0:0:
320,192,85943,1,0,0:0:0:0:
448,192,86031,1,0,0:0:0:0:
64,192,86031,1,0,0:0:0:0:
192,192,86119,1,0,0:0:0:0:
64,192,86207,1,0,0:0:0:0:
320,192,86207,1,0,0:0:0:0:
448,192,86296,1,0,0:0:0:0:
192,192,86296,1,0,0:0:0:0:
64,192,86384,1,0,0:0:0:0:
320,192,86472,1,0,0:0:0:0:
64,192,86560,1,0,0:0:0:0:
192,192,86560,1,0,0:0:0:0:
320,192,86737,1,0,0:0:0:0:
192,192,86825,1,0,0:0:0:0:
448,192,86913,1,0,0:0:0:0:
64,192,86913,1,0,0:0:0:0:
192,192,87001,1,0,0:0:0:0:
64,192,87178,1,0,0:0:0:0:
448,192,87266,1,0,0:0:0:0:
320,192,87266,1,0,0:0:0:0:
192,192,87354,1,0,0:0:0:0:
320,192,87443,1,0,0:0:0:0:
192,192,87531,1,0,0:0:0:0:
448,192,87619,1,0,0:0:0:0:
64,192,87619,1,0,0:0:0:0:
448,192,87796,1,0,0:0:0:0:
320,192,87972,1,0,0:0:0:0:
192,192,87972,1,0,0:0:0:0:
64,192,88149,1,0,0:0:0:0:
192,192,88237,1,0,0:0:0:0:
448,192,88325,1,0,0:0:0:0:
64,192,88325,1,0,0:0:0:0:
320,192,88413,1,0,0:0:0:0:
64,192,88501,1,0,0:0:0:0:
448,192,88590,1,0,0:0:0:0:
192,192,88590,1,0,0:0:0:0:
64,192,88678,1,0,0:0:0:0:
320,192,88678,1,0,0:0:0:0:
192,192,88766,1,0,0:0:0:0:
448,192,88854,1,0,0:0:0:0:
320,192,88854,1,0,0:0:0:0:
64,192,88943,1,0,0:0:0:0:
320,192,89030,5,0,0:0:0:0:
192,192,89030,1,0,0:0:0:0:
192,192,89383,1,0,0:0:0:0:
320,192,89383,1,0,0:0:0:0:
192,192,89559,1,0,0:0:0:0:
320,192,89559,1,0,0:0:0:0:
192,192,89736,1,0,0:0:0:0:
320,192,89736,1,0,0:0:0:0:
320,192,89912,1,0,0:0:0:0:
192,192,89912,1,0,0:0:0:0:
320,192,90089,1,0,0:0:0:0:
192,192,90089,1,0,0:0:0:0:
320,192,90265,1,0,0:0:0:0:
192,192,90265,1,0,0:0:0:0:
320,192,90442,1,0,0:0:0:0:
192,192,90442,1,0,0:0:0:0:
64,192,90619,1,0,0:0:0:0:
320,192,90707,1,0,0:0:0:0:
192,192,90795,1,0,0:0:0:0:
448,192,90795,1,0,0:0:0:0:
64,192,90972,1,0,0:0:0:0:
192,192,90972,1,0,0:0:0:0:
192,192,91148,1,0,0:0:0:0:
320,192,91148,1,0,0:0:0:0:
448,192,91237,1,0,0:0:0:0:
64,192,91325,1,0,0:0:0:0:
192,192,91413,1,0,0:0:0:0:
320,192,91501,1,0,0:0:0:0:
448,192,91501,1,0,0:0:0:0:
192,192,91590,1,0,0:0:0:0:
64,192,91678,1,0,0:0:0:0:
448,192,91766,1,0,0:0:0:0:
320,192,91854,1,0,0:0:0:0:
192,192,91854,1,0,0:0:0:0:
448,192,92031,1,0,0:0:0:0:
192,192,92207,1,0,0:0:0:0:
64,192,92207,1,0,0:0:0:0:
320,192,92384,1,0,0:0:0:0:
448,192,92384,1,0,0:0:0:0:
192,192,92560,1,0,0:0:0:0:
448,192,92560,1,0,0:0:0:0:
64,192,92648,1,0,0:0:0:0:
320,192,92737,1,0,0:0:0:0:
448,192,92825,1,0,0:0:0:0:
64,192,92913,1,0,0:0:0:0:
192,192,92913,1,0,0:0:0:0:
320,192,93001,1,0,0:0:0:0:
192,192,93090,1,0,0:0:0:0:
448,192,93090,1,0,0:0:0:0:
64,192,93178,1,0,0:0:0:0:
448,192,93266,1,0,0:0:0:0:
320,192,93266,1,0,0:0:0:0:
64,192,93443,1,0,0:0:0:0:
448,192,93531,1,0,0:0:0:0:
64,192,93619,1,0,0:0:0:0:
320,192,93619,1,0,0:0:0:0:
192,192,93795,1,0,0:0:0:0:
448,192,93795,1,0,0:0:0:0:
448,192,93972,1,0,0:0:0:0:
320,192,93972,1,0,0:0:0:0:
192,192,94060,1,0,0:0:0:0:
448,192,94148,1,0,0:0:0:0:
320,192,94148,1,0,0:0:0:0:
64,192,94237,1,0,0:0:0:0:
448,192,94325,1,0,0:0:0:0:
320,192,94325,1,0,0:0:0:0:
192,192,94413,1,0,0:0:0:0:
448,192,94501,1,0,0:0:0:0:
64,192,94501,1,0,0:0:0:0:
192,192,94590,1,0,0:0:0:0:
64,192,94678,1,0,0:0:0:0:
320,192,94678,1,0,0:0:0:0:
448,192,94854,1,0,0:0:0:0:
320,192,94854,1,0,0:0:0:0:
320,192,95031,1,0,0:0:0:0:
448,192,95031,1,0,0:0:0:0:
64,192,95119,1,0,0:0:0:0:
192,192,95119,1,0,0:0:0:0:
448,192,95207,1,0,0:0:0:0:
64,192,95295,1,0,0:0:0:0:
320,192,95384,1,0,0:0:0:0:
448,192,95384,1,0,0:0:0:0:
192,192,95472,1,0,0:0:0:0:
64,192,95648,1,0,0:0:0:0:
192,192,95648,1,0,0:0:0:0:
320,192,95737,1,0,0:0:0:0:
448,192,95737,1,0,0:0:0:0:
64,192,95825,1,0,0:0:0:0:
192,192,95913,1,0,0:0:0:0:
320,192,95913,1,0,0:0:0:0:
448,192,96001,1,0,0:0:0:0:
192,192,96090,1,0,0:0:0:0:
320,192,96090,1,0,0:0:0:0:
64,192,96090,1,0,0:0:0:0:
192,192,96266,1,0,0:0:0:0:
320,192,96354,1,0,0:0:0:0:
192,192,96443,1,0,0:0:0:0:
64,192,96443,1,0,0:0:0:0:
448,192,96619,1,0,0:0:0:0:
320,192,96619,1,0,0:0:0:0:
448,192,96795,1,0,0:0:0:0:
64,192,96795,1,0,0:0:0:0:
320,192,96884,1,0,0:0:0:0:
448,192,96972,1,0,0:0:0:0:
64,192,97148,1,0,0:0:0:0:
192,192,97148,1,0,0:0:0:0:
320,192,97237,1,0,0:0:0:0:
448,192,97325,1,0,0:0:0:0:
64,192,97413,1,0,0:0:0:0:
192,192,97501,1,0,0:0:0:0:
448,192,97501,1,0,0:0:0:0:
192,192,97678,1,0,0:0:0:0:
448,192,97766,1,0,0:0:0:0:
192,192,97854,1,0,0:0:0:0:
320,192,97854,1,0,0:0:0:0:
64,192,98031,1,0,0:0:0:0:
320,192,98031,1,0,0:0:0:0:
448,192,98119,1,0,0:0:0:0:
192,192,98207,1,0,0:0:0:0:
320,192,98207,1,0,0:0:0:0:
448,192,98384,1,0,0:0:0:0:
448,192,98560,1,0,0:0:0:0:
64,192,98560,1,0,0:0:0:0:
192,192,98648,1,0,0:0:0:0:
320,192,98737,1,0,0:0:0:0:
192,192,98913,1,0,0:0:0:0:
320,192,98913,1,0,0:0:0:0:
448,192,98913,1,0,0:0:0:0:
192,192,99090,1,0,0:0:0:0:
64,192,99178,128,0,99266:0:0:0:0:
320,192,99266,1,0,0:0:0:0:
192,192,99443,128,0,99531:0:0:0:0:
448,192,99443,1,0,0:0:0:0:
320,192,99619,128,0,99707:0:0:0:0:
448,192,99619,1,0,0:0:0:0:
64,192,99795,1,0,0:0:0:0:
320,192,99884,128,0,99972:0:0:0:0:
192,192,99972,1,0,0:0:0:0:
448,192,100148,128,0,100237:0:0:0:0:
320,192,100148,1,0,0:0:0:0:
192,192,100325,128,0,100413:0:0:0:0:
192,192,100501,128,0,100590:0:0:0:0:
320,192,100678,1,0,0:0:0:0:
320,192,100795,1,0,0:0:0:0:
320,192,100913,1,0,0:0:0:0:
192,192,101031,128,0,101119:0:0:0:0:
64,192,101207,128,0,101295:0:0:0:0:
192,192,101384,1,0,0:0:0:0:
320,192,101384,1,0,0:0:0:0:
64,192,101384,1,0,0:0:0:0:
448,192,101384,1,0,0:0:0:0:
64,192,101737,1,0,0:0:0:0:
192,192,101737,1,0,0:0:0:0:
64,192,101913,1,0,0:0:0:0:
320,192,102001,1,0,0:0:0:0:
448,192,102089,1,0,0:0:0:0:
192,192,102089,1,0,0:0:0:0:
320,192,102266,1,0,0:0:0:0:
448,192,102266,1,0,0:0:0:0:
64,192,102442,1,0,0:0:0:0:
192,192,102442,1,0,0:0:0:0:
448,192,102619,1,0,0:0:0:0:
320,192,102707,1,0,0:0:0:0:
192,192,102795,1,0,0:0:0:0:
448,192,102795,1,0,0:0:0:0:
64,192,102972,1,0,0:0:0:0:
64,192,103148,1,0,0:0:0:0:
192,192,103148,1,0,0:0:0:0:
192,192,103324,1,0,0:0:0:0:
64,192,103412,1,0,0:0:0:0:
320,192,103500,1,0,0:0:0:0:
448,192,103500,1,0,0:0:0:0:
448,192,103677,1,0,0:0:0:0:
64,192,103853,1,0,0:0:0:0:
192,192,103853,1,0,0:0:0:0:
320,192,103942,1,0,0:0:0:0:
192,192,104030,1,0,0:0:0:0:
64,192,104118,1,0,0:0:0:0:
320,192,104206,1,0,0:0:0:0:
448,192,104206,1,0,0:0:0:0:
192,192,104295,1,0,0:0:0:0:
320,192,104383,1,0,0:0:0:0:
448,192,104471,1,0,0:0:0:0:
192,192,104559,1,0,0:0:0:0:
64,192,104559,1,0,0:0:0:0:
448,192,104736,1,0,0:0:0:0:
64,192,104824,1,0,0:0:0:0:
320,192,104912,1,0,0:0:0:0:
192,192,104912,1,0,0:0:0:0:
192,192,105089,1,0,0:0:0:0:
64,192,105089,1,0,0:0:0:0:
448,192,105265,1,0,0:0:0:0:
320,192,105265,1,0,0:0:0:0:
64,192,105442,1,0,0:0:0:0:
448,192,105530,1,0,0:0:0:0:
192,192,105618,1,0,0:0:0:0:
320,192,105618,1,0,0:0:0:0:
448,192,105795,1,0,0:0:0:0:
64,192,105795,1,0,0:0:0:0:
448,192,105971,1,0,0:0:0:0:
320,192,105971,1,0,0:0:0:0:
320,192,106148,1,0,0:0:0:0:
192,192,106236,1,0,0:0:0:0:
64,192,106324,1,0,0:0:0:0:
448,192,106324,1,0,0:0:0:0:
320,192,106501,1,0,0:0:0:0:
448,192,106501,1,0,0:0:0:0:
192,192,106677,1,0,0:0:0:0:
64,192,106677,1,0,0:0:0:0:
448,192,106766,1,0,0:0:0:0:
320,192,106854,1,0,0:0:0:0:
448,192,106942,1,0,0:0:0:0:
64,192,107030,1,0,0:0:0:0:
192,192,107030,1,0,0:0:0:0:
320,192,107119,1,0,0:0:0:0:
448,192,107207,1,0,0:0:0:0:
64,192,107295,1,0,0:0:0:0:
320,192,107383,1,0,0:0:0:0:
192,192,107383,1,0,0:0:0:0:
64,192,107560,1,0,0:0:0:0:
192,192,107648,1,0,0:0:0:0:
320,192,107736,1,0,0:0:0:0:
448,192,107736,1,0,0:0:0:0:
448,192,107913,1,0,0:0:0:0:
192,192,107913,1,0,0:0:0:0:
448,192,108089,1,0,0:0:0:0:
320,192,108089,1,0,0:0:0:0:
64,192,108266,1,0,0:0:0:0:
192,192,108354,1,0,0:0:0:0:
320,192,108442,1,0,0:0:0:0:
448,192,108442,1,0,0:0:0:0:
320,192,108619,1,0,0:0:0:0:
192,192,108619,1,0,0:0:0:0:
64,192,108795,1,0,0:0:0:0:
448,192,108795,1,0,0:0:0:0:
192,192,108972,1,0,0:0:0:0:
320,192,109060,1,0,0:0:0:0:
192,192,109148,1,0,0:0:0:0:
64,192,109148,1,0,0:0:0:0:
64,192,109325,1,0,0:0:0:0:
320,192,109325,1,0,0:0:0:0:
448,192,109501,1,0,0:0:0:0:
320,192,109501,1,0,0:0:0:0:
64,192,109589,1,0,0:0:0:0:
192,192,109678,1,0,0:0:0:0:
64,192,109766,1,0,0:0:0:0:
448,192,109854,1,0,0:0:0:0:
320,192,109854,1,0,0:0:0:0:
192,192,109942,1,0,0:0:0:0:
448,192,110031,1,0,0:0:0:0:
320,192,110119,1,0,0:0:0:0:
192,192,110207,1,0,0:0:0:0:
64,192,110207,1,0,0:0:0:0:
448,192,110384,1,0,0:0:0:0:
320,192,110472,1,0,0:0:0:0:
64,192,110560,1,0,0:0:0:0:
192,192,110560,1,0,0:0:0:0:
320,192,110736,1,0,0:0:0:0:
192,192,110736,1,0,0:0:0:0:
320,192,110913,1,0,0:0:0:0:
448,192,110913,1,0,0:0:0:0:
64,192,111089,1,0,0:0:0:0:
192,192,111178,1,0,0:0:0:0:
320,192,111266,1,0,0:0:0:0:
448,192,111266,1,0,0:0:0:0:
320,192,111442,1,0,0:0:0:0:
192,192,111442,1,0,0:0:0:0:
192,192,111619,1,0,0:0:0:0:
448,192,111619,1,0,0:0:0:0:
320,192,111795,1,0,0:0:0:0:
64,192,111884,1,0,0:0:0:0:
192,192,111972,1,0,0:0:0:0:
320,192,111972,1,0,0:0:0:0:
448,192,112148,1,0,0:0:0:0:
64,192,112148,1,0,0:0:0:0:
192,192,112325,1,0,0:0:0:0:
320,192,112325,1,0,0:0:0:0:
64,192,112413,1,0,0:0:0:0:
448,192,112501,1,0,0:0:0:0:
320,192,112589,1,0,0:0:0:0:
64,192,112678,1,0,0:0:0:0:
448,192,112678,1,0,0:0:0:0:
192,192,112766,1,0,0:0:0:0:
320,192,112854,1,0,0:0:0:0:
448,192,112942,1,0,0:0:0:0:
64,192,113031,1,0,0:0:0:0:
320,192,113031,1,0,0:0:0:0:
192,192,113031,1,0,0:0:0:0:
64,192,113207,1,0,0:0:0:0:
448,192,113295,1,0,0:0:0:0:
320,192,113296,1,0,0:0:0:0:
64,192,113384,1,0,0:0:0:0:
192,192,113384,1,0,0:0:0:0:
192,192,113560,1,0,0:0:0:0:
320,192,113560,1,0,0:0:0:0:
448,192,113736,1,0,0:0:0:0:
320,192,113736,1,0,0:0:0:0:
192,192,113913,1,0,0:0:0:0:
64,192,114001,1,0,0:0:0:0:
448,192,114001,1,0,0:0:0:0:
320,192,114089,1,0,0:0:0:0:
192,192,114089,1,0,0:0:0:0:
320,192,114266,1,0,0:0:0:0:
448,192,114266,1,0,0:0:0:0:
192,192,114442,1,0,0:0:0:0:
64,192,114442,1,0,0:0:0:0:
192,192,114619,1,0,0:0:0:0:
320,192,114707,1,0,0:0:0:0:
448,192,114707,1,0,0:0:0:0:
192,192,114795,1,0,0:0:0:0:
64,192,114795,1,0,0:0:0:0:
448,192,114972,1,0,0:0:0:0:
320,192,114972,1,0,0:0:0:0:
64,192,115148,1,0,0:0:0:0:
192,192,115148,1,0,0:0:0:0:
448,192,115236,1,0,0:0:0:0:
320,192,115325,1,0,0:0:0:0:
192,192,115413,1,0,0:0:0:0:
64,192,115413,1,0,0:0:0:0:
320,192,115501,1,0,0:0:0:0:
448,192,115501,1,0,0:0:0:0:
192,192,115589,1,0,0:0:0:0:
320,192,115678,1,0,0:0:0:0:
448,192,115678,1,0,0:0:0:0:
64,192,115766,1,0,0:0:0:0:
192,192,115854,1,0,0:0:0:0:
320,192,115854,1,0,0:0:0:0:
448,192,115854,1,0,0:0:0:0:
448,192,116031,1,0,0:0:0:0:
192,192,116119,1,0,0:0:0:0:
64,192,116119,1,0,0:0:0:0:
320,192,116207,1,0,0:0:0:0:
448,192,116207,1,0,0:0:0:0:
320,192,116384,1,0,0:0:0:0:
64,192,116384,1,0,0:0:0:0:
192,192,116560,1,0,0:0:0:0:
64,192,116560,1,0,0:0:0:0:
448,192,116736,1,0,0:0:0:0:
192,192,116825,1,0,0:0:0:0:
64,192,116825,1,0,0:0:0:0:
320,192,116913,1,0,0:0:0:0:
448,192,116913,1,0,0:0:0:0:
448,192,117089,1,0,0:0:0:0:
192,192,117089,1,0,0:0:0:0:
64,192,117266,1,0,0:0:0:0:
192,192,117266,1,0,0:0:0:0:
320,192,117442,1,0,0:0:0:0:
64,192,117531,1,0,0:0:0:0:
192,192,117531,1,0,0:0:0:0:
320,192,117619,1,0,0:0:0:0:
448,192,117619,1,0,0:0:0:0:
448,192,117795,1,0,0:0:0:0:
320,192,117795,1,0,0:0:0:0:
192,192,117972,1,0,0:0:0:0:
448,192,117972,1,0,0:0:0:0:
320,192,118060,1,0,0:0:0:0:
64,192,118148,1,0,0:0:0:0:
320,192,118236,1,0,0:0:0:0:
448,192,118236,1,0,0:0:0:0:
192,192,118325,1,0,0:0:0:0:
64,192,118325,1,0,0:0:0:0:
448,192,118413,1,0,0:0:0:0:
192,192,118501,1,0,0:0:0:0:
320,192,118501,1,0,0:0:0:0:
320,192,118678,5,0,0:0:0:0:
448,192,118678,1,0,0:0:0:0:
64,192,118678,1,0,0:0:0:0:
448,192,118854,1,0,0:0:0:0:
192,192,118854,1,0,0:0:0:0:
64,192,118942,1,0,0:0:0:0:
448,192,119031,1,0,0:0:0:0:
320,192,119031,1,0,0:0:0:0:
448,192,119207,1,0,0:0:0:0:
320,192,119207,1,0,0:0:0:0:
448,192,119384,1,0,0:0:0:0:
64,192,119384,1,0,0:0:0:0:
448,192,119560,1,0,0:0:0:0:
320,192,119560,1,0,0:0:0:0:
192,192,119648,1,0,0:0:0:0:
448,192,119736,1,0,0:0:0:0:
64,192,119736,1,0,0:0:0:0:
448,192,119913,1,0,0:0:0:0:
320,192,119913,1,0,0:0:0:0:
448,192,120089,1,0,0:0:0:0:
192,192,120089,1,0,0:0:0:0:
64,192,120089,1,0,0:0:0:0:
64,192,120266,1,0,0:0:0:0:
320,192,120266,1,0,0:0:0:0:
448,192,120354,1,0,0:0:0:0:
64,192,120442,5,0,0:0:0:0:
320,192,120442,1,0,0:0:0:0:
64,192,120619,1,0,0:0:0:0:
192,192,120619,1,0,0:0:0:0:
64,192,120795,1,0,0:0:0:0:
192,192,120795,1,0,0:0:0:0:
320,192,120883,1,0,0:0:0:0:
64,192,120972,1,0,0:0:0:0:
448,192,120972,1,0,0:0:0:0:
320,192,121060,1,0,0:0:0:0:
64,192,121148,1,0,0:0:0:0:
192,192,121148,1,0,0:0:0:0:
448,192,121236,1,0,0:0:0:0:
320,192,121325,1,0,0:0:0:0:
192,192,121325,1,0,0:0:0:0:
64,192,121413,1,0,0:0:0:0:
448,192,121501,5,0,0:0:0:0:
320,192,121501,1,0,0:0:0:0:
64,192,121589,1,0,0:0:0:0:
192,192,121589,1,0,0:0:0:0:
320,192,121678,1,0,0:0:0:0:
448,192,121678,1,0,0:0:0:0:
64,192,121766,1,0,0:0:0:0:
192,192,121766,1,0,0:0:0:0:
448,192,121854,1,0,0:0:0:0:
320,192,121854,1,0,0:0:0:0:
64,192,121942,1,0,0:0:0:0:
192,192,121942,1,0,0:0:0:0:
320,192,122031,1,0,0:0:0:0:
448,192,122031,1,0,0:0:0:0:
64,192,122119,1,0,0:0:0:0:
192,192,122119,1,0,0:0:0:0:
320,192,122207,1,0,0:0:0:0:
448,192,122207,1,0,0:0:0:0:
64,192,122295,1,0,0:0:0:0:
192,192,122295,1,0,0:0:0:0:
320,192,122383,1,0,0:0:0:0:
448,192,122383,1,0,0:0:0:0:
64,192,122472,1,0,0:0:0:0:
192,192,122472,1,0,0:0:0:0:
320,192,122560,1,0,0:0:0:0:
448,192,122560,1,0,0:0:0:0:
64,192,122648,1,0,0:0:0:0:
192,192,122648,1,0,0:0:0:0:
320,192,122736,1,0,0:0:0:0:
448,192,122736,1,0,0:0:0:0:
64,192,122825,1,0,0:0:0:0:
192,192,122825,1,0,0:0:0:0:
320,192,122913,1,0,0:0:0:0:
448,192,122913,1,0,0:0:0:0:
192,192,123265,1,0,0:0:0:0:
192,192,123441,1,0,0:0:0:0:
192,192,123617,1,0,0:0:0:0:
192,192,123970,1,0,0:0:0:0:
64,192,124323,1,0,0:0:0:0:
192,192,124323,1,0,0:0:0:0:
320,192,124323,1,0,0:0:0:0:
448,192,124323,1,0,0:0:0:0:
