osu file format v14

[General]
AudioFilename: audio.mp3
AudioLeadIn: 0
PreviewTime: 10314
Countdown: 0
SampleSet: Soft
StackLeniency: 0.4
Mode: 0
LetterboxInBreaks: 0
WidescreenStoryboard: 0

[Editor]
DistanceSpacing: 0.7
BeatDivisor: 4
GridSize: 4
TimelineZoom: 1

[Metadata]
Title:B.B.K.K.B.K.K.
TitleUnicode:B.B.K.K.B.K.K.
Artist:nora2r
ArtistUnicode:nora2r
Creator:Nozhomi
Version:Burger
Source:
Tags:fa featured artist bbkkbkk burger english electronic techno UK U.K. hardcore BOF2013 Let The Bass Kick BMS Of Fighters VGM video game VideoGame sound voltex III gravity wars sdvx 3 bemani konami maimai orange chunithm sega groove coaster 4 starlight road 太鼓の達人 グリーンVer. Green Ver Version Notebook Records YATSUZAKI HARDCORE VOLUME 4 ヤツコアV4 instrumental bass kick
BeatmapID:2837528
BeatmapSetID:1372554

[Difficulty]
HPDrainRate:6
CircleSize:4.4
OverallDifficulty:8.2
ApproachRate:9.2
SliderMultiplier:2
SliderTickRate:1

[Events]
//Background and Video events
0,0,"burger.jpg",0,0
//Break Periods
//Storyboard Layer 0 (Background)
//Storyboard Layer 1 (Fail)
//Storyboard Layer 2 (Pass)
//Storyboard Layer 3 (Foreground)
//Storyboard Layer 4 (Overlay)
//Storyboard Sound Samples

[TimingPoints]
175,352.941176470588,4,2,1,70,1,0
21616,-66.6666666666667,4,2,1,70,0,0
21704,-66.6666666666667,4,2,1,5,0,0
21792,-66.6666666666667,4,2,1,70,0,0
21969,-66.6666666666667,4,2,1,5,0,0
22057,-100,4,2,1,70,0,0
22322,-66.6666666666667,4,2,1,70,0,0
22410,-66.6666666666667,4,2,1,5,0,0
22498,-66.6666666666667,4,2,1,70,0,0
22674,-66.6666666666667,4,2,1,5,0,0
22763,-83.3333333333333,4,2,1,70,0,0
34057,-83.3333333333333,4,2,1,80,0,0
45351,-71.4285714285714,4,2,1,80,0,0
55233,-100,4,2,1,40,0,0
56645,-133.333333333333,4,2,2,50,0,0
67939,-125,4,2,1,60,0,0
72174,-111.111111111111,4,2,1,70,0,0
74998,-100,4,2,1,80,0,0
76410,-100,4,2,1,70,0,0
77116,-100,4,2,1,75,0,0
77822,-100,4,2,1,70,0,0
77998,-100,4,2,1,60,0,0
79233,-83.3333333333333,4,2,1,70,0,0
79586,-55.5555555555556,4,2,1,70,0,0
79851,-83.3333333333333,4,2,1,70,0,0
82410,-55.5555555555556,4,2,1,70,0,0
82674,-83.3333333333333,4,2,1,70,0,0
85233,-55.5555555555556,4,2,1,70,0,0
85498,-83.3333333333333,4,2,1,70,0,0
88057,-55.5555555555556,4,2,1,70,0,0
88322,-83.3333333333333,4,2,1,70,0,0
90527,-71.4285714285714,4,2,1,70,0,0
98998,-83.3333333333333,4,2,1,70,0,0
101822,-66.6666666666667,4,2,1,80,0,1
113645,-50,4,2,1,80,0,1
113822,-66.6666666666667,4,2,1,80,0,1
114351,-50,4,2,1,80,0,1
114527,-66.6666666666667,4,2,1,80,0,1
115057,-50,4,2,1,80,0,1
115233,-66.6666666666667,4,2,1,80,0,1
116469,-50,4,2,1,80,0,1
116645,-66.6666666666667,4,2,1,80,0,1
117174,-50,4,2,1,80,0,1
117351,-66.6666666666667,4,2,1,80,0,1
117880,-50,4,2,1,80,0,1
118057,-66.6666666666667,4,2,1,80,0,1
119292,-50,4,2,1,80,0,1
119469,-66.6666666666667,4,2,1,80,0,1
119998,-50,4,2,1,80,0,1
120174,-66.6666666666667,4,2,1,80,0,1
122998,-100,4,2,1,80,0,0
124674,-100,4,2,1,75,0,0
124763,-100,4,2,1,70,0,0
124851,-100,4,2,1,65,0,0
124939,-100,4,2,1,60,0,0
125027,-100,4,2,1,55,0,0
125116,-100,4,2,1,50,0,0
125204,-100,4,2,1,40,0,0
125292,-100,4,2,1,30,0,0
125380,-100,4,2,1,15,0,0
125469,-100,4,2,1,5,0,0

[Colours]
Combo1 : 255,102,209
Combo2 : 225,113,0
Combo3 : 58,171,20
Combo4 : 222,29,29
Combo5 : 255,192,0

[HitObjects]
66,61,10057,5,0,3:0:0:0:
66,61,11469,6,0,L|61:171,1,100,0|0,3:0|0:0,0:0:0:0:
78,179,11733,1,2,0:0:0:0:
95,197,11822,1,0,3:0:0:0:
160,336,11998,2,0,L|162:286,1,50,2|0,0:0|0:0,0:0:0:0:
227,239,12174,2,0,L|231:139,1,100,0|0,3:0|0:0,0:0:0:0:
335,210,12439,1,2,0:0:0:0:
335,210,12527,2,0,L|339:110,1,100,0|0,3:0|0:0,0:0:0:0:
500,239,12880,6,0,L|379:271,1,100,0|0,3:0|0:0,0:0:0:0:
400,239,13145,1,2,0:0:0:0:
396,214,13233,1,0,3:0:0:0:
259,314,13410,2,0,L|269:237,1,50,2|0,0:0|0:0,0:0:0:0:
314,135,13586,2,0,L|327:234,1,100,0|0,3:0|0:0,0:0:0:0:
195,287,13851,1,2,0:0:0:0:
172,297,13939,2,0,L|185:197,1,100,0|0,3:0|0:0,0:0:0:0:
11,141,14292,6,0,L|136:116,1,100,0|0,3:0|0:0,0:0:0:0:
127,138,14556,1,2,0:0:0:0:
146,154,14645,1,0,3:0:0:0:
229,63,14821,2,0,L|221:126,1,50,2|0,0:0|0:0,0:0:0:0:
352,127,14997,2,0,L|272:188,1,100,0|0,3:0|0:0,0:0:0:0:
347,286,15262,1,2,0:0:0:0:
347,286,15351,2,0,L|246:273,1,100,0|0,3:0|0:0,0:0:0:0:
49,254,15704,6,0,L|149:241,1,100,0|0,3:0|0:0,0:0:0:0:
164,260,15968,1,2,0:0:0:0:
180,278,16056,1,0,3:0:0:0:
347,358,16233,2,0,L|293:351,1,50,2|0,0:0|0:0,0:0:0:0:
120,314,16410,6,0,L|71:321,1,50,2|0,3:2|0:0,0:0:0:0:
71,321,16763,2,0,L|171:308,1,100,2|0,0:0|0:0,0:0:0:0:
372,200,17116,6,0,L|272:187,1,100,0|0,3:0|0:0,0:0:0:0:
266,162,17380,1,2,0:0:0:0:
259,137,17469,1,0,3:0:0:0:
355,17,17645,2,0,L|342:65,1,50,2|0,0:0|0:0,0:0:0:0:
247,90,17821,2,0,L|274:195,1,100,0|0,3:0|0:0,0:0:0:0:
379,176,18086,1,2,0:0:0:0:
372,200,18174,2,0,L|345:305,1,100,0|0,3:0|0:0,0:0:0:0:
494,384,18527,6,0,L|469:287,1,100,0|0,3:0|0:0,0:0:0:0:
445,295,18792,1,2,0:0:0:0:
421,302,18880,1,0,3:0:0:0:
263,342,19057,2,0,L|344:367,1,50,2|0,0:0|0:0,0:0:0:0:
378,244,19233,2,0,L|266:278,1,100,0|0,3:0|0:0,0:0:0:0:
221,165,19498,1,2,0:0:0:0:
209,187,19586,2,0,L|153:290,1,100,0|0,3:0|0:0,0:0:0:0:
4,156,19939,6,0,L|38:268,1,100,0|0,3:0|0:0,0:0:0:0:
57,257,20203,1,2,0:0:0:0:
81,263,20292,1,0,3:0:0:0:
135,119,20468,2,0,L|82:132,1,50,2|0,0:0|0:0,0:0:0:0:
161,275,20645,2,0,L|190:179,1,100,0|0,3:0|0:0,0:0:0:0:
315,217,20909,1,2,0:0:0:0:
337,229,20998,2,0,L|307:133,1,100,0|0,3:0|0:0,0:0:0:0:
107,20,21351,6,0,P|148:46|198:49,1,100,0|0,3:0|0:0,0:0:0:0:
358,8,21616,2,0,P|321:12|292:33,1,75.0000028610231,2|0,0:0|0:0,0:0:0:0:
292,34,21880,6,0,P|322:12|359:9,1,75.0000028610231,2|0,0:0|0:0,0:0:0:0:
443,111,22057,6,0,P|402:85|352:82,1,100,0|0,3:0|0:0,0:0:0:0:
215,176,22322,2,0,P|240:171|273:132,1,75.0000028610231,2|0,0:0|0:0,0:0:0:0:
272,135,22586,6,0,P|250:165|215:176,1,75.0000028610231,2|0,0:0|0:0,0:0:0:0:
55,71,22763,6,0,P|82:82|101:105,1,59.9999981689454,0|0,3:0|0:0,0:0:0:0:
114,215,22939,5,2,0:0:0:0:
106,268,23027,1,0,0:0:0:0:
98,321,23116,1,8,1:0:0:0:
89,374,23204,2,0,L|163:364,1,59.9999981689454,0|2,0:0|0:0,0:0:0:0:
256,285,23380,5,0,0:0:0:0:
248,232,23469,1,0,3:0:0:0:
240,179,23557,2,0,L|315:187,1,59.9999981689454,0|2,0:0|0:0,0:0:0:0:
403,250,23733,5,0,0:0:0:0:
395,303,23822,1,8,1:0:0:0:
387,356,23910,2,0,L|523:338,1,119.999996337891
411,190,24174,6,0,L|403:250,1,59.9999981689454,0|0,3:0|0:0,0:0:0:0:
512,200,24350,5,2,0:0:0:0:
504,147,24438,1,0,0:0:0:0:
496,94,24527,1,8,1:0:0:0:
487,41,24616,2,0,L|406:57,1,59.9999981689454,0|2,0:0|0:0,0:0:0:0:
342,117,24791,5,0,0:0:0:0:
334,170,24880,1,0,3:0:0:0:
326,223,24968,2,0,L|238:206,1,59.9999981689454,0|2,0:0|0:0,0:0:0:0:
182,120,25144,5,0,0:0:0:0:
174,67,25233,1,8,1:0:0:0:
164,13,25322,2,0,L|26:40,1,119.999996337891
182,120,25586,6,0,L|265:136,1,59.9999981689454,0|0,3:0|0:0,0:0:0:0:
242,258,25762,5,2,0:0:0:0:
294,248,25850,1,0,0:0:0:0:
347,236,25939,1,8,1:0:0:0:
399,225,26027,2,0,L|385:291,1,59.9999981689454,0|2,0:0|0:0,0:0:0:0:
263,363,26203,5,0,0:0:0:0:
252,310,26292,1,0,3:0:0:0:
242,258,26380,2,0,L|163:275,1,59.9999981689454,0|2,0:0|0:0,0:0:0:0:
45,310,26557,5,0,0:0:0:0:
56,257,26645,1,8,1:0:0:0:
66,205,26733,2,0,B|82:147|82:147|51:64,1,119.999996337891
167,31,26998,6,0,L|102:21,1,59.9999981689454,0|0,3:0|0:0,0:0:0:0:
187,140,27174,5,2,0:0:0:0:
241,131,27262,1,0,0:0:0:0:
296,125,27351,1,8,1:0:0:0:
349,122,27439,2,0,L|331:214,1,59.9999981689454,0|2,0:0|0:0,0:0:0:0:
311,324,27615,1,0,0:0:0:0:
257,301,27704,6,0,L|269:360,1,59.9999981689454,2|0,3:2|0:0,0:0:0:0:
269,360,28057,2,0,L|244:242,1,119.999996337891,2|0,0:0|0:0,0:0:0:0:
455,79,28410,6,0,B|393:65,1,59.9999981689454,0|0,3:0|0:0,0:0:0:0:
250,40,28586,5,2,0:0:0:0:
255,92,28674,1,0,0:0:0:0:
261,146,28763,1,8,1:0:0:0:
266,199,28851,2,0,B|327:178,1,59.9999981689454,0|2,0:0|0:0,0:0:0:0:
476,153,29027,5,0,0:0:0:0:
470,207,29116,1,0,3:0:0:0:
465,260,29204,2,0,B|406:240,1,59.9999981689454,0|2,0:0|0:0,0:0:0:0:
245,244,29380,5,0,0:0:0:0:
251,298,29469,1,8,1:0:0:0:
256,351,29557,2,0,B|371:313,1,119.999996337891
480,383,29822,6,0,L|495:324,1,59.9999981689454,0|0,3:0|0:0,0:0:0:0:
412,200,29998,5,2,0:0:0:0:
404,146,30086,1,0,0:0:0:0:
395,92,30175,1,8,1:0:0:0:
386,38,30263,2,0,L|321:64,1,59.9999981689454,0|2,0:0|0:0,0:0:0:0:
158,54,30439,5,0,0:0:0:0:
211,65,30528,1,0,3:0:0:0:
263,76,30616,2,0,L|254:135,1,59.9999981689454,0|2,0:0|0:0,0:0:0:0:
229,288,30792,5,0,0:0:0:0:
282,277,30881,1,8,1:0:0:0:
334,266,30969,2,0,L|353:394,1,119.999996337891
168,361,31233,6,0,L|177:301,1,59.9999981689454,0|0,3:0|0:0,0:0:0:0:
213,149,31409,5,2,0:0:0:0:
161,166,31497,1,0,0:0:0:0:
109,184,31586,1,8,1:0:0:0:
58,201,31674,2,0,L|48:141,1,59.9999981689454,0|2,0:0|0:0,0:0:0:0:
213,149,31850,5,0,0:0:0:0:
205,202,31939,1,0,3:0:0:0:
193,254,32027,2,0,L|260:242,1,59.9999981689454,0|2,0:0|0:0,0:0:0:0:
406,211,32203,5,0,0:0:0:0:
416,264,32292,1,8,1:0:0:0:
426,317,32380,2,0,B|297:293,1,119.999996337891
193,254,32645,5,0,3:0:0:0:
193,254,32998,2,0,B|155:201|155:201|177:142|177:142|195:193|195:193|229:205|229:205|216:170|216:170|231:142|231:142|244:162|244:162|267:170|267:170|274:142|274:142|296:150|296:150|326:129,1,419.999987182618
359,53,33704,1,8,0:1:0:0:
359,53,34057,6,0,P|311:74|323:132,1,119.999996337891,4|0,3:2|0:0,0:0:0:0:
456,283,34410,2,0,P|461:230|405:212,1,119.999996337891,0|0,3:0|0:0,0:0:0:0:
203,333,34763,1,0,3:0:0:0:
286,246,34939,1,2,0:0:0:0:
470,365,35116,1,0,3:0:0:0:
387,278,35292,1,2,0:0:0:0:
174,362,35469,6,0,B|196:308|196:308|172:241,1,119.999996337891,0|0,3:0|0:0,0:0:0:0:
90,57,35822,1,0,3:0:0:0:
222,164,35998,1,0,0:0:0:0:
7,184,36174,2,0,P|60:161|140:158,1,119.999996337891,0|2,3:0|0:0,0:0:0:0:
289,278,36527,2,0,P|236:255|156:252,1,119.999996337891,0|2,3:0|0:0,0:0:0:0:
199,35,36880,6,0,L|206:181,1,119.999996337891,0|0,3:0|0:0,0:0:0:0:
95,354,37233,2,0,L|100:234,1,119.999996337891,0|0,3:0|0:0,0:0:0:0:
310,212,37586,1,0,3:0:0:0:
205,155,37763,1,2,0:0:0:0:
404,53,37939,1,0,3:0:0:0:
299,110,38115,1,2,0:0:0:0:
415,269,38292,6,0,L|310:212,1,119.999996337891,0|0,3:0|0:0,0:0:0:0:
170,39,38645,2,0,L|205:155,1,119.999996337891,0|0,3:0|0:0,0:0:0:0:
97,316,38998,1,0,3:0:0:0:
215,333,39174,1,2,0:0:0:0:
405,117,39351,1,0,3:0:0:0:
286,134,39527,1,2,0:0:0:0:
286,352,39704,6,0,P|304:290|356:247,1,119.999996337891,0|0,3:0|0:0,0:0:0:0:
188,139,40057,2,0,P|239:109|299:110,1,119.999996337891,0|0,3:0|0:0,0:0:0:0:
436,282,40410,1,0,3:0:0:0:
404,167,40586,1,2,0:0:0:0:
188,139,40763,1,0,3:0:0:0:
220,24,40939,1,2,0:0:0:0:
419,100,41116,6,0,L|286:111,1,119.999996337891,0|0,3:0|0:0,0:0:0:0:
201,294,41469,1,0,3:0:0:0:
256,188,41645,1,0,0:0:0:0:
31,214,41822,2,0,L|164:225,1,119.999996337891,0|2,3:0|0:0,0:0:0:0:
290,353,42174,2,0,P|233:342|201:294,1,119.999996337891,0|2,3:0|0:0,0:0:0:0:
375,178,42527,6,0,L|256:188,1,119.999996337891,0|0,3:0|0:0,0:0:0:0:
60,96,42880,2,0,L|179:105,1,119.999996337891,0|0,3:0|0:0,0:0:0:0:
430,331,43233,1,0,3:0:0:0:
337,255,43409,1,2,0:0:0:0:
106,303,43586,1,0,3:0:0:0:
199,227,43762,1,2,0:0:0:0:
256,27,43939,6,0,B|232:62|279:102|256:143,1,119.999996337891,4|0,3:2|0:0,0:0:0:0:
472,56,44292,5,0,3:0:0:0:
449,51,44469,1,2,0:0:0:0:
425,47,44645,1,2,0:0:0:0:
402,43,44822,1,2,0:0:0:0:
378,39,44998,2,0,L|303:53,1,59.9999981689454,2|0,0:0|0:0,0:0:0:0:
134,105,45174,2,0,L|209:119,1,59.9999981689454,2|0,0:0|0:0,0:0:0:0:
371,267,45351,6,0,P|308:242|300:176,1,139.999995727539,4|0,3:2|0:0,0:0:0:0:
104,357,45704,2,0,P|166:332|174:266,1,139.999995727539,8|0,1:0|0:0,0:0:0:0:
41,96,46057,1,0,3:0:0:0:
193,116,46233,1,2,0:0:0:0:
295,328,46410,1,8,1:0:0:0:
447,308,46586,1,2,0:0:0:0:
367,62,46763,6,0,L|361:202,1,139.999995727539,0|0,3:0|0:0,0:0:0:0:
128,90,47116,1,8,1:0:0:0:
134,244,47292,1,0,0:0:0:0:
328,130,47469,2,0,P|259:128|189:176,1,139.999995727539,0|2,3:0|0:0,0:0:0:0:
0,16,47822,2,0,P|69:14|139:62,1,139.999995727539,8|2,1:0|0:0,0:0:0:0:
76,306,48174,6,0,B|103:241|103:241|89:172,1,139.999995727539,4|0,3:2|0:0,0:0:0:0:
286,4,48527,2,0,B|272:72|272:72|299:137,1,139.999995727539,8|0,1:0|0:0,0:0:0:0:
454,336,48880,1,0,3:0:0:0:
308,290,49056,1,2,0:0:0:0:
30,376,49233,1,8,1:0:0:0:
176,330,49409,1,2,0:0:0:0:
37,143,49586,6,0,L|21:3,1,139.999995727539,0|0,3:0|0:0,0:0:0:0:
262,107,49939,2,0,L|246:247,1,139.999995727539,8|0,1:0|0:0,0:0:0:0:
123,56,50292,1,0,3:0:0:0:
325,156,50469,1,2,0:0:0:0:
320,204,50557,1,0,3:0:0:0:
314,252,50645,1,8,1:0:0:0:
70,329,50822,1,2,3:2:0:0:
230,107,50998,6,0,L|246:247,1,139.999995727539,4|0,3:2|0:0,0:0:0:0:
380,359,51351,1,2,0:0:0:0:
176,248,51527,1,0,3:0:0:0:
176,248,51616,1,0,3:0:0:0:
176,248,51704,2,0,P|91:222|21:227,1,139.999995727539,0|0,1:0|0:0,0:0:0:0:
31,238,51969,1,0,3:0:0:0:
22,253,52057,1,2,0:0:0:0:
144,82,52233,1,0,3:0:0:0:
193,339,52410,5,4,1:0:0:0:
382,216,52586,1,0,0:0:0:0:
382,216,52674,2,0,L|296:207,1,69.9999978637696,0|0,3:0|0:0,0:0:0:0:
74,89,52939,1,0,3:0:0:0:
109,85,53027,1,0,3:0:0:0:
144,82,53115,1,0,1:0:0:0:
219,283,53292,1,0,3:0:0:0:
297,35,53469,1,0,3:0:0:0:
81,206,53645,1,0,3:0:0:0:
344,153,53822,5,6,1:2:0:0:
394,129,53910,1,0,3:0:0:0:
407,74,53998,1,0,3:0:0:0:
376,26,54086,1,0,3:0:0:0:
320,25,54174,1,0,1:0:0:0:
279,64,54263,1,0,3:0:0:0:
283,119,54351,1,0,3:0:0:0:
307,169,54439,1,0,3:0:0:0:
309,224,54527,1,2,1:2:0:0:
270,264,54616,1,0,3:0:0:0:
218,286,54704,1,0,3:0:0:0:
164,269,54792,1,0,3:0:0:0:
136,220,54880,1,0,1:0:0:0:
141,163,54969,1,0,3:0:0:0:
176,120,55057,1,0,3:0:0:0:
230,133,55145,2,0,L|220:219,1,69.9999978637696,0|0,3:0|0:0,0:0:0:0:
222,202,56645,6,0,L|239:52,1,150,2|0,0:0|0:0,0:0:0:0:
325,119,57174,1,0,0:0:0:0:
414,181,57351,2,0,L|505:170,1,75.0000028610231,2|0,0:0|0:0,0:0:0:0:
373,252,57704,2,0,L|282:241,1,75.0000028610231,2|0,0:0|0:0,0:0:0:0:
132,343,58057,6,0,P|216:326|237:266,1,150.000005722046,2|0,0:0|0:0,0:0:0:0:
201,173,58586,1,0,0:0:0:0:
106,225,58763,2,0,P|129:254|162:271,1,75.0000028610231,2|0,0:0|0:0,0:0:0:0:
168,122,59116,2,0,P|163:158|174:194,1,75.0000028610231,2|0,0:0|0:0,0:0:0:0:
327,36,59469,6,0,P|261:97|236:178,1,150.000005722046,2|0,0:0|0:0,0:0:0:0:
281,247,59998,1,0,0:0:0:0:
381,146,60174,1,2,0:0:0:0:
381,146,60351,1,2,0:0:0:0:
239,151,60527,1,2,0:0:0:0:
375,274,60704,1,0,0:0:0:0:
302,93,60880,6,0,L|316:263,1,150.000005722046,2|0,0:0|0:0,0:0:0:0:
326,347,61409,1,0,0:0:0:0:
245,225,61586,2,0,L|239:151,1,75.0000028610231,2|0,0:0|0:0,0:0:0:0:
381,146,61939,2,0,L|387:220,1,75.0000028610231,2|0,0:0|0:0,0:0:0:0:
228,335,62292,6,0,P|287:279|370:291,1,150.000005722046,2|0,0:0|0:0,0:0:0:0:
442,336,62821,1,0,0:0:0:0:
429,185,62998,2,0,L|423:259,1,75.0000028610231,2|0,0:0|0:0,0:0:0:0:
318,275,63351,2,0,L|324:201,1,75.0000028610231,2|0,0:0|0:0,0:0:0:0:
512,146,63704,6,0,L|500:295,1,150.000005722046,2|0,0:0|0:0,0:0:0:0:
411,351,64233,1,0,0:0:0:0:
318,275,64410,2,0,P|280:270|247:289,1,75.0000028610231,2|0,0:0|0:0,0:0:0:0:
116,214,64763,2,0,P|153:209|187:228,1,75.0000028610231,2|0,0:0|0:0,0:0:0:0:
355,102,65116,6,0,P|285:128|263:213,1,150.000005722046,2|0,0:0|0:0,0:0:0:0:
364,210,65645,1,0,0:0:0:0:
352,28,65822,1,2,0:0:0:0:
352,28,65998,1,2,0:0:0:0:
260,194,66174,1,2,0:0:0:0:
430,93,66351,1,0,0:0:0:0:
205,116,66527,6,0,L|355:102,1,150.000005722046,2|0,0:0|0:0,0:0:0:0:
287,182,67056,1,0,0:0:0:0:
238,46,67233,2,0,L|163:53,1,75.0000028610231,2|0,0:0|0:0,0:0:0:0:
92,168,67586,2,0,L|34:120,1,75.0000028610231,2|0,0:0|0:0,0:0:0:0:
238,46,67939,6,0,L|206:210,1,160,2|0,0:0|0:0,0:0:0:0:
229,313,68468,1,0,0:0:0:0:
325,215,68645,2,0,L|307:136,1,80,2|2,0:0|0:0,0:0:0:0:
410,86,68910,1,2,0:0:0:0:
410,86,68998,2,0,L|392:164,1,80,2|0,0:0|0:0,0:0:0:0:
493,303,69351,6,0,B|427:266|427:266|344:281,1,160,2|0,0:0|0:0,0:0:0:0:
234,305,69880,1,0,0:0:0:0:
259,147,70057,1,2,0:0:0:0:
351,288,70233,1,2,0:0:0:0:
351,288,70322,1,2,0:0:0:0:
351,288,70410,1,2,0:0:0:0:
182,216,70586,1,0,0:0:0:0:
373,201,70763,6,0,P|282:220|269:300,1,160,2|0,0:0|0:0,0:0:0:0:
330,365,71292,1,0,0:0:0:0:
175,350,71469,2,0,L|267:345,1,80,2|2,0:0|0:0,0:0:0:0:
343,271,71734,1,2,0:0:0:0:
343,271,71822,2,0,L|251:276,1,80,2|0,0:0|0:0,0:0:0:0:
194,177,72174,6,0,L|172:280,1,89.9999972534181,2|2,0:0|0:0,0:0:0:0:
71,241,72439,1,0,0:0:0:0:
71,241,72527,2,0,L|103:346,1,89.9999972534181,2|0,0:0|0:0,0:0:0:0:
266,252,72880,2,0,L|284:163,1,89.9999972534181,2|2,0:0|0:0,0:0:0:0:
398,177,73145,1,0,0:0:0:0:
398,177,73233,2,0,L|371:90,1,89.9999972534181,2|0,0:0|0:0,0:0:0:0:
226,22,73586,5,0,3:0:0:0:
305,120,73763,1,0,3:0:0:0:
451,108,73939,1,0,3:0:0:0:
373,7,74116,1,0,3:0:0:0:
305,120,74292,2,0,L|314:227,1,89.9999972534181,2|0,3:2|3:0,0:0:0:0:
225,352,74645,2,0,L|232:262,1,89.9999972534181,2|0,3:2|3:0,0:0:0:0:
167,77,74998,5,0,3:0:0:0:
50,155,75175,1,0,3:0:0:0:
85,290,75351,1,0,3:0:0:0:
214,345,75527,1,0,3:0:0:0:
327,264,75704,2,0,L|337:164,1,100,2|2,3:2|3:2,0:0:0:0:
202,147,75969,1,2,0:0:0:0:
202,147,76057,2,0,L|194:48,1,100,2|0,3:2|3:0,0:0:0:0:
36,10,76410,5,0,1:0:0:0:
17,51,76498,1,0,1:0:0:0:
32,93,76586,1,0,1:0:0:0:
69,117,76674,1,0,1:0:0:0:
114,121,76763,1,0,1:0:0:0:
157,110,76851,1,0,1:0:0:0:
196,88,76939,1,0,1:0:0:0:
240,86,77027,1,0,1:0:0:0:
288,99,77116,1,0,1:0:0:0:
322,135,77204,1,0,1:0:0:0:
325,184,77292,1,0,1:0:0:0:
302,228,77380,1,0,1:0:0:0:
284,275,77469,1,0,1:0:0:0:
307,319,77557,1,0,1:0:0:0:
352,339,77645,1,0,1:0:0:0:
399,322,77733,1,0,1:0:0:0:
422,277,77822,6,0,L|415:178,1,100,0|0,3:0|0:0,0:0:0:0:
408,68,78174,1,2,0:0:0:0:
505,200,78351,5,0,0:0:0:0:
327,189,78527,1,2,0:0:0:0:
414,290,78704,1,0,0:0:0:0:
233,227,78880,1,2,0:0:0:0:
415,177,79057,1,2,0:0:0:0:
341,369,79233,6,0,L|331:231,1,119.999996337891,2|0,3:2|0:0,0:0:0:0:
327,179,79498,5,0,0:0:0:0:
327,189,79586,2,0,L|340:368,1,179.999994506836,2|8,3:2|0:0,0:0:0:0:
202,296,79851,1,2,0:0:0:0:
202,296,79939,2,0,L|277:307,1,59.9999981689454,0|0,3:0|0:0,0:0:0:0:
392,240,80116,1,0,0:0:0:0:
392,240,80204,2,0,L|317:251,1,59.9999981689454,2|0,0:0|3:0,0:0:0:0:
237,129,80380,1,0,0:0:0:0:
270,134,80469,1,10,0:0:0:0:
302,139,80557,1,2,0:0:0:0:
333,147,80645,6,0,P|386:195|386:256,1,119.999996337891,0|0,3:0|0:0,0:0:0:0:
256,302,80910,1,2,0:0:0:0:
256,302,80998,2,0,P|294:288|319:215,1,119.999996337891,0|8,3:0|0:0,0:0:0:0:
238,172,81263,1,2,0:0:0:0:
238,172,81351,2,0,P|249:217|223:255,1,59.9999981689454,0|0,3:0|0:0,0:0:0:0:
172,210,81527,2,0,P|148:249|103:258,1,59.9999981689454,0|2,0:0|0:0,0:0:0:0:
91,198,81704,1,0,3:2:0:0:
91,198,81792,1,0,0:0:0:0:
91,198,81880,2,0,P|45:209|7:183,1,59.9999981689454,10|0,0:0|0:0,0:0:0:0:
0,71,82057,6,0,L|131:80,1,119.999996337891,0|0,3:0|0:0,0:0:0:0:
120,79,82322,5,0,0:0:0:0:
127,86,82410,2,0,B|55:142|55:142|0:71,1,179.999994506836,2|8,3:2|0:0,0:0:0:0:
159,18,82675,1,2,0:0:0:0:
159,18,82763,2,0,B|179:38|179:38|238:23,1,59.9999981689454,0|0,3:0|0:0,0:0:0:0:
330,73,82939,1,0,0:0:0:0:
330,73,83027,2,0,B|310:93|310:93|279:85,1,59.9999981689454,2|0,0:0|3:0,0:0:0:0:
201,201,83204,1,0,0:0:0:0:
203,169,83292,1,10,0:0:0:0:
206,137,83381,1,2,0:0:0:0:
209,105,83469,6,0,L|247:232,1,119.999996337891,0|0,3:0|0:0,0:0:0:0:
295,381,83733,1,2,0:0:0:0:
295,381,83822,2,0,L|329:266,1,119.999996337891,0|8,3:0|0:0,0:0:0:0:
178,297,84087,1,2,0:0:0:0:
178,297,84175,2,0,L|258:292,1,59.9999981689454,0|0,3:0|0:0,0:0:0:0:
377,184,84351,1,0,0:0:0:0:
377,184,84439,1,2,0:0:0:0:
377,184,84527,2,0,L|297:179,1,59.9999981689454,0|0,3:0|0:0,0:0:0:0:
243,219,84704,2,0,L|183:222,1,59.9999981689454,10|0,0:0|0:0,0:0:0:0:
14,164,84880,6,0,P|71:173|102:222,1,119.999996337891,0|0,3:0|0:0,0:0:0:0:
75,288,85145,5,0,0:0:0:0:
75,288,85233,2,0,P|87:204|13:163,1,179.999994506836,8|8,3:1|0:0,0:0:0:0:
96,68,85498,1,0,0:0:0:0:
96,68,85586,2,0,P|99:89|66:90,1,59.9999981689454,0|2,3:0|0:0,0:0:0:0:
206,31,85763,1,0,0:0:0:0:
206,31,85851,2,0,P|193:48|169:26,1,59.9999981689454,0|8,0:0|3:1,0:0:0:0:
333,55,86027,1,0,0:0:0:0:
333,55,86116,1,10,0:0:0:0:
333,55,86204,1,2,0:0:0:0:
333,55,86292,6,0,P|284:75|299:20,1,119.999996337891,0|0,3:0|0:0,0:0:0:0:
416,118,86557,1,2,0:0:0:0:
416,118,86645,2,0,P|464:138|449:83,1,119.999996337891,8|8,3:1|0:0,0:0:0:0:
330,191,86910,1,2,0:0:0:0:
330,191,86998,2,0,L|335:102,1,59.9999981689454,0|0,3:0|0:0,0:0:0:0:
412,268,87174,2,0,L|407:179,1,59.9999981689454,0|2,0:0|0:0,0:0:0:0:
322,323,87351,1,8,3:1:0:0:
322,323,87439,1,0,0:0:0:0:
322,323,87527,2,0,L|327:234,1,59.9999981689454,10|0,0:0|0:0,0:0:0:0:
475,174,87704,6,0,L|483:293,1,119.999996337891,0|0,3:0|0:0,0:0:0:0:
456,362,87969,5,0,0:0:0:0:
463,353,88057,2,0,L|475:174,1,179.999994506836,8|8,3:1|0:0,0:0:0:0:
373,77,88322,1,2,0:0:0:0:
373,77,88410,2,0,L|378:136,1,59.9999981689454,0|0,3:0|0:0,0:0:0:0:
290,175,88587,1,0,0:0:0:0:
290,175,88674,2,0,L|335:213,1,59.9999981689454,0|8,0:0|3:1,0:0:0:0:
221,300,88851,1,0,0:0:0:0:
245,298,88939,1,10,0:0:0:0:
269,296,89028,1,2,0:0:0:0:
293,294,89116,2,0,L|432:281,1,119.999996337891,0|0,3:0|0:0,0:0:0:0:
340,219,89469,6,0,L|281:225,1,59.9999981689454,2|0,0:0|0:0,0:0:0:0:
292,363,89645,2,0,L|233:369,1,59.9999981689454,2|0,0:0|0:0,0:0:0:0:
153,238,89822,6,0,L|222:232,1,59.9999981689454,2|0,0:0|0:0,0:0:0:0:
361,355,89998,2,0,L|421:350,1,59.9999981689454,2|0,0:0|0:0,0:0:0:0:
469,204,90174,6,0,L|410:210,1,59.9999981689454,2|0,0:0|0:0,0:0:0:0:
293,364,90351,2,0,L|233:369,1,59.9999981689454,2|0,0:0|0:0,0:0:0:0:
83,248,90527,5,0,3:0:0:0:
203,89,90704,2,0,P|201:126|176:157,1,69.9999978637696,2|0,0:0|0:0,0:0:0:0:
136,102,90880,1,2,3:2:0:0:
251,32,91057,5,10,0:0:0:0:
251,32,91145,2,0,P|278:56|318:60,1,69.9999978637696,0|0,0:0|3:0,0:0:0:0:
306,171,91322,1,2,0:0:0:0:
306,171,91410,2,0,P|343:169|374:144,1,69.9999978637696
468,201,91586,1,2,3:2:0:0:
463,153,91674,1,0,0:0:0:0:
459,105,91763,1,10,0:0:0:0:
455,57,91851,1,2,0:0:0:0:
451,9,91939,6,0,P|391:52|320:49,1,139.999995727539,0|2,3:0|0:0,0:0:0:0:
271,18,92204,1,0,0:0:0:0:
271,18,92292,1,2,3:2:0:0:
194,136,92469,5,10,0:0:0:0:
194,136,92557,2,0,B|222:113|222:113|225:156,1,69.9999978637696,0|2,0:0|3:2,0:0:0:0:
284,214,92733,1,0,0:0:0:0:
284,214,92822,2,0,B|319:218|319:218|291:250,1,69.9999978637696
193,282,92998,2,0,B|159:279|159:279|181:250,1,69.9999978637696,2|0,3:2|0:0,0:0:0:0:
180,166,93174,2,0,B|157:140|157:140|193:135,1,69.9999978637696,8|0,0:0|0:0,0:0:0:0:
283,213,93351,6,0,L|282:359,1,139.999995727539,0|2,3:0|0:0,0:0:0:0:
219,384,93616,1,0,0:0:0:0:
211,374,93704,1,2,3:2:0:0:
59,281,93880,5,10,0:0:0:0:
59,281,93969,1,0,0:0:0:0:
46,209,94057,2,0,P|81:211|108:232,1,69.9999978637696,2|0,3:2|0:0,0:0:0:0:
242,177,94233,2,0,P|208:179|181:200,1,69.9999978637696,2|0,0:0|0:0,0:0:0:0:
125,116,94410,1,2,3:2:0:0:
128,163,94498,1,0,0:0:0:0:
130,211,94586,1,10,0:0:0:0:
133,259,94675,1,2,0:0:0:0:
135,307,94763,6,0,P|230:284|287:298,1,139.999995727539,0|2,3:0|0:0,0:0:0:0:
351,334,95027,1,0,0:0:0:0:
351,334,95116,1,2,3:2:0:0:
351,334,95204,2,0,L|365:265,1,69.9999978637696,2|8,0:0|0:0,0:0:0:0:
301,140,95380,2,0,L|321:236,1,69.9999978637696,0|2,0:0|3:2,0:0:0:0:
422,150,95558,1,0,0:0:0:0:
422,150,95645,2,0,L|436:81,1,69.9999978637696,0|2,0:0|0:0,0:0:0:0:
338,1,95822,1,0,3:0:0:0:
342,17,95910,1,0,0:0:0:0:
345,33,95998,2,0,L|365:129,1,69.9999978637696,10|2,0:0|0:0,0:0:0:0:
186,164,96174,6,0,P|253:118|319:174,1,139.999995727539,0|2,3:0|0:0,0:0:0:0:
291,250,96439,1,0,0:0:0:0:
291,250,96527,2,0,P|278:215|252:194,1,69.9999978637696,8|0,3:1|0:0,0:0:0:0:
214,263,96704,2,0,P|182:247|148:250,1,69.9999978637696,8|0,0:0|0:0,0:0:0:0:
42,367,96880,5,0,3:0:0:0:
96,323,96969,2,0,L|172:319,1,69.9999978637696,2|0,0:0|0:0,0:0:0:0:
360,246,97145,1,0,0:0:0:0:
360,246,97233,2,0,L|284:250,1,69.9999978637696,8|0,3:1|0:0,0:0:0:0:
184,121,97410,2,0,L|188:197,1,69.9999978637696,10|0,0:0|0:0,0:0:0:0:
294,384,97586,6,0,L|287:244,1,139.999995727539,0|2,3:0|0:0,0:0:0:0:
363,72,97851,1,0,0:0:0:0:
363,72,97939,2,0,P|343:104|280:112,1,69.9999978637696,8|0,3:1|0:0,0:0:0:0:
439,222,98116,2,0,P|405:195|357:191,1,69.9999978637696,10|0,0:0|0:0,0:0:0:0:
158,110,98292,6,0,P|234:127|244:204,1,139.999995727539,0|0,3:0|0:0,0:0:0:0:
129,234,98557,1,0,0:0:0:0:
129,234,98645,2,0,P|155:194|193:187,1,69.9999978637696,8|0,3:1|0:0,0:0:0:0:
264,323,98822,2,0,P|224:297|217:259,1,69.9999978637696,10|0,0:0|0:0,0:0:0:0:
401,245,98998,6,0,L|259:258,1,119.999996337891,4|0,3:2|0:0,0:0:0:0:
251,179,99263,1,2,0:0:0:0:
44,351,99527,1,2,0:0:0:0:
131,168,99704,2,0,L|251:179,1,119.999996337891,2|0,0:0|0:0,0:0:0:0:
286,259,99969,1,2,0:0:0:0:
286,259,100057,2,0,L|345:253,1,59.9999981689454
424,246,100233,1,2,0:0:0:0:
425,72,100410,6,0,L|416:153,1,59.9999981689454,2|0,0:0|0:0,0:0:0:0:
315,162,100586,2,0,L|321:102,1,59.9999981689454,2|0,0:0|0:0,0:0:0:0:
225,21,100763,1,2,0:0:0:0:
153,23,100880,1,2,0:0:0:0:
192,84,100998,1,2,0:0:0:0:
239,139,101116,6,0,L|232:198,1,59.9999981689454,2|0,0:0|0:0,0:0:0:0:
112,142,101292,2,0,L|118:82,1,59.9999981689454,2|0,0:0|0:0,0:0:0:0:
294,19,101469,5,0,1:0:0:0:
294,19,101822,6,0,P|373:36|380:123,1,150.000005722046,0|0,3:0|0:0,0:0:0:0:
375,129,102086,1,0,0:0:0:0:
361,164,102174,1,8,1:0:0:0:
143,221,102351,2,0,L|217:227,1,75.0000028610231,2|0,0:0|0:0,0:0:0:0:
120,124,102527,2,0,L|269:136,1,150.000005722046,0|0,3:0|0:0,0:0:0:0:
298,112,102791,1,0,0:0:0:0:
322,83,102879,1,8,1:0:0:0:
321,299,103056,2,0,L|311:209,1,75.0000028610231,2|0,0:0|0:0,0:0:0:0:
420,331,103233,6,0,L|402:165,1,150.000005722046,0|0,3:0|0:0,0:0:0:0:
399,145,103497,1,0,0:0:0:0:
395,108,103586,1,8,1:0:0:0:
512,288,103763,2,0,L|502:198,1,75.0000028610231,2|0,0:0|0:0,0:0:0:0:
510,27,103939,6,0,L|415:42,1,75.0000028610231,0|0,3:0|0:0,0:0:0:0:
233,65,104116,2,0,L|307:76,1,75.0000028610231,2|0,0:0|0:0,0:0:0:0:
510,35,104292,6,0,L|415:50,1,75.0000028610231,8|0,1:0|0:0,0:0:0:0:
307,84,104469,2,0,L|233:73,1,75.0000028610231,2|0,0:0|0:0,0:0:0:0:
25,155,104645,6,0,P|22:214|100:207,1,150.000005722046,0|0,3:0|0:0,0:0:0:0:
108,178,104909,1,0,0:0:0:0:
119,142,104997,1,8,1:0:0:0:
232,296,105174,2,0,L|197:190,1,75.0000028610231,2|0,0:0|0:0,0:0:0:0:
307,77,105351,6,0,P|310:136|232:129,1,150.000005722046,0|0,3:0|0:0,0:0:0:0:
224,100,105615,1,0,0:0:0:0:
213,64,105703,1,8,1:0:0:0:
84,249,105880,2,0,L|108:178,1,75.0000028610231,2|0,0:0|0:0,0:0:0:0:
311,221,106057,6,0,L|157:245,1,150.000005722046,0|0,3:0|0:0,0:0:0:0:
136,210,106321,1,0,0:0:0:0:
108,178,106409,1,8,1:0:0:0:
319,20,106587,2,0,L|306:104,1,75.0000028610231,2|0,0:0|0:0,0:0:0:0:
443,142,106763,6,0,B|404:139|404:139|373:159,1,75.0000028610231,0|0,3:0|0:0,0:0:0:0:
340,314,106939,2,0,B|342:275|342:275|322:244,1,75.0000028610231,2|0,0:0|0:0,0:0:0:0:
229,82,107116,6,0,B|235:119|235:119|217:152,1,75.0000028610231,8|0,1:0|0:0,0:0:0:0:
66,199,107292,2,0,B|103:192|103:192|136:210,1,75.0000028610231,2|0,0:0|0:0,0:0:0:0:
210,384,107469,6,0,L|214:232,1,150.000005722046,0|0,3:0|0:0,0:0:0:0:
215,193,107733,1,0,0:0:0:0:
217,151,107821,1,8,1:0:0:0:
293,366,107998,2,0,L|295:278,1,75.0000028610231,2|0,0:0|0:0,0:0:0:0:
217,151,108174,2,0,L|213:300,1,150.000005722046,0|0,3:0|0:0,0:0:0:0:
212,342,108438,1,0,0:0:0:0:
210,384,108527,1,8,1:0:0:0:
137,134,108704,2,0,L|135:208,1,75.0000028610231,2|0,0:0|0:0,0:0:0:0:
12,335,108880,6,0,B|74:296|74:296|166:323,1,150.000005722046,0|0,3:0|0:0,0:0:0:0:
179,351,109144,1,0,0:0:0:0:
210,384,109232,1,8,1:0:0:0:
391,224,109410,2,0,B|353:218|353:218|320:235,1,75.0000028610231,2|0,0:0|0:0,0:0:0:0:
232,139,109586,6,0,L|247:234,1,75.0000028610231,0|0,3:0|0:0,0:0:0:0:
378,368,109763,2,0,L|366:293,1,75.0000028610231,2|0,0:0|0:0,0:0:0:0:
240,135,109939,6,0,L|255:230,1,75.0000028610231,8|0,1:0|0:0,0:0:0:0:
374,289,110116,2,0,L|386:364,1,75.0000028610231,2|0,0:0|0:0,0:0:0:0:
474,199,110292,6,0,P|465:273|464:348,1,150.000005722046,0|0,3:0|0:0,0:0:0:0:
475,366,110556,1,0,0:0:0:0:
485,384,110644,1,8,1:0:0:0:
380,140,110821,2,0,P|393:181|395:222,1,75.0000028610231,2|0,0:0|0:0,0:0:0:0:
464,348,110998,6,0,P|464:273|474:199,1,150.000005722046,0|0,3:0|0:0,0:0:0:0:
481,179,111262,1,0,0:0:0:0:
491,161,111350,1,8,1:0:0:0:
299,42,111527,2,0,B|334:57|334:57|386:44,1,75.0000028610231,2|0,0:0|0:0,0:0:0:0:
395,212,111704,6,0,B|328:185|328:185|251:199,1,150.000005722046,0|0,3:0|0:0,0:0:0:0:
216,211,111968,1,0,0:0:0:0:
180,222,112056,1,8,1:0:0:0:
47,361,112233,2,0,P|86:336|94:288,1,75.0000028610231,2|0,0:0|0:0,0:0:0:0:
37,157,112410,1,0,3:0:0:0:
46,190,112498,1,0,0:0:0:0:
71,218,112586,1,2,0:0:0:0:
107,231,112674,1,0,0:0:0:0:
144,226,112763,6,0,P|149:186|147:151,1,75.0000028610231,8|0,1:0|0:0,0:0:0:0:
217,21,112939,2,0,P|215:58|220:95,1,75.0000028610231,2|0,0:0|0:0,0:0:0:0:
326,261,113116,6,0,B|277:160|277:160|327:32,1,225.000008583069,4|2,3:2|0:0,0:0:0:0:
401,18,113469,1,8,1:0:0:0:
371,201,113645,6,0,B|349:157|349:157|367:109,1,100,2|0,0:0|0:0,0:0:0:0:
318,55,113822,6,0,B|277:161|277:161|326:262,1,225.000008583069,0|2,3:0|0:0,0:0:0:0:
408,292,114174,1,8,1:0:0:0:
367,109,114351,6,0,B|349:157|349:157|371:201,1,100,2|0,0:0|0:0,0:0:0:0:
493,325,114527,6,0,P|442:300|254:335,1,225.000008583069,0|2,3:0|0:0,0:0:0:0:
216,359,114880,1,8,1:0:0:0:
102,205,115057,2,0,P|150:195|195:215,1,100,2|0,0:0|0:0,0:0:0:0:
309,228,115233,6,0,P|236:231|188:286,1,150.000005722046,0|2,3:0|0:0,0:0:0:0:
216,359,115498,1,2,0:0:0:0:
320,302,115586,2,0,L|309:228,1,75.0000028610231,8|0,1:0|0:0,0:0:0:0:
185,141,115763,2,0,L|196:215,1,75.0000028610231,2|0,0:0|0:0,0:0:0:0:
326,339,115939,6,0,L|292:104,1,225.000008583069,0|2,3:0|0:0,0:0:0:0:
284,39,116292,1,8,1:0:0:0:
460,57,116469,6,0,L|360:71,1,100,2|0,0:0|0:0,0:0:0:0:
201,103,116645,6,0,L|436:137,1,225.000008583069,0|2,3:0|0:0,0:0:0:0:
500,146,116998,1,8,1:0:0:0:
364,296,117174,6,0,L|402:200,1,100,2|0,0:0|0:0,0:0:0:0:
312,379,117351,6,0,L|223:158,1,225.000008583069,0|2,3:0|0:0,0:0:0:0:
201,103,117704,1,8,1:0:0:0:
21,233,117880,6,0,L|120:256,1,100,2|0,0:0|0:0,0:0:0:0:
216,367,118057,6,0,P|197:335|200:298,1,75.0000028610231,0|0,3:0|0:0,0:0:0:0:
118,256,118233,2,0,P|127:220|155:196,1,75.0000028610231,2|0,0:0|0:0,0:0:0:0:
204,74,118410,6,0,P|222:105|219:142,1,75.0000028610231,8|0,1:0|0:0,0:0:0:0:
302,185,118586,2,0,P|292:220|264:244,1,75.0000028610231,2|0,0:0|0:0,0:0:0:0:
77,165,118763,6,0,L|262:176,1,150.000005722046,4|0,3:2|0:0,0:0:0:0:
264,178,119027,1,2,0:0:0:0:
302,185,119116,1,8,1:0:0:0:
280,2,119292,6,0,L|295:101,1,100,2|0,0:0|0:0,0:0:0:0:
375,274,119469,6,0,L|381:124,1,150.000005722046,0|0,3:0|0:0,0:0:0:0:
338,113,119733,1,2,0:0:0:0:
295,101,119822,1,8,1:0:0:0:
497,16,119998,2,0,L|399:43,1,100,2|0,0:0|0:0,0:0:0:0:
212,187,120174,6,0,P|288:162|287:87,1,150.000005722046,4|0,3:2|1:0,0:0:0:0:
70,25,120527,2,0,P|146:50|145:125,1,150.000005722046,0|0,1:0|1:0,0:0:0:0:
32,319,120880,1,0,1:0:0:0:
92,88,121057,1,0,1:0:0:0:
234,280,121233,1,0,1:0:0:0:
21,169,121410,1,0,1:0:0:0:
251,103,121586,5,0,1:0:0:0:
266,77,121674,1,0,1:0:0:0:
293,64,121763,1,0,1:0:0:0:
330,60,121851,1,0,1:0:0:0:
365,70,121939,1,0,1:0:0:0:
394,93,122027,1,0,1:0:0:0:
407,128,122116,1,0,1:0:0:0:
401,165,122204,1,0,1:0:0:0:
377,203,122292,1,2,1:2:0:0:
367,251,122380,1,2,1:2:0:0:
388,299,122469,1,2,1:2:0:0:
439,310,122557,1,2,1:2:0:0:
483,282,122645,1,2,1:2:0:0:
483,222,122733,1,2,1:2:0:0:
428,195,122822,1,2,1:2:0:0:
374,221,122910,1,2,1:2:0:0:
384,289,122998,5,0,3:0:0:0:
384,289,124410,5,4,3:2:0:0:
256,192,124498,12,0,125822,0:0:0:0:
