osu file format v14

[General]
AudioFilename: audio.mp3
AudioLeadIn: 0
PreviewTime: 236281
Countdown: 0
SampleSet: Soft
StackLeniency: 0.7
Mode: 2
LetterboxInBreaks: 0
WidescreenStoryboard: 0
SamplesMatchPlaybackRate: 1

[Editor]
Bookmarks: 30862,238392
DistanceSpacing: 0.8
BeatDivisor: 4
GridSize: 16
TimelineZoom: 1.9

[Metadata]
Title:B.B.K.K.B.K.K. (Extended Mix)
TitleUnicode:B.B.K.K.B.K.K. (Extended Mix)
Artist:nora2r
ArtistUnicode:nora2r
Creator:Minato Yukina
Version:C.C.C.C.C.C.C.
Source:SOUND VOLTEX III GRAVITY WARS
Tags:c86 bof BMS of FIGHTERS 2013 YATSUZAKI HARDCORE VOLUME 4 fooRider Notebook Records maimai CHUNITHM sdvx bass kick bbkkbkk Crystal CLSW CrystalSeed Daiz_IX Crystality Video Games Instrumental
BeatmapID:1162294
BeatmapSetID:548873

[Difficulty]
HPDrainRate:6
CircleSize:4
OverallDifficulty:9.4
ApproachRate:9.4
SliderMultiplier:3.2
SliderTickRate:2

[Events]
//Background and Video events
0,0,"bbkkbkk.jpg",0,0
//Break Periods
2,45893,50800
2,140274,141153
2,141893,146800
//Storyboard Layer 0 (Background)
//Storyboard Layer 1 (Fail)
//Storyboard Layer 2 (Pass)
//Storyboard Layer 3 (Foreground)
//Storyboard Layer 4 (Overlay)
//Storyboard Sound Samples

[TimingPoints]
517,352.941176470588,4,3,1,40,1,0
10752,-100,4,2,99,40,0,0
11811,-100,4,1,1,40,0,0
21693,-100,4,2,99,75,0,0
23105,-100,4,2,1,75,0,0
28046,-100,4,2,80,75,0,0
28752,-100,4,2,1,75,0,0
32987,-100,4,2,12,75,0,0
33340,-100,4,2,80,75,0,0
34399,-100,4,2,1,75,0,0
39340,-100,4,2,80,75,0,0
40046,-100,4,2,1,75,0,0
44634,-100,4,2,91,75,0,0
44811,-100,4,2,92,75,0,0
44987,-200,4,2,93,75,0,0
45340,-200,4,2,94,75,0,0
45693,-200,4,2,1,75,0,0
51340,-25,4,2,0,15,0,0
56987,-133.333333333333,4,2,80,15,0,0
58399,-133.333333333333,4,2,80,20,0,0
59105,-133.333333333333,4,2,80,25,0,0
59811,-133.333333333333,4,2,80,30,0,0
60516,-133.333333333333,4,2,80,35,0,0
61222,-133.333333333333,4,2,80,40,0,0
61928,-133.333333333333,4,2,80,45,0,0
62634,-100,4,2,80,50,0,0
63340,-100,4,2,80,55,0,0
64046,-100,4,2,80,60,0,0
64752,-100,4,2,80,65,0,0
65458,-100,4,2,80,70,0,0
66164,-100,4,2,80,75,0,0
66869,-100,4,2,1,75,0,0
67222,-100,4,2,91,75,0,0
67399,-133.333333333333,4,2,92,75,0,0
67575,-200,4,2,93,75,0,0
67928,-133.333333333333,4,2,94,75,0,0
68281,-100,4,3,1,75,0,0
68458,-100,4,2,2,75,0,0
68634,-100,4,2,1,75,0,0
68811,-100,4,2,2,75,0,0
68987,-100,4,2,1,75,0,0
69164,-100,4,2,2,75,0,0
69340,-100,4,2,1,75,0,0
69516,-100,4,2,2,75,0,0
69692,-100,4,2,1,75,0,0
69869,-100,4,2,2,75,0,0
70045,-100,4,2,1,75,0,0
70222,-100,4,2,2,75,0,0
70398,-100,4,2,1,75,0,0
70575,-100,4,2,2,75,0,0
70751,-100,4,2,1,75,0,0
70928,-100,4,2,2,75,0,0
71104,-100,4,2,1,75,0,0
71281,-100,4,2,2,75,0,0
71457,-100,4,2,1,75,0,0
71634,-100,4,2,2,75,0,0
71810,-100,4,2,1,75,0,0
71987,-100,4,2,2,75,0,0
72163,-100,4,2,1,75,0,0
72340,-100,4,2,2,75,0,0
72516,-100,4,2,1,75,0,0
72693,-100,4,2,2,75,0,0
72869,-100,4,2,1,75,0,0
73046,-100,4,2,2,75,0,0
73222,-100,4,2,11,75,0,0
73399,-100,4,2,80,75,0,0
73928,-100,4,3,1,75,0,0
74104,-100,4,2,2,75,0,0
74281,-100,4,2,1,75,0,0
74457,-100,4,2,2,75,0,0
74634,-100,4,2,1,75,0,0
74810,-100,4,2,2,75,0,0
74987,-100,4,2,1,75,0,0
75164,-100,4,2,2,75,0,0
75340,-100,4,2,1,75,0,0
75516,-100,4,2,2,75,0,0
75693,-100,4,2,1,75,0,0
75869,-100,4,2,2,75,0,0
76046,-100,4,2,1,75,0,0
76222,-100,4,2,2,75,0,0
76399,-100,4,2,1,75,0,0
76576,-100,4,2,2,75,0,0
76752,-100,4,2,1,75,0,0
76928,-100,4,2,2,75,0,0
77105,-100,4,2,1,75,0,0
77281,-100,4,2,2,75,0,0
77458,-100,4,2,1,75,0,0
77634,-100,4,2,2,75,0,0
77811,-100,4,2,1,75,0,0
77988,-100,4,2,2,75,0,0
78164,-100,4,2,1,75,0,0
79575,-100,4,3,1,75,0,0
79752,-100,4,2,2,75,0,0
79928,-100,4,2,1,75,0,0
80105,-100,4,2,2,75,0,0
80281,-100,4,2,1,75,0,0
80458,-100,4,2,2,75,0,0
80634,-100,4,2,1,75,0,0
80810,-100,4,2,2,75,0,0
80987,-100,4,2,1,75,0,0
81164,-100,4,2,2,75,0,0
81340,-100,4,2,1,75,0,0
81517,-100,4,2,2,75,0,0
81693,-100,4,2,1,75,0,0
81870,-100,4,2,2,75,0,0
82046,-100,4,2,1,75,0,0
82222,-100,4,2,2,75,0,0
82399,-100,4,2,1,75,0,0
82576,-100,4,2,2,75,0,0
82752,-100,4,2,1,75,0,0
82929,-100,4,2,2,75,0,0
83105,-100,4,2,1,75,0,0
83281,-100,4,2,2,75,0,0
83458,-100,4,2,1,75,0,0
83635,-100,4,2,2,75,0,0
83811,-100,4,2,1,75,0,0
83988,-100,4,2,2,75,0,0
84164,-100,4,2,1,75,0,0
84340,-100,4,2,2,75,0,0
84516,-100,4,2,11,75,0,0
84869,-100,4,2,80,75,0,0
85222,-100,4,3,1,75,0,0
85399,-100,4,2,2,75,0,0
85575,-100,4,2,1,75,0,0
85752,-100,4,2,2,75,0,0
85928,-100,4,2,1,75,0,0
86105,-100,4,2,2,75,0,0
86281,-100,4,2,1,75,0,0
86457,-100,4,2,2,75,0,0
86634,-100,4,2,1,75,0,0
86811,-100,4,2,2,75,0,0
86987,-100,4,2,1,75,0,0
87164,-100,4,2,2,75,0,0
87340,-100,4,2,1,75,0,0
87517,-100,4,2,2,75,0,0
87693,-100,4,2,1,75,0,0
87869,-100,4,2,2,75,0,0
88046,-100,4,3,1,75,0,0
88223,-100,4,2,2,75,0,0
88399,-100,4,2,1,75,0,0
88576,-100,4,2,2,75,0,0
88752,-100,4,2,1,75,0,0
88929,-100,4,2,2,75,0,0
89105,-100,4,2,1,75,0,0
89281,-100,4,2,2,75,0,0
89458,-100,4,2,1,75,0,0
90869,-100,4,2,90,75,0,0
95811,-100,4,2,11,75,0,0
95987,-100,4,2,80,75,0,0
96516,-100,4,2,90,75,0,0
107105,-100,4,2,11,75,0,0
107281,-100,4,2,80,75,0,0
107811,-100,4,2,90,75,0,0
109222,-100,4,2,1,75,0,0
113458,-100,4,2,11,75,0,1
113634,-100,4,2,1,75,0,1
113811,-100,4,2,11,75,0,1
113987,-100,4,2,1,75,0,1
114164,-100,4,2,12,75,0,1
114340,-100,4,2,1,75,0,1
114516,-100,4,2,12,75,0,1
114692,-100,4,2,1,75,0,1
114869,-100,4,2,11,75,0,1
115045,-100,4,2,1,75,0,1
115222,-100,4,2,12,75,0,1
115398,-100,4,2,1,75,0,1
115575,-100,4,2,12,75,0,1
115751,-100,4,2,1,75,0,1
116281,-100,4,2,11,75,0,1
116457,-100,4,2,1,75,0,1
116634,-100,4,2,11,75,0,1
116810,-100,4,2,1,75,0,1
116987,-100,4,2,12,75,0,1
117163,-100,4,2,1,75,0,1
117339,-100,4,2,12,75,0,1
117515,-100,4,2,1,75,0,1
117692,-100,4,2,11,75,0,1
117868,-100,4,2,1,75,0,1
118046,-100,4,2,11,75,0,1
118222,-100,4,2,1,75,0,1
118399,-100,4,2,12,75,0,1
118575,-100,4,2,1,75,0,1
118752,-100,4,2,12,75,0,1
118928,-100,4,2,1,75,0,1
119105,-100,4,2,11,75,0,1
119281,-100,4,2,1,75,0,1
119458,-100,4,2,11,75,0,1
119634,-100,4,2,1,75,0,1
119811,-100,4,2,12,75,0,1
119987,-100,4,2,1,75,0,1
120164,-100,4,2,12,75,0,1
120340,-100,4,2,1,75,0,1
120516,-100,4,2,11,75,0,1
120692,-100,4,2,1,75,0,1
120869,-100,4,2,12,75,0,1
121045,-100,4,2,1,75,0,1
121222,-100,4,2,12,75,0,1
121399,-100,4,2,1,75,0,1
121928,-100,4,2,11,75,0,1
122104,-100,4,2,1,75,0,1
122281,-100,4,2,11,75,0,1
122457,-100,4,2,1,75,0,1
122634,-100,4,2,12,75,0,1
122810,-100,4,2,1,75,0,1
122987,-100,4,2,12,75,0,1
123163,-100,4,2,1,75,0,1
123340,-100,4,2,12,75,0,0
123693,-100,4,2,80,75,0,0
124752,-100,4,2,11,75,0,0
124928,-100,4,2,13,75,0,0
125458,-100,4,2,14,75,0,0
126164,-100,4,2,13,75,0,0
126516,-100,4,2,14,75,0,0
127575,-100,4,2,11,75,0,0
127752,-100,4,2,13,75,0,0
128281,-100,4,2,14,75,0,0
128987,-100,4,2,13,75,0,0
129693,-100,4,2,14,75,0,0
130399,-100,4,1,1,75,0,0
134987,-100,4,2,91,75,0,0
135164,-100,4,2,92,75,0,0
135340,-200,4,2,93,75,0,0
135693,-200,4,2,94,75,0,0
136046,-200,4,2,1,75,0,0
147340,-200,4,2,51,75,0,0
149987,-200,4,2,52,75,0,0
152458,-200,4,2,53,75,0,0
152987,-200,4,2,51,75,0,0
155634,-200,4,2,52,75,0,0
158105,-200,4,2,53,75,0,0
158634,-200,4,2,51,75,0,0
161281,-200,4,2,52,75,0,0
163752,-200,4,2,53,75,0,0
164281,-200,4,2,51,75,0,0
166928,-200,4,2,52,75,0,0
169399,-200,4,2,53,75,0,0
169928,-200,4,2,51,75,0,0
172575,-200,4,2,52,75,0,0
175046,-200,4,2,53,75,0,0
175575,-200,4,2,51,75,0,0
178222,-200,4,2,52,75,0,0
180693,-200,4,2,53,75,0,0
181222,-200,4,2,1,45,0,0
182634,-200,4,2,1,50,0,0
184046,-200,4,2,1,55,0,0
185458,-200,4,2,1,60,0,0
186869,-200,4,2,1,65,0,0
188281,-200,4,2,1,70,0,0
189693,-100,4,2,1,75,0,0
191105,-100,4,2,99,75,0,0
192516,-100,4,3,1,75,0,0
192693,-100,4,2,2,75,0,0
192869,-100,4,2,1,75,0,0
193046,-100,4,2,2,75,0,0
193222,-100,4,2,1,75,0,0
193399,-100,4,2,2,75,0,0
193575,-100,4,2,1,75,0,0
193751,-100,4,2,2,75,0,0
193927,-100,4,2,1,75,0,0
194104,-100,4,2,2,75,0,0
194280,-100,4,2,1,75,0,0
194457,-100,4,2,2,75,0,0
194633,-100,4,2,1,75,0,0
194810,-100,4,2,2,75,0,0
194986,-100,4,2,1,75,0,0
195163,-100,4,2,2,75,0,0
195339,-100,4,2,1,75,0,0
195516,-100,4,2,2,75,0,0
195692,-100,4,2,1,75,0,0
195869,-100,4,2,2,75,0,0
196045,-100,4,2,1,75,0,0
196222,-100,4,2,2,75,0,0
196398,-100,4,2,1,75,0,0
196575,-100,4,2,2,75,0,0
196751,-100,4,2,1,75,0,0
196928,-100,4,2,2,75,0,0
197104,-100,4,2,1,75,0,0
197281,-100,4,2,2,75,0,0
197458,-100,4,2,11,75,0,0
197634,-100,4,2,80,75,0,0
198164,-100,4,3,1,75,0,0
198341,-100,4,2,2,75,0,0
198517,-100,4,2,1,75,0,0
198694,-100,4,2,2,75,0,0
198870,-100,4,2,1,75,0,0
199047,-100,4,2,2,75,0,0
199223,-100,4,2,1,75,0,0
199399,-100,4,2,2,75,0,0
199575,-100,4,2,1,75,0,0
199752,-100,4,2,2,75,0,0
199928,-100,4,2,1,75,0,0
200105,-100,4,2,2,75,0,0
200281,-100,4,2,1,75,0,0
200458,-100,4,2,2,75,0,0
200634,-100,4,2,1,75,0,0
200811,-100,4,2,2,75,0,0
200987,-100,4,2,1,75,0,0
201164,-100,4,2,2,75,0,0
201340,-100,4,2,1,75,0,0
201517,-100,4,2,2,75,0,0
201693,-100,4,2,1,75,0,0
201870,-100,4,2,2,75,0,0
202046,-100,4,2,1,75,0,0
202223,-100,4,2,2,75,0,0
202399,-100,4,2,12,75,0,0
202752,-100,4,2,80,75,0,0
203811,-100,4,3,1,75,0,0
203987,-100,4,2,2,75,0,0
204164,-100,4,2,1,75,0,0
204340,-100,4,2,2,75,0,0
204516,-100,4,2,1,75,0,0
204692,-100,4,2,2,75,0,0
204869,-100,4,2,1,75,0,0
205045,-100,4,2,2,75,0,0
205222,-100,4,2,1,75,0,0
205398,-100,4,2,2,75,0,0
205575,-100,4,2,1,75,0,0
205751,-100,4,2,2,75,0,0
205928,-100,4,2,1,75,0,0
206104,-100,4,2,2,75,0,0
206281,-100,4,2,1,75,0,0
206457,-100,4,2,2,75,0,0
206634,-100,4,2,1,75,0,0
206810,-100,4,2,2,75,0,0
206987,-100,4,2,1,75,0,0
207163,-100,4,2,2,75,0,0
207340,-100,4,2,1,75,0,0
207516,-100,4,2,2,75,0,0
207693,-100,4,2,1,75,0,0
207869,-100,4,2,2,75,0,0
208046,-100,4,2,1,75,0,0
208222,-100,4,2,2,75,0,0
208399,-100,4,2,1,75,0,0
208575,-100,4,2,2,75,0,0
208752,-100,4,2,11,75,0,0
209105,-100,4,2,80,75,0,0
209458,-100,4,3,1,75,0,0
209634,-100,4,2,2,75,0,0
209811,-100,4,2,1,75,0,0
209987,-100,4,2,2,75,0,0
210164,-100,4,2,1,75,0,0
210340,-100,4,2,2,75,0,0
210516,-100,4,2,1,75,0,0
210692,-100,4,2,2,75,0,0
210869,-100,4,2,1,75,0,0
211045,-100,4,2,2,75,0,0
211222,-100,4,2,1,75,0,0
211398,-100,4,2,2,75,0,0
211575,-100,4,2,1,75,0,0
211751,-100,4,2,2,75,0,0
211928,-100,4,2,1,75,0,0
212104,-100,4,2,2,75,0,0
212281,-100,4,2,1,75,0,0
212457,-100,4,2,2,75,0,0
212634,-100,4,2,1,75,0,0
212810,-100,4,2,2,75,0,0
212987,-100,4,2,1,75,0,0
213163,-100,4,2,2,75,0,0
213340,-100,4,2,1,75,0,0
213516,-100,4,2,2,75,0,0
213693,-100,4,3,1,75,0,0
215105,-100,4,2,13,75,0,0
215811,-100,4,2,14,75,0,0
216516,-100,4,2,13,75,0,0
216869,-100,4,2,14,75,0,0
217222,-200,4,2,14,75,0,0
217928,-100,4,2,13,75,0,0
218634,-100,4,2,14,75,0,0
219340,-100,4,2,13,75,0,0
220046,-100,4,2,14,75,0,0
220752,-100,4,2,13,75,0,0
221458,-100,4,2,14,75,0,0
222164,-100,4,2,13,75,0,0
222516,-100,4,2,14,75,0,0
222869,-200,4,2,14,75,0,0
223575,-100,4,2,13,75,0,0
224281,-100,4,2,14,75,0,0
225340,-100,4,2,80,75,0,0
226399,-125,4,2,11,75,0,0
226664,-125,4,2,14,75,0,0
226928,-125,4,2,14,75,0,0
227193,-125,4,2,13,75,0,0
228516,-125,4,2,14,75,0,0
229222,-125,4,2,13,75,0,0
229487,-125,4,2,14,75,0,0
229928,-125,4,2,13,75,0,0
230281,-125,4,2,14,75,0,0
230634,-125,4,2,13,75,0,0
230811,-125,4,2,14,75,0,0
232046,-125,4,2,13,75,0,0
232311,-125,4,2,14,75,0,0
232840,-125,4,2,13,75,0,0
234164,-125,4,2,14,75,0,0
234869,-125,4,2,1,75,0,0
235046,-125,4,2,2,75,0,0
235222,-125,4,2,1,75,0,0
235399,-125,4,2,2,75,0,0
235575,-125,4,2,1,75,0,0
235752,-125,4,2,2,75,0,0
235928,-125,4,2,1,75,0,0
236105,-125,4,2,2,75,0,0
236281,-200,4,2,61,55,0,0
237340,-200,4,1,1,75,0,0
237693,-200,4,2,1,75,0,1
237781,-200,4,2,5,75,0,1
248987,-200,4,2,1,75,0,1
249075,-200,4,2,5,75,0,1
260281,-100,4,2,11,75,0,1
260458,-100,4,2,5,75,0,1
260634,-100,4,2,13,75,0,1
260811,-100,4,2,5,75,0,1
260987,-100,4,2,14,75,0,1
261164,-100,4,2,5,75,0,1
261340,-100,4,2,14,75,0,1
261516,-100,4,2,5,75,0,1
261693,-100,4,2,13,75,0,1
261869,-100,4,2,5,75,0,1
262046,-100,4,2,14,75,0,1
262221,-100,4,2,5,75,0,1
262399,-100,4,2,14,75,0,1
262575,-100,4,2,5,75,0,1
262927,-100,4,2,5,75,0,1
263105,-100,4,2,13,75,0,1
263281,-100,4,2,5,75,0,1
263458,-100,4,2,13,75,0,1
263633,-100,4,2,5,75,0,1
263811,-100,4,2,14,75,0,1
263987,-100,4,2,5,75,0,1
264164,-100,4,2,14,75,0,1
264339,-100,4,2,5,75,0,1
264516,-100,4,2,13,75,0,1
264693,-100,4,2,5,75,0,1
264869,-100,4,2,13,75,0,1
265045,-100,4,2,5,75,0,1
265222,-100,4,2,14,75,0,1
265399,-100,4,2,5,75,0,1
265575,-100,4,2,14,75,0,1
265751,-100,4,2,5,75,0,1
265928,-100,4,2,11,75,0,1
266105,-100,4,2,5,75,0,1
266281,-100,4,2,13,75,0,1
266457,-100,4,2,5,75,0,1
266634,-100,4,2,14,75,0,1
266811,-100,4,2,5,75,0,1
266987,-100,4,2,14,75,0,1
267163,-100,4,2,5,75,0,1
267340,-100,4,2,13,75,0,1
267516,-100,4,2,5,75,0,1
267693,-100,4,2,14,75,0,1
267868,-100,4,2,5,75,0,1
268046,-100,4,2,14,75,0,1
268222,-100,4,2,5,75,0,1
268574,-100,4,2,5,75,0,1
268752,-100,4,2,13,75,0,1
268928,-100,4,2,5,75,0,1
269105,-100,4,2,13,75,0,1
269280,-100,4,2,5,75,0,1
269458,-100,4,2,14,75,0,1
269634,-100,4,2,5,75,0,1
269811,-100,4,2,14,75,0,1
269986,-100,4,2,5,75,0,1
270164,-100,4,2,14,75,0,1
270340,-100,4,2,5,75,0,1
270516,-100,4,2,14,75,0,1
271575,-100,4,2,11,75,0,1
271752,-100,4,2,5,75,0,1
271928,-100,4,2,13,75,0,1
272104,-100,4,2,5,75,0,1
272281,-100,4,2,14,75,0,1
272458,-100,4,2,5,75,0,1
272634,-100,4,2,14,75,0,1
272810,-100,4,2,5,75,0,1
272987,-100,4,2,13,75,0,1
273164,-100,4,2,5,75,0,1
273340,-100,4,2,14,75,0,1
273516,-100,4,2,5,75,0,1
273693,-100,4,2,14,75,0,1
273869,-100,4,2,5,75,0,1
274221,-100,4,2,5,75,0,1
274399,-100,4,2,11,75,0,1
274575,-100,4,2,5,75,0,1
274752,-100,4,2,13,75,0,1
274927,-100,4,2,5,75,0,1
275105,-100,4,2,14,75,0,1
275281,-100,4,2,5,75,0,1
275458,-100,4,2,14,75,0,1
275633,-100,4,2,5,75,0,1
275811,-100,4,2,13,75,0,1
275987,-100,4,2,5,75,0,1
276164,-100,4,2,13,75,0,1
276339,-100,4,2,5,75,0,1
276516,-100,4,2,14,75,0,1
276693,-100,4,2,5,75,0,1
276869,-100,4,2,14,75,0,1
277045,-100,4,2,5,75,0,1
277222,-100,4,2,11,75,0,1
277575,-100,4,2,13,75,0,1
278634,-100,4,2,11,75,0,1
278987,-100,4,2,13,75,0,1
280046,-100,4,2,11,75,0,1
280222,-100,4,2,13,75,0,1
280752,-100,4,2,11,75,0,1
280840,-100,4,2,13,75,0,1
281458,-200,4,2,99,75,0,0
282869,-100,4,2,1,75,0,0
293458,-100,4,2,11,75,0,0
293811,-100,4,2,80,75,0,0
294164,-100,4,2,1,75,0,0
304399,-100,4,2,91,75,0,0
304575,-100,4,2,92,75,0,0
304752,-200,4,2,93,75,0,0
305105,-200,4,2,94,75,0,0
305458,-100,4,2,1,75,0,0
316575,-100,4,2,0,5,0,0
316752,-100,4,1,1,40,0,0
326987,-100,4,2,91,75,0,0
327164,-100,4,2,92,75,0,0
327340,-200,4,2,93,75,0,0
327693,-200,4,2,94,75,0,0
328046,-200,4,2,1,75,0,0

[Colours]
Combo1 : 85,85,255
Combo2 : 255,85,85

[HitObjects]
176,112,517,5,12,0:0:0:0:
336,112,869,1,8,0:0:0:0:
144,160,1222,1,8,0:0:0:0:
368,160,1575,1,8,0:0:0:0:
112,208,1928,5,8,0:0:0:0:
400,208,2281,1,8,0:0:0:0:
144,160,2634,1,8,0:0:0:0:
368,160,2987,1,8,0:0:0:0:
176,112,3340,5,8,0:0:0:0:
336,112,3693,1,8,0:0:0:0:
144,160,4046,1,8,0:0:0:0:
368,160,4399,1,8,0:0:0:0:
112,208,4752,5,8,0:0:0:0:
400,208,5105,1,8,0:0:0:0:
144,160,5458,1,8,0:0:0:0:
368,160,5811,1,8,0:0:0:0:
336,112,6164,5,8,0:0:0:0:
176,112,6516,1,8,0:0:0:0:
368,160,6869,1,8,0:0:0:0:
144,160,7222,1,8,0:0:0:0:
400,208,7575,5,8,0:0:0:0:
112,208,7928,1,8,0:0:0:0:
368,160,8281,1,8,0:0:0:0:
144,160,8634,1,8,0:0:0:0:
336,112,8987,5,8,0:0:0:0:
176,112,9340,1,8,0:0:0:0:
368,160,9693,1,8,0:0:0:0:
144,160,10046,1,8,0:0:0:0:
400,208,10399,5,8,0:0:0:0:
112,208,10752,1,12,0:0:0:0:
368,368,11105,2,0,P|384:288|368:48,1,320,8|0,0:0|0:0,0:0:0:0:
256,320,11811,6,0,B|224:320|224:12|251:11,1,240,14|0,0:0|0:0,0:0:0:0:
256,320,12164,2,0,B|192:320|192:36|253:36,1,240,10|0,0:0|0:0,0:0:0:0:
256,320,12516,2,0,B|160:320|160:68|253:67,1,240,10|0,0:0|0:0,0:0:0:0:
256,320,12869,2,0,B|128:320|128:108|253:108,1,240,10|0,0:0|0:0,0:0:0:0:
256,320,13222,6,0,B|96:320|96:160|253:159,1,240,10|0,0:0|0:0,0:0:0:0:
256,320,13575,2,0,B|128:320|128:108|253:108,1,240,10|0,0:0|0:0,0:0:0:0:
256,320,13928,2,0,B|160:320|160:68|253:67,1,240,10|0,0:0|0:0,0:0:0:0:
256,320,14281,2,0,B|192:320|192:36|253:36,1,240,10|0,0:0|0:0,0:0:0:0:
256,320,14634,6,0,B|288:320|288:12|261:11,1,240,10|0,0:0|0:0,0:0:0:0:
256,320,14987,2,0,B|320:320|320:36|259:36,1,240,10|0,0:0|0:0,0:0:0:0:
256,320,15340,2,0,B|352:320|352:68|259:67,1,240,10|0,0:0|0:0,0:0:0:0:
256,320,15693,2,0,B|384:320|384:108|259:108,1,240,10|0,0:0|0:0,0:0:0:0:
256,320,16046,6,0,B|416:320|416:160|259:159,1,240,10|0,0:0|0:0,0:0:0:0:
256,64,16399,2,0,B|96:64|96:224|253:225,1,240,10|0,0:0|0:0,0:0:0:0:
256,192,16752,1,10,0:0:0:0:
96,192,17016,2,8,L|96:112,1,80,8|10,0:0|0:0,0:0:0:0:
416,96,17281,1,8,0:0:0:0:
80,64,17458,5,10,0:0:0:0:
208,64,17634,1,10,0:0:0:0:
48,112,17811,1,10,0:0:0:0:
176,112,17987,1,10,0:0:0:0:
64,144,18164,1,10,0:0:0:0:
192,144,18340,1,10,0:0:0:0:
32,192,18516,1,10,0:0:0:0:
160,192,18693,1,10,0:0:0:0:
432,64,18869,5,10,0:0:0:0:
304,64,19046,1,10,0:0:0:0:
464,112,19222,1,10,0:0:0:0:
336,112,19399,1,10,0:0:0:0:
448,144,19575,1,10,0:0:0:0:
320,144,19752,1,10,0:0:0:0:
480,192,19928,1,10,0:0:0:0:
352,192,20105,1,10,0:0:0:0:
96,48,20281,6,2,L|96:128,1,80,10|2,0:0|0:0,0:0:0:0:
176,112,20458,2,2,L|176:192,1,80,10|2,0:0|0:0,0:0:0:0:
256,160,20634,2,2,L|256:240,1,80,10|2,0:0|0:0,0:0:0:0:
336,224,20811,2,2,L|336:304,1,80,10|2,0:0|0:0,0:0:0:0:
416,336,20987,6,2,L|416:256,1,80,10|2,0:0|0:0,0:0:0:0:
336,272,21164,2,2,L|336:192,1,80,10|2,0:0|0:0,0:0:0:0:
256,224,21340,2,2,L|256:144,1,80,10|2,0:0|0:0,0:0:0:0:
176,160,21516,2,2,L|176:80,1,80,10|2,0:0|0:0,0:0:0:0:
384,112,21693,5,2,0:0:0:0:
128,112,22046,1,0,0:0:0:0:
96,304,23105,6,0,B|224:304|224:200|96:200,1,240,6|0,0:0|0:0,0:0:0:0:
176,304,23458,2,0,B|304:304|304:200|176:200,1,240,8|0,0:0|0:0,0:0:0:0:
256,304,23811,2,0,B|384:304|384:200|256:200,1,240,2|0,0:0|0:0,0:0:0:0:
176,304,24164,2,0,B|304:304|304:200|176:200,1,240,8|0,0:0|0:0,0:0:0:0:
96,304,24517,6,0,B|224:304|224:200|96:200,1,240,2|0,0:0|0:0,0:0:0:0:
176,288,24870,2,0,B|345:97,1,240,8|0,0:0|0:0,0:0:0:0:
416,199,25223,2,0,B|288:199|288:95|416:95,1,240,2|0,0:0|0:0,0:0:0:0:
336,288,25576,2,0,B|167:97,1,240,8|0,0:0|0:0,0:0:0:0:
256,144,25929,6,0,B|384:144|384:40|256:40,1,240,2|0,0:0|0:0,0:0:0:0:
336,144,26282,2,0,B|464:144|464:40|336:40,1,240,8|0,0:0|0:0,0:0:0:0:
256,144,26635,2,0,B|128:144|128:40|256:40,1,240,2|0,0:0|0:0,0:0:0:0:
176,144,26988,2,0,B|48:144|48:40|176:40,1,240,8|0,0:0|0:0,0:0:0:0:
256,144,27341,6,0,B|384:144|384:40|256:40,1,240,2|0,0:0|0:0,0:0:0:0:
176,288,27693,2,0,B|345:97,1,240,8|0,0:0|0:0,0:0:0:0:
176,192,28046,5,2,0:0:0:0:
336,224,28399,5,8,0:0:0:0:
96,304,28752,6,0,B|224:304|224:200|96:200,1,240,2|0,0:0|0:0,0:0:0:0:
176,304,29105,2,0,B|304:304|304:200|176:200,1,240,8|0,0:0|0:0,0:0:0:0:
256,304,29458,2,0,B|384:304|384:200|256:200,1,240,2|0,0:0|0:0,0:0:0:0:
176,304,29811,2,0,B|304:304|304:200|176:200,1,240,8|0,0:0|0:0,0:0:0:0:
96,304,30164,6,0,B|224:304|224:200|96:200,1,240,2|0,0:0|0:0,0:0:0:0:
176,288,30517,2,0,B|345:97,1,240,8|0,0:0|0:0,0:0:0:0:
416,199,30870,2,0,B|288:199|288:95|416:95,1,240,2|0,0:0|0:0,0:0:0:0:
336,288,31223,2,0,B|167:97,1,240,8|0,0:0|0:0,0:0:0:0:
256,144,31576,6,0,B|384:144|384:40|256:40,1,240,2|0,0:0|0:0,0:0:0:0:
336,144,31929,2,0,B|464:144|464:40|336:40,1,240,8|0,0:0|0:0,0:0:0:0:
256,144,32282,2,0,B|128:144|128:40|256:40,1,240,2|0,0:0|0:0,0:0:0:0:
176,144,32635,2,0,B|48:144|48:40|176:40,1,240,8|0,0:0|0:0,0:0:0:0:
416,208,32987,5,14,0:0:0:0:
192,128,33340,1,4,0:0:0:0:
320,128,33516,1,4,0:0:0:0:
176,176,33693,1,4,0:0:0:0:
336,176,33869,1,4,0:0:0:0:
160,208,34046,1,4,0:0:0:0:
352,224,34222,1,4,0:0:0:0:
96,224,34399,6,0,B|14:241|14:81|174:81,1,240,6|0,0:0|0:0,0:0:0:0:
320,224,34752,2,0,P|256:192|335:75,1,240,8|0,0:0|0:0,0:0:0:0:
416,80,35105,2,0,B|499:62|499:222|339:222,1,240,2|0,0:0|0:0,0:0:0:0:
192,224,35458,2,0,P|256:192|177:75,1,240,8|0,0:0|0:0,0:0:0:0:
96,224,35811,6,0,B|14:241|14:81|174:81,1,240,2|0,0:0|0:0,0:0:0:0:
320,224,36164,2,0,P|256:192|335:75,1,240,8|0,0:0|0:0,0:0:0:0:
416,80,36517,2,0,B|499:62|499:222|339:222,1,240,2|0,0:0|0:0,0:0:0:0:
192,224,36870,2,0,P|256:192|177:75,1,240,8|0,0:0|0:0,0:0:0:0:
96,224,37222,6,0,B|14:241|14:81|174:81,1,240,2|0,0:0|0:0,0:0:0:0:
320,224,37575,2,0,P|256:192|335:75,1,240,8|0,0:0|0:0,0:0:0:0:
416,80,37928,2,0,B|499:62|499:222|339:222,1,240,2|0,0:0|0:0,0:0:0:0:
192,224,38281,2,0,P|256:192|177:75,1,240,8|0,0:0|0:0,0:0:0:0:
96,224,38634,6,0,B|14:241|14:81|174:81,1,240,2|0,0:0|0:0,0:0:0:0:
320,224,38987,2,0,P|256:192|335:75,1,240,8|0,0:0|0:0,0:0:0:0:
416,80,39340,5,2,0:0:0:0:
96,80,39693,5,4,0:0:0:0:
256,320,40046,6,0,P|144:288|96:176,1,240,6|2,0:0|0:0,0:0:0:0:
256,144,40399,2,0,B|390:142|390:302|308:285,1,240,8|0,0:0|0:0,0:0:0:0:
256,320,40752,2,0,P|368:288|416:176,1,240,2|2,0:0|0:0,0:0:0:0:
256,144,41105,2,0,B|121:142|121:302|203:285,1,240,8|0,0:0|0:0,0:0:0:0:
256,320,41458,6,0,P|368:288|416:176,1,240,6|2,0:0|0:0,0:0:0:0:
256,144,41811,2,0,B|391:142|391:302|309:285,1,240,8|0,0:0|0:0,0:0:0:0:
256,320,42164,2,0,P|144:288|96:176,1,240,2|2,0:0|0:0,0:0:0:0:
256,144,42516,2,0,B|122:142|122:302|204:285,1,240,8|0,0:0|0:0,0:0:0:0:
384,208,42869,5,6,0:0:0:0:
256,192,43046,1,0,0:0:0:0:
128,224,43222,1,8,0:0:0:0:
384,208,43399,1,0,0:0:0:0:
96,144,43575,1,6,0:0:0:0:
256,128,43752,1,0,0:0:0:0:
416,144,43928,1,8,0:0:0:0:
96,144,44105,1,0,0:0:0:0:
384,192,44634,5,2,0:0:0:0:
128,192,44811,1,2,0:0:0:0:
480,288,44987,2,0,P|496:240|480:128,1,160,2|2,0:0|0:0,0:0:0:0:
256,160,45693,1,0,0:0:0:0:
176,128,51340,6,0,L|123:199,1,80,0|0,0:0|0:0,0:0:0:0:
128,192,51693,2,0,L|75:263,1,80,0|0,0:0|0:0,0:0:0:0:
336,128,52046,6,0,L|389:199,1,80,0|0,0:0|0:0,0:0:0:0:
384,192,52399,2,0,L|437:263,1,80,0|0,0:0|0:0,0:0:0:0:
160,160,52752,6,0,L|107:231,1,80,0|0,0:0|0:0,0:0:0:0:
352,160,53105,6,0,L|405:231,1,80,0|0,0:0|0:0,0:0:0:0:
384,192,53458,2,0,L|437:263,1,80,0|0,0:0|0:0,0:0:0:0:
176,128,54164,6,0,L|123:199,1,80,0|0,0:0|0:0,0:0:0:0:
128,192,54516,2,0,L|75:263,1,80,0|0,0:0|0:0,0:0:0:0:
336,128,54869,6,0,L|389:199,1,80,0|0,0:0|0:0,0:0:0:0:
384,192,55222,2,0,L|437:263,1,80,0|0,0:0|0:0,0:0:0:0:
160,160,55575,6,0,L|107:231,1,80,0|0,0:0|0:0,0:0:0:0:
352,160,55928,6,0,L|405:231,1,80,0|0,0:0|0:0,0:0:0:0:
384,192,56281,2,0,L|437:263,1,80,0|0,0:0|0:0,0:0:0:0:
96,304,56987,6,0,L|96:80,1,210.000008010865,2|0,0:0|0:0,0:0:0:0:
256,256,57340,2,0,L|256:32,1,210.000008010865,2|0,0:0|0:0,0:0:0:0:
416,304,57693,6,0,L|416:80,1,210.000008010865,8|0,0:0|0:0,0:0:0:0:
256,256,58046,2,0,L|256:32,1,210.000008010865,8|0,0:0|0:0,0:0:0:0:
96,304,58399,6,0,L|96:80,1,210.000008010865,2|0,0:0|0:0,0:0:0:0:
256,256,58752,6,0,L|256:32,1,210.000008010865,8|0,0:0|0:0,0:0:0:0:
96,304,59105,2,0,B|96:64|96:64|96:288,1,450.000017166138,8|0,0:0|0:0,0:0:0:0:
416,304,59811,6,0,L|416:80,1,210.000008010865,2|0,0:0|0:0,0:0:0:0:
256,256,60164,2,0,L|256:32,1,210.000008010865,2|0,0:0|0:0,0:0:0:0:
96,304,60516,6,0,L|96:80,1,210.000008010865,8|0,0:0|0:0,0:0:0:0:
256,256,60869,2,0,L|256:32,1,210.000008010865,8|0,0:0|0:0,0:0:0:0:
416,304,61222,6,0,L|416:80,1,210.000008010865,2|0,0:0|0:0,0:0:0:0:
256,256,61575,6,0,L|256:32,1,210.000008010865,8|0,0:0|0:0,0:0:0:0:
416,304,61928,2,0,B|416:64|416:64|416:288,1,450.000017166138,8|0,0:0|0:0,0:0:0:0:
256,320,62634,6,0,L|256:32,1,280,2|0,0:0|0:0,0:0:0:0:
96,320,62987,2,0,L|96:32,1,280,2|0,0:0|0:0,0:0:0:0:
256,320,63340,6,0,L|256:32,1,280,8|0,0:0|0:0,0:0:0:0:
416,320,63693,2,0,L|416:32,1,280,8|0,0:0|0:0,0:0:0:0:
128,320,64046,6,0,L|128:32,1,280,2|0,0:0|0:0,0:0:0:0:
256,320,64399,6,0,L|256:32,1,280,8|0,0:0|0:0,0:0:0:0:
384,320,64752,2,0,B|384:32|384:32|384:368,1,600,8|0,0:0|0:0,0:0:0:0:
256,320,65458,6,0,L|256:32,1,280,2|0,0:0|0:0,0:0:0:0:
416,320,65811,2,0,L|416:32,1,280,2|0,0:0|0:0,0:0:0:0:
256,320,66164,6,0,L|256:32,1,280,8|0,0:0|0:0,0:0:0:0:
96,320,66516,2,0,L|96:32,1,280,8|0,0:0|0:0,0:0:0:0:
256,128,66869,5,2,0:0:0:0:
384,192,67222,1,2,0:0:0:0:
128,192,67399,1,2,0:0:0:0:
480,288,67575,2,2,P|496:240|480:128,1,160
64,32,68281,6,0,B|160:160|160:160|80:160|80:160|224:352,1,480,6|2,0:0|0:0,0:0:0:0:
80,352,68987,2,0,B|176:224|176:224|16:224|16:224|112:96,1,480,2|2,0:0|0:0,0:0:0:0:
448,32,69693,6,0,B|352:160|352:160|432:160|432:160|288:352,1,480,2|2,0:0|0:0,0:0:0:0:
432,352,70399,2,0,B|336:224|336:224|496:224|496:224|400:96,1,480,2|2,0:0|0:0,0:0:0:0:
64,32,71105,6,0,B|160:160|160:160|80:160|80:160|224:352,1,480,2|2,0:0|0:0,0:0:0:0:
80,352,71811,2,0,B|176:224|176:224|16:224|16:224|112:96,1,480,2|2,0:0|0:0,0:0:0:0:
448,32,72516,6,0,B|352:160|352:160|432:160|432:160|288:352,1,480,2|2,0:0|0:0,0:0:0:0:
448,352,73222,6,0,B|288:352|288:192|448:192,1,320,10|8,0:0|0:0,0:0:0:0:
192,32,73928,6,0,B|96:160|96:160|176:160|176:160|32:352,1,480,6|2,0:0|0:0,0:0:0:0:
176,352,74634,2,0,B|80:224|80:224|240:224|240:224|144:96,1,480,2|2,0:0|0:0,0:0:0:0:
320,32,75340,6,0,B|416:160|416:160|336:160|336:160|480:352,1,480,2|2,0:0|0:0,0:0:0:0:
336,352,76046,2,0,B|432:224|432:224|272:224|272:224|368:96,1,480,2|2,0:0|0:0,0:0:0:0:
192,32,76752,6,0,B|96:160|96:160|176:160|176:160|32:352,1,480,2|2,0:0|0:0,0:0:0:0:
176,352,77458,2,0,B|80:224|80:224|240:224|240:224|144:96,1,480,2|2,0:0|0:0,0:0:0:0:
416,192,78164,5,2,0:0:0:0:
96,192,78869,1,2,0:0:0:0:
464,336,79575,6,0,B|464:176|464:176|384:176|384:176|464:176|464:176|464:16,1,480,6|2,0:0|0:0,0:0:0:0:
304,16,80281,2,0,B|304:176|304:176|464:176|464:176|304:176|304:176|304:144,1,480,2|2,0:0|0:0,0:0:0:0:
48,336,80987,6,0,B|48:176|48:176|128:176|128:176|48:176|48:176|48:16,1,480,2|2,0:0|0:0,0:0:0:0:
208,16,81693,2,0,B|208:176|208:176|48:176|48:176|208:176|208:176|208:144,1,480,2|2,0:0|0:0,0:0:0:0:
464,336,82399,6,0,B|464:176|464:176|384:176|384:176|464:176|464:176|464:16,1,480,2|2,0:0|0:0,0:0:0:0:
304,16,83105,2,0,B|304:176|304:176|464:176|464:176|304:176|304:176|304:144,1,480,2|2,0:0|0:0,0:0:0:0:
48,336,83811,6,0,B|48:176|48:176|128:176|128:176|48:176|48:176|48:16,1,480,2|2,0:0|0:0,0:0:0:0:
384,128,84516,5,10,0:0:0:0:
128,128,84869,5,8,0:0:0:0:
400,352,85222,6,0,B|400:192|400:192|480:192|480:192|400:192|400:192|400:32,1,480,6|2,0:0|0:0,0:0:0:0:
256,64,85928,2,0,B|256:224|256:224|96:224|96:224|256:224|256:224|256:192,1,480,2|2,0:0|0:0,0:0:0:0:
112,352,86634,6,0,B|112:192|112:192|32:192|32:192|112:192|112:192|112:32,1,480,2|2,0:0|0:0,0:0:0:0:
256,64,87340,2,0,B|256:224|256:224|416:224|416:224|256:224|256:224|256:192,1,480,2|2,0:0|0:0,0:0:0:0:
400,352,88046,6,0,B|400:192|400:192|480:192|480:192|400:192|400:192|400:32,1,480,2|2,0:0|0:0,0:0:0:0:
256,64,88752,2,0,B|256:224|256:224|96:224|96:224|256:224|256:224|256:192,1,480,2|2,0:0|0:0,0:0:0:0:
96,80,89458,5,2,0:0:0:0:
256,160,89722,1,0,0:0:0:0:
64,192,89987,1,0,0:0:0:0:
416,80,90164,1,2,0:0:0:0:
256,160,90428,1,0,0:0:0:0:
448,192,90693,1,0,0:0:0:0:
176,96,90869,5,2,0:0:0:0:
336,96,91046,2,0,L|336:176,1,80,4|8,0:0|0:0,0:0:0:0:
160,176,91311,1,2,0:1:0:0:
400,224,91487,1,4,0:1:0:0:
112,224,91664,1,8,0:1:0:0:
448,272,91840,1,2,0:3:0:0:
80,272,92016,2,0,L|80:192,1,80,4|8,0:3|0:3,0:0:0:0:
336,96,92281,5,2,0:0:0:0:
176,96,92458,2,0,L|176:176,1,80,4|8,0:0|0:0,0:0:0:0:
352,176,92722,1,2,0:1:0:0:
112,224,92899,1,4,0:1:0:0:
400,224,93075,1,8,0:1:0:0:
64,272,93252,1,2,0:3:0:0:
432,272,93428,2,0,L|432:192,1,80,4|8,0:3|0:3,0:3:0:0:
176,96,93693,5,2,0:0:0:0:
336,96,93869,2,0,L|336:176,1,80,4|8,0:0|0:0,0:0:0:0:
160,176,94134,1,2,0:1:0:0:
400,224,94311,1,4,0:1:0:0:
112,224,94487,1,8,0:1:0:0:
448,272,94664,1,2,0:3:0:0:
80,272,94840,2,0,L|80:192,1,80,4|8,0:3|0:3,0:3:0:0:
336,96,95105,5,2,0:0:0:0:
176,96,95281,2,0,L|176:176,1,80,4|8,0:0|0:0,0:0:0:0:
352,176,95546,1,2,0:1:0:0:
112,224,95722,1,4,0:1:0:0:
400,304,95811,6,0,B|560:304|560:144|400:144,1,320,10|8,0:0|0:0,0:0:0:0:
128,96,96516,5,2,0:0:0:0:
296,112,96693,2,0,L|200:112,1,80,4|8,0:0|0:0,0:0:0:0:
384,96,96958,1,2,0:1:0:0:
112,144,97134,1,4,0:1:0:0:
256,160,97311,1,8,0:1:0:0:
400,128,97487,1,2,0:3:0:0:
48,192,97664,2,0,L|48:272,1,80,4|8,0:3|0:3,0:3:0:0:
384,96,97928,5,2,0:0:0:0:
216,112,98105,2,0,L|312:112,1,80,4|8,0:0|0:0,0:0:0:0:
128,96,98369,1,2,0:1:0:0:
400,144,98546,1,4,0:1:0:0:
256,160,98722,1,8,0:1:0:0:
112,128,98899,1,2,0:3:0:0:
464,192,99075,2,0,L|464:272,1,80,4|8,0:3|0:3,0:3:0:0:
128,96,99340,5,2,0:0:0:0:
296,112,99516,2,0,L|200:112,1,80,4|8,0:0|0:0,0:0:0:0:
384,96,99781,1,2,0:1:0:0:
112,144,99958,1,4,0:1:0:0:
256,160,100134,1,8,0:1:0:0:
400,128,100311,1,2,0:3:0:0:
48,224,100487,2,0,L|48:304,1,80,4|8,0:3|0:3,0:3:0:0:
472,80,100752,6,0,L|472:240,1,160,2|4,0:0|0:0,0:0:0:0:
400,272,101016,1,8,0:0:0:0:
328,272,101105,2,0,L|328:112,1,160,2|4,0:0|0:0,0:0:0:0:
256,112,101369,1,8,0:0:0:0:
40,80,101458,6,0,L|40:240,1,160,2|4,0:0|0:0,0:0:0:0:
112,272,101722,1,8,0:0:0:0:
184,272,101811,2,0,L|184:112,1,160,2|4,0:0|0:0,0:0:0:0:
256,112,102075,1,8,0:0:0:0:
432,80,102164,5,2,0:0:0:0:
304,80,102340,2,0,L|304:160,1,80,4|8,0:0|0:0,0:0:0:0:
464,160,102605,1,2,0:1:0:0:
48,80,102781,1,4,0:1:0:0:
336,192,102958,1,8,0:1:0:0:
176,192,103134,1,2,0:3:0:0:
464,128,103311,2,0,L|464:208,1,80,4|8,0:3|0:3,0:3:0:0:
80,80,103575,5,2,0:0:0:0:
208,80,103752,2,0,L|208:160,1,80,4|8,0:0|0:0,0:0:0:0:
48,160,104016,1,2,0:1:0:0:
464,80,104193,1,4,0:1:0:0:
176,192,104369,1,8,0:1:0:0:
336,192,104546,1,2,0:3:0:0:
48,128,104722,2,0,L|48:208,1,80,4|8,0:3|0:3,0:3:0:0:
432,80,104987,5,2,0:0:0:0:
304,80,105164,2,0,L|304:160,1,80,4|8,0:0|0:0,0:0:0:0:
464,160,105428,1,2,0:1:0:0:
48,80,105605,1,4,0:1:0:0:
336,192,105781,1,8,0:1:0:0:
176,192,105958,1,2,0:3:0:0:
464,128,106134,2,0,L|464:208,1,80,4|8,0:3|0:3,0:3:0:0:
96,112,106399,5,2,0:0:0:0:
256,104,106575,2,0,L|256:184,1,80,4|8,0:0|0:0,0:0:0:0:
416,176,106840,1,2,0:1:0:0:
176,272,107016,1,4,0:1:0:0:
336,240,107105,6,0,B|336:80|176:80|176:240,1,320,10|8,0:0|0:0,0:0:0:0:
320,96,107811,5,2,0:0:0:0:
192,96,107987,2,0,L|192:176,1,80,4|8,0:0|0:0,0:0:0:0:
352,160,108252,1,2,0:1:0:0:
112,224,108428,1,4,0:1:0:0:
384,224,108605,1,8,0:1:0:0:
80,272,108781,1,2,0:3:0:0:
432,288,108958,2,0,L|432:208,1,80,4|8,0:3|0:3,0:3:0:0:
176,96,109222,5,2,0:0:0:0:
336,96,109399,2,0,L|336:176,1,80
96,176,109664,1,0,0:0:0:0:
416,176,109840,1,0,0:0:0:0:
64,240,110016,1,0,0:0:0:0:
448,224,110193,1,0,0:0:0:0:
32,288,110369,2,0,L|32:208,1,80
336,96,110634,5,2,0:0:0:0:
176,96,110811,2,0,L|176:176,1,80
416,176,111075,1,0,0:0:0:0:
96,176,111252,1,0,0:0:0:0:
456,224,111428,1,0,0:0:0:0:
56,224,111605,1,0,0:0:0:0:
496,272,111781,2,0,L|496:176,1,80
256,192,112046,5,2,0:0:0:0:
256,192,112399,12,8,113105,0:1:0:0:
32,144,113458,6,0,B|128:272|128:272|32:144|32:144|128:272|128:272|32:144|32:144|192:144|192:144|32:144|32:144|192:144|192:144|32:144|32:144|128:272|128:272|32:144|32:144|128:272|128:272|32:144|32:144|192:144|192:144|32:144|32:144|128:272|128:272,1,2400,14|0,0:0|0:0,0:0:0:0:
368,272,116281,6,0,B|272:144|272:144|368:272|368:272|272:144|272:144|368:272|368:272|208:272|208:272|368:272|368:272|208:272|208:272|368:272|368:272|272:144|272:144|432:144|432:144|336:272|336:272|496:272|496:272|400:144|400:144|496:272|496:272|400:144|400:144,1,2400,10|0,0:0|0:0,0:0:0:0:
64,256,119105,6,0,B|160:128|160:128|64:256|64:256|160:128|160:128|64:256|64:256|224:256|224:256|64:256|64:256|224:256|224:256|64:256|64:256|160:128|160:128|64:256|64:256|160:128|160:128|160:128|160:128,1,1760,10|0,0:0|0:0,0:0:0:0:
448,224,121222,1,10,0:0:0:0:
320,224,121399,1,0,0:0:0:0:
192,224,121575,1,2,0:0:0:0:
64,224,121752,1,0,0:0:0:0:
448,256,121928,6,0,B|352:128|352:128|448:256|448:256|352:128|352:128|448:256|448:256|288:256|288:256|448:256|448:256|288:256|288:256|288:256,1,1120,10|0,0:0|0:0,0:0:0:0:
448,288,123340,5,14,0:0:0:0:
192,128,123693,1,4,0:0:0:0:
320,128,123869,1,4,0:0:0:0:
176,160,124046,1,4,0:0:0:0:
336,160,124222,1,4,0:0:0:0:
96,208,124399,1,4,0:0:0:0:
416,208,124575,1,4,0:0:0:0:
128,320,124752,6,0,B|0:320|0:160|187:160,1,240,14|0,0:0|0:0,0:0:0:0:
192,320,125105,2,0,B|64:320|64:160|251:160,1,240,12|0,0:0|0:0,0:0:0:0:
256,320,125458,6,0,B|384:320|384:160|197:160,1,240,6|0,0:0|0:0,0:0:0:0:
192,320,125811,2,0,B|320:320|320:160|133:160,1,240,12|0,0:0|0:0,0:0:0:0:
128,320,126164,6,0,B|0:320|0:160|187:160,1,240,6|0,0:0|0:0,0:0:0:0:
192,320,126516,6,0,B|320:320|320:160|133:160,1,240,12|0,0:0|0:0,0:0:0:0:
128,192,126869,2,0,B|256:192|256:32|67:32|67:32|-6:109|-6:188|85:264,1,560,6|0,0:0|0:0,0:0:0:0:
384,320,127575,6,0,B|512:320|512:160|325:160,1,240,14|0,0:0|0:0,0:0:0:0:
320,320,127928,2,0,B|448:320|448:160|261:160,1,240,12|0,0:0|0:0,0:0:0:0:
256,320,128281,6,0,B|128:320|128:160|315:160,1,240,6|0,0:0|0:0,0:0:0:0:
320,320,128634,2,0,B|192:320|192:160|379:160,1,240,12|0,0:0|0:0,0:0:0:0:
384,320,128987,6,0,B|512:320|512:160|325:160,1,240,6|0,0:0|0:0,0:0:0:0:
320,320,129340,2,0,B|448:320|448:160|261:160,1,240,12|0,0:0|0:0,0:0:0:0:
256,320,129693,6,0,B|128:320|128:160|316:163|320:160,1,240,6|0,0:0|0:0,0:0:0:0:
320,320,130046,2,0,B|192:320|192:160|380:163|384:160,1,240,12|0,0:0|0:0,0:0:0:0:
144,96,130399,6,0,B|-16:96|-16:360|144:360,1,400,6|0,0:0|0:0,0:0:0:0:
48,96,130928,2,0,L|48:176,1,80,2|2,0:0|0:0,0:0:0:0:
448,160,131105,1,8,0:0:0:0:
256,176,131369,1,2,0:0:0:0:
64,160,131634,1,2,0:0:0:0:
368,96,131811,6,0,B|528:96|528:360|368:360,1,400,6|0,0:0|0:0,0:0:0:0:
464,96,132340,2,0,L|464:176,1,80,2|2,0:0|0:0,0:0:0:0:
192,176,132516,1,8,0:0:0:0:
320,176,132693,1,2,0:0:0:0:
176,224,132869,1,2,0:0:0:0:
336,224,133046,1,2,0:0:0:0:
16,32,133222,6,2,L|32:112,1,80,6|2,0:0|0:0,0:0:0:0:
112,112,133399,2,2,L|128:192,1,80
208,192,133575,2,2,L|224:272,1,80
304,272,133752,2,2,L|320:352,1,80
496,352,133928,6,2,L|480:272,1,80,12|2,0:0|0:0,0:0:0:0:
400,272,134105,2,2,L|384:192,1,80
304,192,134281,2,2,L|288:112,1,80
208,112,134458,2,2,L|192:32,1,80
384,192,134987,5,2,0:0:0:0:
128,192,135164,1,2,0:0:0:0:
480,288,135340,2,0,P|496:240|480:128,1,160,2|2,0:0|0:0,0:0:0:0:
32,128,136046,1,4,0:0:0:0:
256,160,141693,5,4,0:0:0:0:
96,112,147340,5,2,0:0:0:0:
96,112,148046,1,4,0:0:0:0:
158,154,148222,1,8,0:0:0:0:
142,228,148399,1,2,0:1:0:0:
67,241,148575,1,4,0:1:0:0:
416,112,148752,5,8,0:1:0:0:
416,112,149458,1,2,0:3:0:0:
353,154,149634,1,4,0:3:0:0:
369,228,149811,1,8,0:3:0:0:
444,241,149987,1,2,0:0:0:0:
96,112,150164,5,4,0:0:0:0:
96,112,150869,2,0,L|89:199,1,80,8|2,0:0|0:1,0:0:0:0:
256,192,151222,2,0,L|169:185,1,80,4|8,0:1|0:1,0:0:0:0:
416,112,151575,5,2,0:3:0:0:
416,176,152105,1,4,0:3:0:0:
256,192,152281,2,0,L|343:185,1,80,8|2,0:3|0:0,0:0:0:0:
176,192,152634,2,0,L|89:185,1,80,4|8,0:0|0:0,0:0:0:0:
416,112,152987,5,2,0:0:0:0:
416,112,153693,1,4,0:0:0:0:
353,154,153869,1,8,0:0:0:0:
369,228,154046,1,2,0:1:0:0:
444,241,154222,1,4,0:1:0:0:
96,112,154399,5,8,0:1:0:0:
96,112,155105,1,2,0:3:0:0:
158,154,155281,1,4,0:3:0:0:
142,228,155458,1,8,0:3:0:0:
67,241,155634,1,2,0:0:0:0:
416,112,155811,5,4,0:0:0:0:
416,112,156516,2,0,L|423:199,1,80,8|2,0:0|0:1,0:0:0:0:
256,192,156869,2,0,L|343:185,1,80,4|8,0:1|0:1,0:0:0:0:
96,112,157222,5,2,0:3:0:0:
96,176,157752,1,4,0:3:0:0:
256,192,157928,2,0,L|169:185,1,80,8|2,0:3|0:0,0:0:0:0:
336,192,158281,2,0,L|423:185,1,80,4|4,0:0|0:1,0:0:0:0:
96,288,158634,6,0,P|80:208|96:128,1,160,2|0,0:0|0:0,0:0:0:0:
256,144,159340,2,0,L|272:224,1,80,4|8,0:0|0:0,0:0:0:0:
128,224,159693,2,0,L|112:304,1,80,2|4,0:1|0:1,0:0:0:0:
416,288,160046,6,0,P|432:208|416:128,1,160,8|0,0:1|0:0,0:0:0:0:
256,144,160752,2,0,L|240:224,1,80,2|4,0:3|0:3,0:3:0:0:
384,224,161105,2,0,L|400:304,1,80,8|2,0:3|0:0,0:0:0:0:
96,216,161458,6,0,L|256:216,1,160,4|0,0:0|0:0,0:0:0:0:
40,176,162164,2,0,L|152:176,1,80,8|2,0:0|0:1,0:0:0:0:
256,176,162516,2,0,L|144:176,1,80,4|8,0:1|0:1,0:1:0:0:
416,216,162869,6,0,L|256:216,1,160,2|0,0:3|0:0,0:0:0:0:
416,176,163399,1,4,0:3:0:0:
256,168,163575,2,0,L|368:168,1,80,8|2,0:3|0:0,0:0:0:0:
176,168,163928,2,0,L|96:168,1,80,4|8,0:0|0:0,0:0:0:0:
416,288,164281,6,0,P|432:208|416:128,1,160,2|0,0:0|0:0,0:0:0:0:
256,144,164987,2,0,L|240:224,1,80,4|8,0:0|0:0,0:0:0:0:
384,224,165340,2,0,L|400:304,1,80,2|4,0:1|0:1,0:1:0:0:
96,288,165693,6,0,P|80:208|96:128,1,160,8|0,0:1|0:0,0:0:0:0:
256,144,166399,2,0,L|272:224,1,80,2|4,0:3|0:3,0:3:0:0:
128,224,166752,2,0,L|112:304,1,80,8|2,0:3|0:0,0:0:0:0:
416,216,167105,6,0,L|256:216,1,160,4|0,0:0|0:0,0:0:0:0:
472,176,167811,2,0,L|360:176,1,80,8|2,0:0|0:1,0:0:0:0:
256,176,168164,2,0,L|368:176,1,80,4|8,0:1|0:1,0:1:0:0:
96,216,168516,6,0,L|256:216,1,160,2|0,0:3|0:0,0:0:0:0:
96,176,169046,1,4,0:3:0:0:
256,168,169222,2,0,L|144:168,1,80,8|2,0:3|0:0,0:0:0:0:
336,168,169575,2,0,L|416:168,1,80,4|4,0:0|0:1,0:0:0:0:
96,112,169928,5,2,0:0:0:0:
416,112,170281,1,0,0:0:0:0:
176,160,170634,2,0,L|256:160,1,80,4|8,0:0|0:0,0:0:0:0:
96,160,170987,2,0,L|0:160,1,80,2|4,0:1|0:1,0:1:0:0:
416,112,171340,5,8,0:1:0:0:
96,112,171693,1,0,0:0:0:0:
336,160,172046,2,0,L|256:160,1,80,2|4,0:3|0:3,0:3:0:0:
416,160,172399,2,0,L|512:160,1,80,8|2,0:3|0:0,0:0:0:0:
96,208,172752,5,4,0:0:0:0:
416,208,173105,1,0,0:0:0:0:
96,256,173458,1,8,0:0:0:0:
256,224,173634,1,2,0:1:0:0:
96,256,173811,2,0,L|192:256,1,80,4|8,0:1|0:1,0:1:0:0:
416,208,174164,5,2,0:3:0:0:
96,208,174516,1,0,0:0:0:0:
416,208,174693,1,4,0:3:0:0:
256,208,174869,2,0,L|336:208,1,80,8|2,0:3|0:0,0:0:0:0:
176,208,175222,2,0,L|96:208,1,80,4|8,0:0|0:0,0:0:0:0:
416,112,175575,5,2,0:0:0:0:
96,112,175928,1,0,0:0:0:0:
336,160,176281,2,0,L|256:160,1,80,4|8,0:0|0:0,0:0:0:0:
416,160,176634,2,0,L|512:160,1,80,2|4,0:1|0:1,0:1:0:0:
96,112,176987,5,8,0:1:0:0:
416,112,177340,1,0,0:0:0:0:
176,160,177693,2,0,L|256:160,1,80,2|4,0:3|0:3,0:0:0:0:
96,160,178046,2,0,L|0:160,1,80,8|2,0:3|0:0,0:0:0:0:
416,208,178399,5,4,0:0:0:0:
96,208,178752,1,0,0:0:0:0:
416,256,179105,1,8,0:0:0:0:
256,224,179281,1,2,0:1:0:0:
416,256,179458,2,0,L|320:256,1,80,4|8,0:1|0:1,0:1:0:0:
96,208,179811,5,2,0:3:0:0:
416,208,180164,1,0,0:3:0:0:
256,208,180340,1,4,0:3:0:0:
416,256,180516,2,0,L|336:256,1,80,8|2,0:3|0:0,0:0:0:0:
176,256,180869,2,0,L|256:256,1,80,4|4,0:0|0:1,0:0:0:0:
16,174,181222,6,0,L|32:96,1,80,2|0,0:0|0:0,0:0:0:0:
128,176,181575,2,0,L|128:288,1,80,2|0,0:0|0:0,0:0:0:0:
256,176,181928,2,0,L|256:288,1,80,2|0,0:0|0:0,0:0:0:0:
384,176,182281,2,0,L|384:288,1,80,2|0,0:0|0:0,0:0:0:0:
495,174,182634,6,0,L|480:96,1,80,2|0,0:0|0:0,0:0:0:0:
384,176,182987,2,0,L|384:288,1,80,2|0,0:0|0:0,0:0:0:0:
256,176,183340,2,0,L|256:288,1,80,2|0,0:0|0:0,0:0:0:0:
128,176,183693,2,0,L|128:288,1,80,2|0,0:0|0:0,0:0:0:0:
16,112,184046,6,0,L|112:112,1,80,2|0,0:0|0:0,0:0:0:0:
256,112,184399,2,0,L|160:112,1,80,2|0,0:0|0:0,0:0:0:0:
336,112,184752,2,0,L|432:112,1,80,2|0,0:0|0:0,0:0:0:0:
256,176,185105,2,0,L|352:176,1,80,2|0,0:0|0:0,0:0:0:0:
496,272,185458,6,0,L|400:272,1,80,2|0,0:0|0:0,0:0:0:0:
256,272,185811,2,0,L|352:272,1,80,2|0,0:0|0:0,0:0:0:0:
176,272,186164,2,0,L|80:272,1,80,2|0,0:0|0:0,0:0:0:0:
256,208,186516,2,0,L|160:208,1,80,2|0,0:0|0:0,0:0:0:0:
416,192,186869,5,6,0:0:0:0:
256,144,187046,1,2,0:0:0:0:
96,192,187222,1,2,0:0:0:0:
416,192,187399,1,2,0:0:0:0:
96,192,187575,1,2,0:0:0:0:
256,144,187752,1,2,0:0:0:0:
416,192,187928,1,2,0:0:0:0:
96,192,188105,1,2,0:0:0:0:
496,160,188281,5,6,0:0:0:0:
336,160,188458,1,2,0:0:0:0:
96,160,188634,1,2,0:0:0:0:
416,224,188811,1,2,0:0:0:0:
16,160,188987,1,2,0:0:0:0:
176,160,189164,1,2,0:0:0:0:
416,160,189340,1,2,0:0:0:0:
96,224,189516,1,2,0:0:0:0:
336,96,189693,6,2,L|416:96,1,80,6|2,0:0|0:0,0:0:0:0:
176,96,189869,2,2,L|96:96,1,80
364,144,190046,2,2,L|444:144,1,80
148,144,190222,2,2,L|68:144,1,80
392,192,190399,6,2,L|472:192,1,80,6|2,0:0|0:0,0:0:0:0:
120,192,190575,2,2,L|40:192,1,80
420,240,190752,2,2,L|500:240,1,80
92,240,190928,2,2,L|12:240,1,80
336,160,191105,5,2,0:0:0:0:
176,160,191458,1,0,0:0:0:0:
448,32,192516,6,0,B|352:160|352:160|432:160|432:160|288:352,1,480,6|2,0:0|0:0,0:0:0:0:
432,352,193222,2,0,B|336:224|336:224|496:224|496:224|400:96,1,480,2|2,0:0|0:0,0:0:0:0:
64,32,193928,6,0,B|160:160|160:160|80:160|80:160|224:352,1,480,2|2,0:0|0:0,0:0:0:0:
80,352,194634,2,0,B|176:224|176:224|16:224|16:224|112:96,1,480,2|2,0:0|0:0,0:0:0:0:
448,32,195340,6,0,B|352:160|352:160|432:160|432:160|288:352,1,480,2|2,0:0|0:0,0:0:0:0:
432,352,196046,2,0,B|336:224|336:224|496:224|496:224|400:96,1,480,2|2,0:0|0:0,0:0:0:0:
64,32,196752,6,0,B|160:160|160:160|80:160|80:160|224:352,1,480,2|2,0:0|0:0,0:0:0:0:
64,352,197458,6,0,B|224:352|224:192|64:192,1,320,10|8,0:0|0:0,0:0:0:0:
320,32,198164,6,0,B|416:160|416:160|336:160|336:160|480:352,1,480,6|2,0:0|0:0,0:0:0:0:
336,352,198869,2,0,B|432:224|432:224|272:224|272:224|368:96,1,480,2|2,0:0|0:0,0:0:0:0:
192,32,199575,6,0,B|96:160|96:160|176:160|176:160|32:352,1,480,2|2,0:0|0:0,0:0:0:0:
176,352,200281,2,0,B|80:224|80:224|240:224|240:224|144:96,1,480,2|2,0:0|0:0,0:0:0:0:
320,32,200987,6,0,B|416:160|416:160|336:160|336:160|480:352,1,480,2|2,0:0|0:0,0:0:0:0:
336,352,201693,2,0,B|432:224|432:224|272:224|272:224|368:96,1,480,2|2,0:0|0:0,0:0:0:0:
96,192,202399,5,10,0:0:0:0:
320,112,202752,1,4,0:0:0:0:
192,112,202928,1,4,0:0:0:0:
336,160,203105,1,4,0:0:0:0:
176,160,203281,1,4,0:0:0:0:
352,208,203458,1,4,0:0:0:0:
160,208,203634,1,4,0:0:0:0:
416,224,203811,6,0,B|498:241|498:81|338:81,1,240,6|0,0:0|0:0,0:0:0:0:
192,224,204164,2,0,P|256:192|177:75,1,240,8|0,0:0|0:0,0:0:0:0:
96,80,204517,2,0,B|13:62|13:222|173:222,1,240,2|0,0:0|0:0,0:0:0:0:
320,224,204870,2,0,P|256:192|335:75,1,240,8|0,0:0|0:0,0:0:0:0:
416,224,205223,6,0,B|498:241|498:81|338:81,1,240,2|0,0:0|0:0,0:0:0:0:
192,224,205576,2,0,P|256:192|177:75,1,240,8|0,0:0|0:0,0:0:0:0:
96,80,205929,2,0,B|13:62|13:222|173:222,1,240,2|0,0:0|0:0,0:0:0:0:
320,224,206282,2,0,P|256:192|335:75,1,240,8|0,0:0|0:0,0:0:0:0:
416,224,206634,6,0,B|498:241|498:81|338:81,1,240,2|0,0:0|0:0,0:0:0:0:
192,224,206987,2,0,P|256:192|177:75,1,240,8|0,0:0|0:0,0:0:0:0:
96,80,207340,2,0,B|13:62|13:222|173:222,1,240,2|0,0:0|0:0,0:0:0:0:
320,224,207693,2,0,P|256:192|335:75,1,240,8|0,0:0|0:0,0:0:0:0:
416,224,208046,6,0,B|498:241|498:81|338:81,1,240,2|0,0:0|0:0,0:0:0:0:
192,224,208399,2,0,P|256:192|177:75,1,240,8|0,0:0|0:0,0:0:0:0:
96,80,208752,5,2,0:0:0:0:
416,80,209105,5,4,0:0:0:0:
256,320,209458,6,0,P|368:288|416:176,1,240,6|0,0:0|0:0,0:0:0:0:
256,144,209811,2,0,B|122:142|122:302|204:285,1,240,8|0,0:0|0:0,0:0:0:0:
256,320,210164,2,0,P|144:288|96:176,1,240,2|0,0:0|0:0,0:0:0:0:
256,144,210517,2,0,B|391:142|391:302|309:285,1,240,8|0,0:0|0:0,0:0:0:0:
256,320,210869,6,0,P|144:288|96:176,1,240,2|0,0:0|0:0,0:0:0:0:
256,144,211223,2,0,B|121:142|121:302|203:285,1,240,8|0,0:0|0:0,0:0:0:0:
256,320,211576,2,0,P|368:288|416:176,1,240,2|0,0:0|0:0,0:0:0:0:
256,144,211928,2,0,B|390:142|390:302|308:285,1,240,8|0,0:0|0:0,0:0:0:0:
256,320,212281,6,0,P|368:288|416:176,1,240,2|0,0:0|0:0,0:0:0:0:
256,144,212634,2,0,B|122:142|122:302|204:285,1,240,8|0,0:0|0:0,0:0:0:0:
256,320,212987,2,0,P|144:288|96:176,1,240,2|0,0:0|0:0,0:0:0:0:
256,144,213340,2,0,B|391:142|391:302|309:285,1,240,8|0,0:0|0:0,0:0:0:0:
96,208,213693,5,6,0:0:0:0:
257,235,215105,6,0,P|146:205|96:96,1,240,6|0,0:0|0:0,0:0:0:0:
256,235,215458,2,0,P|145:205|96:96,1,240,12|0,0:0|0:0,0:0:0:0:
254,235,215811,6,0,P|365:205|416:96,1,240,6|0,0:0|0:0,0:0:0:0:
255,235,216164,2,0,P|366:205|416:96,1,240,12|0,0:0|0:0,0:0:0:0:
257,235,216516,6,0,P|146:205|96:96,1,240,6|0,0:0|0:0,0:0:0:0:
255,235,216869,6,0,P|366:205|416:96,1,240,12|0,0:0|0:0,0:0:0:0:
255,235,217222,2,0,P|366:205|412:48,1,280,6|0,0:0|0:0,0:0:0:0:
257,235,217928,6,0,P|146:205|96:96,1,240,6|0,0:0|0:0,0:0:0:0:
256,235,218281,2,0,P|145:205|96:96,1,240,12|0,0:0|0:0,0:0:0:0:
254,235,218634,6,0,P|365:205|416:96,1,240,6|0,0:0|0:0,0:0:0:0:
255,235,218987,2,0,P|366:205|416:96,1,240,12|0,0:0|0:0,0:0:0:0:
257,235,219340,6,0,P|146:205|96:96,1,240,6|0,0:0|0:0,0:0:0:0:
256,235,219693,2,0,P|145:205|96:96,1,240,12|0,0:0|0:0,0:0:0:0:
254,235,220046,6,0,P|365:205|416:96,1,240,6|0,0:0|0:0,0:0:0:0:
255,235,220399,2,0,P|366:205|416:96,1,240,12|0,0:0|0:0,0:0:0:0:
96,240,220752,6,0,P|145:134|258:103,1,240,6|0,0:0|0:0,0:0:0:0:
95,239,221105,2,0,P|144:133|256:102,1,240,12|0,0:0|0:0,0:0:0:0:
416,272,221458,6,0,P|367:166|255:135,1,240,6|0,0:0|0:0,0:0:0:0:
416,272,221811,2,0,P|368:166|256:135,1,240,12|0,0:0|0:0,0:0:0:0:
95,240,222164,6,0,P|145:134|257:103,1,240,6|0,0:0|0:0,0:0:0:0:
416,272,222516,6,0,P|368:166|256:135,1,240,12|0,0:0|0:0,0:0:0:0:
416,272,222869,2,0,P|384:144|256:96,1,280,6|0,0:0|0:0,0:0:0:0:
96,240,223575,6,0,P|146:134|258:103,1,240,6|0,0:0|0:0,0:0:0:0:
96,240,223928,2,0,P|145:134|257:103,1,240,12|0,0:0|0:0,0:0:0:0:
416,256,224281,6,0,P|367:150|255:119,1,240,6|0,0:0|0:0,0:0:0:0:
416,256,224634,2,0,P|367:150|255:119,1,240,12|0,0:0|0:0,0:0:0:0:
96,112,224987,1,6,0:0:0:0:
320,144,225340,1,4,0:0:0:0:
192,144,225516,1,4,0:0:0:0:
336,192,225693,1,4,0:0:0:0:
176,192,225869,1,4,0:0:0:0:
352,240,226046,1,4,0:0:0:0:
160,240,226222,1,4,0:0:0:0:
432,128,226399,6,0,L|432:256,1,128,14|0,0:0|0:0,0:0:0:0:
208,176,226664,6,0,L|352:176,1,128,4|0,0:0|0:0,0:0:0:0:
160,144,226928,2,0,L|288:144,1,128,4|2,0:0|0:0,0:0:0:0:
80,128,227193,6,0,L|80:256,1,128,4|0,0:0|0:0,0:0:0:0:
432,128,227458,2,0,L|432:320,1,192,12|0,0:0|0:0,0:0:0:0:
176,128,227811,2,0,L|176:256,1,128,6|0,0:0|0:0,0:0:0:0:
336,128,228075,2,0,L|336:256,1,128,4|0,0:0|0:0,0:0:0:0:
176,128,228340,2,0,L|176:208,1,64,4|0,0:0|0:0,0:0:0:0:
400,96,228516,6,0,L|192:96,1,192,6|0,0:0|0:0,0:0:0:0:
400,224,228869,2,0,L|192:224,1,192,12|0,0:0|0:0,0:0:0:0:
448,96,229222,6,0,L|448:256,1,128,6|0,0:0|0:0,0:0:0:0:
192,160,229487,6,0,L|352:160,1,128,4|0,0:0|0:0,0:0:0:0:
64,208,229752,2,0,L|128:208,1,64,4|0,0:0|0:0,0:0:0:0:
384,208,229928,6,0,L|384:272,1,64,6|0,0:0|0:0,0:0:0:0:
128,208,230105,2,0,L|128:272,1,64,4|0,0:0|0:0,0:0:0:0:
384,288,230281,6,0,L|304:288,1,64,12|0,0:0|0:0,0:0:0:0:
128,288,230458,2,0,L|208:288,1,64,4|0,0:0|0:0,0:0:0:0:
448,288,230634,6,0,L|448:192,1,64,6|0,0:0|0:0,0:0:0:0:
288,160,230811,6,0,L|464:160,1,128,4|8,0:0|0:0,0:0:0:0:
224,160,231075,2,0,L|48:160,1,128,4|0,0:0|0:0,0:0:0:0:
416,96,231340,2,0,L|288:96,1,128,6|0,0:0|0:0,0:0:0:0:
96,160,231605,2,0,L|224:160,1,128,4|0,0:0|0:0,0:0:0:0:
416,160,231869,2,0,L|320:160,1,64,4|0,0:0|0:0,0:0:0:0:
96,160,232046,6,0,L|96:320,1,128,6|0,0:0|0:0,0:0:0:0:
256,288,232311,6,0,L|112:288,1,128,4|0,0:0|0:0,0:0:0:0:
384,224,232575,2,0,L|240:224,1,128,4|2,0:0|0:0,0:0:0:0:
416,176,232840,6,0,L|416:304,1,128,4|0,0:0|0:0,0:0:0:0:
96,128,233105,2,0,L|96:320,1,192,12|0,0:0|0:0,0:0:0:0:
416,96,233458,2,0,L|416:256,1,128,6|0,0:0|0:0,0:0:0:0:
256,144,233722,2,0,L|256:304,1,128,4|0,0:0|0:0,0:0:0:0:
448,256,233987,2,0,L|448:352,1,64,4|0,0:0|0:0,0:0:0:0:
160,304,234164,6,0,L|368:304,1,192,6|0,0:0|0:0,0:0:0:0:
160,304,234516,2,0,L|368:304,1,192,12|0,0:0|0:0,0:0:0:0:
96,304,234869,6,0,L|96:112,1,192,4|0,0:0|0:0,0:0:0:0:
176,256,235222,2,0,L|176:64,1,192
336,64,235575,6,0,L|336:208,1,128,0|2,0:0|0:0,0:0:0:0:
256,176,235840,2,0,L|256:320,1,128
176,304,236105,1,2,0:0:0:0:
96,160,236281,6,0,L|96:256,1,80,2|2,0:0|0:0,0:0:0:0:
416,160,236634,2,0,L|416:224,2,53.3333333333333,4|4|4,0:0|0:0|0:0,0:0:0:0:
32,96,236987,2,0,L|32:192,1,80,8|8,0:0|0:0,0:0:0:0:
480,80,237340,5,8,0:0:0:0:
16,176,237693,6,0,L|96:176,1,80,6|2,0:0|0:0,0:0:0:0:
256,176,237958,2,0,L|176:176,1,80
336,176,238222,2,0,L|384:176,1,40,2|0,0:0|0:0,0:0:0:0:
176,256,238399,6,0,L|96:256,1,80,4|2,0:0|0:0,0:0:0:0:
256,256,238664,2,0,L|336:256,1,80
496,256,238928,2,0,L|448:256,1,40,2|0,0:0|0:0,0:0:0:0:
16,192,239105,6,0,L|96:192,1,80,4|2,0:0|0:0,0:0:0:0:
296,192,239369,2,0,L|216:192,1,80
456,192,239634,2,0,L|504:192,1,40,2|0,0:0|0:0,0:0:0:0:
112,128,239811,6,0,L|64:128,1,40,4|0,0:0|0:0,0:0:0:0:
224,128,239987,2,0,L|272:128,1,40,2|0,0:0|0:0,0:0:0:0:
416,128,240164,2,0,L|464:128,1,40,12|0,0:0|0:0,0:0:0:0:
304,192,240340,2,0,L|256:192,1,40,2|0,0:0|0:0,0:0:0:0:
496,176,240516,6,0,L|416:176,1,80,4|2,0:0|0:0,0:0:0:0:
256,176,240781,2,0,L|336:176,1,80
176,176,241046,2,0,L|128:176,1,40,2|0,0:0|0:0,0:0:0:0:
336,256,241222,6,0,L|416:256,1,80,4|2,0:0|0:0,0:0:0:0:
256,256,241487,2,0,L|176:256,1,80
16,256,241752,2,0,L|64:256,1,40,2|0,0:0|0:0,0:0:0:0:
496,192,241928,6,0,L|416:192,1,80,4|2,0:0|0:0,0:0:0:0:
216,192,242193,2,0,L|296:192,1,80
56,192,242458,2,0,L|8:192,1,40,2|0,0:0|0:0,0:0:0:0:
384,176,242634,6,0,L|432:176,1,40,4|0,0:0|0:0,0:0:0:0:
352,208,242811,2,0,L|304:208,1,40,2|0,0:0|0:0,0:0:0:0:
128,208,242987,2,0,L|80:208,1,40,12|0,0:0|0:0,0:0:0:0:
160,176,243164,2,0,L|208:176,1,40,2|0,0:0|0:0,0:0:0:0:
16,80,243340,6,0,L|112:80,1,80,4|2,0:0|0:0,0:0:0:0:
256,80,243605,2,0,L|352:80,1,80
176,144,243869,2,0,L|240:144,1,40,2|0,0:0|0:0,0:0:0:0:
496,304,244046,6,0,L|400:304,1,80,4|2,0:0|0:0,0:0:0:0:
256,304,244311,2,0,L|160:304,1,80
336,240,244575,2,0,L|272:240,1,40,2|0,0:0|0:0,0:0:0:0:
16,80,244752,6,0,L|112:80,1,80,4|2,0:0|0:0,0:0:0:0:
256,80,245016,2,0,L|352:80,1,80
176,144,245281,2,0,L|240:144,1,40,2|0,0:0|0:0,0:0:0:0:
496,144,245458,6,0,L|432:144,1,40,4|0,0:0|0:0,0:0:0:0:
304,144,245634,2,0,L|256:144,1,40,2|0,0:0|0:0,0:0:0:0:
112,208,245811,2,0,L|48:208,1,40,12|0,0:0|0:0,0:0:0:0:
224,208,245987,2,0,L|272:208,1,40,2|0,0:0|0:0,0:0:0:0:
496,304,246164,6,0,L|416:304,1,80,4|2,0:0|0:0,0:0:0:0:
256,304,246428,2,0,L|176:304,1,80
416,240,246693,2,0,L|376:240,1,40,2|0,0:0|0:0,0:0:0:0:
16,80,246869,6,0,L|96:80,1,80,2|2,0:0|0:0,0:0:0:0:
256,80,247134,2,0,L|336:80,1,80
96,128,247399,2,0,L|136:128,1,40,2|0,0:0|0:0,0:0:0:0:
496,304,247575,6,0,L|416:304,1,80,2|2,0:0|0:0,0:0:0:0:
256,304,247840,2,0,L|176:304,1,80
416,240,248105,2,0,L|376:240,1,40,2|0,0:0|0:0,0:0:0:0:
48,216,248281,5,4,0:0:0:0:
88,216,248369,1,0,0:0:0:0:
128,216,248457,1,0,0:0:0:0:
464,160,248546,2,0,L|424:160,1,40,0|8,0:0|0:0,0:0:0:0:
48,160,248722,1,0,0:0:0:0:
88,160,248810,1,0,0:0:0:0:
128,160,248898,1,0,0:0:0:0:
504,272,248987,6,0,L|408:272,1,80,6|2,0:0|0:0,0:0:0:0:
276,272,249252,2,0,L|180:272,1,80
8,272,249516,2,0,L|48:272,1,40,2|0,0:0|0:0,0:0:0:0:
504,272,249693,6,0,L|408:272,1,80,4|2,0:0|0:0,0:0:0:0:
196,272,249958,2,0,L|276:272,1,80
48,272,250222,2,0,L|8:272,1,40,2|0,0:0|0:0,0:0:0:0:
424,272,250399,6,0,L|504:272,1,80,4|2,0:0|0:0,0:0:0:0:
276,272,250664,2,0,L|196:272,1,80
48,272,250928,2,0,L|8:272,1,40,2|0,0:0|0:0,0:0:0:0:
236,240,251105,6,0,L|276:240,1,40,4|0,0:0|0:0,0:0:0:0:
112,192,251281,2,0,L|72:192,1,40,2|0,0:0|0:0,0:0:0:0:
400,192,251458,2,0,L|440:192,1,40,12|0,0:0|0:0,0:0:0:0:
276,144,251634,2,0,L|236:144,1,40,2|0,0:0|0:0,0:0:0:0:
8,272,251811,6,0,L|104:272,1,80,4|2,0:0|0:0,0:0:0:0:
236,272,252075,2,0,L|332:272,1,80
504,272,252340,2,0,L|464:272,1,40,2|0,0:0|0:0,0:0:0:0:
8,272,252516,6,0,L|104:272,1,80,4|2,0:0|0:0,0:0:0:0:
316,272,252781,2,0,L|236:272,1,80
464,272,253046,2,0,L|504:272,1,40,2|0,0:0|0:0,0:0:0:0:
88,272,253222,6,0,L|8:272,1,80,4|2,0:0|0:0,0:0:0:0:
236,272,253487,2,0,L|316:272,1,80
464,272,253752,2,0,L|504:272,1,40,2|0,0:0|0:0,0:0:0:0:
296,232,253928,6,0,L|256:232,1,40,4|0,0:0|0:0,0:0:0:0:
336,200,254105,2,0,L|376:200,1,40,2|0,0:0|0:0,0:0:0:0:
176,192,254281,2,0,L|136:192,1,40,12|0,0:0|0:0,0:0:0:0:
216,160,254458,2,0,L|256:160,1,40,2|0,0:0|0:0,0:0:0:0:
504,144,254634,6,0,L|408:144,1,80,4|2,0:0|0:0,0:0:0:0:
216,144,254899,2,0,L|312:144,1,80
48,144,255164,2,0,L|-8:144,1,40,2|0,0:0|0:0,0:0:0:0:
424,144,255340,6,0,L|520:144,1,80,4|2,0:0|0:0,0:0:0:0:
296,144,255605,2,0,L|208:144,1,80
8,144,255869,2,0,L|48:144,1,40,2|0,0:0|0:0,0:0:0:0:
504,144,256046,6,0,L|408:144,1,80,4|2,0:0|0:0,0:0:0:0:
216,144,256311,2,0,L|312:144,1,80
48,144,256575,2,0,L|-8:144,1,40,2|0,0:0|0:0,0:0:0:0:
392,96,256752,6,0,L|432:96,1,40,4|0,0:0|0:0,0:0:0:0:
272,144,256928,2,0,L|224:144,1,40,2|0,0:0|0:0,0:0:0:0:
80,96,257105,2,0,L|120:96,1,40,12|0,0:0|0:0,0:0:0:0:
432,176,257281,2,0,L|392:176,1,40,2|0,0:0|0:0,0:0:0:0:
8,144,257458,6,0,L|104:144,1,80,4|2,0:0|0:0,0:0:0:0:
296,144,257722,2,0,L|200:144,1,80
464,144,257987,2,0,L|520:144,1,40,2|0,0:0|0:0,0:0:0:0:
88,144,258164,6,0,L|-8:144,1,80,4|2,0:0|0:0,0:0:0:0:
216,144,258428,2,0,L|304:144,1,80
504,144,258693,2,0,L|464:144,1,40,2|0,0:0|0:0,0:0:0:0:
8,144,258869,6,0,L|104:144,1,80,4|2,0:0|0:0,0:0:0:0:
296,144,259134,2,0,L|200:144,1,80
464,144,259399,2,0,L|520:144,1,40,2|0,0:0|0:0,0:0:0:0:
88,144,259575,6,0,L|48:144,2,40,4|0|0,0:0|0:0|0:0,0:0:0:0:
424,144,259840,2,0,L|464:144,1,40,0|12,0:0|0:0,0:0:0:0:
88,144,260016,2,0,L|48:144,2,40
416,304,260281,6,0,L|416:128,1,160,14|2,0:0|0:0,0:0:0:0:
256,304,260546,1,0,0:0:0:0:
256,224,260634,1,12,0:0:0:0:
256,144,260722,1,0,0:0:0:0:
448,208,260811,2,0,L|448:128,1,80,2|0,0:0|0:0,0:0:0:0:
96,304,260987,6,0,L|96:128,1,160,6|2,0:0|0:0,0:0:0:0:
256,304,261252,1,0,0:0:0:0:
256,224,261340,1,12,0:0:0:0:
256,144,261428,1,0,0:0:0:0:
64,208,261516,2,0,L|64:128,1,80,2|0,0:0|0:0,0:0:0:0:
480,272,261693,6,0,L|480:96,1,160,6|2,0:0|0:0,0:0:0:0:
160,288,261958,1,0,0:0:0:0:
160,208,262046,5,12,0:0:0:0:
160,128,262134,1,0,0:0:0:0:
352,288,262222,2,0,L|352:176,1,80,2|0,0:0|0:0,0:0:0:0:
16,208,262399,2,0,L|16:128,1,80,6|0,0:0|0:0,0:0:0:0:
176,208,262575,2,0,L|176:128,1,80,2|0,0:0|0:0,0:0:0:0:
336,208,262752,2,0,L|336:128,1,80,8|0,0:0|0:0,0:0:0:0:
496,208,262928,2,0,L|496:128,1,80,2|0,0:0|0:0,0:0:0:0:
96,304,263105,6,0,L|96:128,1,160,6|2,0:0|0:0,0:0:0:0:
256,304,263369,1,0,0:0:0:0:
256,224,263458,1,12,0:0:0:0:
256,144,263546,1,0,0:0:0:0:
64,208,263634,2,0,L|64:128,1,80,2|0,0:0|0:0,0:0:0:0:
416,304,263811,6,0,L|416:128,1,160,6|2,0:0|0:0,0:0:0:0:
256,304,264075,1,0,0:0:0:0:
256,224,264164,1,12,0:0:0:0:
256,144,264252,1,0,0:0:0:0:
448,208,264340,2,0,L|448:128,1,80,2|0,0:0|0:0,0:0:0:0:
32,272,264516,6,0,L|32:96,1,160,6|2,0:0|0:0,0:0:0:0:
352,288,264781,1,0,0:0:0:0:
352,208,264869,1,12,0:0:0:0:
352,128,264958,1,0,0:0:0:0:
160,288,265046,2,0,L|160:176,1,80,2|0,0:0|0:0,0:0:0:0:
496,208,265222,6,0,L|496:128,1,80,6|0,0:0|0:0,0:0:0:0:
176,208,265399,2,0,L|176:128,1,80,2|0,0:0|0:0,0:0:0:0:
336,208,265575,2,0,L|336:128,1,80,12|0,0:0|0:0,0:0:0:0:
16,208,265752,2,0,L|16:128,1,80,2|0,0:0|0:0,0:0:0:0:
416,304,265928,6,0,L|416:128,1,160,14|2,0:0|0:0,0:0:0:0:
256,304,266193,1,0,0:0:0:0:
256,224,266281,1,12,0:0:0:0:
256,144,266369,1,0,0:0:0:0:
96,304,266458,2,0,L|96:224,1,80,2|0,0:0|0:0,0:0:0:0:
448,288,266634,6,0,L|448:112,1,160,6|2,0:0|0:0,0:0:0:0:
256,288,266899,1,0,0:0:0:0:
256,208,266987,1,12,0:0:0:0:
256,128,267075,1,0,0:0:0:0:
64,288,267164,2,0,L|64:208,1,80,2|0,0:0|0:0,0:0:0:0:
480,320,267340,6,0,L|480:144,1,160,6|2,0:0|0:0,0:0:0:0:
256,288,267605,1,0,0:0:0:0:
256,208,267693,5,12,0:0:0:0:
256,128,267781,1,0,0:0:0:0:
32,256,267869,2,0,L|32:176,1,80,2|0,0:0|0:0,0:0:0:0:
416,288,268046,2,0,L|416:208,1,80,6|0,0:0|0:0,0:0:0:0:
256,288,268222,2,0,L|256:208,1,80,2|0,0:0|0:0,0:0:0:0:
96,288,268399,2,0,L|96:208,1,80,8|0,0:0|0:0,0:0:0:0:
464,256,268575,2,0,L|464:176,1,80,2|0,0:0|0:0,0:0:0:0:
80,304,268752,6,0,L|80:128,1,160,6|2,0:0|0:0,0:0:0:0:
256,288,269016,1,0,0:0:0:0:
256,208,269105,1,12,0:0:0:0:
256,128,269193,1,0,0:0:0:0:
432,288,269281,2,0,L|432:208,1,80,2|0,0:0|0:0,0:0:0:0:
48,272,269458,6,0,L|48:96,1,160,6|2,0:0|0:0,0:0:0:0:
256,288,269722,1,0,0:0:0:0:
256,208,269811,1,12,0:0:0:0:
256,128,269899,1,0,0:0:0:0:
464,256,269987,2,0,L|464:176,1,80,2|0,0:0|0:0,0:0:0:0:
16,240,270164,6,0,L|16:64,1,160,6|2,0:0|0:0,0:0:0:0:
256,304,270428,1,0,0:0:0:0:
256,224,270516,5,12,0:0:0:0:
256,144,270605,1,0,0:0:0:0:
496,240,270693,2,0,L|496:160,1,80,4|0,0:0|0:0,0:0:0:0:
80,288,270869,6,0,L|80:208,1,80,6|0,0:0|0:0,0:0:0:0:
256,288,271046,2,0,L|256:208,1,80,4|0,0:0|0:0,0:0:0:0:
432,288,271222,6,0,L|432:208,1,80,12|0,0:0|0:0,0:0:0:0:
16,224,271399,2,0,L|16:144,1,80,4|0,0:0|0:0,0:0:0:0:
336,128,271575,6,0,L|496:128,1,160,14|2,0:0|0:0,0:0:0:0:
336,192,271840,1,0,0:0:0:0:
256,192,271928,1,12,0:0:0:0:
176,192,272016,1,0,0:0:0:0:
16,144,272105,2,0,L|112:144,1,80,2|0,0:0|0:0,0:0:0:0:
336,144,272281,6,0,L|176:144,1,160,6|2,0:0|0:0,0:0:0:0:
336,112,272546,1,0,0:0:0:0:
416,112,272634,1,12,0:0:0:0:
496,112,272722,1,0,0:0:0:0:
336,64,272811,2,0,L|256:64,1,80,2|0,0:0|0:0,0:0:0:0:
16,64,272987,6,0,L|176:64,1,160,6|2,0:0|0:0,0:0:0:0:
336,112,273252,1,0,0:0:0:0:
256,112,273340,5,12,0:0:0:0:
176,112,273428,1,0,0:0:0:0:
416,160,273516,2,0,L|496:160,1,80,2|0,0:0|0:0,0:0:0:0:
336,160,273693,2,0,L|240:160,1,80,6|0,0:0|0:0,0:0:0:0:
96,160,273869,2,0,L|16:160,1,80,2|0,0:0|0:0,0:0:0:0:
176,224,274046,2,0,L|272:224,1,80,8|0,0:0|0:0,0:0:0:0:
416,224,274222,2,0,L|496:224,1,80,2|0,0:0|0:0,0:0:0:0:
176,128,274399,6,0,L|16:128,1,160,14|2,0:0|0:0,0:0:0:0:
176,192,274664,1,0,0:0:0:0:
256,192,274752,1,12,0:0:0:0:
336,192,274840,1,0,0:0:0:0:
496,144,274928,2,0,L|400:144,1,80,2|0,0:0|0:0,0:0:0:0:
176,144,275105,6,0,L|336:144,1,160,6|2,0:0|0:0,0:0:0:0:
176,112,275369,1,0,0:0:0:0:
96,112,275458,1,12,0:0:0:0:
16,112,275546,1,0,0:0:0:0:
256,64,275634,2,0,L|336:64,1,80,2|0,0:0|0:0,0:0:0:0:
496,64,275811,6,0,L|336:64,1,160,6|2,0:0|0:0,0:0:0:0:
176,112,276075,1,0,0:0:0:0:
256,112,276164,1,12,0:0:0:0:
336,112,276252,1,0,0:0:0:0:
96,160,276340,2,0,L|16:160,1,80,2|0,0:0|0:0,0:0:0:0:
176,160,276516,6,0,L|272:160,1,80,6|0,0:0|0:0,0:0:0:0:
416,160,276693,2,0,L|496:160,1,80,2|0,0:0|0:0,0:0:0:0:
336,224,276869,2,0,L|240:224,1,80,12|0,0:0|0:0,0:0:0:0:
96,224,277046,2,0,L|16:224,1,80,2|0,0:0|0:0,0:0:0:0:
304,96,277222,5,14,0:0:0:0:
208,96,277399,1,2,0:0:0:0:
320,128,277575,1,14,0:0:0:0:
192,128,277752,1,2,0:0:0:0:
336,160,277928,5,6,0:0:0:0:
176,160,278105,1,2,0:0:0:0:
352,192,278281,1,14,0:0:0:0:
160,192,278458,1,2,0:0:0:0:
128,240,278634,5,14,0:0:0:0:
384,240,278811,1,2,0:0:0:0:
96,272,278987,1,14,0:0:0:0:
416,272,279164,1,2,0:0:0:0:
64,304,279340,5,6,0:0:0:0:
448,304,279516,1,2,0:0:0:0:
32,336,279693,1,14,0:0:0:0:
480,336,279869,1,2,0:0:0:0:
496,304,280046,6,2,L|384:304,1,80,14|2,0:0|0:0,0:0:0:0:
256,304,280222,2,2,L|144:304,1,80,6|2,0:0|0:0,0:0:0:0:
16,208,280399,2,2,L|128:208,1,80,14|2,0:0|0:0,0:0:0:0:
256,208,280575,2,2,L|368:208,1,80,6|2,0:0|0:0,0:0:0:0:
496,304,280752,6,2,L|384:304,1,80,14|2,0:0|0:0,0:0:0:0:
16,304,280928,2,2,L|128:304,1,80,6|2,0:0|0:0,0:0:0:0:
496,304,281105,2,2,L|384:304,1,80,14|2,0:0|0:0,0:0:0:0:
16,304,281281,2,2,L|128:304,1,80
256,320,281458,6,0,L|256:160,1,160,2|0,0:0|0:0,0:0:0:0:
96,304,282869,6,0,B|224:304|224:200|96:200,1,240,2|0,0:0|0:0,0:0:0:0:
176,304,283222,2,0,B|304:304|304:200|176:200,1,240,8|0,0:0|0:0,0:0:0:0:
256,304,283575,2,0,B|384:304|384:200|256:200,1,240,2|0,0:0|0:0,0:0:0:0:
176,304,283928,2,0,B|304:304|304:200|176:200,1,240,8|0,0:0|0:0,0:0:0:0:
96,304,284281,6,0,B|224:304|224:200|96:200,1,240,2|0,0:0|0:0,0:0:0:0:
176,288,284634,2,0,B|345:97,1,240,8|0,0:0|0:0,0:0:0:0:
416,199,284987,2,0,B|288:199|288:95|416:95,1,240,2|0,0:0|0:0,0:0:0:0:
336,288,285340,2,0,B|167:97,1,240,8|0,0:0|0:0,0:0:0:0:
256,144,285693,6,0,B|384:144|384:40|256:40,1,240,2|0,0:0|0:0,0:0:0:0:
336,144,286046,2,0,B|464:144|464:40|336:40,1,240,8|0,0:0|0:0,0:0:0:0:
256,144,286399,2,0,B|128:144|128:40|256:40,1,240,2|0,0:0|0:0,0:0:0:0:
176,144,286752,2,0,B|48:144|48:40|176:40,1,240,8|0,0:0|0:0,0:0:0:0:
256,144,287105,6,0,B|384:144|384:40|256:40,1,240,2|0,0:0|0:0,0:0:0:0:
176,288,287458,2,0,B|345:97,1,240,8|0,0:0|0:0,0:0:0:0:
256,144,287811,2,0,B|128:144|128:40|256:40,1,240,2|0,0:0|0:0,0:0:0:0:
336,288,288164,2,0,B|167:97,1,240,8|0,0:0|0:0,0:0:0:0:
96,304,288516,6,0,B|224:304|224:200|96:200,1,240,2|0,0:0|0:0,0:0:0:0:
176,304,288869,2,0,B|304:304|304:200|176:200,1,240,8|0,0:0|0:0,0:0:0:0:
256,304,289222,2,0,B|384:304|384:200|256:200,1,240,2|0,0:0|0:0,0:0:0:0:
176,304,289575,2,0,B|304:304|304:200|176:200,1,240,8|0,0:0|0:0,0:0:0:0:
96,304,289928,6,0,B|224:304|224:200|96:200,1,240,2|0,0:0|0:0,0:0:0:0:
176,288,290281,2,0,B|345:97,1,240,8|0,0:0|0:0,0:0:0:0:
416,304,290634,2,0,B|288:304|288:200|416:200,1,240,2|0,0:0|0:0,0:0:0:0:
336,288,290987,2,0,B|167:97,1,240,8|0,0:0|0:0,0:0:0:0:
256,160,291340,6,0,B|384:160|384:56|256:56,1,240,2|0,0:0|0:0,0:0:0:0:
336,160,291693,2,0,B|464:160|464:56|336:56,1,240,8|0,0:0|0:0,0:0:0:0:
256,304,292046,2,0,B|128:304|128:200|256:200,1,240,2|0,0:0|0:0,0:0:0:0:
176,304,292399,2,0,B|48:304|48:200|176:200,1,240,8|0,0:0|0:0,0:0:0:0:
256,304,292752,6,0,B|384:304|384:200|256:200,1,240,2|0,0:0|0:0,0:0:0:0:
336,200,293105,2,0,B|464:200|464:96|336:96,1,240,8|0,0:0|0:0,0:0:0:0:
176,112,293458,5,10,0:0:0:0:
336,112,293811,5,8,0:0:0:0:
256,320,294164,6,0,P|368:288|416:176,1,240,6|0,0:0|0:0,0:0:0:0:
256,80,294516,2,0,B|96:80|96:240|254:239,1,240,8|0,0:0|0:0,0:0:0:0:
256,320,294869,2,0,P|368:288|416:176,1,240,2|0,0:0|0:0,0:0:0:0:
256,80,295222,2,0,B|416:80|416:240|258:239,1,240,8|0,0:0|0:0,0:0:0:0:
256,320,295575,6,0,P|368:288|416:176,1,240,2|0,0:0|0:0,0:0:0:0:
256,80,295928,2,0,B|96:80|96:240|254:239,1,240,8|0,0:0|0:0,0:0:0:0:
256,320,296281,2,0,P|368:288|416:176,1,240,2|0,0:0|0:0,0:0:0:0:
256,80,296634,2,0,B|416:80|416:240|258:239,1,240,8|0,0:0|0:0,0:0:0:0:
256,320,296987,6,0,P|144:288|96:176,1,240,2|0,0:0|0:0,0:0:0:0:
256,80,297340,2,0,B|416:80|416:240|258:239,1,240,8|0,0:0|0:0,0:0:0:0:
256,320,297693,2,0,P|144:288|96:176,1,240,2|0,0:0|0:0,0:0:0:0:
256,80,298046,2,0,B|96:80|96:240|254:239,1,240,8|0,0:0|0:0,0:0:0:0:
256,320,298399,6,0,P|144:288|96:176,1,240,2|0,0:0|0:0,0:0:0:0:
256,80,298752,2,0,B|416:80|416:240|258:239,1,240,8|0,0:0|0:0,0:0:0:0:
256,320,299105,2,0,P|144:288|96:176,1,240,2|0,0:0|0:0,0:0:0:0:
256,80,299458,2,0,B|96:80|96:240|254:239,1,240,8|0,0:0|0:0,0:0:0:0:
256,80,299811,6,0,B|416:80|416:240|258:239,1,240,2|0,0:0|0:0,0:0:0:0:
176,272,300164,2,0,L|464:272,1,240,8|0,0:0|0:0,0:0:0:0:
256,80,300516,2,0,B|96:80|96:240|254:239,1,240,2|0,0:0|0:0,0:0:0:0:
336,272,300869,2,0,L|48:272,1,240,8|0,0:0|0:0,0:0:0:0:
256,64,301222,6,0,P|368:96|400:208,1,240,2|0,0:0|0:0,0:0:0:0:
176,208,301575,2,0,L|464:208,1,240,8|0,0:0|0:0,0:0:0:0:
256,64,301928,2,0,P|144:96|112:208,1,240,2|0,0:0|0:0,0:0:0:0:
336,208,302281,2,0,L|48:208,1,240,8|0,0:0|0:0,0:0:0:0:
256,80,302634,6,0,B|416:80|416:240|258:239,1,240,2|0,0:0|0:0,0:0:0:0:
256,80,302987,2,0,B|416:80|416:240|258:239,1,240,8|0,0:0|0:0,0:0:0:0:
256,80,303340,2,0,B|96:80|96:240|254:239,1,240,2|0,0:0|0:0,0:0:0:0:
256,80,303693,2,0,B|96:80|96:240|254:239,1,240,8|0,0:0|0:0,0:0:0:0:
336,144,304046,5,2,0:0:0:0:
128,192,304399,1,2,0:0:0:0:
384,192,304575,1,2,0:0:0:0:
32,288,304752,2,0,P|16:240|32:128,1,160,2|2,0:0|0:0,0:0:0:0:
256,320,305458,6,0,B|288:320|288:12|261:11,1,240,6|0,0:0|0:0,0:0:0:0:
256,320,305811,2,0,B|320:320|320:36|259:36,1,240,2|0,0:0|0:0,0:0:0:0:
256,320,306164,2,0,B|352:320|352:68|259:67,1,240,2|0,0:0|0:0,0:0:0:0:
256,320,306516,2,0,B|384:320|384:108|259:108,1,240,2|0,0:0|0:0,0:0:0:0:
256,320,306869,6,0,B|416:320|416:160|259:159,1,240,2|0,0:0|0:0,0:0:0:0:
256,320,307222,2,0,B|384:320|384:108|259:108,1,240,2|0,0:0|0:0,0:0:0:0:
256,320,307575,2,0,B|352:320|352:68|259:67,1,240,2|0,0:0|0:0,0:0:0:0:
256,320,307928,2,0,B|320:320|320:36|259:36,1,240,2|0,0:0|0:0,0:0:0:0:
256,320,308281,6,0,B|224:320|224:12|251:11,1,240,2|0,0:0|0:0,0:0:0:0:
256,320,308634,2,0,B|192:320|192:36|253:36,1,240,2|0,0:0|0:0,0:0:0:0:
256,320,308987,2,0,B|160:320|160:68|253:67,1,240,2|0,0:0|0:0,0:0:0:0:
256,320,309340,2,0,B|128:320|128:108|253:108,1,240,2|0,0:0|0:0,0:0:0:0:
256,320,309693,6,0,B|96:320|96:160|253:159,1,240,2|0,0:0|0:0,0:0:0:0:
256,320,310046,2,0,B|416:320|416:160|259:159,1,240,2|0,0:0|0:0,0:0:0:0:
256,320,310399,1,2,0:0:0:0:
256,320,311105,6,0,B|224:320|224:12|251:11,1,240,2|0,0:0|0:0,0:0:0:0:
256,320,311458,2,0,B|192:320|192:36|253:36,1,240,2|0,0:0|0:0,0:0:0:0:
256,320,311811,2,0,B|160:320|160:68|253:67,1,240,2|0,0:0|0:0,0:0:0:0:
256,320,312164,2,0,B|128:320|128:108|253:108,1,240,2|0,0:0|0:0,0:0:0:0:
256,320,312516,6,0,B|96:320|96:160|253:159,1,240,2|0,0:0|0:0,0:0:0:0:
256,320,312869,2,0,B|128:320|128:108|253:108,1,240,2|0,0:0|0:0,0:0:0:0:
256,320,313222,2,0,B|160:320|160:68|253:67,1,240,2|0,0:0|0:0,0:0:0:0:
256,320,313575,2,0,B|192:320|192:36|253:36,1,240,2|0,0:0|0:0,0:0:0:0:
256,320,313928,6,0,B|288:320|288:12|261:11,1,240,2|0,0:0|0:0,0:0:0:0:
256,320,314281,2,0,B|320:320|320:36|259:36,1,240,2|0,0:0|0:0,0:0:0:0:
256,320,314634,2,0,B|352:320|352:68|259:67,1,240,2|0,0:0|0:0,0:0:0:0:
256,320,314987,2,0,B|384:320|384:108|259:108,1,240,2|0,0:0|0:0,0:0:0:0:
256,320,315340,1,2,0:0:0:0:
256,192,316046,12,0,316575,0:0:0:0:
96,0,316752,6,0,B|240:192|240:192|160:192|160:192|256:320,1,480,10|8,0:0|0:0,0:0:0:0:
96,320,317458,2,0,B|192:192|192:192|112:192|112:192|256:0,1,480,10|8,0:0|0:0,0:0:0:0:
416,0,318164,6,0,B|272:192|272:192|352:192|352:192|256:320,1,480,10|8,0:0|0:0,0:0:0:0:
416,320,318869,2,0,B|320:192|320:192|400:192|400:192|256:0,1,480,10|8,0:0|0:0,0:0:0:0:
96,0,319575,6,0,B|240:192|240:192|160:192|160:192|256:320,1,480,10|8,0:0|0:0,0:0:0:0:
96,320,320281,2,0,B|192:192|192:192|112:192|112:192|256:0,1,480,10|8,0:0|0:0,0:0:0:0:
416,0,320987,6,0,B|272:192|272:192|352:192|352:192|256:320,1,480,10|8,0:0|0:0,0:0:0:0:
416,320,321693,1,2,0:0:0:0:
64,96,322399,5,10,0:0:0:0:
192,96,322575,1,8,0:0:0:0:
48,144,322752,1,10,0:0:0:0:
208,144,322928,1,8,0:0:0:0:
64,176,323105,1,10,0:0:0:0:
192,176,323281,1,8,0:0:0:0:
48,208,323458,2,8,L|64:368,1,160,10|8,0:0|0:0,0:0:0:0:
448,96,323811,5,10,0:0:0:0:
320,96,323987,1,8,0:0:0:0:
464,144,324164,1,10,0:0:0:0:
304,144,324340,1,8,0:0:0:0:
448,176,324516,1,10,0:0:0:0:
320,176,324693,1,8,0:0:0:0:
464,208,324869,2,8,L|448:368,1,160,10|8,0:0|0:0,0:0:0:0:
96,144,325222,6,2,L|16:144,1,80,10|2,0:0|0:0,0:0:0:0:
176,144,325399,2,2,L|304:144,1,80,10|2,0:0|0:0,0:0:0:0:
416,144,325575,2,2,L|496:144,1,80,10|2,0:0|0:0,0:0:0:0:
336,192,325752,2,2,L|256:192,1,80,10|2,0:0|0:0,0:0:0:0:
96,192,325928,6,2,L|16:192,1,80,10|2,0:0|0:0,0:0:0:0:
336,240,326105,2,2,L|416:240,1,80,10|2,0:0|0:0,0:0:0:0:
176,240,326281,2,2,L|96:240,1,80,10|2,0:0|0:0,0:0:0:0:
416,288,326458,2,2,L|496:288,1,80,10|2,0:0|0:0,0:0:0:0:
256,160,326634,5,2,0:0:0:0:
128,192,326987,1,2,0:0:0:0:
384,192,327164,1,2,0:0:0:0:
32,288,327340,2,0,P|16:240|32:128,1,160,2|2,0:0|0:0,0:0:0:0:
256,160,328046,1,6,0:0:0:0:
