osu file format v14

[General]
AudioFilename: audio.mp3
AudioLeadIn: 0
PreviewTime: -1
Countdown: 0
SampleSet: Soft
StackLeniency: 0.7
Mode: 0
LetterboxInBreaks: 0
WidescreenStoryboard: 0

[Editor]
Bookmarks: 11804,24509
DistanceSpacing: 1.5
BeatDivisor: 4
GridSize: 4
TimelineZoom: 1.8

[Metadata]
Title:B.B.K.K.B.K.K. (Extended Mix)
TitleUnicode:B.B.K.K.B.K.K. (Extended Mix)
Artist:nora2r
ArtistUnicode:nora2r
Creator:Luel Roseline
Version:BK
Source:BMS
Tags:c86 bof 2013 YATSUZAKI HARDCORE VOLUME 4 fooRider Notebook Records maimai LR
BeatmapID:1844844
BeatmapSetID:882458

[Difficulty]
HPDrainRate:5
CircleSize:4
OverallDifficulty:8
ApproachRate:9
SliderMultiplier:2
SliderTickRate:1

[Events]
//Background and Video events
0,0,"BG.jpg",0,0
//Break Periods
//Storyboard Layer 0 (Background)
//Storyboard Layer 1 (Fail)
//Storyboard Layer 2 (Pass)
//Storyboard Layer 3 (Foreground)
//Storyboard Sound Samples

[TimingPoints]
510,352.941176470588,4,2,1,35,1,0
11804,-100,4,2,1,35,0,0
23098,-133.333333333333,4,2,1,35,0,0
23451,-80,4,2,1,35,0,0
23804,-100,4,2,1,35,0,0
24509,-133.333333333333,4,2,1,35,0,0
24509,-133.333333333333,4,2,1,35,0,0
24862,-79.9999999999999,4,2,1,35,0,0
25921,-161.290322580645,4,2,1,35,0,0
26274,-94.3396226415094,4,2,1,35,0,0
26627,-80,4,2,1,35,0,0
26980,-138.888888888889,4,2,1,35,0,0

[HitObjects]
88,309,11804,5,8,0:0:0:0:
112,302,12157,1,8,0:0:0:0:
136,295,12509,1,8,0:0:0:0:
160,288,12862,1,8,0:0:0:0:
184,281,13215,1,8,0:0:0:0:
208,274,13568,1,8,0:0:0:0:
232,267,13921,1,8,0:0:0:0:
256,260,14274,1,8,0:0:0:0:
424,75,14627,5,8,0:0:0:0:
400,82,14980,1,8,0:0:0:0:
376,89,15333,1,8,0:0:0:0:
352,96,15686,1,8,0:0:0:0:
328,103,16039,1,8,0:0:0:0:
304,110,16392,1,8,0:0:0:0:
280,117,16745,2,0,B|184:145|184:145|195:96,1,150,8|8,0:0|0:0,0:0:0:0:
159,61,17098,2,0,L|135:158,1,100,0|8,1:0|0:0,0:0:0:0:
111,255,17451,5,0,1:0:0:0:
134,352,17627,1,8,0:0:0:0:
136,257,17804,5,0,1:0:0:0:
238,365,17980,1,8,0:0:0:0:
160,253,18157,5,0,1:0:0:0:
351,310,18333,1,8,0:0:0:0:
183,244,18509,5,0,1:0:0:0:
425,186,18686,1,8,0:0:0:0:
282,19,18862,5,0,1:0:0:0:
351,310,19039,1,8,0:0:0:0:
324,79,19215,5,0,1:0:0:0:
238,365,19392,1,8,0:0:0:0:
352,148,19568,5,0,1:0:0:0:
134,352,19745,1,8,0:0:0:0:
152,79,19921,5,0,1:0:0:0:
238,365,20098,1,8,0:0:0:0:
421,103,20274,5,0,1:0:0:0:
421,115,20362,1,0,1:0:0:0:
422,127,20451,1,0,1:0:0:0:
422,140,20539,1,0,1:0:0:0:
423,152,20627,1,0,1:0:0:0:
423,165,20715,1,0,1:0:0:0:
424,177,20804,1,0,1:0:0:0:
424,190,20892,1,0,1:0:0:0:
425,202,20980,5,0,1:0:0:0:
408,221,21068,1,0,1:0:0:0:
386,233,21157,1,0,1:0:0:0:
362,240,21245,1,0,1:0:0:0:
337,239,21333,5,0,1:0:0:0:
292,219,21421,1,0,1:0:0:0:
258,256,21509,1,0,1:0:0:0:
283,300,21598,1,0,1:0:0:0:
333,290,21686,1,0,1:0:0:0:
333,290,22215,5,0,0:0:0:0:
283,300,22392,1,0,0:0:0:0:
258,256,22568,1,0,0:0:0:0:
292,219,22745,1,0,0:0:0:0:
337,239,22921,1,0,0:0:0:0:
296,96,23098,6,0,P|251:60|195:64,1,112.500004291535,4|0,1:0|0:0,0:0:0:0:
125,96,23451,2,0,P|168:138|228:134,1,125,0|0,1:0|0:0,0:0:0:0:
337,239,23804,2,0,L|292:219,1,50,0|0,1:0|0:0,0:0:0:0:
186,230,23980,1,0,0:0:0:0:
337,239,24157,2,0,L|428:279,1,100,0|0,1:0|0:0,0:0:0:0:
140,332,24509,6,0,L|185:229,1,112.500004291535,0|0,1:0|0:0,0:0:0:0:
124,95,24862,2,0,P|141:121|168:137,1,62.5,0|0,1:0|0:0,0:0:0:0:
274,91,25039,2,0,P|278:60|268:30,1,62.5
291,218,25215,6,0,P|240:251|185:229,1,125,0|0,1:0|0:0,0:0:0:0:
34,342,25568,2,0,P|84:308|140:331,1,125,0|0,1:0|0:0,0:0:0:0:
184,228,25921,6,0,L|171:155,1,61.9999975402833,0|0,1:0|0:0,0:0:0:0:
329,317,26186,1,0,0:0:0:0:
329,317,26274,2,0,L|291:218,1,106.000000161743,0|0,1:0|0:0,0:0:0:0:
268,30,26627,2,0,B|286:58|274:91|274:91|320:86|334:97,1,125,0|0,1:0|0:0,0:0:0:0:
291,218,26980,6,0,L|184:228,1,108.000002636719,0|0,1:0|0:0,0:0:0:0:
