osu file format v14

[General]
AudioFilename: bbkkbkk.mp3
AudioLeadIn: 0
PreviewTime: 236274
Countdown: 0
SampleSet: Soft
StackLeniency: 0.2
Mode: 2
LetterboxInBreaks: 1
WidescreenStoryboard: 1

[Editor]
Bookmarks: 20274,30862,89451,90862,146428,165862,181215,191098,191451,198774,208745,215098,238392,260274,270156,271568,277215,280039,293450,293803,304392,305450,310392,311097,315333,316745,321686,322392,326980,329803
DistanceSpacing: 0.7
BeatDivisor: 8
GridSize: 32
TimelineZoom: 8

[Metadata]
Title:B.B.K.K.B.K.K. (Extended Mix)
TitleUnicode:B.B.K.K.B.K.K. (Extended Mix)
Artist:nora2r
ArtistUnicode:nora2r
Creator:Dynamix braver
Version:Round~~~2!!!!!!!!!
Source:BMS
Tags:c86 bof 2013 YATSUZAKI HARDCORE VOLUME 4 fooRider Notebook Records maimai CHUNITHM sdvx
BeatmapID:1556250
BeatmapSetID:732749

[Difficulty]
HPDrainRate:5
CircleSize:4
OverallDifficulty:4
ApproachRate:9.8
SliderMultiplier:3.2
SliderTickRate:2

[Events]
//Background and Video events
0,0,"bbkkbkk.jpg",0,0
//Break Periods
2,136239,139555
2,141952,145753
//Storyboard Layer 0 (Background)
//Storyboard Layer 1 (Fail)
//Storyboard Layer 2 (Pass)
//Storyboard Layer 3 (Foreground)
//Storyboard Sound Samples

[TimingPoints]
510,352.941176470588,4,2,1,60,1,0
16877,-166.666666666667,4,2,1,60,0,0
44980,-200,4,2,1,60,0,0
51333,-200,4,2,1,60,0,0
56980,-133.333333333333,4,2,1,60,0,0
62627,-100,4,2,1,60,0,0
67568,-200,4,2,1,60,0,0
68274,-100,4,2,1,60,0,1
73127,-1000,4,2,1,60,0,0
73745,-100,4,2,1,60,0,1
78068,-100,4,2,1,60,0,0
79193,-50,4,2,1,60,0,0
79502,-100,4,2,1,60,0,1
84421,-1000,4,2,1,60,0,0
85039,-100,4,2,1,60,0,1
89362,-100,4,2,1,60,0,0
90774,-100,4,2,1,60,0,1
92098,-100,4,2,1,60,0,0
92274,-100,4,2,1,60,0,1
93509,-100,4,2,1,60,0,0
93686,-100,4,2,1,60,0,1
94921,-100,4,2,1,60,0,0
95098,-100,4,2,1,60,0,1
95671,-1000,4,2,1,60,0,0
96333,-100,4,2,1,60,0,1
100657,-100,4,2,1,60,0,0
102068,-100,4,2,1,60,0,1
106965,-1000,4,2,1,60,0,0
107627,-100,4,2,1,60,0,1
110539,-100,4,2,1,60,0,0
113451,-100,4,2,1,60,0,1
134627,-100,4,2,1,60,0,0
135333,-200,4,2,1,60,0,0
140218,-25,4,2,1,60,0,0
140230,176.470588235294,4,2,1,60,1,0
141752,352.941176470588,4,2,1,60,1,0
141752,-100,4,2,1,60,0,0
141840,-200,4,2,1,60,0,0
187436,-100,4,2,1,60,0,1
187524,-100,4,2,1,60,0,0
188142,-100,4,2,1,60,0,1
188230,-100,4,2,1,60,0,0
188848,-100,4,2,1,60,0,1
188936,-100,4,2,1,60,0,0
189642,-100,4,2,1,60,0,1
189730,-100,4,2,1,60,0,0
189818,-100,4,2,1,60,0,1
189906,-100,4,2,1,60,0,0
189994,-100,4,2,1,60,0,1
190083,-100,4,2,1,60,0,0
190171,-100,4,2,1,60,0,1
190259,-100,4,2,1,60,0,0
190347,-100,4,2,1,60,0,1
190436,-100,4,2,1,60,0,0
190524,-100,4,2,1,60,0,1
190612,-100,4,2,1,60,0,0
190700,-100,4,2,1,60,0,1
190789,-100,4,2,1,60,0,0
190877,-100,4,2,1,60,0,1
190965,-100,4,2,1,60,0,0
191053,-100,4,2,1,60,0,1
191098,352.941176470588,4,2,1,60,1,1
191450,-100,4,2,1,60,0,0
192509,-100,4,2,1,60,0,0
217215,-200,4,2,1,60,0,0
217921,-100,4,2,1,60,0,0
222862,-200,4,2,1,60,0,0
223568,-100,4,2,1,60,0,0
226392,-125,4,2,1,60,0,1
234862,-200,4,2,1,60,0,0
236892,-50,4,2,1,60,0,1
237245,-200,4,2,1,60,0,0
237686,-200,4,2,1,60,0,1
281451,-200,4,2,1,60,0,0
282862,-100,4,2,1,60,0,0
304745,-200,4,2,1,60,0,0
305451,-200,4,2,1,60,0,0
305745,-100,4,2,1,60,0,0
306097,-200,4,2,1,60,0,0
307171,-100,4,2,1,60,0,0
307524,-200,4,2,1,60,0,0
308583,-100,4,2,1,60,0,0
308936,-200,4,2,1,60,0,0
309950,-100,4,2,1,60,0,0
310303,-200,4,2,1,60,0,0
321245,-62.5,4,2,1,60,0,0
326495,-31.25,4,2,1,60,0,0
327245,-125,4,2,1,60,0,0
327950,-317.460317460317,4,2,1,60,0,0

[Colours]
Combo1 : 255,255,255
Combo2 : 255,0,0
Combo3 : 0,0,255
Combo4 : 0,255,0
Combo5 : 255,0,0
Combo6 : 0,0,255
Combo7 : 0,255,0
Combo8 : 255,255,255

[HitObjects]
224,192,510,5,0,0:0:0:0:
256,192,862,1,0,0:0:0:0:
288,192,1215,1,0,0:0:0:0:
256,192,1568,1,0,0:0:0:0:
160,192,1921,5,0,0:0:0:0:
256,192,2274,1,0,0:0:0:0:
352,192,2627,1,0,0:0:0:0:
256,192,2980,1,0,0:0:0:0:
96,192,3333,5,0,0:0:0:0:
256,192,3686,1,0,0:0:0:0:
416,192,4039,1,0,0:0:0:0:
256,192,4392,1,0,0:0:0:0:
32,192,4745,5,0,0:0:0:0:
480,192,5098,1,0,0:0:0:0:
96,192,5451,2,0,B|256:192|256:192|416:192|416:192,1,320
256,192,5627,1,0,0:0:0:0:
224,160,6157,5,0,0:0:0:0:
288,224,6509,1,0,0:0:0:0:
224,224,6862,1,0,0:0:0:0:
288,160,7215,1,0,0:0:0:0:
160,96,7568,5,0,0:0:0:0:
352,288,7921,1,0,0:0:0:0:
160,288,8274,1,0,0:0:0:0:
352,96,8627,1,0,0:0:0:0:
96,352,8980,37,0,0:0:0:0:
416,32,9333,1,0,0:0:0:0:
96,32,9686,1,0,0:0:0:0:
416,352,10039,1,0,0:0:0:0:
0,0,10392,5,0,0:0:0:0:
512,384,10745,1,0,0:0:0:0:
146,80,11098,2,0,B|256:193|256:193|385:65|385:65,1,320
256,192,11274,1,0,0:0:0:0:
256,96,11804,5,0,0:0:0:0:
256,288,12157,1,0,0:0:0:0:
323,124,12509,1,0,0:0:0:0:
188,259,12862,1,0,0:0:0:0:
352,192,13215,1,0,0:0:0:0:
160,192,13568,1,0,0:0:0:0:
323,259,13921,1,0,0:0:0:0:
188,124,14274,1,0,0:0:0:0:
256,320,14627,5,0,0:0:0:0:
256,63,14980,1,0,0:0:0:0:
345,281,15333,1,0,0:0:0:0:
165,101,15686,1,0,0:0:0:0:
384,192,16039,1,0,0:0:0:0:
126,192,16392,1,0,0:0:0:0:
345,101,16745,1,0,0:0:0:0:
256,192,16921,2,0,P|210:236|210:236,1,47.9999985351563
165,281,17098,2,0,P|256:192|256:192,1,95.9999970703126
323,124,17451,5,8,0:0:0:0:
192,192,17627,1,0,0:0:0:0:
320,192,17804,1,0,0:0:0:0:
192,128,17980,1,0,0:0:0:0:
384,128,18157,5,8,0:0:0:0:
128,192,18333,1,0,0:0:0:0:
128,128,18509,1,0,0:0:0:0:
384,192,18686,1,0,0:0:0:0:
64,192,18862,37,8,0:0:0:0:
448,128,19039,1,0,0:0:0:0:
64,192,19215,1,0,0:0:0:0:
448,128,19392,1,0,0:0:0:0:
0,128,19568,5,8,0:0:0:0:
512,192,19745,1,0,0:0:0:0:
512,192,19921,1,0,0:0:0:0:
0,128,20098,1,0,0:0:0:0:
512,384,20274,85,0,0:0:0:0:
352,384,20362,1,0,0:0:0:0:
288,384,20451,1,0,0:0:0:0:
128,384,20539,1,0,0:0:0:0:
0,320,20627,1,0,0:0:0:0:
160,320,20715,1,0,0:0:0:0:
224,320,20804,1,0,0:0:0:0:
384,320,20892,1,0,0:0:0:0:
512,256,20980,1,0,0:0:0:0:
352,256,21068,1,0,0:0:0:0:
288,256,21157,1,0,0:0:0:0:
128,256,21245,1,0,0:0:0:0:
0,192,21333,1,0,0:0:0:0:
160,192,21421,1,0,0:0:0:0:
224,192,21509,1,0,0:0:0:0:
384,192,21598,1,0,0:0:0:0:
512,192,21686,102,0,P|288:192|288:192,1,191.999994140625
0,192,22215,21,0,0:0:0:0:
128,192,22392,1,0,0:0:0:0:
256,192,22568,1,0,0:0:0:0:
384,192,22745,1,0,0:0:0:0:
512,192,22921,1,0,0:0:0:0:
512,192,23098,6,0,P|352:192|352:192,1,143.999995605469
192,192,23451,1,0,0:0:0:0:
224,288,23627,1,0,0:0:0:0:
192,192,23804,1,0,0:0:0:0:
288,224,23980,1,0,0:0:0:0:
192,192,24157,1,0,0:0:0:0:
352,160,24333,1,0,0:0:0:0:
0,320,24509,6,0,B|128:256|128:192|128:192,1,143.999995605469
160,128,24862,1,0,0:0:0:0:
288,32,25039,1,0,0:0:0:0:
384,160,25215,1,0,0:0:0:0:
256,256,25392,1,0,0:0:0:0:
352,384,25568,1,0,0:0:0:0:
480,320,25745,1,0,0:0:0:0:
480,320,25921,6,0,B|384:320|384:320|336:272|336:272,1,143.999995605469
240,160,26274,1,0,0:0:0:0:
160,64,26451,1,0,0:0:0:0:
512,64,26627,1,0,0:0:0:0:
416,160,26804,1,0,0:0:0:0:
0,64,26980,1,0,0:0:0:0:
96,160,27157,1,0,0:0:0:0:
96,160,27333,6,0,B|96:256|96:256|32:256|32:256,1,143.999995605469
0,256,27686,1,0,0:0:0:0:
256,256,27862,1,0,0:0:0:0:
0,192,28039,21,0,0:0:0:0:
512,192,28392,5,0,0:0:0:0:
0,192,28745,6,0,P|160:192|160:192,1,143.999995605469
224,192,29098,1,0,0:0:0:0:
128,288,29274,1,0,0:0:0:0:
512,192,29451,1,0,0:0:0:0:
416,288,29627,1,0,0:0:0:0:
0,0,29804,1,0,0:0:0:0:
512,384,29980,1,0,0:0:0:0:
416,192,30157,6,0,P|416:352|416:352,1,143.999995605469
320,320,30509,1,0,0:0:0:0:
0,320,30686,1,0,0:0:0:0:
0,128,30862,1,0,0:0:0:0:
320,128,31039,1,0,0:0:0:0:
160,320,31215,1,0,0:0:0:0:
160,128,31392,1,0,0:0:0:0:
416,128,31568,6,0,B|384:160|384:160|384:160|448:224|448:224|448:224|480:192|480:192|480:192,1,143.999995605469
160,128,31921,1,0,0:0:0:0:
0,128,32098,1,0,0:0:0:0:
288,256,32274,1,0,0:0:0:0:
128,256,32451,1,0,0:0:0:0:
416,384,32627,1,0,0:0:0:0:
256,384,32804,1,0,0:0:0:0:
448,32,32980,6,0,B|384:96|384:96|448:192|448:192,1,191.999994140625
256,192,33509,37,0,0:0:0:0:
512,0,33686,5,0,0:0:0:0:
256,192,33862,101,0,0:0:0:0:
0,384,34039,5,0,0:0:0:0:
256,192,34215,101,0,0:0:0:0:
384,320,34392,22,0,P|384:160|384:160,1,143.999995605469
256,320,34745,1,0,0:0:0:0:
384,320,34921,1,0,0:0:0:0:
160,320,35098,1,0,0:0:0:0:
384,320,35274,1,0,0:0:0:0:
64,320,35451,1,0,0:0:0:0:
384,320,35627,1,0,0:0:0:0:
0,192,35804,6,0,P|160:192|160:192,1,143.999995605469
512,192,36157,1,0,0:0:0:0:
256,192,36333,1,0,0:0:0:0:
512,192,36509,1,0,0:0:0:0:
256,192,36686,1,0,0:0:0:0:
512,192,36862,1,0,0:0:0:0:
384,192,37039,1,0,0:0:0:0:
0,192,37215,6,0,B|64:192|64:192|96:192|96:192|96:256|96:256,1,143.999995605469
512,128,37568,1,0,0:0:0:0:
448,256,37745,1,0,0:0:0:0:
384,128,37921,1,0,0:0:0:0:
352,256,38098,1,0,0:0:0:0:
288,128,38274,1,0,0:0:0:0:
224,256,38451,1,0,0:0:0:0:
160,128,38627,6,0,B|192:96|192:96|256:96|256:96|320:96|320:96,1,143.999995605469
384,320,38980,1,0,0:0:0:0:
128,320,39157,1,0,0:0:0:0:
256,384,39333,37,0,0:0:0:0:
256,0,39686,5,0,0:0:0:0:
0,192,40039,6,0,P|160:192|160:192,1,143.999995605469
320,192,40392,2,0,P|224:192|224:192,1,95.9999970703126
416,192,40745,2,0,P|512:192|512:192,1,95.9999970703126
0,192,41098,2,0,P|128:192|128:192,1,95.9999970703126
512,192,41451,6,0,P|352:192|352:192,1,143.999995605469
192,192,41804,2,0,P|288:192|288:192,1,95.9999970703126
96,192,42157,2,0,P|0:192|0:192,1,95.9999970703126
416,192,42509,2,0,P|512:192|512:192,1,95.9999970703126
192,256,42862,70,0,P|128:320|128:320,1,47.9999985351563
384,128,43039,6,0,P|320:64|320:64,1,47.9999985351563
160,128,43215,102,0,P|224:64|224:64,1,47.9999985351563
352,256,43392,6,0,P|416:320|416:320,1,47.9999985351563
64,384,43568,102,0,P|0:320|0:320,1,47.9999985351563
448,64,43745,6,0,P|512:0|512:0,1,47.9999985351563
0,0,43921,102,0,P|64:64|64:64,1,47.9999985351563
512,320,44098,6,0,P|448:384|448:384,1,47.9999985351563
202,192,44627,102,0,P|330:192|330:192,1,95.9999970703126
0,192,44980,1,0,0:0:0:0:
512,192,45333,1,0,0:0:0:0:
256,192,45686,5,0,0:0:0:0:
256,192,45686,12,0,48487,0:0:0:0:
0,192,48509,6,0,P|0:164|0:164,1,20
64,128,48862,2,0,P|64:96|64:96,1,20
128,192,49215,2,0,P|128:164|128:164,1,20
192,256,49568,2,0,P|192:224|192:224,1,20
256,192,49921,2,0,P|256:164|256:164,1,20
320,128,50274,2,0,P|320:96|320:96,1,20
384,192,50627,2,0,B|448:128|448:128|512:192|512:192|512:192,1,160
512,192,51333,6,0,P|512:220|512:220,1,20
416,288,51686,2,0,P|416:320|416:320,1,20
320,192,52039,2,0,P|320:220|320:220,1,20
224,96,52392,2,0,P|224:128|224:128,1,20
128,192,52745,2,0,P|128:220|128:220,1,20
32,288,53098,2,0,P|32:320|32:320,1,20
212,116,53451,2,0,B|212:192|212:192|128:192|128:192,1,160
0,192,54157,6,0,P|0:164|0:164,1,20
256,0,54510,2,0,P|256:32|256:32,1,20
512,192,54863,2,0,P|512:220|512:220,1,20
256,384,55216,2,0,P|256:352|256:352,1,20
0,192,55569,2,0,P|0:164|0:164,1,20
256,192,55922,2,0,P|256:160|256:160,1,20
512,192,56275,2,0,P|352:128|352:128,1,160
0,192,56980,6,0,P|0:164|0:164,1,20
512,192,57333,2,0,P|512:160|512:160,1,30.0000011444092
160,128,57686,2,0,P|160:100|160:100,1,20
352,256,58039,2,0,P|352:224|352:224,1,20
512,192,58392,2,0,P|512:164|512:164,1,20
256,192,58745,2,0,P|256:160|256:160,1,20
0,192,59098,2,0,P|256:192|256:192,1,240.000009155274
160,96,59804,6,0,P|160:68|160:68,1,20
352,288,60157,2,0,P|352:256|352:256,1,20
160,192,60509,1,10,0:0:0:0:
352,192,60862,1,10,0:0:0:0:
256,192,61216,2,0,P|256:220|256:220,1,20
64,192,61568,1,10,0:0:0:0:
448,192,61921,1,10,0:0:0:0:
64,192,62627,5,0,0:0:0:0:
448,192,62980,1,0,0:0:0:0:
64,96,63333,1,0,0:0:0:0:
448,288,63686,1,0,0:0:0:0:
64,32,64039,1,0,0:0:0:0:
448,352,64392,1,0,0:0:0:0:
256,192,64745,1,0,0:0:0:0:
160,192,65451,38,0,B|256:64|256:64|352:192|352:192,1,320
256,64,65627,1,0,0:0:0:0:
352,192,66157,2,0,B|256:320|256:320|160:192|160:192,1,320
256,320,66333,1,0,0:0:0:0:
256,192,66862,101,0,0:0:0:0:
0,192,67215,6,0,P|160:192|160:192,1,160
512,192,67568,102,0,P|352:192|352:192,1,160
0,192,68274,5,0,0:0:0:0:
416,192,68451,2,0,P|512:192|512:192,1,80
128,192,68627,1,0,0:0:0:0:
256,192,68804,1,0,0:0:0:0:
128,192,68980,1,0,0:0:0:0:
256,192,69157,1,0,0:0:0:0:
128,192,69333,1,0,0:0:0:0:
384,192,69509,6,0,P|384:352|384:352,1,160
32,64,69862,2,0,P|128:64|128:64,1,80
256,64,70039,1,0,0:0:0:0:
384,64,70215,1,0,0:0:0:0:
256,128,70392,1,0,0:0:0:0:
128,128,70568,1,0,0:0:0:0:
416,192,70745,2,0,B|384:160|384:160|320:224|320:224|288:192|288:192,1,160
128,224,71098,5,0,0:0:0:0:
256,224,71274,2,0,P|352:224|352:224,1,80
448,224,71451,1,0,0:0:0:0:
256,224,71627,1,0,0:0:0:0:
128,224,71804,1,0,0:0:0:0:
256,224,71980,1,0,0:0:0:0:
0,224,72157,1,0,0:0:0:0:
256,224,72333,1,0,0:0:0:0:
512,224,72509,5,0,0:0:0:0:
384,224,72686,2,0,P|288:224|288:224,1,80
128,224,72862,1,0,0:0:0:0:
384,224,73039,1,0,0:0:0:0:
0,192,73215,37,0,0:0:0:0:
512,192,73568,5,0,0:0:0:0:
160,320,73921,5,0,0:0:0:0:
256,320,74098,2,0,P|256:192|256:192,1,80
352,224,74274,1,0,0:0:0:0:
448,224,74451,1,0,0:0:0:0:
192,224,74627,1,0,0:0:0:0:
96,224,74804,1,0,0:0:0:0:
448,160,74980,1,0,0:0:0:0:
96,160,75157,1,0,0:0:0:0:
448,160,75333,5,0,0:0:0:0:
96,160,75509,2,0,B|160:224|128:96|192:160|192:160,1,80
256,160,75686,1,0,0:0:0:0:
352,224,75862,1,0,0:0:0:0:
192,224,76039,1,0,0:0:0:0:
288,288,76215,1,0,0:0:0:0:
128,288,76392,1,0,0:0:0:0:
224,352,76568,1,0,0:0:0:0:
32,320,76745,5,0,0:0:0:0:
128,320,76921,2,0,P|224:320|224:320,1,80
288,320,77098,1,0,0:0:0:0:
384,320,77274,1,0,0:0:0:0:
448,224,77451,1,0,0:0:0:0:
224,224,77627,1,0,0:0:0:0:
288,128,77804,1,0,0:0:0:0:
384,128,77980,1,0,0:0:0:0:
384,32,78157,5,0,0:0:0:0:
288,32,78333,2,0,B|224:64|224:64|192:96|192:96,1,80
128,160,78509,1,0,0:0:0:0:
224,256,78686,1,0,0:0:0:0:
416,256,78862,69,0,0:0:0:0:
320,256,79039,1,0,0:0:0:0:
416,192,79215,2,0,P|320:192|320:192,1,80
336,192,79392,2,0,P|432:192|432:192,1,80
320,0,79590,5,0,0:0:0:0:
416,0,79745,2,0,P|416:96|416:96,1,80
320,96,79921,1,0,0:0:0:0:
416,192,80098,1,0,0:0:0:0:
320,192,80274,1,0,0:0:0:0:
0,192,80451,1,0,0:0:0:0:
128,192,80627,1,0,0:0:0:0:
256,192,80804,1,0,0:0:0:0:
128,64,80980,5,0,0:0:0:0:
224,64,81157,2,0,B|192:128|224:160|288:128|288:128,1,80
320,128,81333,1,0,0:0:0:0:
416,128,81509,1,0,0:0:0:0:
416,224,81686,1,0,0:0:0:0:
320,224,81862,1,0,0:0:0:0:
224,224,82039,1,0,0:0:0:0:
128,224,82215,1,0,0:0:0:0:
32,224,82392,5,0,0:0:0:0:
128,224,82568,2,0,P|224:224|224:224,1,80
288,224,82745,1,0,0:0:0:0:
384,224,82921,1,0,0:0:0:0:
448,128,83098,1,0,0:0:0:0:
384,32,83274,1,0,0:0:0:0:
288,32,83451,1,0,0:0:0:0:
192,32,83627,1,0,0:0:0:0:
96,128,83804,5,0,0:0:0:0:
192,224,83980,2,0,B|256:256|256:256|288:224|288:224,1,80
352,256,84157,1,0,0:0:0:0:
288,256,84333,1,0,0:0:0:0:
480,256,84509,21,0,0:0:0:0:
160,256,84862,5,0,0:0:0:0:
0,320,85215,5,0,0:0:0:0:
128,320,85392,2,0,P|224:320|224:320,1,80
512,64,85568,1,0,0:0:0:0:
320,64,85745,1,0,0:0:0:0:
416,64,85921,1,0,0:0:0:0:
224,64,86098,1,0,0:0:0:0:
320,64,86274,1,0,0:0:0:0:
128,64,86451,1,0,0:0:0:0:
32,160,86627,5,0,0:0:0:0:
128,160,86804,2,0,P|128:256|128:256,1,80
128,320,86980,1,0,0:0:0:0:
320,320,87157,1,0,0:0:0:0:
224,224,87333,1,0,0:0:0:0:
320,128,87509,1,0,0:0:0:0:
224,32,87686,1,0,0:0:0:0:
96,32,87862,1,0,0:0:0:0:
416,32,88039,5,0,0:0:0:0:
416,128,88215,2,0,P|416:224|416:224,1,80
416,288,88392,1,0,0:0:0:0:
320,288,88568,1,0,0:0:0:0:
96,288,88745,1,0,0:0:0:0:
96,96,88921,1,0,0:0:0:0:
0,288,89098,1,0,0:0:0:0:
0,96,89274,1,0,0:0:0:0:
96,192,89451,5,0,0:0:0:0:
192,192,89627,2,0,P|288:192|288:192,1,80
352,192,89980,1,0,0:0:0:0:
448,192,90157,1,0,0:0:0:0:
96,192,90333,1,0,0:0:0:0:
448,192,90509,1,0,0:0:0:0:
96,192,90686,1,0,0:0:0:0:
256,192,90862,5,0,0:0:0:0:
320,192,91039,2,0,P|416:192|416:192,1,80
256,192,91215,1,0,0:0:0:0:
160,192,91392,1,0,0:0:0:0:
160,288,91568,1,0,0:0:0:0:
256,288,91745,1,0,0:0:0:0:
352,288,91921,1,0,0:0:0:0:
352,192,92098,1,0,0:0:0:0:
352,96,92274,5,0,0:0:0:0:
256,96,92451,2,0,P|160:96|160:96,1,80
192,192,92627,1,0,0:0:0:0:
352,192,92804,1,0,0:0:0:0:
224,288,92980,1,0,0:0:0:0:
64,288,93157,1,0,0:0:0:0:
192,384,93333,1,0,0:0:0:0:
352,384,93509,1,0,0:0:0:0:
448,384,93686,37,0,0:0:0:0:
384,288,93862,2,0,P|384:192|384:192,1,80
384,128,94039,1,0,0:0:0:0:
256,128,94215,1,0,0:0:0:0:
128,128,94392,1,0,0:0:0:0:
256,128,94568,1,0,0:0:0:0:
384,128,94745,1,0,0:0:0:0:
256,128,94921,1,0,0:0:0:0:
128,128,95098,5,0,0:0:0:0:
0,224,95274,2,0,B|64:224|64:224|96:288|96:288,1,80
512,160,95451,2,0,B|448:160|448:160|416:96|416:96,1,80
256,288,95804,85,0,0:0:0:0:
256,96,96157,1,0,0:0:0:0:
256,384,96509,5,0,0:0:0:0:
256,288,96686,2,0,P|256:192|256:192,1,80
256,96,96862,1,0,0:0:0:0:
416,96,97039,1,0,0:0:0:0:
416,192,97215,1,0,0:0:0:0:
256,192,97392,1,0,0:0:0:0:
64,192,97568,1,0,0:0:0:0:
64,96,97745,1,0,0:0:0:0:
64,0,97921,5,0,0:0:0:0:
256,0,98098,2,0,P|352:0|352:0,1,80
416,0,98274,1,0,0:0:0:0:
352,96,98451,1,0,0:0:0:0:
416,192,98627,1,0,0:0:0:0:
480,288,98804,1,0,0:0:0:0:
416,384,98980,1,0,0:0:0:0:
320,384,99157,1,0,0:0:0:0:
224,384,99333,5,0,0:0:0:0:
128,384,99509,2,0,B|64:320|64:320|64:320,1,80
192,192,99686,1,0,0:0:0:0:
64,96,99862,1,0,0:0:0:0:
320,192,100039,1,0,0:0:0:0:
192,96,100215,1,0,0:0:0:0:
448,192,100392,1,0,0:0:0:0:
320,96,100568,1,0,0:0:0:0:
192,288,100745,5,0,0:0:0:0:
96,288,100921,2,0,P|0:288|0:288,1,80
288,224,101098,1,0,0:0:0:0:
192,224,101274,2,0,P|96:224|96:224,1,80
384,160,101451,1,0,0:0:0:0:
288,160,101627,2,0,P|192:160|192:160,1,80
480,96,101804,2,0,P|320:96|320:96,1,160
256,96,102157,5,0,0:0:0:0:
160,0,102333,2,0,P|160:96|160:96,1,80
0,192,102509,1,0,0:0:0:0:
192,192,102686,1,0,0:0:0:0:
160,288,102862,1,0,0:0:0:0:
352,288,103039,1,0,0:0:0:0:
352,192,103215,1,0,0:0:0:0:
0,288,103392,1,0,0:0:0:0:
448,288,103568,5,0,0:0:0:0:
448,192,103745,2,0,P|448:96|448:96,1,80
352,32,103921,1,0,0:0:0:0:
256,96,104098,1,0,0:0:0:0:
160,32,104274,1,0,0:0:0:0:
64,96,104451,1,0,0:0:0:0:
160,32,104627,1,0,0:0:0:0:
256,96,104804,1,0,0:0:0:0:
352,32,104980,37,0,0:0:0:0:
448,96,105157,2,0,P|448:192|448:192,1,80
448,320,105333,1,0,0:0:0:0:
320,320,105509,1,0,0:0:0:0:
160,320,105686,1,0,0:0:0:0:
160,192,105862,1,0,0:0:0:0:
160,64,106039,1,0,0:0:0:0:
320,64,106215,1,0,0:0:0:0:
448,64,106392,5,0,0:0:0:0:
448,192,106568,2,0,P|352:192|352:192,1,80
64,192,106745,2,0,P|160:192|160:192,1,80
512,192,107098,69,0,0:0:0:0:
0,192,107451,5,0,0:0:0:0:
512,192,107804,5,0,0:0:0:0:
416,192,107980,2,0,P|320:192|320:192,1,80
192,192,108157,1,0,0:0:0:0:
0,192,108333,1,0,0:0:0:0:
0,384,108509,1,0,0:0:0:0:
192,384,108686,1,0,0:0:0:0:
192,192,108862,1,0,0:0:0:0:
0,192,109039,1,0,0:0:0:0:
192,192,109215,5,0,0:0:0:0:
352,192,109392,2,0,P|448:192|448:192,1,80
352,288,109568,1,0,0:0:0:0:
256,288,109745,1,0,0:0:0:0:
352,96,109921,1,0,0:0:0:0:
256,96,110098,1,0,0:0:0:0:
160,96,110274,1,0,0:0:0:0:
64,192,110451,1,0,0:0:0:0:
160,288,110627,5,8,0:0:0:0:
256,288,110804,2,8,P|352:288|352:288,1,80
256,96,110980,1,8,0:0:0:0:
352,96,111157,1,8,0:0:0:0:
448,96,111333,1,12,0:0:0:0:
352,192,111509,1,12,0:0:0:0:
256,192,111686,1,12,0:0:0:0:
160,192,111862,1,12,0:0:0:0:
256,192,112039,12,0,113054,0:0:0:0:
256,192,113098,5,8,0:0:0:0:
352,192,113451,86,0,P|512:192|512:192,1,160
0,192,113804,2,0,P|160:192|160:192,1,160
256,192,114157,2,0,P|96:192|96:192,1,160
416,192,114509,2,0,P|224:192|224:192,1,160
352,192,114862,2,0,P|512:192|512:192,1,160
192,96,115215,2,0,P|0:96|0:96,1,160
332,164,115568,2,0,B|256:192|256:192|164:160|164:160,1,160
512,192,115921,21,8,0:0:0:0:
0,160,116098,1,0,0:0:0:0:
352,192,116274,102,0,P|544:192|544:192,1,160
0,192,116627,2,0,B|160:192|160:192|128:192|128:192,1,160
512,128,116980,2,0,B|480:64|480:64|416:0|416:0,1,160
160,192,117333,2,0,P|0:192|0:192,1,160
352,192,117686,2,4,B|448:192|544:192|544:192,1,160
107,230,118039,2,4,B|171:166|267:230|267:230,1,160
404,230,118392,2,8,B|340:166|244:230|244:230,1,160
512,192,118745,2,8,B|448:192|320:192|320:192,1,160
0,0,119098,5,0,0:0:0:0:
128,0,119274,1,0,0:0:0:0:
0,64,119451,5,0,0:0:0:0:
128,64,119627,1,0,0:0:0:0:
0,128,119804,5,0,0:0:0:0:
256,128,119980,1,0,0:0:0:0:
0,192,120157,37,0,0:0:0:0:
256,192,120333,1,0,0:0:0:0:
0,256,120509,53,0,0:0:0:0:
128,256,120686,1,0,0:0:0:0:
0,320,120862,5,0,0:0:0:0:
256,320,121039,1,0,0:0:0:0:
0,384,121215,37,0,0:0:0:0:
256,384,121392,1,0,0:0:0:0:
512,384,121568,6,0,P|352:384|352:384,1,160
512,288,121921,5,0,0:0:0:0:
384,288,122098,1,0,0:0:0:0:
512,224,122274,1,0,0:0:0:0:
384,224,122451,1,0,0:0:0:0:
512,160,122627,1,0,0:0:0:0:
256,160,122804,1,0,0:0:0:0:
512,96,122980,1,0,0:0:0:0:
256,96,123157,1,0,0:0:0:0:
256,192,123333,53,8,0:0:0:0:
192,128,123686,5,8,0:0:0:0:
320,256,123862,101,8,0:0:0:0:
128,64,124039,5,8,0:0:0:0:
384,320,124215,101,8,0:0:0:0:
64,0,124392,5,8,0:0:0:0:
448,384,124568,101,8,0:0:0:0:
224,384,124745,22,0,P|224:192|224:192,1,160
288,384,125098,2,0,P|288:192|288:192,1,160
224,0,125451,2,0,P|224:192|224:192,1,160
288,0,125804,2,0,P|288:192|288:192,1,160
0,192,126157,2,0,B|80:192|80:192|0:192|0:192,1,160
256,304,126509,2,0,B|256:384|256:384|256:304|256:304,1,160
512,192,126862,2,0,B|432:192|432:192|512:192|512:192,1,160
256,80,127215,2,0,B|256:0|256:0|256:80|256:80,1,160
256,128,127568,5,0,0:0:0:0:
512,128,127745,1,0,0:0:0:0:
256,256,127921,1,0,0:0:0:0:
512,256,128098,1,0,0:0:0:0:
256,128,128274,1,0,0:0:0:0:
0,128,128451,1,0,0:0:0:0:
256,256,128627,1,0,0:0:0:0:
0,256,128804,1,0,0:0:0:0:
352,192,128980,6,0,B|448:192|544:192|544:192,1,160
160,192,129333,2,0,B|96:192|0:192|0:192,1,160
352,192,129686,2,0,B|448:192|512:192|512:192,1,160
160,192,130039,2,0,B|64:192|-32:192|-32:192,1,160
256,192,130392,5,0,0:0:0:0:
384,192,130568,1,0,0:0:0:0:
256,320,130745,1,0,0:0:0:0:
384,320,130921,1,0,0:0:0:0:
256,192,131098,1,0,0:0:0:0:
128,192,131274,1,0,0:0:0:0:
256,320,131451,1,0,0:0:0:0:
128,320,131627,1,0,0:0:0:0:
160,192,131804,6,0,B|96:192|96:192|0:192|0:192,1,160
256,0,132157,2,0,B|256:96|256:96|256:160|256:160,1,160
352,192,132509,2,0,B|416:192|416:192|544:192|544:192,1,160
256,384,132862,2,0,B|256:320|256:320|256:224|256:224,1,160
512,384,133215,5,0,0:0:0:0:
448,384,133304,1,0,0:0:0:0:
384,320,133392,1,0,0:0:0:0:
448,320,133480,1,0,0:0:0:0:
384,256,133568,1,0,0:0:0:0:
320,256,133657,1,0,0:0:0:0:
256,192,133745,1,0,0:0:0:0:
320,192,133833,1,0,0:0:0:0:
256,128,133921,1,0,0:0:0:0:
192,128,134009,1,0,0:0:0:0:
128,64,134098,1,0,0:0:0:0:
192,64,134186,1,0,0:0:0:0:
128,128,134274,1,0,0:0:0:0:
64,128,134362,1,0,0:0:0:0:
0,64,134451,1,0,0:0:0:0:
64,64,134539,1,0,0:0:0:0:
176,192,134980,22,0,P|336:192|336:192,1,160
0,192,135333,1,0,0:0:0:0:
512,192,135686,1,0,0:0:0:0:
256,192,136039,1,0,0:0:0:0:
256,192,140230,6,0,P|256:172|256:172,138,20
0,224,146428,6,0,P|0:212|0:212,40,10
0,192,147333,5,0,0:0:0:0:
0,192,148039,2,0,P|0:288|0:288,1,80
128,288,148392,2,0,P|128:192|128:192,1,80
0,0,148745,1,8,0:0:0:0:
0,192,149451,6,0,P|0:288|0:288,1,80
256,288,149804,2,0,P|256:192|256:192,1,80
0,0,150157,1,8,0:0:0:0:
0,192,150862,6,0,P|0:288|0:288,1,80
384,288,151215,2,0,P|384:192|384:192,1,80
0,0,151568,1,8,0:0:0:0:
512,192,152098,1,0,0:0:0:0:
416,192,152274,1,0,0:0:0:0:
320,192,152451,1,0,0:0:0:0:
0,192,152627,1,0,0:0:0:0:
96,192,152804,1,0,0:0:0:0:
192,192,152980,5,8,0:0:0:0:
512,192,153686,2,0,P|512:288|512:288,1,80
384,288,154039,2,0,P|384:192|384:192,1,80
512,0,154392,1,8,0:0:0:0:
512,192,155098,6,0,P|512:288|512:288,1,80
256,288,155451,2,0,P|256:192|256:192,1,80
512,0,155804,1,8,0:0:0:0:
512,192,156509,6,0,P|512:288|512:288,1,80
128,288,156862,2,0,P|128:192|128:192,1,80
512,0,157215,1,8,0:0:0:0:
0,192,157745,1,0,0:0:0:0:
96,192,157921,1,0,0:0:0:0:
192,192,158098,1,0,0:0:0:0:
512,192,158274,1,0,0:0:0:0:
384,192,158451,1,0,0:0:0:0:
256,192,158627,38,8,B|176:192|176:192|64:192|64:192,1,160
512,192,159333,2,0,P|416:192|416:192,1,80
96,192,159686,2,0,P|0:192|0:192,1,80
256,192,160039,1,8,0:0:0:0:
96,192,160392,6,0,P|0:192|0:192,1,80
288,192,160745,2,0,P|208:192|208:192,1,80
512,192,161098,2,0,P|416:192|416:192,1,80
0,192,161451,1,8,0:0:0:0:
512,192,161804,6,0,P|416:192|416:192,1,80
64,192,162157,2,0,P|0:96|0:96,1,80
256,192,162510,2,0,P|192:288|192:288,1,80
512,192,162863,1,8,0:0:0:0:
512,192,163215,6,0,P|416:192|416:192,1,80
0,192,163568,1,0,0:0:0:0:
128,192,163745,1,0,0:0:0:0:
384,192,163921,1,0,0:0:0:0:
256,192,164098,1,0,0:0:0:0:
0,192,164274,6,8,B|80:192|80:192|0:192|0:192,1,160
416,192,164980,2,0,P|512:192|512:192,1,80
336,192,165333,2,0,P|432:192|432:192,1,80
256,192,165686,1,8,0:0:0:0:
0,192,166039,6,0,P|96:192|96:192,1,80
416,192,166392,2,0,P|512:256|512:256,1,80
0,192,166745,2,0,P|96:128|96:128,1,80
256,192,167098,1,8,0:0:0:0:
0,192,167451,38,0,P|96:192|96:192,1,80
256,192,167804,2,0,P|320:96|320:96,1,80
448,192,168157,2,0,P|512:288|512:288,1,80
256,192,168510,1,8,0:0:0:0:
0,192,168862,6,0,P|96:192|96:192,1,80
512,192,169215,1,0,0:0:0:0:
384,192,169392,1,0,0:0:0:0:
128,192,169568,1,0,0:0:0:0:
256,192,169745,1,0,0:0:0:0:
0,192,169921,6,8,B|80:192|80:192|0:192|0:192,1,160
256,192,170627,2,0,P|256:96|256:96,1,80
512,192,170980,2,0,P|512:288|512:288,1,80
64,192,171333,6,8,B|-16:192|-16:192|64:192|64:192,1,160
128,192,172039,2,0,P|224:128|224:128,1,80
416,192,172392,2,0,P|512:256|512:256,1,80
0,192,172745,6,8,B|-80:192|-80:192|0:192|0:192,1,160
96,192,173451,2,0,P|0:192|0:192,1,80
512,192,173804,2,0,P|416:192|416:192,1,80
352,320,174157,5,8,0:0:0:0:
64,320,174509,2,0,P|160:320|160:320,1,80
512,256,174862,1,0,0:0:0:0:
384,256,175039,1,0,0:0:0:0:
0,192,175215,1,0,0:0:0:0:
128,192,175392,1,0,0:0:0:0:
256,128,175568,38,8,B|336:128|336:128|256:128|256:128,1,160
288,192,176274,2,0,P|384:192|384:192,1,80
320,256,176627,2,0,P|416:256|416:256,1,80
352,320,176980,5,8,0:0:0:0:
256,320,177333,2,0,B|192:320|192:320|192:288|192:288,1,80
128,256,177686,2,0,B|64:256|64:256|64:224|64:224,1,80
256,192,178039,2,0,B|192:192|192:192|192:160|192:160,1,80
352,128,178392,6,8,B|384:160|356:204|356:204|384:160|352:128|352:128,1,160
288,192,179098,2,0,B|320:224|288:288|288:288,1,80
224,256,179451,2,0,B|256:288|224:352|224:352,1,80
160,320,179804,5,8,0:0:0:0:
160,192,180157,2,0,B|203:98|203:98|203:98,1,80
192,128,180509,1,8,0:0:0:0:
352,128,180686,1,8,0:0:0:0:
96,256,180862,1,8,0:0:0:0:
448,256,181039,1,8,0:0:0:0:
353,39,181215,5,8,0:0:0:0:
352,128,181392,1,0,0:0:0:0:
384,128,181480,1,0,0:0:0:0:
416,128,181568,1,0,0:0:0:0:
416,224,181745,1,0,0:0:0:0:
416,320,181921,1,0,0:0:0:0:
320,320,182098,1,0,0:0:0:0:
224,320,182274,1,0,0:0:0:0:
128,320,182451,1,8,0:0:0:0:
128,240,182627,5,0,0:0:0:0:
128,160,182804,1,0,0:0:0:0:
128,128,182892,1,0,0:0:0:0:
128,96,182981,1,0,0:0:0:0:
128,0,183157,1,0,0:0:0:0:
256,0,183334,1,0,0:0:0:0:
192,64,183510,1,0,0:0:0:0:
320,64,183686,1,0,0:0:0:0:
256,128,183863,1,8,0:0:0:0:
384,128,184039,37,0,0:0:0:0:
384,224,184216,1,0,0:0:0:0:
384,256,184304,1,0,0:0:0:0:
384,288,184392,1,0,0:0:0:0:
288,288,184568,1,0,0:0:0:0:
160,288,184745,1,0,0:0:0:0:
224,224,184921,1,0,0:0:0:0:
96,224,185098,1,0,0:0:0:0:
160,160,185274,1,8,0:0:0:0:
32,160,185451,5,0,0:0:0:0:
192,64,185627,1,0,0:0:0:0:
224,64,185715,1,0,0:0:0:0:
256,64,185804,2,0,P|352:64|352:64,1,80
256,160,186157,2,0,B|304:192|304:192|352:160|352:160,1,80
256,256,186509,2,0,B|288:304|288:304|320:320|320:320|336:304|336:304,1,80
512,256,186862,5,8,0:0:0:0:
512,192,187039,1,0,0:0:0:0:
512,128,187215,1,0,0:0:0:0:
384,256,187392,1,0,0:0:0:0:
352,256,187480,69,0,0:0:0:0:
0,256,187568,5,8,0:0:0:0:
0,192,187745,1,0,0:0:0:0:
0,128,187921,1,0,0:0:0:0:
160,256,188098,1,0,0:0:0:0:
192,256,188186,101,0,0:0:0:0:
512,256,188274,69,8,0:0:0:0:
512,192,188451,1,0,0:0:0:0:
512,128,188627,1,8,0:0:0:0:
192,256,188804,1,0,0:0:0:0:
160,256,188892,37,0,0:0:0:0:
0,256,188980,37,8,0:0:0:0:
0,192,189157,1,0,0:0:0:0:
0,128,189333,1,8,0:0:0:0:
320,256,189509,1,0,0:0:0:0:
0,0,189686,53,8,0:0:0:0:
64,0,189774,5,8,0:0:0:0:
64,64,189862,101,8,0:0:0:0:
128,64,189951,5,8,0:0:0:0:
128,128,190039,101,8,0:0:0:0:
192,128,190127,5,8,0:0:0:0:
192,192,190215,101,8,0:0:0:0:
256,192,190304,5,8,0:0:0:0:
256,256,190392,101,8,0:0:0:0:
320,256,190480,5,8,0:0:0:0:
320,320,190568,101,8,0:0:0:0:
384,320,190657,5,8,0:0:0:0:
384,384,190745,101,8,0:0:0:0:
448,384,190833,5,8,0:0:0:0:
448,320,190921,101,8,0:0:0:0:
512,320,191009,5,8,0:0:0:0:
384,288,191098,5,0,0:0:0:0:
128,288,191451,1,0,0:0:0:0:
256,192,191627,1,0,0:0:0:0:
107,197,191804,2,0,B|203:165|203:165|267:197|267:197,1,160
404,185,192157,2,0,B|308:217|308:217|244:185|244:185,1,160
160,256,192509,5,0,0:0:0:0:
32,256,192686,1,0,0:0:0:0:
32,224,192774,1,0,0:0:0:0:
32,192,192862,1,0,0:0:0:0:
32,64,193039,1,0,0:0:0:0:
128,64,193215,1,0,0:0:0:0:
224,64,193392,1,0,0:0:0:0:
224,160,193568,1,0,0:0:0:0:
224,256,193745,1,0,0:0:0:0:
224,352,193921,5,0,0:0:0:0:
320,352,194098,1,0,0:0:0:0:
384,352,194186,1,0,0:0:0:0:
448,352,194274,1,0,0:0:0:0:
448,256,194450,1,0,0:0:0:0:
448,160,194627,1,0,0:0:0:0:
448,64,194803,1,0,0:0:0:0:
352,64,194980,1,0,0:0:0:0:
256,64,195156,1,0,0:0:0:0:
160,64,195333,5,0,0:0:0:0:
160,160,195509,1,0,0:0:0:0:
128,192,195598,1,0,0:0:0:0:
160,224,195686,1,0,0:0:0:0:
160,320,195862,1,0,0:0:0:0:
256,320,196039,1,0,0:0:0:0:
352,320,196215,1,0,0:0:0:0:
352,224,196392,1,0,0:0:0:0:
256,224,196568,1,0,0:0:0:0:
256,128,196745,5,0,0:0:0:0:
352,128,196921,1,0,0:0:0:0:
384,96,197009,1,0,0:0:0:0:
352,64,197098,1,0,0:0:0:0:
256,32,197274,1,0,0:0:0:0:
256,128,197450,21,0,0:0:0:0:
256,256,197803,5,0,0:0:0:0:
256,384,198156,5,0,0:0:0:0:
256,288,198333,1,0,0:0:0:0:
224,256,198421,1,0,0:0:0:0:
256,224,198509,1,0,0:0:0:0:
256,96,198686,1,0,0:0:0:0:
384,96,198862,1,0,0:0:0:0:
384,224,199039,1,0,0:0:0:0:
256,224,199215,1,0,0:0:0:0:
256,96,199392,1,0,0:0:0:0:
128,96,199568,5,0,0:0:0:0:
128,224,199745,1,0,0:0:0:0:
160,256,199833,1,0,0:0:0:0:
192,224,199921,1,0,0:0:0:0:
256,224,200098,1,0,0:0:0:0:
384,224,200274,1,0,0:0:0:0:
384,96,200450,1,0,0:0:0:0:
512,96,200627,1,0,0:0:0:0:
512,224,200803,1,0,0:0:0:0:
512,352,200980,5,0,0:0:0:0:
384,352,201156,1,0,0:0:0:0:
352,320,201245,1,0,0:0:0:0:
384,288,201333,1,0,0:0:0:0:
448,224,201509,1,0,0:0:0:0:
384,160,201686,1,0,0:0:0:0:
448,96,201862,1,0,0:0:0:0:
384,32,202039,1,0,0:0:0:0:
320,96,202215,1,0,0:0:0:0:
256,160,202392,5,0,0:0:0:0:
384,224,202745,37,10,0:0:0:0:
256,224,202921,5,10,0:0:0:0:
128,224,203098,101,10,0:0:0:0:
256,288,203274,5,10,0:0:0:0:
384,288,203450,101,10,0:0:0:0:
256,352,203627,5,10,0:0:0:0:
384,224,203803,5,0,0:0:0:0:
384,128,203980,1,0,0:0:0:0:
384,96,204068,1,0,0:0:0:0:
384,64,204156,1,0,0:0:0:0:
256,64,204333,1,0,0:0:0:0:
128,64,204509,1,0,0:0:0:0:
256,64,204686,1,0,0:0:0:0:
128,192,204862,1,0,0:0:0:0:
256,320,205039,1,0,0:0:0:0:
416,320,205215,5,0,0:0:0:0:
512,256,205392,1,0,0:0:0:0:
512,224,205480,1,0,0:0:0:0:
512,192,205568,1,0,0:0:0:0:
416,128,205745,2,0,B|352:96|352:96|288:128|288:128|256:128|256:128,1,160
126,128,206098,2,0,B|190:160|190:160|254:128|254:128|286:128|286:128,1,160
270,128,206450,1,0,0:0:0:0:
416,128,206627,5,0,0:0:0:0:
416,224,206803,2,0,P|416:320|416:320,2,80
416,32,207156,1,0,0:0:0:0:
320,32,207333,1,0,0:0:0:0:
224,32,207509,1,0,0:0:0:0:
128,32,207686,1,0,0:0:0:0:
128,128,207862,1,0,0:0:0:0:
224,128,208039,5,0,0:0:0:0:
320,128,208215,2,0,B|384:128|352:192|352:192,2,80
224,128,208568,1,0,0:0:0:0:
0,192,208745,37,0,0:0:0:0:
512,192,209098,5,0,0:0:0:0:
0,192,209450,5,0,0:0:0:0:
192,192,209627,2,0,P|128:128|128:128,2,80
288,192,209980,1,0,0:0:0:0:
416,192,210156,1,0,0:0:0:0:
288,192,210333,1,0,0:0:0:0:
416,192,210509,1,0,0:0:0:0:
288,192,210686,1,0,0:0:0:0:
416,192,210862,5,0,0:0:0:0:
416,64,211039,2,0,P|320:64|320:64,1,80
288,64,211215,1,0,0:0:0:0:
160,64,211392,1,0,0:0:0:0:
160,192,211568,1,0,0:0:0:0:
160,320,211745,1,0,0:0:0:0:
288,320,211921,1,0,0:0:0:0:
416,320,212098,1,0,0:0:0:0:
416,192,212274,5,0,0:0:0:0:
416,64,212450,1,0,0:0:0:0:
352,64,212539,1,0,0:0:0:0:
288,64,212627,1,0,0:0:0:0:
288,192,212803,1,0,0:0:0:0:
288,320,212980,1,0,0:0:0:0:
160,320,213156,1,0,0:0:0:0:
160,192,213333,1,0,0:0:0:0:
160,64,213509,1,0,0:0:0:0:
256,192,213686,5,8,0:0:0:0:
256,64,215098,6,8,B|320:96|320:96|352:192|352:192,1,160
256,64,215450,2,8,B|320:96|320:96|352:192|352:192,1,160
256,320,215803,2,0,B|192:288|192:288|160:192|160:192,1,160
256,320,216156,2,0,B|192:288|192:288|160:192|160:192,1,160
256,64,216509,2,8,B|320:96|320:96|352:192|352:192,1,160
256,320,216862,2,0,B|192:288|192:288|160:192|160:192,1,160
256,320,217215,38,8,B|192:288|192:288|160:192|160:192,1,160
192,192,217921,6,8,P|288:64|288:64,1,160
224,256,218274,2,8,P|320:128|320:128,1,160
480,288,218627,2,0,P|384:160|384:160,1,160
448,352,218980,2,0,P|352:224|352:224,1,160
96,96,219333,2,8,B|192:96|224:192|224:192,1,160
416,192,219686,2,8,B|448:96|448:96|352:64|352:64,1,160
256,96,220039,2,0,B|160:64|160:64|128:128|128:128,1,160
96,256,220392,2,0,B|160:320|256:320|256:320,1,160
480,320,220745,6,8,B|544:224|544:224|480:160|480:160,1,160
0,320,221097,2,8,B|64:224|64:224|32:192|32:192,1,160
512,160,221450,2,0,B|448:96|448:96|416:160|416:160,1,160
96,192,221803,2,0,B|32:96|32:96|0:160|0:160,1,160
160,224,222156,2,8,B|96:288|96:288|192:288|192:288,1,160
352,288,222509,2,0,P|512:288|512:288,1,160
0,288,222862,86,8,P|160:288|160:288,1,160
512,224,223568,6,8,P|352:224|352:224,1,160
512,128,223921,2,8,P|352:128|352:128,1,160
0,128,224274,2,0,P|160:128|160:128,1,160
0,224,224627,2,0,P|192:224|192:224,1,160
256,192,224980,85,0,0:0:0:0:
192,192,225333,5,2,0:0:0:0:
320,192,225509,101,2,0:0:0:0:
128,192,225686,5,2,0:0:0:0:
384,192,225862,101,2,0:0:0:0:
64,192,226039,5,2,0:0:0:0:
448,192,226215,101,2,0:0:0:0:
256,96,226392,21,0,0:0:0:0:
256,192,226745,2,0,B|192:224|192:224|256:320|256:320,1,128
320,320,227097,1,0,0:0:0:0:
384,320,227450,1,0,0:0:0:0:
448,320,227803,1,0,0:0:0:0:
448,256,228068,2,0,P|448:64|448:64,1,192
352,64,228509,1,2,0:0:0:0:
256,64,228862,1,2,0:0:0:0:
160,64,229215,5,0,0:0:0:0:
160,192,229480,1,0,0:0:0:0:
160,256,229745,1,0,0:0:0:0:
256,256,229921,1,2,0:0:0:0:
320,256,230097,1,2,0:0:0:0:
384,192,230274,1,2,0:0:0:0:
320,192,230450,1,2,0:0:0:0:
256,128,230627,1,2,0:0:0:0:
320,128,230803,1,2,0:0:0:0:
416,128,231068,1,0,0:0:0:0:
416,224,231333,1,0,0:0:0:0:
416,320,231597,1,0,0:0:0:0:
320,320,231862,1,0,0:0:0:0:
256,288,232039,5,0,0:0:0:0:
192,320,232303,1,0,0:0:0:0:
128,320,232568,1,0,0:0:0:0:
32,224,232833,1,0,0:0:0:0:
128,128,233097,1,0,0:0:0:0:
224,128,233450,1,0,0:0:0:0:
352,128,233715,1,0,0:0:0:0:
448,224,233980,1,0,0:0:0:0:
352,320,234156,1,0,0:0:0:0:
160,320,234509,1,0,0:0:0:0:
0,288,234862,6,0,P|0:192|0:192,1,80
256,288,235215,2,0,P|160:288|160:288,1,80
512,224,235568,2,0,P|512:320|512:320,1,80
256,288,235921,2,0,P|352:288|352:288,1,80
192,192,236274,5,0,0:0:0:0:
320,192,236450,1,0,0:0:0:0:
256,128,236627,2,0,P|256:64|256:64,2,40
256,288,236980,38,0,B|256:200|256:200|256:288|256:288|256:200|256:200|256:280,1,320
256,288,237333,21,8,0:0:0:0:
0,192,237686,5,0,0:0:0:0:
96,128,237862,2,0,P|160:128|160:128,1,40
512,192,238039,2,0,P|416:192|416:192,1,80
256,192,238392,1,0,0:0:0:0:
96,224,238568,2,0,P|160:224|160:224,1,40
512,192,238745,2,0,P|416:192|416:192,1,80
256,192,239097,1,0,0:0:0:0:
64,192,239274,2,0,P|0:192|0:192,1,40
512,192,239450,2,0,P|416:192|416:192,1,80
0,0,239803,6,0,P|64:0|64:0,1,40
256,0,239980,2,0,P|320:0|320:0,1,40
512,192,240156,2,0,P|448:192|448:192,1,40
256,192,240333,2,0,P|192:192|192:192,1,40
0,192,240509,5,0,0:0:0:0:
448,192,240685,2,0,P|512:192|512:192,1,40
0,192,240862,2,0,P|96:192|96:192,1,80
256,192,241215,1,0,0:0:0:0:
448,192,241391,2,0,P|512:192|512:192,1,40
96,192,241568,2,0,P|0:192|0:192,1,80
256,192,241920,1,0,0:0:0:0:
480,192,242097,2,0,P|416:192|416:192,1,40
96,192,242273,2,0,P|0:192|0:192,1,80
416,192,242626,6,0,P|352:192|352:192,1,40
96,192,242803,2,0,P|160:192|160:192,1,40
416,192,242979,2,0,P|352:192|352:192,1,40
96,192,243156,2,0,P|160:192|160:192,1,40
416,192,243333,37,0,0:0:0:0:
256,192,243509,2,0,P|320:192|320:192,1,40
96,192,243686,2,0,P|192:192|192:192,1,80
256,192,244039,1,0,0:0:0:0:
96,192,244215,2,0,P|160:192|160:192,1,40
512,192,244392,2,0,P|416:192|416:192,1,80
256,192,244744,1,0,0:0:0:0:
96,192,244921,2,0,P|32:192|32:192,1,40
512,192,245097,2,0,P|416:192|416:192,1,80
352,192,245450,6,0,P|416:192|416:192,1,40
256,192,245627,2,0,P|320:192|320:192,1,40
160,192,245803,2,0,P|224:192|224:192,1,40
64,192,245980,2,0,P|128:192|128:192,1,40
0,192,246156,5,0,0:0:0:0:
512,192,246333,1,0,0:0:0:0:
256,192,246421,1,0,0:0:0:0:
0,192,246509,2,0,P|96:192|96:192,1,80
256,192,246862,1,0,0:0:0:0:
512,192,247039,1,0,0:0:0:0:
256,192,247127,1,0,0:0:0:0:
0,192,247215,2,0,P|96:192|96:192,1,80
256,192,247567,1,0,0:0:0:0:
512,192,247745,1,0,0:0:0:0:
256,192,247833,1,0,0:0:0:0:
0,192,247920,2,0,P|96:192|96:192,1,80
448,192,248273,6,4,P|512:192|512:192,1,40
160,192,248450,2,4,P|224:192|224:192,1,40
320,192,248626,2,4,P|384:192|384:192,1,40
0,192,248803,2,4,P|64:192|64:192,1,40
0,192,248980,5,0,0:0:0:0:
448,192,249156,2,0,P|512:192|512:192,1,40
64,192,249333,2,0,P|160:192|160:192,1,80
0,192,249686,1,0,0:0:0:0:
448,192,249862,2,0,P|512:192|512:192,1,40
144,192,250039,2,0,P|240:192|240:192,1,80
0,192,250391,1,0,0:0:0:0:
448,192,250568,2,0,P|512:192|512:192,1,40
224,192,250744,2,0,P|320:192|320:192,1,80
448,192,251097,6,0,P|512:192|512:192,1,40
0,192,251274,2,0,P|64:192|64:192,1,40
448,192,251450,2,0,P|512:192|512:192,1,40
0,192,251627,2,0,P|64:192|64:192,1,40
0,192,251803,5,0,0:0:0:0:
224,192,251979,2,0,P|288:192|288:192,1,40
96,192,252156,2,0,P|192:192|192:192,1,80
320,192,252509,1,0,0:0:0:0:
384,288,252685,2,0,P|320:288|320:288,1,40
512,288,252862,2,0,P|416:288|416:288,1,80
128,288,253214,1,0,0:0:0:0:
224,288,253391,2,0,P|160:288|160:288,1,40
320,288,253567,2,0,P|224:288|224:288,1,80
384,224,253920,6,0,P|448:224|448:224,1,40
96,224,254097,2,0,P|160:224|160:224,1,40
192,224,254273,2,0,P|256:224|256:224,1,40
288,224,254450,2,0,P|352:224|352:224,1,40
0,128,254627,5,0,0:0:0:0:
64,128,254803,2,0,P|128:128|128:128,1,40
160,128,254980,2,0,P|256:128|256:128,1,80
512,192,255333,1,0,0:0:0:0:
448,192,255509,2,0,P|384:192|384:192,1,40
352,192,255686,2,0,P|256:192|256:192,1,80
0,256,256038,1,0,0:0:0:0:
64,256,256215,2,0,P|128:256|128:256,1,40
160,256,256391,2,0,P|256:256|256:256,1,80
448,160,256744,6,0,P|512:160|512:160,1,40
416,288,256921,2,0,P|352:288|352:288,1,40
288,160,257097,2,0,P|352:160|352:160,1,40
256,288,257274,2,0,P|192:288|192:288,1,40
0,192,257450,5,0,0:0:0:0:
96,192,257626,2,0,P|160:192|160:192,1,40
192,192,257803,2,0,P|288:192|288:192,1,80
352,192,258156,1,0,0:0:0:0:
416,192,258332,2,0,P|480:192|480:192,1,40
512,288,258509,2,0,P|416:288|416:288,1,80
352,288,258861,1,0,0:0:0:0:
288,288,259038,2,0,P|224:288|224:288,1,40
192,288,259214,2,0,P|96:288|96:288,1,80
448,224,259567,6,4,P|512:224|512:224,1,40
0,224,259744,2,4,P|64:224|64:224,1,40
448,224,259920,2,4,P|512:224|512:224,1,40
0,224,260097,2,4,P|64:224|64:224,1,40
256,192,260274,5,0,0:0:0:0:
0,192,260450,2,0,P|64:192|64:192,1,40
256,192,260627,2,0,P|352:192|352:192,1,80
256,192,260980,1,0,0:0:0:0:
448,192,261156,2,0,P|512:192|512:192,1,40
256,192,261333,2,0,P|160:192|160:192,1,80
256,192,261685,1,0,0:0:0:0:
64,192,261862,2,0,P|0:192|0:192,1,40
256,192,262038,2,0,P|352:192|352:192,1,80
256,288,262391,6,0,P|320:288|320:288,1,40
352,288,262568,2,0,P|416:288|416:288,1,40
64,288,262744,2,0,P|128:288|128:288,1,40
160,288,262921,2,0,P|224:288|224:288,1,40
0,192,263097,5,0,0:0:0:0:
448,192,263273,2,0,P|512:192|512:192,1,40
0,192,263450,2,0,P|96:192|96:192,1,80
0,192,263803,1,0,0:0:0:0:
256,192,263979,2,0,P|320:192|320:192,1,40
0,192,264156,2,0,P|96:192|96:192,1,80
0,192,264508,1,0,0:0:0:0:
512,192,264685,2,0,P|448:192|448:192,1,40
0,192,264861,2,0,P|96:192|96:192,1,80
0,224,265214,6,0,P|64:224|64:224,1,40
448,224,265391,2,0,P|512:224|512:224,1,40
320,224,265567,2,0,P|384:224|384:224,1,40
192,224,265744,2,0,P|256:224|256:224,1,40
0,0,265920,5,0,0:0:0:0:
448,0,266096,2,0,P|512:0|512:0,1,40
96,96,266273,2,0,P|192:96|192:96,1,80
192,192,266626,1,0,0:0:0:0:
448,192,266802,2,0,P|512:192|512:192,1,40
288,288,266979,2,0,P|192:288|192:288,1,80
384,384,267331,1,0,0:0:0:0:
64,160,267508,2,0,P|0:160|0:160,1,40
480,288,267684,2,0,P|384:288|384:288,1,80
256,96,268037,6,0,P|192:96|192:96,1,40
448,96,268214,2,0,P|512:96|512:96,1,40
448,192,268390,2,0,P|512:192|512:192,1,40
64,192,268567,2,0,P|0:192|0:192,1,40
512,192,268744,5,0,0:0:0:0:
0,192,268920,2,0,P|64:192|64:192,1,40
416,192,269097,2,0,P|512:192|512:192,1,80
352,192,269450,1,0,0:0:0:0:
0,192,269626,2,0,P|64:192|64:192,1,40
288,192,269803,2,0,P|192:192|192:192,1,80
352,192,270155,1,0,0:0:0:0:
64,192,270332,2,0,P|0:192|0:192,1,40
512,192,270508,2,0,P|416:192|416:192,1,80
0,192,270861,6,6,P|64:192|64:192,1,40
512,192,271038,2,6,P|448:192|448:192,1,40
0,192,271214,2,6,P|64:192|64:192,1,40
512,192,271391,2,6,P|448:192|448:192,1,40
0,192,271567,5,0,0:0:0:0:
448,192,271743,2,0,P|512:192|512:192,1,40
0,192,271920,2,0,P|96:192|96:192,1,80
256,192,272273,1,0,0:0:0:0:
448,192,272449,2,0,P|512:192|512:192,1,40
96,192,272626,2,0,P|0:192|0:192,1,80
256,192,272978,1,0,0:0:0:0:
512,192,273155,2,0,P|448:192|448:192,1,40
96,192,273331,2,0,P|0:192|0:192,1,80
160,192,273684,6,0,P|224:192|224:192,1,40
288,192,273861,2,0,P|224:192|224:192,1,40
352,192,274037,2,0,P|416:192|416:192,1,40
480,192,274214,2,0,P|416:192|416:192,1,40
0,192,274391,5,0,0:0:0:0:
32,192,274567,2,0,P|96:192|96:192,1,40
96,192,274744,2,0,P|192:192|192:192,1,80
192,192,275097,1,0,0:0:0:0:
224,192,275273,2,0,P|288:192|288:192,1,40
288,192,275450,2,0,P|384:192|384:192,1,80
384,192,275802,1,0,0:0:0:0:
416,192,275979,2,0,P|480:192|480:192,1,40
480,192,276155,2,0,P|384:192|384:192,1,80
480,224,276508,6,0,P|416:224|416:224,1,40
256,320,276685,2,0,P|256:256|256:256,1,40
0,224,276861,2,0,P|64:224|64:224,1,40
256,96,277038,2,0,P|256:160|256:160,1,40
0,96,277214,5,0,0:0:0:0:
448,96,277390,2,0,P|512:96|512:96,1,40
0,160,277567,2,0,P|96:160|96:160,1,80
512,160,277920,1,0,0:0:0:0:
0,224,278096,2,0,P|64:224|64:224,1,40
512,224,278273,2,0,P|416:224|416:224,1,80
0,288,278625,1,0,0:0:0:0:
512,288,278802,2,0,P|448:288|448:288,1,40
96,352,278978,2,0,P|0:352|0:352,1,80
448,352,279331,6,0,P|512:352|512:352,1,40
320,352,279508,2,0,P|384:352|384:352,1,40
192,352,279684,2,0,P|256:352|256:352,1,40
64,352,279861,2,0,P|128:352|128:352,1,40
128,192,280039,6,2,P|192:192|192:192,1,40
256,192,280215,2,2,P|320:192|320:192,1,40
384,192,280392,2,2,P|320:192|320:192,1,40
256,192,280568,2,2,P|192:192|192:192,1,40
0,192,280745,2,2,P|64:192|64:192,1,40
256,192,280921,2,2,P|320:192|320:192,1,40
512,192,281097,2,2,P|448:192|448:192,1,40
256,192,281274,2,2,P|192:192|192:192,1,40
0,192,281450,6,8,P|160:192|160:192,1,160,8|0,0:0|0:0,0:0:0:0:
480,192,281980,1,0,0:0:0:0:
512,192,281980,2,0,P|416:192|416:192,1,80
0,192,282333,2,0,P|96:192|96:192,1,80
32,192,282333,1,0,0:0:0:0:
256,192,282686,1,0,0:0:0:0:
224,192,282862,5,0,0:0:0:0:
256,192,283215,1,0,0:0:0:0:
288,192,283568,1,0,0:0:0:0:
256,192,283921,1,0,0:0:0:0:
224,192,284274,1,0,0:0:0:0:
256,192,284627,1,0,0:0:0:0:
288,192,284980,1,0,0:0:0:0:
256,192,285333,1,0,0:0:0:0:
160,192,285686,5,0,0:0:0:0:
256,192,286039,1,0,0:0:0:0:
352,192,286392,1,0,0:0:0:0:
256,192,286745,1,0,0:0:0:0:
160,192,287097,1,0,0:0:0:0:
256,192,287450,1,0,0:0:0:0:
352,192,287803,1,0,0:0:0:0:
256,192,288156,1,0,0:0:0:0:
64,192,288509,5,0,0:0:0:0:
256,192,288862,1,0,0:0:0:0:
448,192,289215,1,0,0:0:0:0:
256,192,289568,1,0,0:0:0:0:
64,192,289921,1,0,0:0:0:0:
256,192,290274,1,0,0:0:0:0:
448,192,290627,1,0,0:0:0:0:
256,192,290980,1,0,0:0:0:0:
0,192,291333,5,0,0:0:0:0:
256,192,291686,1,0,0:0:0:0:
512,192,292039,1,0,0:0:0:0:
256,192,292392,1,0,0:0:0:0:
0,192,292745,1,0,0:0:0:0:
256,192,293097,1,0,0:0:0:0:
512,192,293450,6,0,B|384:128|384:128|480:96|480:96,1,240
0,192,293803,6,0,B|128:256|128:256|32:288|32:288,1,240
0,192,294156,5,0,0:0:0:0:
128,192,294509,1,0,0:0:0:0:
0,192,294862,1,0,0:0:0:0:
128,192,295215,1,0,0:0:0:0:
512,192,295568,1,0,0:0:0:0:
384,192,295921,1,0,0:0:0:0:
512,192,296274,1,0,0:0:0:0:
384,192,296627,1,0,0:0:0:0:
0,192,296980,5,0,0:0:0:0:
256,192,297333,1,0,0:0:0:0:
0,192,297686,1,0,0:0:0:0:
256,192,298039,1,0,0:0:0:0:
512,192,298392,1,0,0:0:0:0:
256,192,298745,1,0,0:0:0:0:
512,192,299097,1,0,0:0:0:0:
256,192,299450,1,0,0:0:0:0:
0,192,299803,5,0,0:0:0:0:
384,192,300156,1,0,0:0:0:0:
0,192,300509,1,0,0:0:0:0:
384,192,300862,1,0,0:0:0:0:
512,192,301215,1,0,0:0:0:0:
128,192,301568,1,0,0:0:0:0:
512,192,301921,1,0,0:0:0:0:
128,192,302274,1,0,0:0:0:0:
0,192,302627,6,0,P|96:192|96:192,1,80
256,192,302803,2,0,P|160:192|160:192,1,80
416,192,302980,2,0,P|512:192|512:192,1,80
336,192,303156,2,0,P|240:192|240:192,1,80
416,192,303333,2,0,P|512:192|512:192,1,80
336,192,303509,2,0,P|240:192|240:192,1,80
0,192,303686,2,0,P|96:192|96:192,1,80
256,192,303862,2,0,P|160:192|160:192,1,80
256,192,304039,5,0,0:0:0:0:
0,192,304392,6,0,P|160:192|160:192,1,160
512,192,304745,2,0,P|352:192|352:192,1,160
0,192,305450,6,0,P|128:192|128:192,1,120
0,192,305803,2,0,B|96:96|96:96|224:64|224:64,1,240
0,192,306156,2,0,P|128:192|128:192,1,120
0,192,306509,2,0,P|128:192|128:192,1,120
512,192,306862,2,0,P|384:192|384:192,1,120
512,192,307215,2,0,B|352:96|352:96|256:96|256:96,1,240
512,192,307568,2,0,P|384:192|384:192,1,120
512,192,307921,2,0,P|384:192|384:192,1,160
0,192,308274,6,0,B|80:192|80:192|0:192|0:192,1,160
0,192,308627,2,0,B|64:64|64:64|256:64|256:64,1,320
240,64,308980,2,0,P|80:64|80:64,1,160
80,64,309333,2,0,P|224:64|224:64,1,140
512,192,309686,2,0,B|416:256|416:256|384:192|384:192,1,160
396,216,310039,2,0,B|384:128|384:128|320:160|320:160|333:250|333:250|320:320|320:320,1,320
320,317,310392,2,0,P|480:224|480:224,1,160
458,236,310745,1,0,0:0:0:0:
256,192,311097,5,0,0:0:0:0:
192,192,311450,1,0,0:0:0:0:
256,192,311803,1,0,0:0:0:0:
320,192,312156,1,0,0:0:0:0:
256,192,312509,1,0,0:0:0:0:
128,192,312862,1,0,0:0:0:0:
256,192,313215,1,0,0:0:0:0:
384,192,313568,1,0,0:0:0:0:
256,192,313921,5,0,0:0:0:0:
64,192,314274,1,0,0:0:0:0:
256,192,314627,1,0,0:0:0:0:
448,192,314980,1,0,0:0:0:0:
256,320,315333,2,0,B|256:160|256:160|256:320|256:320,1,320
256,64,316039,2,0,P|256:72|256:64,32,10
256,192,316745,5,0,0:0:0:0:
128,192,317009,1,0,0:0:0:0:
160,192,317097,1,0,0:0:0:0:
288,192,317274,1,0,0:0:0:0:
256,192,317450,1,0,0:0:0:0:
384,192,317715,1,0,0:0:0:0:
352,192,317803,1,0,0:0:0:0:
224,192,317980,1,0,0:0:0:0:
256,192,318156,1,0,0:0:0:0:
64,192,318421,5,0,0:0:0:0:
96,192,318509,1,0,0:0:0:0:
288,192,318686,1,0,0:0:0:0:
256,192,318862,1,0,0:0:0:0:
448,192,319127,1,0,0:0:0:0:
416,192,319215,1,0,0:0:0:0:
224,192,319392,1,0,0:0:0:0:
256,192,319568,5,0,0:0:0:0:
32,192,319833,1,0,0:0:0:0:
0,192,319921,1,0,0:0:0:0:
288,192,320097,1,0,0:0:0:0:
256,192,320274,1,0,0:0:0:0:
480,192,320539,1,0,0:0:0:0:
512,192,320627,1,0,0:0:0:0:
224,192,320803,1,0,0:0:0:0:
256,192,320980,1,0,0:0:0:0:
32,192,321289,1,0,0:0:0:0:
0,192,321333,2,0,P|512:192|512:192,1,512
256,192,321509,1,0,0:0:0:0:
512,192,321686,1,0,0:0:0:0:
0,192,322392,6,0,P|256:192|256:192,1,256
128,0,322480,1,0,0:0:0:0:
256,0,322568,1,0,0:0:0:0:
512,256,322745,2,0,P|256:256|256:256,1,256
384,64,322833,1,0,0:0:0:0:
256,64,322921,1,0,0:0:0:0:
0,320,323097,2,0,P|256:320|256:320,1,256
128,128,323186,1,0,0:0:0:0:
256,128,323274,1,0,0:0:0:0:
512,384,323450,2,0,P|256:384|256:384,1,256
384,192,323539,1,0,0:0:0:0:
256,192,323627,1,0,0:0:0:0:
256,192,323803,6,0,P|512:192|512:192,1,256
384,0,323892,1,0,0:0:0:0:
512,0,323980,1,0,0:0:0:0:
256,256,324156,2,0,P|0:256|0:256,1,256
128,64,324245,1,0,0:0:0:0:
0,64,324333,1,0,0:0:0:0:
256,320,324509,2,0,P|512:320|512:320,1,256
384,128,324597,1,0,0:0:0:0:
512,128,324686,1,0,0:0:0:0:
256,384,324862,2,0,P|0:384|0:384,1,256
128,192,324950,1,0,0:0:0:0:
0,192,325039,1,0,0:0:0:0:
512,224,325215,6,0,P|384:224|384:224,1,128
400,192,325303,1,0,0:0:0:0:
0,256,325392,2,0,P|128:256|128:256,1,128
112,192,325480,1,0,0:0:0:0:
384,224,325568,2,0,P|256:224|256:224,1,128
272,192,325656,1,0,0:0:0:0:
128,256,325745,2,0,P|256:256|256:256,1,128
240,192,325833,1,0,0:0:0:0:
256,96,325921,6,0,P|128:96|128:96,1,128
144,96,326009,1,0,0:0:0:0:
256,96,326097,2,0,P|384:96|384:96,1,128
368,96,326186,1,0,0:0:0:0:
128,128,326274,2,0,P|0:128|0:128,1,128
16,128,326362,1,0,0:0:0:0:
384,112,326450,2,0,P|512:112|512:112,1,128
512,192,326539,2,0,P|256:192|256:192,1,256
496,128,326539,1,0,0:0:0:0:
0,256,326980,6,0,P|512:256|512:256,1,512
512,192,327333,2,0,P|256:192|256:192,1,256
256,192,327686,2,0,P|0:192|0:192,1,256
0,192,328039,2,0,P|512:192|512:192,1,503.999984619141
