osu file format v14

[General]
AudioFilename: audio.mp3
AudioLeadIn: 0
PreviewTime: 236274
Countdown: 0
SampleSet: None
StackLeniency: 0.7
Mode: 1
LetterboxInBreaks: 0
WidescreenStoryboard: 0

[Editor]
DistanceSpacing: 0.8
BeatDivisor: 4
GridSize: 32
TimelineZoom: 2

[Metadata]
Title:B.B.K.K.B.K.K. (Extended Mix)
TitleUnicode:B.B.K.K.B.K.K. (Extended Mix)
Artist:nora2r
ArtistUnicode:nora2r
Creator:D o t
Version:.'s Taiko
Source:BMS
Tags:c86 bof 2013 YATSUZAKI HARDCORE VOLUME 4 fooRider Notebook Records maimai
BeatmapID:1758720
BeatmapSetID:840174

[Difficulty]
HPDrainRate:6
CircleSize:5
OverallDifficulty:6
ApproachRate:5
SliderMultiplier:1.4
SliderTickRate:1

[Events]
//Background and Video events
0,0,"bg.jpg",0,0
//Break Periods
2,141886,146133
//Storyboard Layer 0 (Background)
//Storyboard Layer 1 (Fail)
//Storyboard Layer 2 (Pass)
//Storyboard Layer 3 (Foreground)
//Storyboard Sound Samples

[TimingPoints]
510,352.941176470588,4,1,0,60,1,0
45686,-100,4,1,0,30,0,0
56980,-100,4,1,0,40,0,0
59804,-100,4,1,0,50,0,0
62627,-100,4,1,0,60,0,0
113451,-100,4,1,0,70,0,1
134627,-100,4,1,0,60,0,0
141862,-100,4,1,0,50,0,0
141962,-100,4,1,0,60,0,0
237686,-100,4,1,0,70,0,1
281451,-100,4,1,0,60,0,0

[HitObjects]
256,192,510,5,0,0:0:0:0:
256,192,774,1,0,0:0:0:0:
256,192,1039,1,2,0:0:0:0:
256,192,1480,1,2,0:0:0:0:
256,192,1745,1,0,0:0:0:0:
256,192,2186,1,0,0:0:0:0:
256,192,2451,1,2,0:0:0:0:
256,192,2892,1,2,0:0:0:0:
256,192,3157,1,0,0:0:0:0:
256,192,3598,1,0,0:0:0:0:
256,192,3862,1,2,0:0:0:0:
256,192,4304,1,2,0:0:0:0:
256,192,4568,1,0,0:0:0:0:
256,192,5009,1,0,0:0:0:0:
256,192,5274,1,2,0:0:0:0:
256,192,5451,1,0,0:0:0:0:
256,192,5627,1,2,0:0:0:0:
256,192,5804,1,0,0:0:0:0:
256,192,6157,1,0,0:0:0:0:
256,192,6421,1,0,0:0:0:0:
256,192,6686,1,2,0:0:0:0:
256,192,7127,1,2,0:0:0:0:
256,192,7392,1,0,0:0:0:0:
256,192,7833,1,0,0:0:0:0:
256,192,8098,1,2,0:0:0:0:
256,192,8539,1,2,0:0:0:0:
256,192,8804,1,0,0:0:0:0:
256,192,9245,1,0,0:0:0:0:
256,192,9509,1,2,0:0:0:0:
256,192,9951,1,2,0:0:0:0:
256,192,10215,1,0,0:0:0:0:
256,192,10656,1,0,0:0:0:0:
256,192,10921,1,2,0:0:0:0:
256,192,11098,1,0,0:0:0:0:
256,192,11804,1,4,0:0:0:0:
256,192,12068,1,0,0:0:0:0:
256,192,12157,1,0,0:0:0:0:
256,192,12333,1,2,0:0:0:0:
256,192,12509,1,0,0:0:0:0:
256,192,12774,1,2,0:0:0:0:
256,192,12862,1,2,0:0:0:0:
256,192,13039,1,2,0:0:0:0:
256,192,13215,1,0,0:0:0:0:
256,192,13480,1,0,0:0:0:0:
256,192,13568,1,0,0:0:0:0:
256,192,13745,1,2,0:0:0:0:
256,192,13921,1,0,0:0:0:0:
256,192,14186,1,2,0:0:0:0:
256,192,14274,1,2,0:0:0:0:
256,192,14451,1,2,0:0:0:0:
256,192,14627,1,0,0:0:0:0:
256,192,14892,1,0,0:0:0:0:
256,192,14980,1,0,0:0:0:0:
256,192,15157,1,2,0:0:0:0:
256,192,15333,1,0,0:0:0:0:
256,192,15598,1,2,0:0:0:0:
256,192,15686,1,2,0:0:0:0:
256,192,15862,1,2,0:0:0:0:
256,192,16039,1,0,0:0:0:0:
256,192,16304,1,0,0:0:0:0:
256,192,16392,1,0,0:0:0:0:
256,192,16568,1,2,0:0:0:0:
256,192,16745,1,0,0:0:0:0:
256,192,17009,1,2,0:0:0:0:
256,192,17098,1,0,0:0:0:0:
256,192,17274,1,2,0:0:0:0:
256,192,17451,1,0,0:0:0:0:
256,192,17715,1,2,0:0:0:0:
256,192,17804,1,0,0:0:0:0:
256,192,17980,1,2,0:0:0:0:
256,192,18157,1,0,0:0:0:0:
256,192,18245,1,2,0:0:0:0:
256,192,18421,1,2,0:0:0:0:
256,192,18509,1,0,0:0:0:0:
256,192,18686,1,2,0:0:0:0:
256,192,18862,1,0,0:0:0:0:
256,192,19127,1,2,0:0:0:0:
256,192,19215,1,0,0:0:0:0:
256,192,19392,1,2,0:0:0:0:
256,192,19568,1,0,0:0:0:0:
256,192,19657,1,2,0:0:0:0:
256,192,19833,1,2,0:0:0:0:
256,192,19921,1,0,0:0:0:0:
256,192,20098,1,2,0:0:0:0:
256,192,20274,1,0,0:0:0:0:
256,192,20362,1,0,0:0:0:0:
256,192,20451,1,2,0:0:0:0:
256,192,20539,1,2,0:0:0:0:
256,192,20627,1,0,0:0:0:0:
256,192,20715,1,2,0:0:0:0:
256,192,20804,1,0,0:0:0:0:
256,192,20892,1,0,0:0:0:0:
256,192,20980,1,2,0:0:0:0:
256,192,21068,1,0,0:0:0:0:
256,192,21157,1,0,0:0:0:0:
256,192,21245,1,0,0:0:0:0:
256,192,21333,1,2,0:0:0:0:
256,192,21421,1,0,0:0:0:0:
256,192,21509,1,2,0:0:0:0:
256,192,21598,1,2,0:0:0:0:
256,192,21686,1,0,0:0:0:0:
256,192,23098,1,4,0:0:0:0:
256,192,23362,1,2,0:0:0:0:
256,192,23451,1,0,0:0:0:0:
256,192,23627,1,2,0:0:0:0:
256,192,23804,1,0,0:0:0:0:
256,192,23980,1,2,0:0:0:0:
256,192,24157,1,0,0:0:0:0:
256,192,24245,1,2,0:0:0:0:
256,192,24509,1,0,0:0:0:0:
256,192,24774,1,2,0:0:0:0:
256,192,24862,1,0,0:0:0:0:
256,192,25039,1,2,0:0:0:0:
256,192,25215,1,0,0:0:0:0:
256,192,25392,1,2,0:0:0:0:
256,192,25568,1,2,0:0:0:0:
256,192,25745,1,2,0:0:0:0:
256,192,25921,1,0,0:0:0:0:
256,192,26186,1,2,0:0:0:0:
256,192,26274,1,0,0:0:0:0:
256,192,26451,1,2,0:0:0:0:
256,192,26627,1,0,0:0:0:0:
256,192,26804,1,2,0:0:0:0:
256,192,26980,1,0,0:0:0:0:
256,192,27068,1,2,0:0:0:0:
256,192,27333,1,0,0:0:0:0:
256,192,27598,1,2,0:0:0:0:
256,192,27686,1,0,0:0:0:0:
256,192,27862,1,2,0:0:0:0:
256,192,28039,1,0,0:0:0:0:
256,192,28745,1,0,0:0:0:0:
256,192,29009,1,2,0:0:0:0:
256,192,29098,1,0,0:0:0:0:
256,192,29274,1,2,0:0:0:0:
256,192,29451,1,0,0:0:0:0:
256,192,29627,1,2,0:0:0:0:
256,192,29804,1,0,0:0:0:0:
256,192,29892,1,2,0:0:0:0:
256,192,30157,1,0,0:0:0:0:
256,192,30421,1,2,0:0:0:0:
256,192,30509,1,0,0:0:0:0:
256,192,30686,1,2,0:0:0:0:
256,192,30862,1,0,0:0:0:0:
256,192,31039,1,0,0:0:0:0:
256,192,31215,1,2,0:0:0:0:
256,192,31392,1,2,0:0:0:0:
256,192,31568,1,0,0:0:0:0:
256,192,31833,1,2,0:0:0:0:
256,192,31921,1,0,0:0:0:0:
256,192,32098,1,2,0:0:0:0:
256,192,32274,1,0,0:0:0:0:
256,192,32451,1,2,0:0:0:0:
256,192,32627,1,0,0:0:0:0:
256,192,32715,1,2,0:0:0:0:
256,192,32980,1,4,0:0:0:0:
256,192,33333,1,2,0:0:0:0:
256,192,33509,1,2,0:0:0:0:
256,192,33686,1,2,0:0:0:0:
256,192,33862,1,2,0:0:0:0:
256,192,34039,1,2,0:0:0:0:
256,192,34215,1,2,0:0:0:0:
256,192,34392,1,4,0:0:0:0:
256,192,34657,1,2,0:0:0:0:
256,192,34745,1,0,0:0:0:0:
256,192,34921,1,2,0:0:0:0:
256,192,35098,1,0,0:0:0:0:
256,192,35274,1,2,0:0:0:0:
256,192,35362,1,2,0:0:0:0:
256,192,35451,1,0,0:0:0:0:
256,192,35539,1,2,0:0:0:0:
256,192,35804,1,0,0:0:0:0:
256,192,36068,1,2,0:0:0:0:
256,192,36157,1,0,0:0:0:0:
256,192,36333,1,2,0:0:0:0:
256,192,36509,1,0,0:0:0:0:
256,192,36686,1,2,0:0:0:0:
256,192,36862,1,2,0:0:0:0:
256,192,37039,1,2,0:0:0:0:
256,192,37215,1,0,0:0:0:0:
256,192,37480,1,2,0:0:0:0:
256,192,37568,1,0,0:0:0:0:
256,192,37745,1,2,0:0:0:0:
256,192,37921,1,0,0:0:0:0:
256,192,38098,1,2,0:0:0:0:
256,192,38186,1,2,0:0:0:0:
256,192,38274,1,0,0:0:0:0:
256,192,38362,1,2,0:0:0:0:
256,192,38627,1,0,0:0:0:0:
256,192,38892,1,2,0:0:0:0:
256,192,38980,1,0,0:0:0:0:
256,192,39157,1,0,0:0:0:0:
256,192,39245,1,2,0:0:0:0:
256,192,39333,1,0,0:0:0:0:
256,192,40039,1,4,0:0:0:0:
256,192,40304,1,2,0:0:0:0:
256,192,40392,1,0,0:0:0:0:
256,192,40568,1,2,0:0:0:0:
256,192,40745,1,0,0:0:0:0:
256,192,40921,1,0,0:0:0:0:
256,192,41009,1,2,0:0:0:0:
256,192,41098,1,0,0:0:0:0:
256,192,41186,1,0,0:0:0:0:
256,192,41274,1,2,0:0:0:0:
256,192,41451,1,4,0:0:0:0:
256,192,41715,1,2,0:0:0:0:
256,192,41804,1,0,0:0:0:0:
256,192,41980,1,2,0:0:0:0:
256,192,42157,1,0,0:0:0:0:
256,192,42333,1,2,0:0:0:0:
256,192,42421,1,2,0:0:0:0:
256,192,42509,1,0,0:0:0:0:
256,192,42598,1,0,0:0:0:0:
256,192,42686,1,2,0:0:0:0:
256,192,42862,1,4,0:0:0:0:
256,192,43039,1,0,0:0:0:0:
256,192,43215,1,2,0:0:0:0:
256,192,43392,1,0,0:0:0:0:
256,192,43568,1,4,0:0:0:0:
256,192,43745,1,0,0:0:0:0:
256,192,43921,1,2,0:0:0:0:
256,192,44098,1,0,0:0:0:0:
256,192,45686,1,4,0:0:0:0:
256,192,47098,1,0,0:0:0:0:
256,192,48509,1,0,0:0:0:0:
256,192,49921,1,0,0:0:0:0:
256,192,51333,1,0,0:0:0:0:
256,192,52039,1,0,0:0:0:0:
256,192,52745,1,0,0:0:0:0:
256,192,53451,1,0,0:0:0:0:
256,192,54157,1,0,0:0:0:0:
256,192,54509,1,0,0:0:0:0:
256,192,54862,1,0,0:0:0:0:
256,192,55215,1,0,0:0:0:0:
256,192,55568,1,0,0:0:0:0:
256,192,55921,1,0,0:0:0:0:
256,192,56274,1,0,0:0:0:0:
256,192,56627,1,0,0:0:0:0:
256,192,56804,1,0,0:0:0:0:
256,192,56980,1,0,0:0:0:0:
256,192,57333,1,2,0:0:0:0:
256,192,57686,1,0,0:0:0:0:
256,192,58039,1,2,0:0:0:0:
256,192,58392,1,0,0:0:0:0:
256,192,58745,1,2,0:0:0:0:
256,192,59098,1,0,0:0:0:0:
256,192,59451,1,2,0:0:0:0:
256,192,59627,1,0,0:0:0:0:
256,192,59804,1,0,0:0:0:0:
256,192,60157,1,2,0:0:0:0:
256,192,60509,1,0,0:0:0:0:
256,192,60862,1,2,0:0:0:0:
256,192,61215,1,0,0:0:0:0:
256,192,61568,1,2,0:0:0:0:
256,192,61921,1,0,0:0:0:0:
256,192,62274,1,2,0:0:0:0:
256,192,62451,1,0,0:0:0:0:
256,192,62627,1,0,0:0:0:0:
256,192,62980,1,2,0:0:0:0:
256,192,63333,1,0,0:0:0:0:
256,192,63686,1,2,0:0:0:0:
256,192,64039,1,0,0:0:0:0:
256,192,64392,1,2,0:0:0:0:
256,192,64745,1,0,0:0:0:0:
256,192,65098,1,2,0:0:0:0:
256,192,65274,1,0,0:0:0:0:
256,192,65451,1,0,0:0:0:0:
256,192,65804,1,2,0:0:0:0:
256,192,66157,1,0,0:0:0:0:
256,192,66509,1,2,0:0:0:0:
256,192,66862,1,0,0:0:0:0:
256,192,68274,1,4,0:0:0:0:
256,192,68451,1,2,0:0:0:0:
256,192,68539,1,0,0:0:0:0:
256,192,68627,1,0,0:0:0:0:
256,192,68804,1,2,0:0:0:0:
256,192,68980,1,0,0:0:0:0:
256,192,69157,1,2,0:0:0:0:
256,192,69333,1,0,0:0:0:0:
256,192,69421,1,2,0:0:0:0:
256,192,69686,1,0,0:0:0:0:
256,192,69862,1,2,0:0:0:0:
256,192,69951,1,0,0:0:0:0:
256,192,70039,1,0,0:0:0:0:
256,192,70215,1,2,0:0:0:0:
256,192,70392,1,0,0:0:0:0:
256,192,70568,1,2,0:0:0:0:
256,192,70745,1,0,0:0:0:0:
256,192,70921,1,2,0:0:0:0:
256,192,71098,1,0,0:0:0:0:
256,192,71274,1,2,0:0:0:0:
256,192,71362,1,0,0:0:0:0:
256,192,71451,1,0,0:0:0:0:
256,192,71627,1,2,0:0:0:0:
256,192,71804,1,0,0:0:0:0:
256,192,71980,1,2,0:0:0:0:
256,192,72157,1,0,0:0:0:0:
256,192,72245,1,2,0:0:0:0:
256,192,72509,1,0,0:0:0:0:
256,192,72686,1,2,0:0:0:0:
256,192,72774,1,0,0:0:0:0:
256,192,72862,1,0,0:0:0:0:
256,192,73039,1,2,0:0:0:0:
256,192,73215,1,0,0:0:0:0:
256,192,73921,1,0,0:0:0:0:
256,192,74098,1,2,0:0:0:0:
256,192,74186,1,0,0:0:0:0:
256,192,74274,1,0,0:0:0:0:
256,192,74451,1,2,0:0:0:0:
256,192,74627,1,0,0:0:0:0:
256,192,74804,1,2,0:0:0:0:
256,192,74980,1,0,0:0:0:0:
256,192,75068,1,2,0:0:0:0:
256,192,75333,1,0,0:0:0:0:
256,192,75509,1,2,0:0:0:0:
256,192,75598,1,0,0:0:0:0:
256,192,75686,1,0,0:0:0:0:
256,192,75862,1,2,0:0:0:0:
256,192,76039,1,0,0:0:0:0:
256,192,76215,1,2,0:0:0:0:
256,192,76392,1,0,0:0:0:0:
256,192,76568,1,2,0:0:0:0:
256,192,76745,1,0,0:0:0:0:
256,192,76921,1,2,0:0:0:0:
256,192,77009,1,0,0:0:0:0:
256,192,77098,1,0,0:0:0:0:
256,192,77274,1,2,0:0:0:0:
256,192,77451,1,0,0:0:0:0:
256,192,77627,1,2,0:0:0:0:
256,192,77804,1,0,0:0:0:0:
256,192,77892,1,2,0:0:0:0:
256,192,78157,1,0,0:0:0:0:
256,192,78333,1,2,0:0:0:0:
256,192,78421,1,0,0:0:0:0:
256,192,78686,1,2,0:0:0:0:
256,192,78862,1,0,0:0:0:0:
256,192,79039,1,2,0:0:0:0:
256,192,79215,1,2,0:0:0:0:
256,192,79392,1,2,0:0:0:0:
256,192,79568,1,0,0:0:0:0:
256,192,79745,1,2,0:0:0:0:
256,192,79833,1,0,0:0:0:0:
256,192,79921,1,0,0:0:0:0:
256,192,80098,1,2,0:0:0:0:
256,192,80274,1,0,0:0:0:0:
256,192,80451,1,2,0:0:0:0:
256,192,80539,1,0,0:0:0:0:
256,192,80627,1,0,0:0:0:0:
256,192,80715,1,2,0:0:0:0:
256,192,80980,1,0,0:0:0:0:
256,192,81157,1,2,0:0:0:0:
256,192,81245,1,0,0:0:0:0:
256,192,81333,1,0,0:0:0:0:
256,192,81509,1,2,0:0:0:0:
256,192,81686,1,0,0:0:0:0:
256,192,81862,1,2,0:0:0:0:
256,192,82039,1,0,0:0:0:0:
256,192,82215,1,2,0:0:0:0:
256,192,82392,1,0,0:0:0:0:
256,192,82568,1,2,0:0:0:0:
256,192,82657,1,0,0:0:0:0:
256,192,82745,1,0,0:0:0:0:
256,192,82921,1,2,0:0:0:0:
256,192,83098,1,0,0:0:0:0:
256,192,83274,1,2,0:0:0:0:
256,192,83362,1,0,0:0:0:0:
256,192,83451,1,0,0:0:0:0:
256,192,83539,1,2,0:0:0:0:
256,192,83804,1,0,0:0:0:0:
256,192,83980,1,2,0:0:0:0:
256,192,84068,1,0,0:0:0:0:
256,192,84157,1,0,0:0:0:0:
256,192,84333,1,2,0:0:0:0:
256,192,84509,1,0,0:0:0:0:
256,192,85215,1,0,0:0:0:0:
256,192,85392,1,2,0:0:0:0:
256,192,85480,1,0,0:0:0:0:
256,192,85568,1,0,0:0:0:0:
256,192,85745,1,2,0:0:0:0:
256,192,85921,1,0,0:0:0:0:
256,192,86098,1,2,0:0:0:0:
256,192,86186,1,0,0:0:0:0:
256,192,86274,1,0,0:0:0:0:
256,192,86362,1,2,0:0:0:0:
256,192,86627,1,0,0:0:0:0:
256,192,86804,1,2,0:0:0:0:
256,192,86892,1,0,0:0:0:0:
256,192,86980,1,0,0:0:0:0:
256,192,87157,1,2,0:0:0:0:
256,192,87333,1,0,0:0:0:0:
256,192,87509,1,2,0:0:0:0:
256,192,87686,1,2,0:0:0:0:
256,192,87862,1,2,0:0:0:0:
256,192,88039,1,0,0:0:0:0:
256,192,88215,1,2,0:0:0:0:
256,192,88304,1,0,0:0:0:0:
256,192,88392,1,0,0:0:0:0:
256,192,88568,1,2,0:0:0:0:
256,192,88745,1,0,0:0:0:0:
256,192,88921,1,2,0:0:0:0:
256,192,89009,1,0,0:0:0:0:
256,192,89098,1,0,0:0:0:0:
256,192,89186,1,2,0:0:0:0:
256,192,89451,1,0,0:0:0:0:
256,192,89627,1,2,0:0:0:0:
256,192,89715,1,0,0:0:0:0:
256,192,89980,1,2,0:0:0:0:
256,192,90157,1,0,0:0:0:0:
256,192,90333,1,2,0:0:0:0:
256,192,90421,1,2,0:0:0:0:
256,192,90686,1,2,0:0:0:0:
256,192,90862,1,4,0:0:0:0:
256,192,91039,1,0,0:0:0:0:
256,192,91127,1,0,0:0:0:0:
256,192,91304,1,2,0:0:0:0:
256,192,91392,1,2,0:0:0:0:
256,192,91480,1,0,0:0:0:0:
256,192,91657,1,0,0:0:0:0:
256,192,91833,1,2,0:0:0:0:
256,192,91921,1,0,0:0:0:0:
256,192,92009,1,2,0:0:0:0:
256,192,92098,1,2,0:0:0:0:
256,192,92274,1,0,0:0:0:0:
256,192,92451,1,0,0:0:0:0:
256,192,92539,1,0,0:0:0:0:
256,192,92715,1,2,0:0:0:0:
256,192,92804,1,2,0:0:0:0:
256,192,92892,1,0,0:0:0:0:
256,192,93068,1,0,0:0:0:0:
256,192,93245,1,2,0:0:0:0:
256,192,93333,1,0,0:0:0:0:
256,192,93421,1,2,0:0:0:0:
256,192,93509,1,2,0:0:0:0:
256,192,93686,1,0,0:0:0:0:
256,192,93862,1,0,0:0:0:0:
256,192,93951,1,0,0:0:0:0:
256,192,94127,1,2,0:0:0:0:
256,192,94215,1,2,0:0:0:0:
256,192,94304,1,0,0:0:0:0:
256,192,94480,1,0,0:0:0:0:
256,192,94657,1,2,0:0:0:0:
256,192,94745,1,0,0:0:0:0:
256,192,94833,1,2,0:0:0:0:
256,192,94921,1,2,0:0:0:0:
256,192,95098,1,0,0:0:0:0:
256,192,95274,1,0,0:0:0:0:
256,192,95362,1,0,0:0:0:0:
256,192,95539,1,0,0:0:0:0:
256,192,95627,1,2,0:0:0:0:
256,192,95715,1,2,0:0:0:0:
256,192,95804,1,0,0:0:0:0:
256,192,96509,1,0,0:0:0:0:
256,192,96686,1,0,0:0:0:0:
256,192,96774,1,2,0:0:0:0:
256,192,96951,1,0,0:0:0:0:
256,192,97039,1,0,0:0:0:0:
256,192,97127,1,2,0:0:0:0:
256,192,97304,1,2,0:0:0:0:
256,192,97480,1,2,0:0:0:0:
256,192,97568,1,0,0:0:0:0:
256,192,97657,1,2,0:0:0:0:
256,192,97745,1,2,0:0:0:0:
256,192,97921,1,0,0:0:0:0:
256,192,98098,1,0,0:0:0:0:
256,192,98186,1,2,0:0:0:0:
256,192,98362,1,0,0:0:0:0:
256,192,98451,1,0,0:0:0:0:
256,192,98539,1,2,0:0:0:0:
256,192,98715,1,2,0:0:0:0:
256,192,98892,1,2,0:0:0:0:
256,192,98980,1,0,0:0:0:0:
256,192,99068,1,2,0:0:0:0:
256,192,99157,1,2,0:0:0:0:
256,192,99333,1,0,0:0:0:0:
256,192,99509,1,0,0:0:0:0:
256,192,99598,1,2,0:0:0:0:
256,192,99774,1,0,0:0:0:0:
256,192,99862,1,0,0:0:0:0:
256,192,99951,1,2,0:0:0:0:
256,192,100127,1,2,0:0:0:0:
256,192,100304,1,2,0:0:0:0:
256,192,100392,1,0,0:0:0:0:
256,192,100480,1,2,0:0:0:0:
256,192,100568,1,2,0:0:0:0:
256,192,100745,1,0,0:0:0:0:
256,192,100921,1,0,0:0:0:0:
256,192,101009,1,2,0:0:0:0:
256,192,101098,1,0,0:0:0:0:
256,192,101274,1,0,0:0:0:0:
256,192,101362,1,0,0:0:0:0:
256,192,101451,1,2,0:0:0:0:
256,192,101715,1,0,0:0:0:0:
256,192,101980,1,0,0:0:0:0:
256,192,102157,1,4,0:0:0:0:
256,192,102333,1,0,0:0:0:0:
256,192,102421,1,2,0:0:0:0:
256,192,102598,1,2,0:0:0:0:
256,192,102686,1,0,0:0:0:0:
256,192,102774,1,2,0:0:0:0:
256,192,102951,1,2,0:0:0:0:
256,192,103127,1,2,0:0:0:0:
256,192,103215,1,0,0:0:0:0:
256,192,103304,1,0,0:0:0:0:
256,192,103392,1,2,0:0:0:0:
256,192,103568,1,0,0:0:0:0:
256,192,103744,1,0,0:0:0:0:
256,192,103832,1,2,0:0:0:0:
256,192,104009,1,2,0:0:0:0:
256,192,104097,1,0,0:0:0:0:
256,192,104185,1,2,0:0:0:0:
256,192,104362,1,2,0:0:0:0:
256,192,104538,1,2,0:0:0:0:
256,192,104626,1,0,0:0:0:0:
256,192,104715,1,0,0:0:0:0:
256,192,104803,1,2,0:0:0:0:
256,192,104980,1,0,0:0:0:0:
256,192,105156,1,0,0:0:0:0:
256,192,105244,1,2,0:0:0:0:
256,192,105421,1,2,0:0:0:0:
256,192,105509,1,0,0:0:0:0:
256,192,105597,1,2,0:0:0:0:
256,192,105774,1,2,0:0:0:0:
256,192,105950,1,2,0:0:0:0:
256,192,106038,1,0,0:0:0:0:
256,192,106127,1,0,0:0:0:0:
256,192,106215,1,2,0:0:0:0:
256,192,106392,1,0,0:0:0:0:
256,192,106568,1,0,0:0:0:0:
256,192,106657,1,2,0:0:0:0:
256,192,106833,1,2,0:0:0:0:
256,192,106921,1,0,0:0:0:0:
256,192,107009,1,2,0:0:0:0:
256,192,107098,1,0,0:0:0:0:
256,192,107804,1,0,0:0:0:0:
256,192,107980,1,2,0:0:0:0:
256,192,108068,1,0,0:0:0:0:
256,192,108245,1,2,0:0:0:0:
256,192,108333,1,2,0:0:0:0:
256,192,108421,1,0,0:0:0:0:
256,192,108598,1,0,0:0:0:0:
256,192,108774,1,2,0:0:0:0:
256,192,108862,1,0,0:0:0:0:
256,192,108951,1,0,0:0:0:0:
256,192,109039,1,2,0:0:0:0:
256,192,109215,1,0,0:0:0:0:
256,192,109392,1,0,0:0:0:0:
256,192,109480,1,2,0:0:0:0:
256,192,109657,1,0,0:0:0:0:
256,192,109745,1,0,0:0:0:0:
256,192,109833,1,2,0:0:0:0:
256,192,110009,1,2,0:0:0:0:
256,192,110186,1,2,0:0:0:0:
256,192,110274,1,0,0:0:0:0:
256,192,110362,1,2,0:0:0:0:
256,192,110451,1,2,0:0:0:0:
256,192,110627,1,0,0:0:0:0:
256,192,110804,1,0,0:0:0:0:
256,192,110892,1,2,0:0:0:0:
256,192,111068,1,2,0:0:0:0:
256,192,111157,1,2,0:0:0:0:
256,192,111245,1,2,0:0:0:0:
256,192,111421,1,2,0:0:0:0:
256,192,111598,1,2,0:0:0:0:
256,192,111686,1,0,0:0:0:0:
256,192,111774,1,2,0:0:0:0:
256,192,111862,1,2,0:0:0:0:
256,192,112039,1,0,0:0:0:0:
256,192,112392,12,0,113098,0:0:0:0:
256,192,113451,5,4,0:0:0:0:
256,192,113627,1,2,0:0:0:0:
256,192,113715,1,2,0:0:0:0:
256,192,113804,1,0,0:0:0:0:
256,192,113980,1,0,0:0:0:0:
256,192,114157,1,2,0:0:0:0:
256,192,114245,1,0,0:0:0:0:
256,192,114421,1,0,0:0:0:0:
256,192,114509,1,2,0:0:0:0:
256,192,114598,1,0,0:0:0:0:
256,192,114686,1,2,0:0:0:0:
256,192,114862,1,0,0:0:0:0:
256,192,115039,1,0,0:0:0:0:
256,192,115127,1,2,0:0:0:0:
256,192,115215,1,0,0:0:0:0:
256,192,115392,1,0,0:0:0:0:
256,192,115568,1,2,0:0:0:0:
256,192,115657,1,0,0:0:0:0:
256,192,115833,1,2,0:0:0:0:
256,192,115921,1,0,0:0:0:0:
256,192,116009,1,0,0:0:0:0:
256,192,116098,1,2,0:0:0:0:
256,192,116274,1,0,0:0:0:0:
256,192,116451,1,2,0:0:0:0:
256,192,116539,1,2,0:0:0:0:
256,192,116627,1,0,0:0:0:0:
256,192,116804,1,0,0:0:0:0:
256,192,116980,1,2,0:0:0:0:
256,192,117068,1,0,0:0:0:0:
256,192,117245,1,0,0:0:0:0:
256,192,117333,1,2,0:0:0:0:
256,192,117421,1,0,0:0:0:0:
256,192,117509,1,2,0:0:0:0:
256,192,117598,1,2,0:0:0:0:
256,192,117686,1,0,0:0:0:0:
256,192,117862,1,2,0:0:0:0:
256,192,117951,1,2,0:0:0:0:
256,192,118039,1,0,0:0:0:0:
256,192,118215,1,2,0:0:0:0:
256,192,118392,1,0,0:0:0:0:
256,192,118480,1,2,0:0:0:0:
256,192,118657,1,2,0:0:0:0:
256,192,118745,1,0,0:0:0:0:
256,192,118833,1,0,0:0:0:0:
256,192,118921,1,2,0:0:0:0:
256,192,119098,1,0,0:0:0:0:
256,192,119274,1,2,0:0:0:0:
256,192,119362,1,2,0:0:0:0:
256,192,119451,1,0,0:0:0:0:
256,192,119627,1,0,0:0:0:0:
256,192,119804,1,2,0:0:0:0:
256,192,119892,1,0,0:0:0:0:
256,192,120068,1,0,0:0:0:0:
256,192,120157,1,2,0:0:0:0:
256,192,120245,1,0,0:0:0:0:
256,192,120333,1,2,0:0:0:0:
256,192,120509,1,0,0:0:0:0:
256,192,120686,1,0,0:0:0:0:
256,192,120774,1,2,0:0:0:0:
256,192,120862,1,0,0:0:0:0:
256,192,121039,1,0,0:0:0:0:
256,192,121215,1,2,0:0:0:0:
256,192,121304,1,0,0:0:0:0:
256,192,121480,1,2,0:0:0:0:
256,192,121568,1,0,0:0:0:0:
256,192,121657,1,0,0:0:0:0:
256,192,121745,1,2,0:0:0:0:
256,192,121921,1,0,0:0:0:0:
256,192,122098,1,2,0:0:0:0:
256,192,122186,1,2,0:0:0:0:
256,192,122274,1,0,0:0:0:0:
256,192,122451,1,0,0:0:0:0:
256,192,122627,1,2,0:0:0:0:
256,192,122715,1,0,0:0:0:0:
256,192,122892,1,0,0:0:0:0:
256,192,122980,1,2,0:0:0:0:
256,192,123068,1,0,0:0:0:0:
256,192,123157,1,2,0:0:0:0:
256,192,123245,1,2,0:0:0:0:
256,192,123333,1,0,0:0:0:0:
256,192,123509,1,2,0:0:0:0:
256,192,123686,1,0,0:0:0:0:
256,192,123862,1,2,0:0:0:0:
256,192,124039,1,2,0:0:0:0:
256,192,124215,1,2,0:0:0:0:
256,192,124392,1,0,0:0:0:0:
256,192,124568,1,2,0:0:0:0:
256,192,124745,1,4,0:0:0:0:
256,192,124921,1,2,0:0:0:0:
256,192,125009,1,2,0:0:0:0:
256,192,125098,1,0,0:0:0:0:
256,192,125274,1,0,0:0:0:0:
256,192,125451,1,2,0:0:0:0:
256,192,125539,1,0,0:0:0:0:
256,192,125715,1,0,0:0:0:0:
256,192,125804,1,2,0:0:0:0:
256,192,125892,1,0,0:0:0:0:
256,192,125980,1,2,0:0:0:0:
256,192,126157,1,0,0:0:0:0:
256,192,126333,1,0,0:0:0:0:
256,192,126421,1,2,0:0:0:0:
256,192,126509,1,0,0:0:0:0:
256,192,126686,1,0,0:0:0:0:
256,192,126862,1,2,0:0:0:0:
256,192,126951,1,0,0:0:0:0:
256,192,127127,1,2,0:0:0:0:
256,192,127215,1,0,0:0:0:0:
256,192,127304,1,0,0:0:0:0:
256,192,127392,1,2,0:0:0:0:
256,192,127568,1,4,0:0:0:0:
256,192,127745,1,2,0:0:0:0:
256,192,127833,1,2,0:0:0:0:
256,192,127921,1,0,0:0:0:0:
256,192,128098,1,0,0:0:0:0:
256,192,128274,1,2,0:0:0:0:
256,192,128362,1,0,0:0:0:0:
256,192,128539,1,0,0:0:0:0:
256,192,128627,1,2,0:0:0:0:
256,192,128715,1,0,0:0:0:0:
256,192,128804,1,2,0:0:0:0:
256,192,128892,1,2,0:0:0:0:
256,192,128980,1,0,0:0:0:0:
256,192,129157,1,0,0:0:0:0:
256,192,129245,1,2,0:0:0:0:
256,192,129333,1,0,0:0:0:0:
256,192,129509,1,2,0:0:0:0:
256,192,129686,1,0,0:0:0:0:
256,192,129774,1,2,0:0:0:0:
256,192,129951,1,2,0:0:0:0:
256,192,130039,1,0,0:0:0:0:
256,192,130215,1,2,0:0:0:0:
256,192,130392,1,4,0:0:0:0:
256,192,130657,1,2,0:0:0:0:
256,192,130745,1,0,0:0:0:0:
256,192,130921,1,0,0:0:0:0:
256,192,131009,1,0,0:0:0:0:
256,192,131098,1,2,0:0:0:0:
256,192,131362,1,0,0:0:0:0:
256,192,131627,1,2,0:0:0:0:
256,192,131804,1,4,0:0:0:0:
256,192,131980,1,2,0:0:0:0:
256,192,132068,1,0,0:0:0:0:
256,192,132157,1,0,0:0:0:0:
256,192,132333,1,0,0:0:0:0:
256,192,132421,1,0,0:0:0:0:
256,192,132509,1,2,0:0:0:0:
256,192,132686,1,0,0:0:0:0:
256,192,132862,1,0,0:0:0:0:
256,192,133039,1,0,0:0:0:0:
256,192,133215,1,0,0:0:0:0:
256,192,133304,1,0,0:0:0:0:
256,192,133392,1,2,0:0:0:0:
256,192,133480,1,0,0:0:0:0:
256,192,133568,1,2,0:0:0:0:
256,192,133657,1,2,0:0:0:0:
256,192,133745,1,0,0:0:0:0:
256,192,133833,1,0,0:0:0:0:
256,192,133921,1,2,0:0:0:0:
256,192,134009,1,0,0:0:0:0:
256,192,134098,1,0,0:0:0:0:
256,192,134186,1,0,0:0:0:0:
256,192,134274,1,2,0:0:0:0:
256,192,134362,1,0,0:0:0:0:
256,192,134451,1,2,0:0:0:0:
256,192,134539,1,2,0:0:0:0:
256,192,134980,1,2,0:0:0:0:
256,192,135157,1,2,0:0:0:0:
256,192,135333,1,2,0:0:0:0:
256,192,135686,1,2,0:0:0:0:
256,192,136039,1,6,0:0:0:0:
256,192,136333,1,2,0:0:0:0:
256,192,136627,1,2,0:0:0:0:
256,192,136921,1,2,0:0:0:0:
256,192,137215,1,2,0:0:0:0:
256,192,137451,1,2,0:0:0:0:
256,192,137686,1,2,0:0:0:0:
256,192,137921,1,2,0:0:0:0:
256,192,138157,1,2,0:0:0:0:
256,192,138333,1,2,0:0:0:0:
256,192,138509,1,2,0:0:0:0:
256,192,138686,1,2,0:0:0:0:
256,192,138862,1,2,0:0:0:0:
256,192,139039,1,2,0:0:0:0:
256,192,139215,1,2,0:0:0:0:
256,192,139392,1,2,0:0:0:0:
256,192,139568,1,2,0:0:0:0:
256,192,139745,1,2,0:0:0:0:
256,192,139833,1,2,0:0:0:0:
256,192,139921,1,2,0:0:0:0:
256,192,140009,1,2,0:0:0:0:
256,192,140098,1,2,0:0:0:0:
256,192,140186,1,2,0:0:0:0:
256,192,140274,12,0,141509,0:0:0:0:
256,192,141686,5,4,0:0:0:0:
256,192,147333,5,0,0:0:0:0:
256,192,148039,1,2,0:0:0:0:
256,192,148215,1,0,0:0:0:0:
256,192,148392,1,0,0:0:0:0:
256,192,148568,1,0,0:0:0:0:
256,192,148745,1,2,0:0:0:0:
256,192,149451,1,2,0:0:0:0:
256,192,149627,1,0,0:0:0:0:
256,192,149804,1,0,0:0:0:0:
256,192,149980,1,2,0:0:0:0:
256,192,150157,1,2,0:0:0:0:
256,192,150862,1,2,0:0:0:0:
256,192,151039,1,2,0:0:0:0:
256,192,151215,1,2,0:0:0:0:
256,192,151392,1,0,0:0:0:0:
256,192,151568,1,2,0:0:0:0:
256,192,152098,1,0,0:0:0:0:
256,192,152274,1,2,0:0:0:0:
256,192,152451,1,2,0:0:0:0:
256,192,152627,1,2,0:0:0:0:
256,192,152804,1,0,0:0:0:0:
256,192,152980,1,0,0:0:0:0:
256,192,153686,1,2,0:0:0:0:
256,192,153862,1,0,0:0:0:0:
256,192,154039,1,0,0:0:0:0:
256,192,154215,1,0,0:0:0:0:
256,192,154392,1,2,0:0:0:0:
256,192,155098,1,2,0:0:0:0:
256,192,155274,1,0,0:0:0:0:
256,192,155451,1,0,0:0:0:0:
256,192,155627,1,2,0:0:0:0:
256,192,155804,1,2,0:0:0:0:
256,192,156509,1,2,0:0:0:0:
256,192,156686,1,2,0:0:0:0:
256,192,156862,1,2,0:0:0:0:
256,192,157039,1,0,0:0:0:0:
256,192,157215,1,2,0:0:0:0:
256,192,157745,1,0,0:0:0:0:
256,192,157921,1,2,0:0:0:0:
256,192,158098,1,2,0:0:0:0:
256,192,158274,1,2,0:0:0:0:
256,192,158451,1,0,0:0:0:0:
256,192,158627,1,2,0:0:0:0:
256,192,159333,1,2,0:0:0:0:
256,192,159509,1,0,0:0:0:0:
256,192,159686,1,0,0:0:0:0:
256,192,159862,1,0,0:0:0:0:
256,192,160039,1,2,0:0:0:0:
256,192,160745,1,2,0:0:0:0:
256,192,160921,1,0,0:0:0:0:
256,192,161098,1,0,0:0:0:0:
256,192,161274,1,2,0:0:0:0:
256,192,161451,1,2,0:0:0:0:
256,192,162157,1,2,0:0:0:0:
256,192,162333,1,2,0:0:0:0:
256,192,162509,1,2,0:0:0:0:
256,192,162686,1,0,0:0:0:0:
256,192,162862,1,2,0:0:0:0:
256,192,163392,1,0,0:0:0:0:
256,192,163569,1,2,0:0:0:0:
256,192,163745,1,2,0:0:0:0:
256,192,163921,1,2,0:0:0:0:
256,192,164098,1,0,0:0:0:0:
256,192,164274,1,0,0:0:0:0:
256,192,164980,1,2,0:0:0:0:
256,192,165157,1,0,0:0:0:0:
256,192,165333,1,0,0:0:0:0:
256,192,165509,1,0,0:0:0:0:
256,192,165686,1,2,0:0:0:0:
256,192,166392,1,2,0:0:0:0:
256,192,166568,1,0,0:0:0:0:
256,192,166745,1,0,0:0:0:0:
256,192,166921,1,2,0:0:0:0:
256,192,167098,1,2,0:0:0:0:
256,192,167804,1,2,0:0:0:0:
256,192,167980,1,2,0:0:0:0:
256,192,168157,1,2,0:0:0:0:
256,192,168333,1,0,0:0:0:0:
256,192,168509,1,2,0:0:0:0:
256,192,169039,1,0,0:0:0:0:
256,192,169215,1,2,0:0:0:0:
256,192,169392,1,2,0:0:0:0:
256,192,169568,1,2,0:0:0:0:
256,192,169745,1,0,0:0:0:0:
256,192,169921,1,2,0:0:0:0:
256,192,170274,1,0,0:0:0:0:
256,192,170627,1,2,0:0:0:0:
256,192,170804,1,0,0:0:0:0:
256,192,170980,1,0,0:0:0:0:
256,192,171157,1,0,0:0:0:0:
256,192,171333,1,2,0:0:0:0:
256,192,171686,1,0,0:0:0:0:
256,192,172039,1,2,0:0:0:0:
256,192,172215,1,0,0:0:0:0:
256,192,172392,1,0,0:0:0:0:
256,192,172568,1,2,0:0:0:0:
256,192,172745,1,2,0:0:0:0:
256,192,173098,1,0,0:0:0:0:
256,192,173451,1,2,0:0:0:0:
256,192,173627,1,2,0:0:0:0:
256,192,173804,1,2,0:0:0:0:
256,192,173980,1,0,0:0:0:0:
256,192,174157,1,2,0:0:0:0:
256,192,174509,1,0,0:0:0:0:
256,192,174686,1,0,0:0:0:0:
256,192,174862,1,2,0:0:0:0:
256,192,175039,1,2,0:0:0:0:
256,192,175215,1,2,0:0:0:0:
256,192,175392,1,0,0:0:0:0:
256,192,175568,1,0,0:0:0:0:
256,192,175921,1,0,0:0:0:0:
256,192,176274,1,2,0:0:0:0:
256,192,176451,1,0,0:0:0:0:
256,192,176627,1,0,0:0:0:0:
256,192,176804,1,0,0:0:0:0:
256,192,176980,1,2,0:0:0:0:
256,192,177333,1,0,0:0:0:0:
256,192,177686,1,2,0:0:0:0:
256,192,177862,1,0,0:0:0:0:
256,192,178039,1,0,0:0:0:0:
256,192,178215,1,2,0:0:0:0:
256,192,178392,1,2,0:0:0:0:
256,192,178745,1,0,0:0:0:0:
256,192,179098,1,2,0:0:0:0:
256,192,179274,1,2,0:0:0:0:
256,192,179451,1,2,0:0:0:0:
256,192,179627,1,0,0:0:0:0:
256,192,179804,1,2,0:0:0:0:
256,192,180156,1,0,0:0:0:0:
256,192,180333,1,0,0:0:0:0:
256,192,180509,1,2,0:0:0:0:
256,192,180686,1,2,0:0:0:0:
256,192,180862,1,2,0:0:0:0:
256,192,181039,1,0,0:0:0:0:
256,192,181215,1,2,0:0:0:0:
256,192,181480,1,2,0:0:0:0:
256,192,181568,1,0,0:0:0:0:
256,192,181745,1,2,0:0:0:0:
256,192,181921,1,2,0:0:0:0:
256,192,182098,1,0,0:0:0:0:
256,192,182186,1,2,0:0:0:0:
256,192,182274,1,0,0:0:0:0:
256,192,182451,1,0,0:0:0:0:
256,192,182627,1,2,0:0:0:0:
256,192,182892,1,2,0:0:0:0:
256,192,182980,1,0,0:0:0:0:
256,192,183157,1,2,0:0:0:0:
256,192,183333,1,2,0:0:0:0:
256,192,183509,1,0,0:0:0:0:
256,192,183598,1,2,0:0:0:0:
256,192,183686,1,0,0:0:0:0:
256,192,183862,1,2,0:0:0:0:
256,192,184039,1,2,0:0:0:0:
256,192,184304,1,2,0:0:0:0:
256,192,184392,1,0,0:0:0:0:
256,192,184568,1,2,0:0:0:0:
256,192,184745,1,2,0:0:0:0:
256,192,184921,1,2,0:0:0:0:
256,192,185009,1,2,0:0:0:0:
256,192,185098,1,0,0:0:0:0:
256,192,185274,1,0,0:0:0:0:
256,192,185451,1,2,0:0:0:0:
256,192,185715,1,2,0:0:0:0:
256,192,185804,1,0,0:0:0:0:
256,192,185980,1,0,0:0:0:0:
256,192,186157,1,2,0:0:0:0:
256,192,186245,1,2,0:0:0:0:
256,192,186333,1,0,0:0:0:0:
256,192,186421,1,2,0:0:0:0:
256,192,186509,1,0,0:0:0:0:
256,192,186598,1,0,0:0:0:0:
256,192,186686,1,2,0:0:0:0:
256,192,186774,1,0,0:0:0:0:
256,192,186862,1,2,0:0:0:0:
256,192,187039,1,0,0:0:0:0:
256,192,187127,1,2,0:0:0:0:
256,192,187215,1,2,0:0:0:0:
256,192,187304,1,2,0:0:0:0:
256,192,187392,1,0,0:0:0:0:
256,192,187568,1,2,0:0:0:0:
256,192,187745,1,0,0:0:0:0:
256,192,187833,1,2,0:0:0:0:
256,192,187921,1,2,0:0:0:0:
256,192,188009,1,0,0:0:0:0:
256,192,188098,1,2,0:0:0:0:
256,192,188274,1,2,0:0:0:0:
256,192,188451,1,0,0:0:0:0:
256,192,188539,1,2,0:0:0:0:
256,192,188627,1,2,0:0:0:0:
256,192,188715,1,0,0:0:0:0:
256,192,188804,1,0,0:0:0:0:
256,192,188980,1,2,0:0:0:0:
256,192,189068,1,2,0:0:0:0:
256,192,189157,1,0,0:0:0:0:
256,192,189245,1,2,0:0:0:0:
256,192,189333,1,2,0:0:0:0:
256,192,189421,1,0,0:0:0:0:
256,192,189509,1,2,0:0:0:0:
256,192,189598,1,0,0:0:0:0:
256,192,189686,1,2,0:0:0:0:
256,192,189774,1,0,0:0:0:0:
256,192,189862,1,2,0:0:0:0:
256,192,189951,1,0,0:0:0:0:
256,192,190039,1,2,0:0:0:0:
256,192,190127,1,0,0:0:0:0:
256,192,190215,1,2,0:0:0:0:
256,192,190304,1,0,0:0:0:0:
256,192,190392,1,2,0:0:0:0:
256,192,190480,1,2,0:0:0:0:
256,192,190568,1,2,0:0:0:0:
256,192,190657,1,0,0:0:0:0:
256,192,190745,1,2,0:0:0:0:
256,192,190833,1,0,0:0:0:0:
256,192,190921,1,0,0:0:0:0:
256,192,191009,1,0,0:0:0:0:
256,192,191098,1,2,0:0:0:0:
256,192,192509,1,4,0:0:0:0:
256,192,192686,1,2,0:0:0:0:
256,192,192774,1,0,0:0:0:0:
256,192,192862,1,0,0:0:0:0:
256,192,193039,1,2,0:0:0:0:
256,192,193215,1,0,0:0:0:0:
256,192,193304,1,2,0:0:0:0:
256,192,193392,1,2,0:0:0:0:
256,192,193480,1,0,0:0:0:0:
256,192,193568,1,0,0:0:0:0:
256,192,193745,1,2,0:0:0:0:
256,192,193833,1,2,0:0:0:0:
256,192,193921,1,0,0:0:0:0:
256,192,194009,1,2,0:0:0:0:
256,192,194186,1,0,0:0:0:0:
256,192,194274,1,2,0:0:0:0:
256,192,194451,1,0,0:0:0:0:
256,192,194539,1,0,0:0:0:0:
256,192,194627,1,0,0:0:0:0:
256,192,194715,1,2,0:0:0:0:
256,192,194804,1,2,0:0:0:0:
256,192,194892,1,0,0:0:0:0:
256,192,194980,1,2,0:0:0:0:
256,192,195157,1,2,0:0:0:0:
256,192,195245,1,2,0:0:0:0:
256,192,195333,1,0,0:0:0:0:
256,192,195509,1,2,0:0:0:0:
256,192,195598,1,0,0:0:0:0:
256,192,195686,1,0,0:0:0:0:
256,192,195862,1,2,0:0:0:0:
256,192,196039,1,0,0:0:0:0:
256,192,196127,1,2,0:0:0:0:
256,192,196215,1,2,0:0:0:0:
256,192,196304,1,0,0:0:0:0:
256,192,196392,1,2,0:0:0:0:
256,192,196568,1,2,0:0:0:0:
256,192,196657,1,0,0:0:0:0:
256,192,196745,1,0,0:0:0:0:
256,192,196833,1,2,0:0:0:0:
256,192,196921,1,2,0:0:0:0:
256,192,197009,1,0,0:0:0:0:
256,192,197098,1,2,0:0:0:0:
256,192,197274,1,2,0:0:0:0:
256,192,197362,1,2,0:0:0:0:
256,192,197451,1,0,0:0:0:0:
256,192,198157,1,0,0:0:0:0:
256,192,198333,1,2,0:0:0:0:
256,192,198421,1,0,0:0:0:0:
256,192,198509,1,0,0:0:0:0:
256,192,198686,1,2,0:0:0:0:
256,192,198862,1,0,0:0:0:0:
256,192,198951,1,2,0:0:0:0:
256,192,199039,1,2,0:0:0:0:
256,192,199127,1,0,0:0:0:0:
256,192,199215,1,0,0:0:0:0:
256,192,199392,1,2,0:0:0:0:
256,192,199480,1,2,0:0:0:0:
256,192,199568,1,0,0:0:0:0:
256,192,199657,1,2,0:0:0:0:
256,192,199833,1,0,0:0:0:0:
256,192,199921,1,2,0:0:0:0:
256,192,200098,1,0,0:0:0:0:
256,192,200186,1,0,0:0:0:0:
256,192,200274,1,0,0:0:0:0:
256,192,200362,1,2,0:0:0:0:
256,192,200451,1,2,0:0:0:0:
256,192,200539,1,0,0:0:0:0:
256,192,200627,1,2,0:0:0:0:
256,192,200804,1,2,0:0:0:0:
256,192,200892,1,2,0:0:0:0:
256,192,200980,1,0,0:0:0:0:
256,192,201157,1,2,0:0:0:0:
256,192,201245,1,0,0:0:0:0:
256,192,201333,1,0,0:0:0:0:
256,192,201509,1,2,0:0:0:0:
256,192,201686,1,0,0:0:0:0:
256,192,201774,1,2,0:0:0:0:
256,192,201862,1,2,0:0:0:0:
256,192,201951,1,0,0:0:0:0:
256,192,202039,1,2,0:0:0:0:
256,192,202215,1,2,0:0:0:0:
256,192,202304,1,2,0:0:0:0:
256,192,202392,1,0,0:0:0:0:
256,192,202745,1,2,0:0:0:0:
256,192,202921,1,2,0:0:0:0:
256,192,203098,1,2,0:0:0:0:
256,192,203274,1,2,0:0:0:0:
256,192,203451,1,2,0:0:0:0:
256,192,203627,1,2,0:0:0:0:
256,192,203804,1,4,0:0:0:0:
256,192,203980,1,2,0:0:0:0:
256,192,204068,1,0,0:0:0:0:
256,192,204157,1,0,0:0:0:0:
256,192,204333,1,2,0:0:0:0:
256,192,204509,1,0,0:0:0:0:
256,192,204598,1,2,0:0:0:0:
256,192,204686,1,2,0:0:0:0:
256,192,204774,1,0,0:0:0:0:
256,192,204862,1,0,0:0:0:0:
256,192,205039,1,2,0:0:0:0:
256,192,205127,1,2,0:0:0:0:
256,192,205215,1,0,0:0:0:0:
256,192,205304,1,0,0:0:0:0:
256,192,205392,1,2,0:0:0:0:
256,192,205480,1,0,0:0:0:0:
256,192,205568,1,0,0:0:0:0:
256,192,205745,1,2,0:0:0:0:
256,192,205833,1,2,0:0:0:0:
256,192,205921,1,0,0:0:0:0:
256,192,206009,1,2,0:0:0:0:
256,192,206186,1,2,0:0:0:0:
256,192,206274,1,0,0:0:0:0:
256,192,206451,1,2,0:0:0:0:
256,192,206627,1,0,0:0:0:0:
256,192,206804,1,2,0:0:0:0:
256,192,206892,1,0,0:0:0:0:
256,192,206980,1,0,0:0:0:0:
256,192,207157,1,2,0:0:0:0:
256,192,207333,1,0,0:0:0:0:
256,192,207421,1,2,0:0:0:0:
256,192,207509,1,2,0:0:0:0:
256,192,207598,1,0,0:0:0:0:
256,192,207686,1,0,0:0:0:0:
256,192,207862,1,2,0:0:0:0:
256,192,207951,1,2,0:0:0:0:
256,192,208039,1,0,0:0:0:0:
256,192,208127,1,0,0:0:0:0:
256,192,208215,1,2,0:0:0:0:
256,192,208304,1,0,0:0:0:0:
256,192,208392,1,0,0:0:0:0:
256,192,208568,1,2,0:0:0:0:
256,192,208745,1,0,0:0:0:0:
256,192,209451,1,0,0:0:0:0:
256,192,209627,1,2,0:0:0:0:
256,192,209715,1,0,0:0:0:0:
256,192,209804,1,0,0:0:0:0:
256,192,209980,1,2,0:0:0:0:
256,192,210156,1,0,0:0:0:0:
256,192,210245,1,2,0:0:0:0:
256,192,210333,1,2,0:0:0:0:
256,192,210421,1,0,0:0:0:0:
256,192,210509,1,0,0:0:0:0:
256,192,210686,1,2,0:0:0:0:
256,192,210774,1,2,0:0:0:0:
256,192,210862,1,0,0:0:0:0:
256,192,210951,1,0,0:0:0:0:
256,192,211039,1,2,0:0:0:0:
256,192,211127,1,0,0:0:0:0:
256,192,211215,1,0,0:0:0:0:
256,192,211392,1,2,0:0:0:0:
256,192,211480,1,2,0:0:0:0:
256,192,211568,1,0,0:0:0:0:
256,192,211656,1,2,0:0:0:0:
256,192,211833,1,2,0:0:0:0:
256,192,211921,1,0,0:0:0:0:
256,192,212098,1,2,0:0:0:0:
256,192,212274,1,0,0:0:0:0:
256,192,212451,1,2,0:0:0:0:
256,192,212539,1,0,0:0:0:0:
256,192,212627,1,0,0:0:0:0:
256,192,212804,1,2,0:0:0:0:
256,192,212980,1,0,0:0:0:0:
256,192,213068,1,2,0:0:0:0:
256,192,213156,1,2,0:0:0:0:
256,192,213245,1,0,0:0:0:0:
256,192,213333,1,0,0:0:0:0:
256,192,213509,1,2,0:0:0:0:
256,192,213598,1,2,0:0:0:0:
256,192,213686,1,0,0:0:0:0:
256,192,213862,1,0,0:0:0:0:
256,192,213951,1,0,0:0:0:0:
256,192,214127,1,0,0:0:0:0:
256,192,214215,1,2,0:0:0:0:
256,192,214304,1,2,0:0:0:0:
256,192,214480,1,2,0:0:0:0:
256,192,214657,1,2,0:0:0:0:
256,192,214745,1,0,0:0:0:0:
256,192,214833,1,2,0:0:0:0:
256,192,214921,1,0,0:0:0:0:
256,192,215098,1,6,0:0:0:0:
256,192,215274,1,0,0:0:0:0:
256,192,215362,1,0,0:0:0:0:
256,192,215451,1,2,0:0:0:0:
256,192,215627,1,2,0:0:0:0:
256,192,215715,1,2,0:0:0:0:
256,192,215804,1,0,0:0:0:0:
256,192,215892,1,2,0:0:0:0:
256,192,216068,1,2,0:0:0:0:
256,192,216157,1,0,0:0:0:0:
256,192,216245,1,0,0:0:0:0:
256,192,216333,1,2,0:0:0:0:
256,192,216421,1,0,0:0:0:0:
256,192,216509,1,2,0:0:0:0:
256,192,216686,1,2,0:0:0:0:
256,192,216774,1,2,0:0:0:0:
256,192,216862,1,0,0:0:0:0:
256,192,217039,1,0,0:0:0:0:
256,192,217127,1,2,0:0:0:0:
256,192,217304,1,2,0:0:0:0:
256,192,217392,1,0,0:0:0:0:
256,192,217480,1,0,0:0:0:0:
256,192,217568,1,2,0:0:0:0:
256,192,217657,1,0,0:0:0:0:
256,192,217745,1,0,0:0:0:0:
256,192,217921,1,0,0:0:0:0:
256,192,218098,1,0,0:0:0:0:
256,192,218186,1,0,0:0:0:0:
256,192,218274,1,2,0:0:0:0:
256,192,218451,1,2,0:0:0:0:
256,192,218539,1,2,0:0:0:0:
256,192,218627,1,0,0:0:0:0:
256,192,218715,1,2,0:0:0:0:
256,192,218892,1,2,0:0:0:0:
256,192,218980,1,0,0:0:0:0:
256,192,219068,1,2,0:0:0:0:
256,192,219157,1,2,0:0:0:0:
256,192,219245,1,2,0:0:0:0:
256,192,219333,1,0,0:0:0:0:
256,192,219509,1,0,0:0:0:0:
256,192,219598,1,2,0:0:0:0:
256,192,219686,1,2,0:0:0:0:
256,192,219862,1,2,0:0:0:0:
256,192,219951,1,2,0:0:0:0:
256,192,220127,1,2,0:0:0:0:
256,192,220215,1,0,0:0:0:0:
256,192,220304,1,0,0:0:0:0:
256,192,220392,1,2,0:0:0:0:
256,192,220480,1,2,0:0:0:0:
256,192,220568,1,0,0:0:0:0:
256,192,220745,1,0,0:0:0:0:
256,192,220921,1,0,0:0:0:0:
256,192,221009,1,0,0:0:0:0:
256,192,221098,1,2,0:0:0:0:
256,192,221274,1,2,0:0:0:0:
256,192,221362,1,2,0:0:0:0:
256,192,221451,1,0,0:0:0:0:
256,192,221539,1,2,0:0:0:0:
256,192,221715,1,2,0:0:0:0:
256,192,221804,1,0,0:0:0:0:
256,192,221892,1,0,0:0:0:0:
256,192,221980,1,2,0:0:0:0:
256,192,222068,1,0,0:0:0:0:
256,192,222157,1,2,0:0:0:0:
256,192,222333,1,2,0:0:0:0:
256,192,222421,1,2,0:0:0:0:
256,192,222509,1,0,0:0:0:0:
256,192,222686,1,2,0:0:0:0:
256,192,222774,1,0,0:0:0:0:
256,192,222951,1,2,0:0:0:0:
256,192,223039,1,0,0:0:0:0:
256,192,223127,1,0,0:0:0:0:
256,192,223215,1,2,0:0:0:0:
256,192,223304,1,0,0:0:0:0:
256,192,223392,1,0,0:0:0:0:
256,192,223568,1,0,0:0:0:0:
256,192,223745,1,0,0:0:0:0:
256,192,223833,1,0,0:0:0:0:
256,192,223921,1,2,0:0:0:0:
256,192,224098,1,0,0:0:0:0:
256,192,224186,1,2,0:0:0:0:
256,192,224362,1,2,0:0:0:0:
256,192,224451,1,2,0:0:0:0:
256,192,224539,1,0,0:0:0:0:
256,192,224627,1,2,0:0:0:0:
256,192,224715,1,2,0:0:0:0:
256,192,224804,1,0,0:0:0:0:
256,192,224980,1,2,0:0:0:0:
256,192,225333,1,2,0:0:0:0:
256,192,225509,1,2,0:0:0:0:
256,192,225686,1,2,0:0:0:0:
256,192,225862,1,2,0:0:0:0:
256,192,226039,1,2,0:0:0:0:
256,192,226215,1,2,0:0:0:0:
256,192,226392,1,4,0:0:0:0:
256,192,226568,1,0,0:0:0:0:
256,192,226657,1,0,0:0:0:0:
256,192,226745,1,2,0:0:0:0:
256,192,226921,1,0,0:0:0:0:
256,192,227009,1,0,0:0:0:0:
256,192,227098,1,0,0:0:0:0:
256,192,227186,1,2,0:0:0:0:
256,192,227362,1,0,0:0:0:0:
256,192,227451,1,2,0:0:0:0:
256,192,227539,1,0,0:0:0:0:
256,192,227627,1,2,0:0:0:0:
256,192,227715,1,2,0:0:0:0:
256,192,227804,1,0,0:0:0:0:
256,192,227980,1,2,0:0:0:0:
256,192,228068,1,0,0:0:0:0:
256,192,228245,1,0,0:0:0:0:
256,192,228333,1,2,0:0:0:0:
256,192,228421,1,2,0:0:0:0:
256,192,228509,1,0,0:0:0:0:
256,192,228598,1,0,0:0:0:0:
256,192,228686,1,2,0:0:0:0:
256,192,228774,1,0,0:0:0:0:
256,192,228862,1,0,0:0:0:0:
256,192,229039,1,2,0:0:0:0:
256,192,229215,1,0,0:0:0:0:
256,192,229392,1,0,0:0:0:0:
256,192,229480,1,2,0:0:0:0:
256,192,229657,1,2,0:0:0:0:
256,192,229745,1,0,0:0:0:0:
256,192,229833,1,0,0:0:0:0:
256,192,229921,1,2,0:0:0:0:
256,192,230009,1,0,0:0:0:0:
256,192,230098,1,2,0:0:0:0:
256,192,230186,1,2,0:0:0:0:
256,192,230274,1,0,0:0:0:0:
256,192,230451,1,0,0:0:0:0:
256,192,230539,1,0,0:0:0:0:
256,192,230627,1,2,0:0:0:0:
256,192,230804,1,2,0:0:0:0:
256,192,230892,1,0,0:0:0:0:
256,192,231068,1,0,0:0:0:0:
256,192,231157,1,2,0:0:0:0:
256,192,231245,1,2,0:0:0:0:
256,192,231333,1,0,0:0:0:0:
256,192,231421,1,0,0:0:0:0:
256,192,231509,1,2,0:0:0:0:
256,192,231598,1,0,0:0:0:0:
256,192,231686,1,0,0:0:0:0:
256,192,231862,1,2,0:0:0:0:
256,192,232039,1,4,0:0:0:0:
256,192,232215,1,0,0:0:0:0:
256,192,232304,1,0,0:0:0:0:
256,192,232392,1,2,0:0:0:0:
256,192,232568,1,0,0:0:0:0:
256,192,232657,1,0,0:0:0:0:
256,192,232745,1,0,0:0:0:0:
256,192,232833,1,2,0:0:0:0:
256,192,232921,1,2,0:0:0:0:
256,192,233009,1,0,0:0:0:0:
256,192,233098,1,2,0:0:0:0:
256,192,233274,1,2,0:0:0:0:
256,192,233362,1,2,0:0:0:0:
256,192,233451,1,0,0:0:0:0:
256,192,233627,1,2,0:0:0:0:
256,192,233715,1,0,0:0:0:0:
256,192,233892,1,0,0:0:0:0:
256,192,233980,1,0,0:0:0:0:
256,192,234068,1,2,0:0:0:0:
256,192,234157,1,0,0:0:0:0:
256,192,234245,1,2,0:0:0:0:
256,192,234333,1,2,0:0:0:0:
256,192,234421,1,0,0:0:0:0:
256,192,234509,1,0,0:0:0:0:
256,192,234686,1,2,0:0:0:0:
256,192,234862,1,4,0:0:0:0:
256,192,235039,1,0,0:0:0:0:
256,192,235215,1,2,0:0:0:0:
256,192,235392,1,0,0:0:0:0:
256,192,235568,1,2,0:0:0:0:
256,192,235745,1,0,0:0:0:0:
256,192,235921,1,2,0:0:0:0:
256,192,236098,1,0,0:0:0:0:
256,192,236274,1,0,0:0:0:0:
256,192,236451,1,0,0:0:0:0:
256,192,236627,1,2,0:0:0:0:
256,192,236745,1,2,0:0:0:0:
256,192,236862,1,2,0:0:0:0:
256,192,236980,1,0,0:0:0:0:
256,192,237157,1,0,0:0:0:0:
256,192,237333,1,6,0:0:0:0:
256,192,237686,1,4,0:0:0:0:
256,192,237862,1,0,0:0:0:0:
256,192,237951,1,2,0:0:0:0:
256,192,238127,1,2,0:0:0:0:
256,192,238215,1,0,0:0:0:0:
256,192,238392,1,0,0:0:0:0:
256,192,238480,1,0,0:0:0:0:
256,192,238568,1,2,0:0:0:0:
256,192,238657,1,0,0:0:0:0:
256,192,238833,1,0,0:0:0:0:
256,192,238921,1,2,0:0:0:0:
256,192,239009,1,0,0:0:0:0:
256,192,239098,1,2,0:0:0:0:
256,192,239274,1,0,0:0:0:0:
256,192,239362,1,2,0:0:0:0:
256,192,239451,1,2,0:0:0:0:
256,192,239539,1,0,0:0:0:0:
256,192,239627,1,0,0:0:0:0:
256,192,239804,1,2,0:0:0:0:
256,192,239892,1,2,0:0:0:0:
256,192,239980,1,0,0:0:0:0:
256,192,240068,1,2,0:0:0:0:
256,192,240157,1,0,0:0:0:0:
256,192,240245,1,0,0:0:0:0:
256,192,240333,1,2,0:0:0:0:
256,192,240421,1,0,0:0:0:0:
256,192,240509,1,2,0:0:0:0:
256,192,240686,1,0,0:0:0:0:
256,192,240774,1,2,0:0:0:0:
256,192,240951,1,2,0:0:0:0:
256,192,241039,1,0,0:0:0:0:
256,192,241215,1,2,0:0:0:0:
256,192,241304,1,2,0:0:0:0:
256,192,241392,1,0,0:0:0:0:
256,192,241480,1,2,0:0:0:0:
256,192,241657,1,0,0:0:0:0:
256,192,241745,1,2,0:0:0:0:
256,192,241833,1,2,0:0:0:0:
256,192,241921,1,0,0:0:0:0:
256,192,242098,1,2,0:0:0:0:
256,192,242186,1,0,0:0:0:0:
256,192,242362,1,0,0:0:0:0:
256,192,242451,1,2,0:0:0:0:
256,192,242539,1,0,0:0:0:0:
256,192,242627,1,2,0:0:0:0:
256,192,242715,1,2,0:0:0:0:
256,192,242804,1,0,0:0:0:0:
256,192,242892,1,2,0:0:0:0:
256,192,242980,1,0,0:0:0:0:
256,192,243068,1,0,0:0:0:0:
256,192,243157,1,2,0:0:0:0:
256,192,243245,1,0,0:0:0:0:
256,192,243333,1,2,0:0:0:0:
256,192,243509,1,0,0:0:0:0:
256,192,243598,1,2,0:0:0:0:
256,192,243774,1,2,0:0:0:0:
256,192,243862,1,0,0:0:0:0:
256,192,244039,1,0,0:0:0:0:
256,192,244127,1,0,0:0:0:0:
256,192,244215,1,2,0:0:0:0:
256,192,244304,1,0,0:0:0:0:
256,192,244480,1,0,0:0:0:0:
256,192,244568,1,2,0:0:0:0:
256,192,244657,1,0,0:0:0:0:
256,192,244745,1,2,0:0:0:0:
256,192,244921,1,0,0:0:0:0:
256,192,245009,1,2,0:0:0:0:
256,192,245098,1,2,0:0:0:0:
256,192,245186,1,0,0:0:0:0:
256,192,245274,1,2,0:0:0:0:
256,192,245451,1,2,0:0:0:0:
256,192,245539,1,0,0:0:0:0:
256,192,245627,1,0,0:0:0:0:
256,192,245715,1,2,0:0:0:0:
256,192,245804,1,0,0:0:0:0:
256,192,245892,1,2,0:0:0:0:
256,192,245980,1,2,0:0:0:0:
256,192,246068,1,0,0:0:0:0:
256,192,246157,1,2,0:0:0:0:
256,192,246333,1,0,0:0:0:0:
256,192,246421,1,2,0:0:0:0:
256,192,246598,1,2,0:0:0:0:
256,192,246686,1,0,0:0:0:0:
256,192,246862,1,2,0:0:0:0:
256,192,246951,1,2,0:0:0:0:
256,192,247039,1,0,0:0:0:0:
256,192,247127,1,2,0:0:0:0:
256,192,247304,1,0,0:0:0:0:
256,192,247392,1,2,0:0:0:0:
256,192,247480,1,2,0:0:0:0:
256,192,247568,1,0,0:0:0:0:
256,192,247745,1,0,0:0:0:0:
256,192,247833,1,0,0:0:0:0:
256,192,248009,1,0,0:0:0:0:
256,192,248098,1,2,0:0:0:0:
256,192,248186,1,2,0:0:0:0:
256,192,248274,1,0,0:0:0:0:
256,192,248362,1,2,0:0:0:0:
256,192,248451,1,0,0:0:0:0:
256,192,248539,1,2,0:0:0:0:
256,192,248715,1,2,0:0:0:0:
256,192,248804,1,2,0:0:0:0:
256,192,248892,1,2,0:0:0:0:
256,192,248980,1,0,0:0:0:0:
256,192,249157,1,0,0:0:0:0:
256,192,249245,1,2,0:0:0:0:
256,192,249421,1,2,0:0:0:0:
256,192,249509,1,0,0:0:0:0:
256,192,249686,1,2,0:0:0:0:
256,192,249774,1,0,0:0:0:0:
256,192,249862,1,0,0:0:0:0:
256,192,249951,1,2,0:0:0:0:
256,192,250127,1,0,0:0:0:0:
256,192,250215,1,0,0:0:0:0:
256,192,250304,1,2,0:0:0:0:
256,192,250392,1,2,0:0:0:0:
256,192,250568,1,0,0:0:0:0:
256,192,250657,1,2,0:0:0:0:
256,192,250745,1,2,0:0:0:0:
256,192,250833,1,0,0:0:0:0:
256,192,250921,1,0,0:0:0:0:
256,192,251098,1,2,0:0:0:0:
256,192,251186,1,2,0:0:0:0:
256,192,251274,1,0,0:0:0:0:
256,192,251362,1,2,0:0:0:0:
256,192,251451,1,0,0:0:0:0:
256,192,251539,1,0,0:0:0:0:
256,192,251627,1,2,0:0:0:0:
256,192,251715,1,0,0:0:0:0:
256,192,251804,1,2,0:0:0:0:
256,192,251980,1,0,0:0:0:0:
256,192,252068,1,2,0:0:0:0:
256,192,252245,1,2,0:0:0:0:
256,192,252333,1,0,0:0:0:0:
256,192,252509,1,2,0:0:0:0:
256,192,252598,1,2,0:0:0:0:
256,192,252686,1,0,0:0:0:0:
256,192,252774,1,2,0:0:0:0:
256,192,252951,1,0,0:0:0:0:
256,192,253039,1,2,0:0:0:0:
256,192,253127,1,2,0:0:0:0:
256,192,253215,1,0,0:0:0:0:
256,192,253392,1,2,0:0:0:0:
256,192,253480,1,0,0:0:0:0:
256,192,253657,1,2,0:0:0:0:
256,192,253745,1,0,0:0:0:0:
256,192,253833,1,0,0:0:0:0:
256,192,253921,1,2,0:0:0:0:
256,192,254009,1,2,0:0:0:0:
256,192,254098,1,0,0:0:0:0:
256,192,254186,1,2,0:0:0:0:
256,192,254274,1,0,0:0:0:0:
256,192,254362,1,0,0:0:0:0:
256,192,254451,1,2,0:0:0:0:
256,192,254539,1,0,0:0:0:0:
256,192,254627,1,0,0:0:0:0:
256,192,254804,1,0,0:0:0:0:
256,192,254892,1,2,0:0:0:0:
256,192,255068,1,2,0:0:0:0:
256,192,255157,1,0,0:0:0:0:
256,192,255333,1,2,0:0:0:0:
256,192,255421,1,0,0:0:0:0:
256,192,255509,1,0,0:0:0:0:
256,192,255598,1,2,0:0:0:0:
256,192,255774,1,0,0:0:0:0:
256,192,255862,1,2,0:0:0:0:
256,192,255951,1,0,0:0:0:0:
256,192,256039,1,2,0:0:0:0:
256,192,256215,1,0,0:0:0:0:
256,192,256304,1,2,0:0:0:0:
256,192,256392,1,2,0:0:0:0:
256,192,256480,1,0,0:0:0:0:
256,192,256568,1,0,0:0:0:0:
256,192,256745,1,2,0:0:0:0:
256,192,256833,1,0,0:0:0:0:
256,192,256921,1,0,0:0:0:0:
256,192,257009,1,2,0:0:0:0:
256,192,257098,1,0,0:0:0:0:
256,192,257186,1,2,0:0:0:0:
256,192,257274,1,2,0:0:0:0:
256,192,257362,1,0,0:0:0:0:
256,192,257451,1,2,0:0:0:0:
256,192,257627,1,0,0:0:0:0:
256,192,257715,1,2,0:0:0:0:
256,192,257892,1,2,0:0:0:0:
256,192,257980,1,0,0:0:0:0:
256,192,258157,1,2,0:0:0:0:
256,192,258245,1,2,0:0:0:0:
256,192,258333,1,0,0:0:0:0:
256,192,258421,1,2,0:0:0:0:
256,192,258598,1,0,0:0:0:0:
256,192,258686,1,2,0:0:0:0:
256,192,258774,1,2,0:0:0:0:
256,192,258862,1,0,0:0:0:0:
256,192,259039,1,2,0:0:0:0:
256,192,259127,1,0,0:0:0:0:
256,192,259304,1,0,0:0:0:0:
256,192,259392,1,2,0:0:0:0:
256,192,259480,1,2,0:0:0:0:
256,192,259568,1,0,0:0:0:0:
256,192,259657,1,2,0:0:0:0:
256,192,259745,1,0,0:0:0:0:
256,192,259833,1,2,0:0:0:0:
256,192,260009,1,2,0:0:0:0:
256,192,260098,1,2,0:0:0:0:
256,192,260274,1,4,0:0:0:0:
256,192,260451,1,0,0:0:0:0:
256,192,260539,1,2,0:0:0:0:
256,192,260627,1,2,0:0:0:0:
256,192,260715,1,0,0:0:0:0:
256,192,260804,1,0,0:0:0:0:
256,192,260980,1,2,0:0:0:0:
256,192,261068,1,0,0:0:0:0:
256,192,261157,1,0,0:0:0:0:
256,192,261245,1,2,0:0:0:0:
256,192,261421,1,0,0:0:0:0:
256,192,261509,1,2,0:0:0:0:
256,192,261598,1,2,0:0:0:0:
256,192,261686,1,2,0:0:0:0:
256,192,261862,1,0,0:0:0:0:
256,192,261951,1,2,0:0:0:0:
256,192,262039,1,2,0:0:0:0:
256,192,262127,1,0,0:0:0:0:
256,192,262215,1,2,0:0:0:0:
256,192,262392,1,2,0:0:0:0:
256,192,262480,1,2,0:0:0:0:
256,192,262568,1,0,0:0:0:0:
256,192,262657,1,2,0:0:0:0:
256,192,262745,1,2,0:0:0:0:
256,192,262833,1,0,0:0:0:0:
256,192,262921,1,2,0:0:0:0:
256,192,263009,1,0,0:0:0:0:
256,192,263098,1,2,0:0:0:0:
256,192,263274,1,0,0:0:0:0:
256,192,263362,1,2,0:0:0:0:
256,192,263451,1,2,0:0:0:0:
256,192,263539,1,0,0:0:0:0:
256,192,263627,1,2,0:0:0:0:
256,192,263804,1,2,0:0:0:0:
256,192,263892,1,2,0:0:0:0:
256,192,263980,1,0,0:0:0:0:
256,192,264068,1,2,0:0:0:0:
256,192,264245,1,0,0:0:0:0:
256,192,264333,1,0,0:0:0:0:
256,192,264421,1,2,0:0:0:0:
256,192,264509,1,0,0:0:0:0:
256,192,264686,1,2,0:0:0:0:
256,192,264774,1,0,0:0:0:0:
256,192,264951,1,0,0:0:0:0:
256,192,265039,1,0,0:0:0:0:
256,192,265127,1,0,0:0:0:0:
256,192,265215,1,2,0:0:0:0:
256,192,265304,1,2,0:0:0:0:
256,192,265392,1,0,0:0:0:0:
256,192,265480,1,2,0:0:0:0:
256,192,265568,1,0,0:0:0:0:
256,192,265657,1,2,0:0:0:0:
256,192,265745,1,0,0:0:0:0:
256,192,265833,1,0,0:0:0:0:
256,192,265921,1,2,0:0:0:0:
256,192,266098,1,0,0:0:0:0:
256,192,266186,1,2,0:0:0:0:
256,192,266274,1,2,0:0:0:0:
256,192,266362,1,0,0:0:0:0:
256,192,266451,1,0,0:0:0:0:
256,192,266627,1,2,0:0:0:0:
256,192,266715,1,0,0:0:0:0:
256,192,266804,1,0,0:0:0:0:
256,192,266892,1,2,0:0:0:0:
256,192,267068,1,0,0:0:0:0:
256,192,267157,1,2,0:0:0:0:
256,192,267245,1,2,0:0:0:0:
256,192,267333,1,2,0:0:0:0:
256,192,267509,1,0,0:0:0:0:
256,192,267598,1,2,0:0:0:0:
256,192,267686,1,2,0:0:0:0:
256,192,267774,1,0,0:0:0:0:
256,192,267862,1,2,0:0:0:0:
256,192,268039,1,2,0:0:0:0:
256,192,268127,1,0,0:0:0:0:
256,192,268215,1,0,0:0:0:0:
256,192,268304,1,2,0:0:0:0:
256,192,268392,1,2,0:0:0:0:
256,192,268480,1,0,0:0:0:0:
256,192,268568,1,2,0:0:0:0:
256,192,268657,1,0,0:0:0:0:
256,192,268745,1,2,0:0:0:0:
256,192,268921,1,0,0:0:0:0:
256,192,269009,1,2,0:0:0:0:
256,192,269098,1,2,0:0:0:0:
256,192,269186,1,0,0:0:0:0:
256,192,269274,1,2,0:0:0:0:
256,192,269451,1,2,0:0:0:0:
256,192,269539,1,2,0:0:0:0:
256,192,269627,1,0,0:0:0:0:
256,192,269715,1,2,0:0:0:0:
256,192,269892,1,0,0:0:0:0:
256,192,269980,1,2,0:0:0:0:
256,192,270068,1,2,0:0:0:0:
256,192,270157,1,0,0:0:0:0:
256,192,270333,1,0,0:0:0:0:
256,192,270421,1,0,0:0:0:0:
256,192,270598,1,0,0:0:0:0:
256,192,270686,1,2,0:0:0:0:
256,192,270774,1,2,0:0:0:0:
256,192,270862,1,0,0:0:0:0:
256,192,270951,1,0,0:0:0:0:
256,192,271039,1,0,0:0:0:0:
256,192,271127,1,2,0:0:0:0:
256,192,271304,1,2,0:0:0:0:
256,192,271392,1,0,0:0:0:0:
256,192,271480,1,2,0:0:0:0:
256,192,271568,1,0,0:0:0:0:
256,192,271745,1,0,0:0:0:0:
256,192,271833,1,2,0:0:0:0:
256,192,271921,1,2,0:0:0:0:
256,192,272009,1,0,0:0:0:0:
256,192,272098,1,0,0:0:0:0:
256,192,272274,1,2,0:0:0:0:
256,192,272362,1,2,0:0:0:0:
256,192,272451,1,0,0:0:0:0:
256,192,272539,1,2,0:0:0:0:
256,192,272715,1,0,0:0:0:0:
256,192,272804,1,2,0:0:0:0:
256,192,272892,1,0,0:0:0:0:
256,192,272980,1,2,0:0:0:0:
256,192,273157,1,0,0:0:0:0:
256,192,273245,1,2,0:0:0:0:
256,192,273333,1,2,0:0:0:0:
256,192,273421,1,0,0:0:0:0:
256,192,273509,1,2,0:0:0:0:
256,192,273686,1,2,0:0:0:0:
256,192,273774,1,0,0:0:0:0:
256,192,273862,1,0,0:0:0:0:
256,192,273951,1,2,0:0:0:0:
256,192,274039,1,2,0:0:0:0:
256,192,274127,1,0,0:0:0:0:
256,192,274215,1,0,0:0:0:0:
256,192,274304,1,0,0:0:0:0:
256,192,274392,1,2,0:0:0:0:
256,192,274568,1,0,0:0:0:0:
256,192,274657,1,2,0:0:0:0:
256,192,274745,1,2,0:0:0:0:
256,192,274833,1,0,0:0:0:0:
256,192,274921,1,0,0:0:0:0:
256,192,275098,1,2,0:0:0:0:
256,192,275186,1,0,0:0:0:0:
256,192,275274,1,0,0:0:0:0:
256,192,275362,1,2,0:0:0:0:
256,192,275539,1,0,0:0:0:0:
256,192,275627,1,2,0:0:0:0:
256,192,275715,1,2,0:0:0:0:
256,192,275804,1,0,0:0:0:0:
256,192,275980,1,0,0:0:0:0:
256,192,276068,1,0,0:0:0:0:
256,192,276245,1,0,0:0:0:0:
256,192,276333,1,2,0:0:0:0:
256,192,276421,1,0,0:0:0:0:
256,192,276509,1,2,0:0:0:0:
256,192,276598,1,0,0:0:0:0:
256,192,276686,1,0,0:0:0:0:
256,192,276774,1,2,0:0:0:0:
256,192,276862,1,0,0:0:0:0:
256,192,276951,1,0,0:0:0:0:
256,192,277039,1,2,0:0:0:0:
256,192,277127,1,0,0:0:0:0:
256,192,277215,1,2,0:0:0:0:
256,192,277392,1,0,0:0:0:0:
256,192,277480,1,2,0:0:0:0:
256,192,277568,1,2,0:0:0:0:
256,192,277657,1,0,0:0:0:0:
256,192,277745,1,0,0:0:0:0:
256,192,277921,1,2,0:0:0:0:
256,192,278009,1,2,0:0:0:0:
256,192,278098,1,0,0:0:0:0:
256,192,278186,1,2,0:0:0:0:
256,192,278362,1,0,0:0:0:0:
256,192,278451,1,2,0:0:0:0:
256,192,278539,1,2,0:0:0:0:
256,192,278627,1,2,0:0:0:0:
256,192,278804,1,0,0:0:0:0:
256,192,278892,1,2,0:0:0:0:
256,192,278980,1,2,0:0:0:0:
256,192,279068,1,0,0:0:0:0:
256,192,279157,1,2,0:0:0:0:
256,192,279333,1,2,0:0:0:0:
256,192,279421,1,0,0:0:0:0:
256,192,279509,1,0,0:0:0:0:
256,192,279598,1,2,0:0:0:0:
256,192,279686,1,2,0:0:0:0:
256,192,279774,1,0,0:0:0:0:
256,192,279862,1,2,0:0:0:0:
256,192,279951,1,0,0:0:0:0:
256,192,280039,1,2,0:0:0:0:
256,192,280127,1,0,0:0:0:0:
256,192,280215,1,2,0:0:0:0:
256,192,280304,1,0,0:0:0:0:
256,192,280392,1,2,0:0:0:0:
256,192,280480,1,0,0:0:0:0:
256,192,280568,1,2,0:0:0:0:
256,192,280657,1,0,0:0:0:0:
256,192,280745,1,2,0:0:0:0:
256,192,280833,1,2,0:0:0:0:
256,192,280921,1,2,0:0:0:0:
256,192,281009,1,0,0:0:0:0:
256,192,281098,1,2,0:0:0:0:
256,192,281186,1,0,0:0:0:0:
256,192,281274,1,0,0:0:0:0:
256,192,281362,1,0,0:0:0:0:
256,192,281451,1,2,0:0:0:0:
256,192,282862,1,4,0:0:0:0:
256,192,283039,1,0,0:0:0:0:
256,192,283127,1,0,0:0:0:0:
256,192,283215,1,2,0:0:0:0:
256,192,283392,1,0,0:0:0:0:
256,192,283480,1,0,0:0:0:0:
256,192,283568,1,0,0:0:0:0:
256,192,283657,1,2,0:0:0:0:
256,192,283745,1,2,0:0:0:0:
256,192,283833,1,0,0:0:0:0:
256,192,283921,1,2,0:0:0:0:
256,192,284098,1,2,0:0:0:0:
256,192,284186,1,0,0:0:0:0:
256,192,284274,1,0,0:0:0:0:
256,192,284362,1,2,0:0:0:0:
256,192,284451,1,2,0:0:0:0:
256,192,284539,1,0,0:0:0:0:
256,192,284627,1,2,0:0:0:0:
256,192,284804,1,2,0:0:0:0:
256,192,284892,1,0,0:0:0:0:
256,192,284980,1,0,0:0:0:0:
256,192,285068,1,2,0:0:0:0:
256,192,285157,1,2,0:0:0:0:
256,192,285245,1,0,0:0:0:0:
256,192,285333,1,2,0:0:0:0:
256,192,285421,1,2,0:0:0:0:
256,192,285509,1,0,0:0:0:0:
256,192,285686,1,0,0:0:0:0:
256,192,285862,1,0,0:0:0:0:
256,192,285951,1,0,0:0:0:0:
256,192,286039,1,2,0:0:0:0:
256,192,286215,1,0,0:0:0:0:
256,192,286304,1,0,0:0:0:0:
256,192,286392,1,0,0:0:0:0:
256,192,286480,1,2,0:0:0:0:
256,192,286568,1,2,0:0:0:0:
256,192,286657,1,0,0:0:0:0:
256,192,286745,1,2,0:0:0:0:
256,192,286921,1,2,0:0:0:0:
256,192,287009,1,0,0:0:0:0:
256,192,287098,1,2,0:0:0:0:
256,192,287186,1,2,0:0:0:0:
256,192,287274,1,2,0:0:0:0:
256,192,287362,1,0,0:0:0:0:
256,192,287451,1,2,0:0:0:0:
256,192,287627,1,0,0:0:0:0:
256,192,287715,1,2,0:0:0:0:
256,192,287804,1,2,0:0:0:0:
256,192,287892,1,2,0:0:0:0:
256,192,287980,1,0,0:0:0:0:
256,192,288068,1,0,0:0:0:0:
256,192,288157,1,2,0:0:0:0:
256,192,288245,1,0,0:0:0:0:
256,192,288333,1,0,0:0:0:0:
256,192,288509,1,0,0:0:0:0:
256,192,288686,1,0,0:0:0:0:
256,192,288774,1,0,0:0:0:0:
256,192,288862,1,2,0:0:0:0:
256,192,289039,1,0,0:0:0:0:
256,192,289127,1,2,0:0:0:0:
256,192,289215,1,0,0:0:0:0:
256,192,289304,1,2,0:0:0:0:
256,192,289392,1,2,0:0:0:0:
256,192,289480,1,0,0:0:0:0:
256,192,289568,1,2,0:0:0:0:
256,192,289745,1,2,0:0:0:0:
256,192,289833,1,0,0:0:0:0:
256,192,289921,1,0,0:0:0:0:
256,192,290009,1,2,0:0:0:0:
256,192,290098,1,2,0:0:0:0:
256,192,290186,1,0,0:0:0:0:
256,192,290274,1,2,0:0:0:0:
256,192,290451,1,2,0:0:0:0:
256,192,290539,1,0,0:0:0:0:
256,192,290627,1,2,0:0:0:0:
256,192,290715,1,2,0:0:0:0:
256,192,290804,1,0,0:0:0:0:
256,192,290892,1,0,0:0:0:0:
256,192,290980,1,2,0:0:0:0:
256,192,291068,1,0,0:0:0:0:
256,192,291157,1,0,0:0:0:0:
256,192,291333,1,0,0:0:0:0:
256,192,291509,1,0,0:0:0:0:
256,192,291598,1,0,0:0:0:0:
256,192,291686,1,2,0:0:0:0:
256,192,291862,1,0,0:0:0:0:
256,192,291951,1,2,0:0:0:0:
256,192,292039,1,0,0:0:0:0:
256,192,292127,1,2,0:0:0:0:
256,192,292215,1,0,0:0:0:0:
256,192,292304,1,0,0:0:0:0:
256,192,292392,1,2,0:0:0:0:
256,192,292568,1,2,0:0:0:0:
256,192,292657,1,2,0:0:0:0:
256,192,292745,1,0,0:0:0:0:
256,192,292833,1,2,0:0:0:0:
256,192,292921,1,2,0:0:0:0:
256,192,293009,1,0,0:0:0:0:
256,192,293098,1,2,0:0:0:0:
256,192,293274,1,2,0:0:0:0:
256,192,293362,1,2,0:0:0:0:
256,192,293451,1,0,0:0:0:0:
256,192,294157,1,0,0:0:0:0:
256,192,294333,1,0,0:0:0:0:
256,192,294421,1,0,0:0:0:0:
256,192,294509,1,2,0:0:0:0:
256,192,294686,1,0,0:0:0:0:
256,192,294774,1,2,0:0:0:0:
256,192,294862,1,2,0:0:0:0:
256,192,294951,1,2,0:0:0:0:
256,192,295039,1,0,0:0:0:0:
256,192,295127,1,0,0:0:0:0:
256,192,295215,1,2,0:0:0:0:
256,192,295392,1,2,0:0:0:0:
256,192,295480,1,2,0:0:0:0:
256,192,295568,1,0,0:0:0:0:
256,192,295745,1,0,0:0:0:0:
256,192,295833,1,0,0:0:0:0:
256,192,295921,1,2,0:0:0:0:
256,192,296098,1,2,0:0:0:0:
256,192,296186,1,2,0:0:0:0:
256,192,296274,1,0,0:0:0:0:
256,192,296362,1,2,0:0:0:0:
256,192,296451,1,2,0:0:0:0:
256,192,296539,1,0,0:0:0:0:
256,192,296627,1,2,0:0:0:0:
256,192,296804,1,2,0:0:0:0:
256,192,296892,1,2,0:0:0:0:
256,192,296980,1,0,0:0:0:0:
256,192,297157,1,0,0:0:0:0:
256,192,297245,1,0,0:0:0:0:
256,192,297333,1,2,0:0:0:0:
256,192,297509,1,0,0:0:0:0:
256,192,297598,1,2,0:0:0:0:
256,192,297686,1,0,0:0:0:0:
256,192,297774,1,2,0:0:0:0:
256,192,297862,1,2,0:0:0:0:
256,192,297951,1,0,0:0:0:0:
256,192,298039,1,2,0:0:0:0:
256,192,298215,1,2,0:0:0:0:
256,192,298304,1,2,0:0:0:0:
256,192,298392,1,0,0:0:0:0:
256,192,298568,1,0,0:0:0:0:
256,192,298657,1,0,0:0:0:0:
256,192,298745,1,2,0:0:0:0:
256,192,298921,1,2,0:0:0:0:
256,192,299009,1,2,0:0:0:0:
256,192,299098,1,0,0:0:0:0:
256,192,299186,1,2,0:0:0:0:
256,192,299274,1,0,0:0:0:0:
256,192,299362,1,0,0:0:0:0:
256,192,299451,1,2,0:0:0:0:
256,192,299627,1,2,0:0:0:0:
256,192,299715,1,2,0:0:0:0:
256,192,299804,1,0,0:0:0:0:
256,192,299980,1,0,0:0:0:0:
256,192,300068,1,0,0:0:0:0:
256,192,300157,1,2,0:0:0:0:
256,192,300245,1,0,0:0:0:0:
256,192,300333,1,2,0:0:0:0:
256,192,300421,1,2,0:0:0:0:
256,192,300509,1,0,0:0:0:0:
256,192,300686,1,0,0:0:0:0:
256,192,300862,1,2,0:0:0:0:
256,192,300951,1,0,0:0:0:0:
256,192,301039,1,2,0:0:0:0:
256,192,301127,1,2,0:0:0:0:
256,192,301216,1,0,0:0:0:0:
256,192,301392,1,0,0:0:0:0:
256,192,301568,1,2,0:0:0:0:
256,192,301657,1,0,0:0:0:0:
256,192,301745,1,2,0:0:0:0:
256,192,301833,1,2,0:0:0:0:
256,192,301921,1,0,0:0:0:0:
256,192,302098,1,0,0:0:0:0:
256,192,302274,1,2,0:0:0:0:
256,192,302362,1,0,0:0:0:0:
256,192,302451,1,2,0:0:0:0:
256,192,302539,1,2,0:0:0:0:
256,192,302627,1,0,0:0:0:0:
256,192,302804,1,0,0:0:0:0:
256,192,302980,1,2,0:0:0:0:
256,192,303157,1,0,0:0:0:0:
256,192,303333,1,2,0:0:0:0:
256,192,303509,1,0,0:0:0:0:
256,192,303686,1,2,0:0:0:0:
256,192,303862,1,0,0:0:0:0:
256,192,304039,1,0,0:0:0:0:
256,192,305451,1,4,0:0:0:0:
256,192,305715,1,2,0:0:0:0:
256,192,305804,1,0,0:0:0:0:
256,192,305980,1,2,0:0:0:0:
256,192,306157,1,0,0:0:0:0:
256,192,306333,1,2,0:0:0:0:
256,192,306509,1,0,0:0:0:0:
256,192,306598,1,2,0:0:0:0:
256,192,306862,1,0,0:0:0:0:
256,192,307127,1,2,0:0:0:0:
256,192,307215,1,0,0:0:0:0:
256,192,307392,1,2,0:0:0:0:
256,192,307568,1,0,0:0:0:0:
256,192,307745,1,2,0:0:0:0:
256,192,307921,1,0,0:0:0:0:
256,192,308098,1,2,0:0:0:0:
256,192,308274,1,0,0:0:0:0:
256,192,308539,1,2,0:0:0:0:
256,192,308627,1,0,0:0:0:0:
256,192,308804,1,2,0:0:0:0:
256,192,308980,1,0,0:0:0:0:
256,192,309157,1,2,0:0:0:0:
256,192,309333,1,0,0:0:0:0:
256,192,309421,1,2,0:0:0:0:
256,192,309686,1,0,0:0:0:0:
256,192,309951,1,2,0:0:0:0:
256,192,310039,1,0,0:0:0:0:
256,192,310215,1,2,0:0:0:0:
256,192,310392,1,0,0:0:0:0:
256,192,311098,1,0,0:0:0:0:
256,192,311362,1,2,0:0:0:0:
256,192,311451,1,0,0:0:0:0:
256,192,311627,1,2,0:0:0:0:
256,192,311804,1,0,0:0:0:0:
256,192,311980,1,2,0:0:0:0:
256,192,312157,1,0,0:0:0:0:
256,192,312245,1,2,0:0:0:0:
256,192,312509,1,0,0:0:0:0:
256,192,312774,1,2,0:0:0:0:
256,192,312862,1,0,0:0:0:0:
256,192,313039,1,2,0:0:0:0:
256,192,313215,1,0,0:0:0:0:
256,192,313392,1,2,0:0:0:0:
256,192,313568,1,2,0:0:0:0:
256,192,313745,1,2,0:0:0:0:
256,192,313921,1,0,0:0:0:0:
256,192,314186,1,2,0:0:0:0:
256,192,314274,1,0,0:0:0:0:
256,192,314451,1,2,0:0:0:0:
256,192,314627,1,0,0:0:0:0:
256,192,314804,1,2,0:0:0:0:
256,192,314980,1,0,0:0:0:0:
256,192,315068,1,2,0:0:0:0:
256,192,315333,1,0,0:0:0:0:
256,192,316745,1,0,0:0:0:0:
256,192,317009,1,2,0:0:0:0:
256,192,317098,1,0,0:0:0:0:
256,192,317274,1,2,0:0:0:0:
256,192,317451,1,0,0:0:0:0:
256,192,317539,1,2,0:0:0:0:
256,192,317715,1,2,0:0:0:0:
256,192,317804,1,0,0:0:0:0:
256,192,317980,1,2,0:0:0:0:
256,192,318157,1,0,0:0:0:0:
256,192,318421,1,2,0:0:0:0:
256,192,318509,1,0,0:0:0:0:
256,192,318686,1,2,0:0:0:0:
256,192,318862,1,0,0:0:0:0:
256,192,318951,1,2,0:0:0:0:
256,192,319127,1,2,0:0:0:0:
256,192,319215,1,0,0:0:0:0:
256,192,319392,1,2,0:0:0:0:
256,192,319568,1,0,0:0:0:0:
256,192,319833,1,2,0:0:0:0:
256,192,319921,1,0,0:0:0:0:
256,192,320098,1,2,0:0:0:0:
256,192,320274,1,0,0:0:0:0:
256,192,320362,1,2,0:0:0:0:
256,192,320539,1,2,0:0:0:0:
256,192,320627,1,0,0:0:0:0:
256,192,320804,1,2,0:0:0:0:
256,192,320980,1,0,0:0:0:0:
256,192,321245,1,2,0:0:0:0:
256,192,321333,1,0,0:0:0:0:
256,192,321509,1,2,0:0:0:0:
256,192,321686,1,0,0:0:0:0:
256,192,322392,1,0,0:0:0:0:
256,192,322568,1,2,0:0:0:0:
256,192,322745,1,2,0:0:0:0:
256,192,322921,1,2,0:0:0:0:
256,192,323098,1,0,0:0:0:0:
256,192,323274,1,2,0:0:0:0:
256,192,323362,1,2,0:0:0:0:
256,192,323451,1,0,0:0:0:0:
256,192,323627,1,2,0:0:0:0:
256,192,323804,1,0,0:0:0:0:
256,192,323980,1,2,0:0:0:0:
256,192,324157,1,2,0:0:0:0:
256,192,324333,1,2,0:0:0:0:
256,192,324509,1,0,0:0:0:0:
256,192,324686,1,2,0:0:0:0:
256,192,324774,1,2,0:0:0:0:
256,192,324862,1,0,0:0:0:0:
256,192,325039,1,2,0:0:0:0:
256,192,325215,1,0,0:0:0:0:
256,192,325304,1,0,0:0:0:0:
256,192,325392,1,2,0:0:0:0:
256,192,325480,1,0,0:0:0:0:
256,192,325568,1,2,0:0:0:0:
256,192,325657,1,0,0:0:0:0:
256,192,325745,1,0,0:0:0:0:
256,192,325833,1,0,0:0:0:0:
256,192,325921,1,2,0:0:0:0:
256,192,326009,1,2,0:0:0:0:
256,192,326098,1,0,0:0:0:0:
256,192,326186,1,0,0:0:0:0:
256,192,326274,1,2,0:0:0:0:
256,192,326362,1,0,0:0:0:0:
256,192,326451,1,2,0:0:0:0:
256,192,326539,1,2,0:0:0:0:
256,192,326627,1,0,0:0:0:0:
256,192,328039,1,6,0:0:0:0:
