osu file format v14

[General]
AudioFilename: audio.mp3
AudioLeadIn: 0
PreviewTime: 41700
Countdown: 0
SampleSet: Soft
StackLeniency: 0.7
Mode: 3
LetterboxInBreaks: 0
SpecialStyle: 0
WidescreenStoryboard: 1

[Editor]
DistanceSpacing: 0.8
BeatDivisor: 4
GridSize: 32
TimelineZoom: 2.6

[Metadata]
Title:Chaos:Q
TitleUnicode:Chaos:Q
Artist:nonuplet
ArtistUnicode:nonuplet
Creator:D o t
Version:EX 50
Source:pop'n music うさぎと猫と少年の夢
Tags:popn red glasses ゆーじ ? ? ハテナ
BeatmapID:1859848
BeatmapSetID:889674

[Difficulty]
HPDrainRate:8
CircleSize:9
OverallDifficulty:8
ApproachRate:5
SliderMultiplier:1.4
SliderTickRate:1

[Events]
//Background and Video events
0,0,"2.jpg",0,-20
//Break Periods
//Storyboard Layer 0 (Background)
//Storyboard Layer 1 (Fail)
//Storyboard Layer 2 (Pass)
//Storyboard Layer 3 (Foreground)
//Storyboard Sound Samples

[TimingPoints]
508,298.507462686567,4,2,0,30,1,0
23194,298.507462686567,3,2,0,30,1,0
24985,149.253731343284,3,2,0,30,1,0
25880,298.507462686567,3,2,0,30,1,0
41999,298.507462686567,4,2,0,30,1,1
42000,-100,4,2,0,30,0,0
56327,149.253731343284,4,2,0,30,1,0
61103,298.507462686567,4,2,0,30,1,1
61104,-100,4,2,0,30,0,0
84983,149.253731343284,4,2,0,30,1,0
89759,298.507462686567,4,2,0,30,1,0
92147,600,4,2,0,30,1,1
92148,-100,4,2,0,30,0,0
101747,400,4,2,0,30,1,0
108147,298.507462686567,4,2,0,30,1,0
110535,600,4,2,0,30,1,0
112935,298.507462686567,4,2,0,30,1,0
117711,149.253731343284,4,2,0,30,1,0
120099,298.507462686567,4,2,0,30,1,0
120397,298.507462686567,4,2,0,30,1,1
120398,-100,4,2,0,30,0,0

[HitObjects]
28,192,508,5,0,0:0:0:0:
85,192,582,1,0,0:0:0:0:
256,192,657,1,0,0:0:0:0:
199,192,731,1,0,0:0:0:0:
28,192,806,1,0,0:0:0:0:
85,192,881,1,0,0:0:0:0:
256,192,955,1,0,0:0:0:0:
199,192,1030,1,0,0:0:0:0:
28,192,1105,1,0,0:0:0:0:
85,192,1179,1,0,0:0:0:0:
256,192,1254,1,0,0:0:0:0:
199,192,1328,1,0,0:0:0:0:
28,192,1403,1,0,0:0:0:0:
85,192,1478,1,0,0:0:0:0:
256,192,1552,1,0,0:0:0:0:
199,192,1627,1,0,0:0:0:0:
28,192,1702,1,0,0:0:0:0:
85,192,1776,1,0,0:0:0:0:
256,192,1851,1,0,0:0:0:0:
199,192,1925,1,0,0:0:0:0:
28,192,2000,1,0,0:0:0:0:
85,192,2075,1,0,0:0:0:0:
256,192,2149,1,0,0:0:0:0:
199,192,2224,1,0,0:0:0:0:
28,192,2299,1,0,0:0:0:0:
85,192,2373,1,0,0:0:0:0:
256,192,2448,1,0,0:0:0:0:
199,192,2522,1,0,0:0:0:0:
28,192,2597,1,0,0:0:0:0:
85,192,2672,1,0,0:0:0:0:
256,192,2746,1,0,0:0:0:0:
199,192,2821,1,0,0:0:0:0:
28,192,2896,1,0,0:0:0:0:
85,192,2970,1,0,0:0:0:0:
256,192,3045,1,0,0:0:0:0:
199,192,3119,1,0,0:0:0:0:
28,192,3194,1,0,0:0:0:0:
85,192,3269,1,0,0:0:0:0:
256,192,3343,1,0,0:0:0:0:
199,192,3418,1,0,0:0:0:0:
28,192,3493,1,0,0:0:0:0:
85,192,3567,1,0,0:0:0:0:
256,192,3642,1,0,0:0:0:0:
199,192,3716,1,0,0:0:0:0:
85,192,3791,1,0,0:0:0:0:
142,192,3866,1,0,0:0:0:0:
256,192,3940,1,0,0:0:0:0:
199,192,4015,1,0,0:0:0:0:
142,192,4090,1,0,0:0:0:0:
199,192,4164,1,0,0:0:0:0:
312,192,4239,1,0,0:0:0:0:
256,192,4313,1,0,0:0:0:0:
199,192,4388,1,0,0:0:0:0:
256,192,4463,1,0,0:0:0:0:
369,192,4537,1,0,0:0:0:0:
312,192,4612,1,0,0:0:0:0:
256,192,4687,1,0,0:0:0:0:
312,192,4761,1,0,0:0:0:0:
426,192,4836,1,0,0:0:0:0:
369,192,4910,1,0,0:0:0:0:
312,192,4985,1,0,0:0:0:0:
369,192,5060,1,0,0:0:0:0:
483,192,5134,1,0,0:0:0:0:
426,192,5209,1,0,0:0:0:0:
85,192,5284,1,0,0:0:0:0:
369,192,5284,1,0,0:0:0:0:
312,192,5358,1,0,0:0:0:0:
256,192,5433,1,0,0:0:0:0:
199,192,5507,1,0,0:0:0:0:
28,192,5582,1,0,0:0:0:0:
142,192,5582,1,0,0:0:0:0:
199,192,5657,1,0,0:0:0:0:
256,192,5731,1,0,0:0:0:0:
312,192,5806,1,0,0:0:0:0:
28,192,5881,1,0,0:0:0:0:
369,192,5881,1,0,0:0:0:0:
312,192,5955,1,0,0:0:0:0:
256,192,6030,1,0,0:0:0:0:
199,192,6105,1,0,0:0:0:0:
28,192,6179,1,0,0:0:0:0:
85,192,6179,1,0,0:0:0:0:
142,192,6179,1,0,0:0:0:0:
199,192,6254,1,0,0:0:0:0:
256,192,6328,1,0,0:0:0:0:
312,192,6403,1,0,0:0:0:0:
28,192,6478,1,0,0:0:0:0:
369,192,6478,1,0,0:0:0:0:
312,192,6552,1,0,0:0:0:0:
256,192,6627,1,0,0:0:0:0:
199,192,6702,1,0,0:0:0:0:
28,192,6776,1,0,0:0:0:0:
142,192,6776,1,0,0:0:0:0:
199,192,6851,1,0,0:0:0:0:
256,192,6925,1,0,0:0:0:0:
312,192,7000,1,0,0:0:0:0:
28,192,7075,1,0,0:0:0:0:
85,192,7075,1,0,0:0:0:0:
369,192,7075,1,0,0:0:0:0:
312,192,7149,1,0,0:0:0:0:
256,192,7224,1,0,0:0:0:0:
199,192,7299,1,0,0:0:0:0:
85,192,7373,1,0,0:0:0:0:
28,192,7373,1,0,0:0:0:0:
142,192,7373,1,0,0:0:0:0:
199,192,7448,1,0,0:0:0:0:
256,192,7522,1,0,0:0:0:0:
312,192,7597,1,0,0:0:0:0:
85,192,7672,1,0,0:0:0:0:
28,192,7672,1,0,0:0:0:0:
369,192,7672,1,0,0:0:0:0:
312,192,7746,1,0,0:0:0:0:
256,192,7821,1,0,0:0:0:0:
199,192,7896,1,0,0:0:0:0:
28,192,7970,1,0,0:0:0:0:
142,192,7970,1,0,0:0:0:0:
199,192,8045,1,0,0:0:0:0:
28,192,8119,1,0,0:0:0:0:
256,192,8119,1,0,0:0:0:0:
312,192,8194,1,0,0:0:0:0:
369,192,8269,1,0,0:0:0:0:
312,192,8343,1,0,0:0:0:0:
28,192,8418,1,0,0:0:0:0:
256,192,8418,1,0,0:0:0:0:
199,192,8493,1,0,0:0:0:0:
85,192,8567,1,0,0:0:0:0:
142,192,8567,1,0,0:0:0:0:
199,192,8642,1,0,0:0:0:0:
85,192,8716,1,0,0:0:0:0:
256,192,8716,1,0,0:0:0:0:
312,192,8791,1,0,0:0:0:0:
369,192,8866,1,0,0:0:0:0:
312,192,8940,1,0,0:0:0:0:
85,192,9015,1,0,0:0:0:0:
256,192,9015,1,0,0:0:0:0:
199,192,9090,1,0,0:0:0:0:
142,192,9164,1,0,0:0:0:0:
199,192,9239,1,0,0:0:0:0:
85,192,9313,1,0,0:0:0:0:
256,192,9313,1,0,0:0:0:0:
312,192,9388,1,0,0:0:0:0:
85,192,9463,1,0,0:0:0:0:
369,192,9463,1,0,0:0:0:0:
312,192,9537,1,0,0:0:0:0:
28,192,9612,1,0,0:0:0:0:
256,192,9612,1,0,0:0:0:0:
199,192,9687,1,0,0:0:0:0:
142,192,9761,1,0,0:0:0:0:
199,192,9836,1,0,0:0:0:0:
28,192,9910,1,0,0:0:0:0:
256,192,9910,1,0,0:0:0:0:
312,192,9985,1,0,0:0:0:0:
483,192,10060,1,0,0:0:0:0:
426,192,10134,1,0,0:0:0:0:
28,192,10209,1,0,0:0:0:0:
369,192,10209,1,0,0:0:0:0:
312,192,10284,1,0,0:0:0:0:
85,192,10358,1,0,0:0:0:0:
142,192,10358,1,0,0:0:0:0:
256,192,10358,1,0,0:0:0:0:
312,192,10433,1,0,0:0:0:0:
369,192,10507,1,0,0:0:0:0:
426,192,10582,1,0,0:0:0:0:
28,192,10657,1,0,0:0:0:0:
483,192,10657,1,0,0:0:0:0:
426,192,10731,1,0,0:0:0:0:
369,192,10806,1,0,0:0:0:0:
312,192,10881,1,0,0:0:0:0:
28,192,10955,1,0,0:0:0:0:
256,192,10955,1,0,0:0:0:0:
312,192,11030,1,0,0:0:0:0:
85,192,11105,1,0,0:0:0:0:
142,192,11105,1,0,0:0:0:0:
369,192,11105,1,0,0:0:0:0:
426,192,11179,1,0,0:0:0:0:
483,192,11254,1,0,0:0:0:0:
426,192,11328,1,0,0:0:0:0:
85,192,11403,1,0,0:0:0:0:
142,192,11403,1,0,0:0:0:0:
369,192,11403,1,0,0:0:0:0:
312,192,11478,1,0,0:0:0:0:
142,192,11552,1,0,0:0:0:0:
85,192,11552,1,0,0:0:0:0:
256,192,11552,1,0,0:0:0:0:
312,192,11627,1,0,0:0:0:0:
369,192,11702,1,0,0:0:0:0:
426,192,11776,1,0,0:0:0:0:
28,192,11851,1,0,0:0:0:0:
483,192,11851,1,0,0:0:0:0:
426,192,11925,1,0,0:0:0:0:
369,192,12000,1,0,0:0:0:0:
312,192,12075,1,0,0:0:0:0:
28,192,12149,1,0,0:0:0:0:
256,192,12149,1,0,0:0:0:0:
312,192,12224,1,0,0:0:0:0:
28,192,12299,1,0,0:0:0:0:
369,192,12299,1,0,0:0:0:0:
426,192,12373,1,0,0:0:0:0:
85,192,12448,1,0,0:0:0:0:
483,192,12448,1,0,0:0:0:0:
426,192,12522,1,0,0:0:0:0:
369,192,12597,1,0,0:0:0:0:
312,192,12672,1,0,0:0:0:0:
85,192,12746,1,0,0:0:0:0:
256,192,12746,1,0,0:0:0:0:
199,192,12821,1,0,0:0:0:0:
142,192,12896,1,0,0:0:0:0:
85,192,12970,1,0,0:0:0:0:
426,192,13045,1,0,0:0:0:0:
483,192,13045,1,0,0:0:0:0:
369,192,13119,1,0,0:0:0:0:
312,192,13194,1,0,0:0:0:0:
28,192,13194,1,0,0:0:0:0:
256,192,13269,1,0,0:0:0:0:
199,192,13343,1,0,0:0:0:0:
142,192,13418,1,0,0:0:0:0:
85,192,13493,1,0,0:0:0:0:
426,192,13493,1,0,0:0:0:0:
28,192,13567,1,0,0:0:0:0:
142,192,13642,1,0,0:0:0:0:
483,192,13642,1,0,0:0:0:0:
369,192,13791,1,0,0:0:0:0:
256,192,13940,1,0,0:0:0:0:
199,192,14090,1,0,0:0:0:0:
426,192,14090,1,0,0:0:0:0:
312,192,14239,1,0,0:0:0:0:
199,192,14388,1,0,0:0:0:0:
85,192,14537,1,0,0:0:0:0:
369,192,14537,1,0,0:0:0:0:
256,192,14687,1,0,0:0:0:0:
142,192,14836,1,0,0:0:0:0:
28,192,14836,1,0,0:0:0:0:
369,192,14985,1,0,0:0:0:0:
483,192,14985,1,0,0:0:0:0:
256,192,15134,1,0,0:0:0:0:
142,192,15284,1,0,0:0:0:0:
426,192,15284,1,0,0:0:0:0:
369,192,15433,1,0,0:0:0:0:
28,192,15433,1,0,0:0:0:0:
256,192,15582,1,0,0:0:0:0:
199,192,15731,1,0,0:0:0:0:
142,192,15731,1,0,0:0:0:0:
369,192,15881,1,0,0:0:0:0:
483,192,15881,1,0,0:0:0:0:
199,192,16030,1,0,0:0:0:0:
85,192,16179,1,0,0:0:0:0:
256,192,16328,1,0,0:0:0:0:
426,192,16328,1,0,0:0:0:0:
142,192,16478,1,0,0:0:0:0:
28,192,16627,1,0,0:0:0:0:
369,192,16776,1,0,0:0:0:0:
483,192,16776,1,0,0:0:0:0:
256,192,16925,1,0,0:0:0:0:
199,192,17075,1,0,0:0:0:0:
369,192,17224,1,0,0:0:0:0:
426,192,17224,1,0,0:0:0:0:
256,192,17373,1,0,0:0:0:0:
142,192,17522,1,0,0:0:0:0:
312,192,17672,1,0,0:0:0:0:
369,192,17672,1,0,0:0:0:0:
199,192,17821,1,0,0:0:0:0:
28,192,17970,1,0,0:0:0:0:
142,192,18119,1,0,0:0:0:0:
256,192,18119,1,0,0:0:0:0:
369,192,18269,1,0,0:0:0:0:
28,192,18418,1,0,0:0:0:0:
142,192,18418,1,0,0:0:0:0:
483,192,18418,128,0,19015:0:0:0:0:
85,192,18716,1,0,0:0:0:0:
28,192,19015,1,0,0:0:0:0:
28,192,19164,1,0,0:0:0:0:
426,192,19164,1,0,0:0:0:0:
483,192,19239,1,0,0:0:0:0:
85,192,19313,1,0,0:0:0:0:
426,192,19313,1,0,0:0:0:0:
369,192,19463,1,0,0:0:0:0:
28,192,19463,1,0,0:0:0:0:
312,192,19612,1,0,0:0:0:0:
256,192,19761,1,0,0:0:0:0:
28,192,19761,1,0,0:0:0:0:
312,192,19910,1,0,0:0:0:0:
85,192,19910,1,0,0:0:0:0:
369,192,20060,1,0,0:0:0:0:
28,192,20209,1,0,0:0:0:0:
483,192,20358,1,0,0:0:0:0:
85,192,20507,1,0,0:0:0:0:
426,192,20657,1,0,0:0:0:0:
28,192,20806,1,0,0:0:0:0:
369,192,20955,1,0,0:0:0:0:
312,192,21105,1,0,0:0:0:0:
85,192,21105,1,0,0:0:0:0:
256,192,21254,1,0,0:0:0:0:
312,192,21403,1,0,0:0:0:0:
28,192,21403,1,0,0:0:0:0:
369,192,21552,1,0,0:0:0:0:
483,192,21702,1,0,0:0:0:0:
85,192,21702,1,0,0:0:0:0:
426,192,21851,1,0,0:0:0:0:
28,192,22000,1,0,0:0:0:0:
369,192,22149,1,0,0:0:0:0:
85,192,22299,1,0,0:0:0:0:
312,192,22448,1,0,0:0:0:0:
256,192,22597,1,0,0:0:0:0:
28,192,22597,1,0,0:0:0:0:
312,192,22746,1,0,0:0:0:0:
369,192,22896,1,0,0:0:0:0:
85,192,22896,1,0,0:0:0:0:
483,192,23045,1,0,0:0:0:0:
312,192,23194,1,0,0:0:0:0:
426,192,23194,1,0,0:0:0:0:
369,192,23194,1,0,0:0:0:0:
426,192,23343,1,0,0:0:0:0:
312,192,23343,1,0,0:0:0:0:
426,192,23492,1,0,0:0:0:0:
312,192,23492,1,0,0:0:0:0:
256,192,23492,1,0,0:0:0:0:
85,192,23641,1,0,0:0:0:0:
199,192,23641,1,0,0:0:0:0:
199,192,23791,1,0,0:0:0:0:
85,192,23791,1,0,0:0:0:0:
85,192,23940,1,0,0:0:0:0:
199,192,23940,1,0,0:0:0:0:
142,192,23940,1,0,0:0:0:0:
256,192,24089,1,0,0:0:0:0:
369,192,24089,1,0,0:0:0:0:
369,192,24238,1,0,0:0:0:0:
256,192,24238,1,0,0:0:0:0:
312,192,24388,1,0,0:0:0:0:
256,192,24388,1,0,0:0:0:0:
369,192,24388,1,0,0:0:0:0:
28,192,24537,1,0,0:0:0:0:
142,192,24537,1,0,0:0:0:0:
142,192,24686,1,0,0:0:0:0:
28,192,24686,1,0,0:0:0:0:
142,192,24835,1,0,0:0:0:0:
85,192,24835,1,0,0:0:0:0:
28,192,24835,1,0,0:0:0:0:
312,192,24985,1,0,0:0:0:0:
426,192,24985,1,0,0:0:0:0:
426,192,25096,1,0,0:0:0:0:
312,192,25096,1,0,0:0:0:0:
199,192,25208,1,0,0:0:0:0:
85,192,25208,1,0,0:0:0:0:
85,192,25320,1,0,0:0:0:0:
199,192,25320,1,0,0:0:0:0:
256,192,25432,1,0,0:0:0:0:
369,192,25432,1,0,0:0:0:0:
369,192,25544,1,0,0:0:0:0:
256,192,25544,1,0,0:0:0:0:
142,192,25656,1,0,0:0:0:0:
28,192,25656,1,0,0:0:0:0:
28,192,25768,1,0,0:0:0:0:
142,192,25768,1,0,0:0:0:0:
199,192,25880,1,0,0:0:0:0:
312,192,25880,1,0,0:0:0:0:
426,192,25880,1,0,0:0:0:0:
142,192,26029,1,0,0:0:0:0:
85,192,26178,1,0,0:0:0:0:
256,192,26178,1,0,0:0:0:0:
142,192,26327,1,0,0:0:0:0:
85,192,26477,1,0,0:0:0:0:
28,192,26626,1,0,0:0:0:0:
369,192,26626,1,0,0:0:0:0:
199,192,26775,1,0,0:0:0:0:
256,192,26775,1,0,0:0:0:0:
426,192,26775,1,0,0:0:0:0:
142,192,26924,1,0,0:0:0:0:
483,192,26924,1,0,0:0:0:0:
85,192,27074,1,0,0:0:0:0:
142,192,27223,1,0,0:0:0:0:
312,192,27223,1,0,0:0:0:0:
85,192,27372,1,0,0:0:0:0:
256,192,27372,1,0,0:0:0:0:
28,192,27521,1,0,0:0:0:0:
256,192,27671,1,0,0:0:0:0:
369,192,27671,1,0,0:0:0:0:
426,192,27671,1,0,0:0:0:0:
199,192,27820,1,0,0:0:0:0:
142,192,27969,1,0,0:0:0:0:
28,192,27969,1,0,0:0:0:0:
312,192,27969,1,0,0:0:0:0:
199,192,28118,1,0,0:0:0:0:
483,192,28118,1,0,0:0:0:0:
142,192,28268,1,0,0:0:0:0:
85,192,28417,1,0,0:0:0:0:
369,192,28417,1,0,0:0:0:0:
256,192,28566,1,0,0:0:0:0:
312,192,28566,1,0,0:0:0:0:
426,192,28566,1,0,0:0:0:0:
199,192,28715,1,0,0:0:0:0:
142,192,28865,1,0,0:0:0:0:
312,192,28865,1,0,0:0:0:0:
199,192,29014,1,0,0:0:0:0:
483,192,29014,1,0,0:0:0:0:
142,192,29163,1,0,0:0:0:0:
28,192,29163,1,0,0:0:0:0:
426,192,29163,1,0,0:0:0:0:
85,192,29312,1,0,0:0:0:0:
369,192,29312,1,0,0:0:0:0:
199,192,29462,1,0,0:0:0:0:
312,192,29462,1,0,0:0:0:0:
483,192,29462,1,0,0:0:0:0:
142,192,29611,1,0,0:0:0:0:
85,192,29760,1,0,0:0:0:0:
312,192,29760,1,0,0:0:0:0:
426,192,29760,1,0,0:0:0:0:
142,192,29909,1,0,0:0:0:0:
369,192,29909,1,0,0:0:0:0:
85,192,30059,1,0,0:0:0:0:
28,192,30208,1,0,0:0:0:0:
312,192,30208,1,0,0:0:0:0:
199,192,30357,1,0,0:0:0:0:
312,192,30357,1,0,0:0:0:0:
256,192,30506,1,0,0:0:0:0:
142,192,30506,1,0,0:0:0:0:
85,192,30656,1,0,0:0:0:0:
312,192,30656,1,0,0:0:0:0:
369,192,30805,1,0,0:0:0:0:
142,192,30805,1,0,0:0:0:0:
85,192,30954,1,0,0:0:0:0:
426,192,30954,1,0,0:0:0:0:
28,192,31103,1,0,0:0:0:0:
483,192,31103,1,0,0:0:0:0:
199,192,31253,1,0,0:0:0:0:
312,192,31253,1,0,0:0:0:0:
426,192,31253,1,0,0:0:0:0:
199,192,31402,1,0,0:0:0:0:
142,192,31551,1,0,0:0:0:0:
256,192,31551,1,0,0:0:0:0:
369,192,31551,1,0,0:0:0:0:
312,192,31700,1,0,0:0:0:0:
199,192,31700,1,0,0:0:0:0:
142,192,31850,1,0,0:0:0:0:
85,192,31999,1,0,0:0:0:0:
483,192,31999,1,0,0:0:0:0:
426,192,32148,1,0,0:0:0:0:
256,192,32148,1,0,0:0:0:0:
199,192,32297,1,0,0:0:0:0:
369,192,32297,1,0,0:0:0:0:
142,192,32447,1,0,0:0:0:0:
28,192,32447,1,0,0:0:0:0:
312,192,32447,1,0,0:0:0:0:
199,192,32596,1,0,0:0:0:0:
426,192,32596,1,0,0:0:0:0:
142,192,32745,1,0,0:0:0:0:
28,192,32745,1,0,0:0:0:0:
369,192,32745,1,0,0:0:0:0:
85,192,32894,1,0,0:0:0:0:
312,192,32894,1,0,0:0:0:0:
199,192,33044,1,0,0:0:0:0:
426,192,33044,1,0,0:0:0:0:
483,192,33044,1,0,0:0:0:0:
142,192,33193,1,0,0:0:0:0:
369,192,33193,1,0,0:0:0:0:
85,192,33342,1,0,0:0:0:0:
312,192,33342,1,0,0:0:0:0:
426,192,33342,1,0,0:0:0:0:
28,192,33491,1,0,0:0:0:0:
369,192,33491,1,0,0:0:0:0:
312,192,33641,1,0,0:0:0:0:
199,192,33641,1,0,0:0:0:0:
256,192,33790,1,0,0:0:0:0:
142,192,33790,1,0,0:0:0:0:
28,192,33939,1,0,0:0:0:0:
426,192,33939,1,0,0:0:0:0:
369,192,34088,1,0,0:0:0:0:
256,192,34088,1,0,0:0:0:0:
312,192,34238,1,0,0:0:0:0:
199,192,34238,1,0,0:0:0:0:
28,192,34238,1,0,0:0:0:0:
142,192,34387,1,0,0:0:0:0:
369,192,34387,1,0,0:0:0:0:
312,192,34536,1,0,0:0:0:0:
85,192,34536,1,0,0:0:0:0:
28,192,34536,1,0,0:0:0:0:
28,192,34685,1,0,0:0:0:0:
256,192,34685,1,0,0:0:0:0:
312,192,34835,1,0,0:0:0:0:
483,192,34835,1,0,0:0:0:0:
199,192,34909,1,0,0:0:0:0:
256,192,34984,1,0,0:0:0:0:
426,192,34984,1,0,0:0:0:0:
142,192,35059,1,0,0:0:0:0:
199,192,35133,1,0,0:0:0:0:
369,192,35133,1,0,0:0:0:0:
85,192,35208,1,0,0:0:0:0:
142,192,35282,1,0,0:0:0:0:
426,192,35282,1,0,0:0:0:0:
312,192,35357,1,0,0:0:0:0:
369,192,35432,1,0,0:0:0:0:
256,192,35506,1,0,0:0:0:0:
312,192,35581,1,0,0:0:0:0:
426,192,35656,1,0,0:0:0:0:
483,192,35730,1,0,0:0:0:0:
369,192,35730,1,0,0:0:0:0:
199,192,35730,1,0,0:0:0:0:
256,192,35805,1,0,0:0:0:0:
142,192,35879,1,0,0:0:0:0:
426,192,35879,1,0,0:0:0:0:
256,192,35954,1,0,0:0:0:0:
85,192,36029,1,0,0:0:0:0:
369,192,36029,1,0,0:0:0:0:
256,192,36103,1,0,0:0:0:0:
28,192,36178,1,0,0:0:0:0:
426,192,36178,1,0,0:0:0:0:
142,192,36253,1,0,0:0:0:0:
369,192,36327,1,0,0:0:0:0:
199,192,36402,1,0,0:0:0:0:
312,192,36477,1,0,0:0:0:0:
85,192,36626,1,0,0:0:0:0:
483,192,36626,1,0,0:0:0:0:
142,192,36700,1,0,0:0:0:0:
426,192,36700,1,0,0:0:0:0:
199,192,36775,1,0,0:0:0:0:
369,192,36775,1,0,0:0:0:0:
256,192,36850,1,0,0:0:0:0:
312,192,36850,1,0,0:0:0:0:
28,192,37074,1,0,0:0:0:0:
426,192,37074,1,0,0:0:0:0:
85,192,37148,1,0,0:0:0:0:
369,192,37148,1,0,0:0:0:0:
142,192,37223,1,0,0:0:0:0:
312,192,37223,1,0,0:0:0:0:
199,192,37297,1,0,0:0:0:0:
256,192,37297,1,0,0:0:0:0:
483,192,37521,1,0,0:0:0:0:
369,192,37521,1,0,0:0:0:0:
369,192,37596,1,0,0:0:0:0:
256,192,37596,1,0,0:0:0:0:
256,192,37671,1,0,0:0:0:0:
142,192,37671,1,0,0:0:0:0:
142,192,37745,1,0,0:0:0:0:
28,192,37745,1,0,0:0:0:0:
312,192,37969,1,0,0:0:0:0:
483,192,37969,1,0,0:0:0:0:
426,192,38044,1,0,0:0:0:0:
199,192,38044,1,0,0:0:0:0:
312,192,38118,1,0,0:0:0:0:
85,192,38118,1,0,0:0:0:0:
28,192,38193,1,0,0:0:0:0:
199,192,38193,1,0,0:0:0:0:
28,192,38417,1,0,0:0:0:0:
85,192,38417,1,0,0:0:0:0:
312,192,38491,1,0,0:0:0:0:
369,192,38491,1,0,0:0:0:0:
199,192,38566,1,0,0:0:0:0:
256,192,38566,1,0,0:0:0:0:
142,192,38641,1,0,0:0:0:0:
85,192,38641,1,0,0:0:0:0:
256,192,38715,1,0,0:0:0:0:
312,192,38715,1,0,0:0:0:0:
369,192,38790,1,0,0:0:0:0:
426,192,38790,1,0,0:0:0:0:
199,192,38865,1,0,0:0:0:0:
142,192,38865,1,0,0:0:0:0:
426,192,38939,1,0,0:0:0:0:
483,192,38939,1,0,0:0:0:0:
369,192,39312,1,0,0:0:0:0:
483,192,39312,1,0,0:0:0:0:
312,192,39412,1,0,0:0:0:0:
426,192,39412,1,0,0:0:0:0:
256,192,39511,1,0,0:0:0:0:
369,192,39536,1,0,0:0:0:0:
312,192,39611,1,0,0:0:0:0:
199,192,39710,1,0,0:0:0:0:
312,192,39760,1,0,0:0:0:0:
426,192,39760,1,0,0:0:0:0:
369,192,39810,1,0,0:0:0:0:
256,192,39810,1,0,0:0:0:0:
256,192,40009,1,0,0:0:0:0:
369,192,40009,1,0,0:0:0:0:
199,192,40108,1,0,0:0:0:0:
256,192,40208,1,0,0:0:0:0:
312,192,40208,1,0,0:0:0:0:
369,192,40208,1,0,0:0:0:0:
426,192,40307,1,0,0:0:0:0:
199,192,40307,1,0,0:0:0:0:
142,192,40407,1,0,0:0:0:0:
312,192,40407,1,0,0:0:0:0:
85,192,40606,1,0,0:0:0:0:
312,192,40606,1,0,0:0:0:0:
256,192,40656,1,0,0:0:0:0:
142,192,40656,1,0,0:0:0:0:
369,192,40705,1,0,0:0:0:0:
142,192,40805,1,0,0:0:0:0:
312,192,40904,1,0,0:0:0:0:
142,192,41004,1,0,0:0:0:0:
256,192,41004,1,0,0:0:0:0:
199,192,41103,1,0,0:0:0:0:
85,192,41103,1,0,0:0:0:0:
199,192,41203,1,0,0:0:0:0:
312,192,41203,1,0,0:0:0:0:
142,192,41302,1,0,0:0:0:0:
256,192,41402,1,0,0:0:0:0:
85,192,41501,1,0,0:0:0:0:
199,192,41551,1,0,0:0:0:0:
28,192,41700,1,0,0:0:0:0:
142,192,41700,1,0,0:0:0:0:
256,192,41700,1,0,0:0:0:0:
85,192,41850,1,0,0:0:0:0:
199,192,41850,1,0,0:0:0:0:
312,192,41850,1,0,0:0:0:0:
142,192,41999,1,0,0:0:0:0:
256,192,41999,1,0,0:0:0:0:
369,192,41999,1,0,0:0:0:0:
142,192,42297,1,0,0:0:0:0:
199,192,42446,1,0,0:0:0:0:
312,192,42446,1,0,0:0:0:0:
312,192,42596,1,0,0:0:0:0:
199,192,42596,1,0,0:0:0:0:
28,192,42596,1,0,0:0:0:0:
85,192,42670,1,0,0:0:0:0:
28,192,42745,1,0,0:0:0:0:
85,192,42819,1,0,0:0:0:0:
142,192,42894,1,0,0:0:0:0:
28,192,43043,1,0,0:0:0:0:
256,192,43043,1,0,0:0:0:0:
369,192,43043,1,0,0:0:0:0:
85,192,43118,1,0,0:0:0:0:
28,192,43193,1,0,0:0:0:0:
369,192,43193,1,0,0:0:0:0:
256,192,43193,1,0,0:0:0:0:
142,192,43491,1,0,0:0:0:0:
369,192,43640,1,0,0:0:0:0:
483,192,43640,1,0,0:0:0:0:
483,192,43790,1,0,0:0:0:0:
369,192,43790,1,0,0:0:0:0:
28,192,43790,1,0,0:0:0:0:
85,192,43864,1,0,0:0:0:0:
28,192,43939,1,0,0:0:0:0:
85,192,44013,1,0,0:0:0:0:
142,192,44088,1,0,0:0:0:0:
256,192,44088,1,0,0:0:0:0:
199,192,44163,1,0,0:0:0:0:
312,192,44237,1,0,0:0:0:0:
312,192,44387,1,0,0:0:0:0:
426,192,44387,1,0,0:0:0:0:
28,192,44387,1,0,0:0:0:0:
142,192,44685,1,0,0:0:0:0:
256,192,44834,1,0,0:0:0:0:
369,192,44834,1,0,0:0:0:0:
369,192,44984,1,0,0:0:0:0:
256,192,44984,1,0,0:0:0:0:
28,192,44984,1,0,0:0:0:0:
85,192,45058,1,0,0:0:0:0:
28,192,45133,1,0,0:0:0:0:
85,192,45207,1,0,0:0:0:0:
142,192,45282,1,0,0:0:0:0:
256,192,45431,1,0,0:0:0:0:
369,192,45431,1,0,0:0:0:0:
312,192,45581,1,0,0:0:0:0:
426,192,45581,1,0,0:0:0:0:
28,192,45581,1,0,0:0:0:0:
85,192,45655,1,0,0:0:0:0:
28,192,45730,1,0,0:0:0:0:
85,192,45804,1,0,0:0:0:0:
256,192,45879,1,0,0:0:0:0:
369,192,45879,1,0,0:0:0:0:
142,192,45954,1,0,0:0:0:0:
369,192,46028,1,0,0:0:0:0:
142,192,46103,1,0,0:0:0:0:
369,192,46178,1,0,0:0:0:0:
199,192,46178,1,0,0:0:0:0:
85,192,46178,1,0,0:0:0:0:
256,192,46252,1,0,0:0:0:0:
312,192,46327,1,0,0:0:0:0:
256,192,46401,1,0,0:0:0:0:
312,192,46476,1,0,0:0:0:0:
85,192,46476,1,0,0:0:0:0:
199,192,46551,1,0,0:0:0:0:
312,192,46625,1,0,0:0:0:0:
199,192,46700,1,0,0:0:0:0:
142,192,46775,1,0,0:0:0:0:
369,192,46775,1,0,0:0:0:0:
28,192,46924,1,0,0:0:0:0:
85,192,46999,1,0,0:0:0:0:
142,192,47073,1,0,0:0:0:0:
199,192,47222,1,0,0:0:0:0:
426,192,47222,1,0,0:0:0:0:
426,192,47372,1,0,0:0:0:0:
28,192,47372,1,0,0:0:0:0:
85,192,47446,1,0,0:0:0:0:
28,192,47521,1,0,0:0:0:0:
256,192,47521,1,0,0:0:0:0:
85,192,47596,1,0,0:0:0:0:
142,192,47670,1,0,0:0:0:0:
483,192,47670,1,0,0:0:0:0:
426,192,47819,1,0,0:0:0:0:
28,192,47819,1,0,0:0:0:0:
369,192,47969,1,0,0:0:0:0:
426,192,47969,1,0,0:0:0:0:
483,192,47969,1,0,0:0:0:0:
256,192,47969,1,0,0:0:0:0:
312,192,48267,1,0,0:0:0:0:
369,192,48267,1,0,0:0:0:0:
426,192,48267,1,0,0:0:0:0:
199,192,48416,1,0,0:0:0:0:
142,192,48566,1,0,0:0:0:0:
199,192,48566,1,0,0:0:0:0:
256,192,48566,1,0,0:0:0:0:
312,192,48566,1,0,0:0:0:0:
369,192,48566,1,0,0:0:0:0:
85,192,48640,1,0,0:0:0:0:
28,192,48715,1,0,0:0:0:0:
85,192,48790,1,0,0:0:0:0:
142,192,48864,1,0,0:0:0:0:
199,192,48864,1,0,0:0:0:0:
256,192,48864,1,0,0:0:0:0:
312,192,48864,1,0,0:0:0:0:
28,192,49013,1,0,0:0:0:0:
85,192,49163,1,0,0:0:0:0:
256,192,49163,1,0,0:0:0:0:
369,192,49163,1,0,0:0:0:0:
256,192,49387,1,0,0:0:0:0:
142,192,49461,1,0,0:0:0:0:
199,192,49536,1,0,0:0:0:0:
142,192,49610,1,0,0:0:0:0:
426,192,49610,1,0,0:0:0:0:
199,192,49685,1,0,0:0:0:0:
256,192,49760,1,0,0:0:0:0:
312,192,49834,1,0,0:0:0:0:
256,192,49909,1,0,0:0:0:0:
312,192,49984,1,0,0:0:0:0:
369,192,50058,1,0,0:0:0:0:
483,192,50058,1,0,0:0:0:0:
312,192,50133,1,0,0:0:0:0:
256,192,50207,1,0,0:0:0:0:
199,192,50357,1,0,0:0:0:0:
369,192,50357,1,0,0:0:0:0:
483,192,50357,1,0,0:0:0:0:
483,192,50506,1,0,0:0:0:0:
369,192,50506,1,0,0:0:0:0:
142,192,50655,1,0,0:0:0:0:
28,192,50655,1,0,0:0:0:0:
199,192,50804,1,0,0:0:0:0:
369,192,50804,1,0,0:0:0:0:
483,192,50804,1,0,0:0:0:0:
256,192,50954,1,0,0:0:0:0:
142,192,50954,1,0,0:0:0:0:
312,192,51103,1,0,0:0:0:0:
483,192,51103,1,0,0:0:0:0:
369,192,51252,1,0,0:0:0:0:
256,192,51252,1,0,0:0:0:0:
426,192,51401,1,0,0:0:0:0:
28,192,51551,1,0,0:0:0:0:
483,192,51551,1,0,0:0:0:0:
426,192,51625,1,0,0:0:0:0:
369,192,51700,1,0,0:0:0:0:
312,192,51775,1,0,0:0:0:0:
426,192,51849,1,0,0:0:0:0:
142,192,51849,1,0,0:0:0:0:
369,192,51924,1,0,0:0:0:0:
312,192,51998,1,0,0:0:0:0:
256,192,52073,1,0,0:0:0:0:
369,192,52148,1,0,0:0:0:0:
312,192,52222,1,0,0:0:0:0:
256,192,52297,1,0,0:0:0:0:
199,192,52372,1,0,0:0:0:0:
312,192,52446,1,0,0:0:0:0:
85,192,52446,1,0,0:0:0:0:
256,192,52521,1,0,0:0:0:0:
199,192,52596,1,0,0:0:0:0:
142,192,52670,1,0,0:0:0:0:
28,192,52745,1,0,0:0:0:0:
85,192,52819,1,0,0:0:0:0:
142,192,52894,1,0,0:0:0:0:
199,192,52969,1,0,0:0:0:0:
85,192,53043,1,0,0:0:0:0:
142,192,53118,1,0,0:0:0:0:
199,192,53193,1,0,0:0:0:0:
256,192,53267,1,0,0:0:0:0:
199,192,53342,1,0,0:0:0:0:
142,192,53416,1,0,0:0:0:0:
256,192,53491,1,0,0:0:0:0:
369,192,53566,1,0,0:0:0:0:
312,192,53640,1,0,0:0:0:0:
256,192,53715,1,0,0:0:0:0:
142,192,53715,1,0,0:0:0:0:
483,192,53790,1,0,0:0:0:0:
426,192,53864,1,0,0:0:0:0:
312,192,53939,1,0,0:0:0:0:
256,192,54013,1,0,0:0:0:0:
199,192,54088,1,0,0:0:0:0:
142,192,54163,1,0,0:0:0:0:
369,192,54237,1,0,0:0:0:0:
312,192,54312,1,0,0:0:0:0:
256,192,54387,1,0,0:0:0:0:
199,192,54461,1,0,0:0:0:0:
142,192,54536,1,0,0:0:0:0:
483,192,54536,1,0,0:0:0:0:
426,192,54610,1,0,0:0:0:0:
369,192,54685,1,0,0:0:0:0:
142,192,54685,1,0,0:0:0:0:
312,192,54760,1,0,0:0:0:0:
256,192,54834,1,0,0:0:0:0:
85,192,54834,1,0,0:0:0:0:
199,192,54909,1,0,0:0:0:0:
142,192,54984,1,0,0:0:0:0:
369,192,54984,1,0,0:0:0:0:
85,192,55058,1,0,0:0:0:0:
426,192,55058,1,0,0:0:0:0:
483,192,55133,1,0,0:0:0:0:
199,192,55133,1,0,0:0:0:0:
142,192,55207,1,0,0:0:0:0:
85,192,55282,1,0,0:0:0:0:
369,192,55282,1,0,0:0:0:0:
28,192,55357,1,0,0:0:0:0:
426,192,55357,1,0,0:0:0:0:
483,192,55431,1,0,0:0:0:0:
256,192,55431,1,0,0:0:0:0:
199,192,55506,1,0,0:0:0:0:
142,192,55581,1,0,0:0:0:0:
369,192,55581,1,0,0:0:0:0:
85,192,55655,1,0,0:0:0:0:
199,192,55730,1,0,0:0:0:0:
426,192,55730,1,0,0:0:0:0:
142,192,55804,1,0,0:0:0:0:
369,192,55804,1,0,0:0:0:0:
312,192,55879,1,0,0:0:0:0:
256,192,55954,1,0,0:0:0:0:
199,192,56028,1,0,0:0:0:0:
312,192,56327,1,0,0:0:0:0:
256,192,56401,1,0,0:0:0:0:
199,192,56476,1,0,0:0:0:0:
142,192,56550,1,0,0:0:0:0:
369,192,56625,1,0,0:0:0:0:
312,192,56700,1,0,0:0:0:0:
256,192,56774,1,0,0:0:0:0:
199,192,56849,1,0,0:0:0:0:
426,192,56924,1,0,0:0:0:0:
369,192,56998,1,0,0:0:0:0:
312,192,57073,1,0,0:0:0:0:
256,192,57147,1,0,0:0:0:0:
483,192,57222,1,0,0:0:0:0:
426,192,57297,1,0,0:0:0:0:
312,192,57371,1,0,0:0:0:0:
369,192,57446,1,0,0:0:0:0:
426,192,57521,1,0,0:0:0:0:
312,192,57595,1,0,0:0:0:0:
256,192,57670,1,0,0:0:0:0:
199,192,57744,1,0,0:0:0:0:
312,192,57819,1,0,0:0:0:0:
426,192,57894,1,0,0:0:0:0:
369,192,57968,1,0,0:0:0:0:
483,192,58043,1,0,0:0:0:0:
426,192,58118,1,0,0:0:0:0:
369,192,58192,1,0,0:0:0:0:
312,192,58267,1,0,0:0:0:0:
256,192,58341,1,0,0:0:0:0:
199,192,58416,1,0,0:0:0:0:
142,192,58491,1,0,0:0:0:0:
85,192,58565,1,0,0:0:0:0:
28,192,58640,1,0,0:0:0:0:
256,192,58715,1,0,0:0:0:0:
142,192,58789,1,0,0:0:0:0:
199,192,58864,1,0,0:0:0:0:
256,192,58938,1,0,0:0:0:0:
312,192,59013,1,0,0:0:0:0:
199,192,59088,1,0,0:0:0:0:
369,192,59162,1,0,0:0:0:0:
256,192,59237,1,0,0:0:0:0:
426,192,59312,1,0,0:0:0:0:
312,192,59386,1,0,0:0:0:0:
483,192,59461,1,0,0:0:0:0:
369,192,59535,1,0,0:0:0:0:
256,192,59610,1,0,0:0:0:0:
199,192,59685,1,0,0:0:0:0:
142,192,59759,1,0,0:0:0:0:
85,192,59834,1,0,0:0:0:0:
199,192,59909,1,0,0:0:0:0:
85,192,59983,1,0,0:0:0:0:
256,192,60058,1,0,0:0:0:0:
142,192,60132,1,0,0:0:0:0:
312,192,60207,1,0,0:0:0:0:
199,192,60282,1,0,0:0:0:0:
369,192,60356,1,0,0:0:0:0:
426,192,60431,1,0,0:0:0:0:
312,192,60506,1,0,0:0:0:0:
142,192,60506,1,0,0:0:0:0:
85,192,60580,1,0,0:0:0:0:
199,192,60580,1,0,0:0:0:0:
142,192,60655,1,0,0:0:0:0:
256,192,60655,1,0,0:0:0:0:
85,192,60729,1,0,0:0:0:0:
369,192,60729,1,0,0:0:0:0:
142,192,60804,1,0,0:0:0:0:
426,192,60804,1,0,0:0:0:0:
85,192,60879,1,0,0:0:0:0:
312,192,60879,1,0,0:0:0:0:
142,192,60953,1,0,0:0:0:0:
256,192,60953,1,0,0:0:0:0:
483,192,60953,1,0,0:0:0:0:
85,192,61028,1,0,0:0:0:0:
426,192,61028,1,0,0:0:0:0:
369,192,61103,1,0,0:0:0:0:
28,192,61103,1,0,0:0:0:0:
483,192,61252,1,0,0:0:0:0:
426,192,61326,1,0,0:0:0:0:
369,192,61401,1,0,0:0:0:0:
312,192,61476,1,0,0:0:0:0:
256,192,61550,1,0,0:0:0:0:
199,192,61625,1,0,0:0:0:0:
85,192,61700,1,0,0:0:0:0:
483,192,61700,1,0,0:0:0:0:
426,192,61774,1,0,0:0:0:0:
312,192,61849,1,0,0:0:0:0:
256,192,61923,1,0,0:0:0:0:
199,192,61998,1,0,0:0:0:0:
369,192,61998,1,0,0:0:0:0:
142,192,62073,1,0,0:0:0:0:
85,192,62147,1,0,0:0:0:0:
28,192,62222,1,0,0:0:0:0:
483,192,62297,1,0,0:0:0:0:
369,192,62396,1,0,0:0:0:0:
256,192,62496,1,0,0:0:0:0:
199,192,62545,1,0,0:0:0:0:
426,192,62595,1,0,0:0:0:0:
28,192,62670,1,0,0:0:0:0:
142,192,62707,1,0,0:0:0:0:
483,192,62744,1,0,0:0:0:0:
312,192,62856,1,0,0:0:0:0:
483,192,62894,1,0,0:0:0:0:
199,192,62931,1,0,0:0:0:0:
142,192,63005,1,0,0:0:0:0:
85,192,63155,1,0,0:0:0:0:
426,192,63192,1,0,0:0:0:0:
369,192,63304,1,0,0:0:0:0:
483,192,63304,1,0,0:0:0:0:
142,192,63416,1,0,0:0:0:0:
256,192,63453,1,0,0:0:0:0:
426,192,63491,1,0,0:0:0:0:
142,192,63677,1,0,0:0:0:0:
426,192,63752,1,0,0:0:0:0:
28,192,63826,1,0,0:0:0:0:
312,192,63901,1,0,0:0:0:0:
483,192,63938,1,0,0:0:0:0:
199,192,64050,1,0,0:0:0:0:
483,192,64088,1,0,0:0:0:0:
369,192,64125,1,0,0:0:0:0:
256,192,64311,1,0,0:0:0:0:
85,192,64386,1,0,0:0:0:0:
142,192,64386,1,0,0:0:0:0:
369,192,64386,1,0,0:0:0:0:
483,192,64498,1,0,0:0:0:0:
312,192,64535,1,0,0:0:0:0:
199,192,64685,1,0,0:0:0:0:
256,192,64685,1,0,0:0:0:0:
426,192,64685,1,0,0:0:0:0:
85,192,64834,1,0,0:0:0:0:
369,192,64946,1,0,0:0:0:0:
256,192,64983,1,0,0:0:0:0:
142,192,65058,1,0,0:0:0:0:
28,192,65132,1,0,0:0:0:0:
199,192,65170,1,0,0:0:0:0:
142,192,65207,1,0,0:0:0:0:
199,192,65356,1,0,0:0:0:0:
85,192,65381,1,0,0:0:0:0:
256,192,65468,1,0,0:0:0:0:
28,192,65505,1,0,0:0:0:0:
312,192,65580,1,0,0:0:0:0:
85,192,65580,1,0,0:0:0:0:
369,192,65692,1,0,0:0:0:0:
256,192,65729,1,0,0:0:0:0:
426,192,65804,1,0,0:0:0:0:
199,192,65804,1,0,0:0:0:0:
142,192,65879,1,0,0:0:0:0:
483,192,65879,128,0,66326:0:0:0:0:
28,192,66326,1,0,0:0:0:0:
142,192,66401,1,0,0:0:0:0:
256,192,66476,1,0,0:0:0:0:
85,192,66550,1,0,0:0:0:0:
199,192,66625,1,0,0:0:0:0:
426,192,66625,1,0,0:0:0:0:
142,192,66700,1,0,0:0:0:0:
312,192,66774,1,0,0:0:0:0:
199,192,66849,1,0,0:0:0:0:
85,192,66923,1,0,0:0:0:0:
369,192,66923,1,0,0:0:0:0:
199,192,66998,1,0,0:0:0:0:
426,192,67073,1,0,0:0:0:0:
199,192,67520,1,0,0:0:0:0:
312,192,67595,1,0,0:0:0:0:
142,192,67670,1,0,0:0:0:0:
256,192,67744,1,0,0:0:0:0:
85,192,67819,1,0,0:0:0:0:
426,192,67819,1,0,0:0:0:0:
199,192,67894,1,0,0:0:0:0:
256,192,67968,1,0,0:0:0:0:
369,192,67968,1,0,0:0:0:0:
142,192,68043,1,0,0:0:0:0:
199,192,68117,1,0,0:0:0:0:
426,192,68117,1,0,0:0:0:0:
85,192,68192,1,0,0:0:0:0:
483,192,68267,128,0,68640:0:0:0:0:
256,192,68714,1,0,0:0:0:0:
28,192,68714,1,0,0:0:0:0:
85,192,68864,1,0,0:0:0:0:
142,192,68938,1,0,0:0:0:0:
199,192,69013,1,0,0:0:0:0:
256,192,69088,1,0,0:0:0:0:
312,192,69162,1,0,0:0:0:0:
369,192,69237,1,0,0:0:0:0:
199,192,69311,1,0,0:0:0:0:
256,192,69386,1,0,0:0:0:0:
312,192,69461,1,0,0:0:0:0:
369,192,69535,1,0,0:0:0:0:
426,192,69610,1,0,0:0:0:0:
28,192,69610,1,0,0:0:0:0:
483,192,69685,1,0,0:0:0:0:
426,192,69759,1,0,0:0:0:0:
85,192,69759,1,0,0:0:0:0:
369,192,69834,1,0,0:0:0:0:
426,192,69908,1,0,0:0:0:0:
142,192,69908,1,0,0:0:0:0:
369,192,69983,1,0,0:0:0:0:
312,192,70058,1,0,0:0:0:0:
199,192,70058,1,0,0:0:0:0:
369,192,70132,1,0,0:0:0:0:
312,192,70207,1,0,0:0:0:0:
142,192,70207,1,0,0:0:0:0:
256,192,70282,1,0,0:0:0:0:
199,192,70356,1,0,0:0:0:0:
369,192,70356,1,0,0:0:0:0:
256,192,70431,1,0,0:0:0:0:
199,192,70505,1,0,0:0:0:0:
426,192,70505,1,0,0:0:0:0:
142,192,70580,1,0,0:0:0:0:
256,192,70655,1,0,0:0:0:0:
85,192,70655,1,0,0:0:0:0:
28,192,70953,1,0,0:0:0:0:
85,192,71028,1,0,0:0:0:0:
142,192,71103,1,0,0:0:0:0:
312,192,71103,1,0,0:0:0:0:
199,192,71177,1,0,0:0:0:0:
256,192,71252,1,0,0:0:0:0:
312,192,71326,1,0,0:0:0:0:
369,192,71401,1,0,0:0:0:0:
426,192,71476,1,0,0:0:0:0:
483,192,71550,1,0,0:0:0:0:
199,192,71550,1,0,0:0:0:0:
142,192,71700,1,0,0:0:0:0:
256,192,71700,1,0,0:0:0:0:
483,192,71998,1,0,0:0:0:0:
312,192,72147,1,0,0:0:0:0:
199,192,72222,1,0,0:0:0:0:
312,192,72297,1,0,0:0:0:0:
426,192,72446,1,0,0:0:0:0:
369,192,72595,1,0,0:0:0:0:
199,192,72595,1,0,0:0:0:0:
85,192,72670,1,0,0:0:0:0:
199,192,72744,1,0,0:0:0:0:
312,192,72744,1,0,0:0:0:0:
256,192,72894,1,0,0:0:0:0:
312,192,73043,1,0,0:0:0:0:
28,192,73043,1,0,0:0:0:0:
199,192,73341,1,0,0:0:0:0:
142,192,73416,1,0,0:0:0:0:
256,192,73491,1,0,0:0:0:0:
369,192,73491,1,0,0:0:0:0:
199,192,73565,1,0,0:0:0:0:
142,192,73640,1,0,0:0:0:0:
85,192,73714,1,0,0:0:0:0:
28,192,73789,1,0,0:0:0:0:
426,192,73789,1,0,0:0:0:0:
85,192,73864,1,0,0:0:0:0:
142,192,73938,1,0,0:0:0:0:
199,192,74013,1,0,0:0:0:0:
256,192,74088,1,0,0:0:0:0:
483,192,74088,1,0,0:0:0:0:
312,192,74237,1,0,0:0:0:0:
85,192,74237,1,0,0:0:0:0:
142,192,74311,1,0,0:0:0:0:
199,192,74386,1,0,0:0:0:0:
256,192,74461,1,0,0:0:0:0:
142,192,74535,1,0,0:0:0:0:
369,192,74535,1,0,0:0:0:0:
199,192,74610,1,0,0:0:0:0:
256,192,74685,1,0,0:0:0:0:
426,192,74685,1,0,0:0:0:0:
312,192,74759,1,0,0:0:0:0:
369,192,74834,1,0,0:0:0:0:
483,192,74834,1,0,0:0:0:0:
426,192,74983,1,0,0:0:0:0:
256,192,74983,1,0,0:0:0:0:
369,192,75132,1,0,0:0:0:0:
142,192,75132,1,0,0:0:0:0:
199,192,75282,1,0,0:0:0:0:
312,192,75282,128,0,75804:0:0:0:0:
142,192,75431,1,0,0:0:0:0:
142,192,75580,1,0,0:0:0:0:
28,192,75655,1,0,0:0:0:0:
142,192,75729,1,0,0:0:0:0:
199,192,75879,1,0,0:0:0:0:
369,192,75879,1,0,0:0:0:0:
142,192,76177,1,0,0:0:0:0:
426,192,76177,1,0,0:0:0:0:
28,192,76252,1,0,0:0:0:0:
142,192,76326,1,0,0:0:0:0:
199,192,76476,1,0,0:0:0:0:
483,192,76476,128,0,76700:0:0:0:0:
369,192,76774,1,0,0:0:0:0:
142,192,76774,1,0,0:0:0:0:
312,192,76849,1,0,0:0:0:0:
369,192,76923,1,0,0:0:0:0:
85,192,76923,128,0,77297:0:0:0:0:
426,192,77073,1,0,0:0:0:0:
483,192,77222,1,0,0:0:0:0:
369,192,77297,1,0,0:0:0:0:
426,192,77371,1,0,0:0:0:0:
28,192,77371,1,0,0:0:0:0:
312,192,77446,1,0,0:0:0:0:
369,192,77520,1,0,0:0:0:0:
85,192,77520,1,0,0:0:0:0:
256,192,77595,1,0,0:0:0:0:
312,192,77670,1,0,0:0:0:0:
142,192,77670,1,0,0:0:0:0:
199,192,77744,1,0,0:0:0:0:
85,192,77819,1,0,0:0:0:0:
369,192,77819,1,0,0:0:0:0:
312,192,78117,1,0,0:0:0:0:
256,192,78267,1,0,0:0:0:0:
142,192,78267,1,0,0:0:0:0:
28,192,78341,1,0,0:0:0:0:
85,192,78416,1,0,0:0:0:0:
142,192,78491,1,0,0:0:0:0:
199,192,78565,1,0,0:0:0:0:
426,192,78565,1,0,0:0:0:0:
256,192,78640,1,0,0:0:0:0:
312,192,78714,1,0,0:0:0:0:
369,192,78789,1,0,0:0:0:0:
426,192,78864,1,0,0:0:0:0:
256,192,78864,1,0,0:0:0:0:
483,192,78938,1,0,0:0:0:0:
426,192,79013,1,0,0:0:0:0:
369,192,79088,1,0,0:0:0:0:
256,192,79162,1,0,0:0:0:0:
312,192,79237,1,0,0:0:0:0:
199,192,79311,1,0,0:0:0:0:
426,192,79311,1,0,0:0:0:0:
256,192,79386,1,0,0:0:0:0:
142,192,79461,1,0,0:0:0:0:
199,192,79535,1,0,0:0:0:0:
85,192,79610,1,0,0:0:0:0:
312,192,79610,1,0,0:0:0:0:
142,192,79685,1,0,0:0:0:0:
28,192,79759,1,0,0:0:0:0:
142,192,79834,1,0,0:0:0:0:
256,192,79908,1,0,0:0:0:0:
369,192,79908,1,0,0:0:0:0:
85,192,79983,1,0,0:0:0:0:
199,192,80058,1,0,0:0:0:0:
142,192,80132,1,0,0:0:0:0:
28,192,80207,1,0,0:0:0:0:
312,192,80207,128,0,80580:0:0:0:0:
28,192,80505,1,0,0:0:0:0:
85,192,80580,1,0,0:0:0:0:
142,192,80655,1,0,0:0:0:0:
369,192,80655,1,0,0:0:0:0:
199,192,80729,1,0,0:0:0:0:
256,192,80804,1,0,0:0:0:0:
312,192,80879,1,0,0:0:0:0:
426,192,80953,1,0,0:0:0:0:
142,192,81102,1,0,0:0:0:0:
199,192,81252,1,0,0:0:0:0:
483,192,81252,128,0,81625:0:0:0:0:
256,192,81401,1,0,0:0:0:0:
426,192,81700,1,0,0:0:0:0:
85,192,81700,1,0,0:0:0:0:
312,192,81849,1,0,0:0:0:0:
426,192,81923,1,0,0:0:0:0:
369,192,81998,1,0,0:0:0:0:
483,192,81998,1,0,0:0:0:0:
256,192,82147,1,0,0:0:0:0:
199,192,82297,1,0,0:0:0:0:
85,192,82297,1,0,0:0:0:0:
426,192,82297,1,0,0:0:0:0:
142,192,82446,1,0,0:0:0:0:
85,192,82595,1,0,0:0:0:0:
28,192,82595,1,0,0:0:0:0:
369,192,82595,128,0,83267:0:0:0:0:
142,192,83043,1,0,0:0:0:0:
28,192,83117,1,0,0:0:0:0:
142,192,83192,1,0,0:0:0:0:
312,192,83341,1,0,0:0:0:0:
199,192,83491,1,0,0:0:0:0:
256,192,83640,1,0,0:0:0:0:
369,192,83640,1,0,0:0:0:0:
426,192,83714,1,0,0:0:0:0:
142,192,83714,1,0,0:0:0:0:
256,192,83789,1,0,0:0:0:0:
483,192,83789,128,0,84834:0:0:0:0:
28,192,83938,1,0,0:0:0:0:
85,192,84088,1,0,0:0:0:0:
312,192,84237,1,0,0:0:0:0:
199,192,84311,1,0,0:0:0:0:
312,192,84386,1,0,0:0:0:0:
369,192,84983,1,0,0:0:0:0:
142,192,84983,1,0,0:0:0:0:
369,192,85058,1,0,0:0:0:0:
256,192,85207,1,0,0:0:0:0:
142,192,85207,1,0,0:0:0:0:
256,192,85282,1,0,0:0:0:0:
312,192,85431,1,0,0:0:0:0:
199,192,85431,1,0,0:0:0:0:
312,192,85505,1,0,0:0:0:0:
256,192,85655,1,0,0:0:0:0:
142,192,85655,1,0,0:0:0:0:
256,192,85729,1,0,0:0:0:0:
199,192,85879,1,0,0:0:0:0:
312,192,85879,1,0,0:0:0:0:
256,192,86028,1,0,0:0:0:0:
142,192,86028,1,0,0:0:0:0:
256,192,86177,1,0,0:0:0:0:
369,192,86177,1,0,0:0:0:0:
369,192,86252,1,0,0:0:0:0:
312,192,86401,1,0,0:0:0:0:
199,192,86401,1,0,0:0:0:0:
312,192,86476,1,0,0:0:0:0:
256,192,86625,1,0,0:0:0:0:
369,192,86625,1,0,0:0:0:0:
369,192,86700,1,0,0:0:0:0:
312,192,86849,1,0,0:0:0:0:
199,192,86849,1,0,0:0:0:0:
312,192,86923,1,0,0:0:0:0:
256,192,87073,1,0,0:0:0:0:
369,192,87073,1,0,0:0:0:0:
312,192,87222,1,0,0:0:0:0:
199,192,87222,1,0,0:0:0:0:
312,192,87371,1,0,0:0:0:0:
426,192,87371,1,0,0:0:0:0:
426,192,87446,1,0,0:0:0:0:
369,192,87595,1,0,0:0:0:0:
256,192,87595,1,0,0:0:0:0:
369,192,87670,1,0,0:0:0:0:
85,192,87670,1,0,0:0:0:0:
312,192,87819,1,0,0:0:0:0:
426,192,87819,1,0,0:0:0:0:
426,192,87894,1,0,0:0:0:0:
85,192,87968,1,0,0:0:0:0:
312,192,88043,1,0,0:0:0:0:
199,192,88043,1,0,0:0:0:0:
312,192,88117,1,0,0:0:0:0:
85,192,88267,1,0,0:0:0:0:
312,192,88267,1,0,0:0:0:0:
426,192,88267,1,0,0:0:0:0:
369,192,88416,1,0,0:0:0:0:
256,192,88416,1,0,0:0:0:0:
142,192,88565,1,0,0:0:0:0:
369,192,88565,1,0,0:0:0:0:
483,192,88565,1,0,0:0:0:0:
483,192,88640,1,0,0:0:0:0:
426,192,88789,1,0,0:0:0:0:
312,192,88789,1,0,0:0:0:0:
426,192,88864,1,0,0:0:0:0:
142,192,88864,1,0,0:0:0:0:
483,192,89013,1,0,0:0:0:0:
369,192,89013,1,0,0:0:0:0:
483,192,89088,1,0,0:0:0:0:
142,192,89162,1,0,0:0:0:0:
426,192,89237,1,0,0:0:0:0:
312,192,89237,1,0,0:0:0:0:
426,192,89311,1,0,0:0:0:0:
142,192,89311,1,0,0:0:0:0:
369,192,89461,1,0,0:0:0:0:
483,192,89461,1,0,0:0:0:0:
142,192,89461,1,0,0:0:0:0:
426,192,89610,1,0,0:0:0:0:
312,192,89610,1,0,0:0:0:0:
142,192,89610,1,0,0:0:0:0:
369,192,89759,1,0,0:0:0:0:
426,192,89759,1,0,0:0:0:0:
483,192,89759,1,0,0:0:0:0:
483,192,89833,1,0,0:0:0:0:
426,192,89833,1,0,0:0:0:0:
369,192,89833,1,0,0:0:0:0:
312,192,89908,1,0,0:0:0:0:
256,192,89908,1,0,0:0:0:0:
199,192,89908,1,0,0:0:0:0:
199,192,89982,1,0,0:0:0:0:
256,192,89982,1,0,0:0:0:0:
312,192,89982,1,0,0:0:0:0:
369,192,90057,1,0,0:0:0:0:
426,192,90057,1,0,0:0:0:0:
483,192,90057,1,0,0:0:0:0:
142,192,90356,1,0,0:0:0:0:
199,192,90356,1,0,0:0:0:0:
256,192,90356,1,0,0:0:0:0:
256,192,90430,1,0,0:0:0:0:
199,192,90430,1,0,0:0:0:0:
142,192,90430,1,0,0:0:0:0:
312,192,90505,1,0,0:0:0:0:
369,192,90505,1,0,0:0:0:0:
426,192,90505,1,0,0:0:0:0:
426,192,90579,1,0,0:0:0:0:
369,192,90579,1,0,0:0:0:0:
312,192,90579,1,0,0:0:0:0:
256,192,90654,1,0,0:0:0:0:
199,192,90654,1,0,0:0:0:0:
142,192,90654,1,0,0:0:0:0:
199,192,90953,1,0,0:0:0:0:
256,192,90953,1,0,0:0:0:0:
312,192,90953,1,0,0:0:0:0:
312,192,91027,1,0,0:0:0:0:
256,192,91027,1,0,0:0:0:0:
199,192,91027,1,0,0:0:0:0:
142,192,91102,1,0,0:0:0:0:
85,192,91102,1,0,0:0:0:0:
28,192,91102,1,0,0:0:0:0:
28,192,91176,1,0,0:0:0:0:
85,192,91176,1,0,0:0:0:0:
142,192,91176,1,0,0:0:0:0:
199,192,91251,1,0,0:0:0:0:
256,192,91251,1,0,0:0:0:0:
312,192,91251,1,0,0:0:0:0:
85,192,91550,1,0,0:0:0:0:
199,192,91550,1,0,0:0:0:0:
312,192,91550,1,0,0:0:0:0:
426,192,91550,1,0,0:0:0:0:
199,192,91773,1,0,0:0:0:0:
85,192,91773,1,0,0:0:0:0:
426,192,91773,1,0,0:0:0:0:
312,192,91773,1,0,0:0:0:0:
85,192,91997,1,0,0:0:0:0:
199,192,91997,1,0,0:0:0:0:
312,192,91997,1,0,0:0:0:0:
426,192,91997,1,0,0:0:0:0:
28,192,92147,1,0,0:0:0:0:
483,192,92147,1,0,0:0:0:0:
142,192,92597,1,0,0:0:0:0:
142,192,92747,1,0,0:0:0:0:
256,192,93197,1,0,0:0:0:0:
256,192,93347,1,0,0:0:0:0:
369,192,93797,1,0,0:0:0:0:
369,192,93947,1,0,0:0:0:0:
312,192,94397,1,0,0:0:0:0:
312,192,94547,1,0,0:0:0:0:
256,192,94997,1,0,0:0:0:0:
256,192,95147,1,0,0:0:0:0:
142,192,95597,1,0,0:0:0:0:
142,192,95747,1,0,0:0:0:0:
369,192,95897,1,0,0:0:0:0:
256,192,96047,1,0,0:0:0:0:
199,192,96197,1,0,0:0:0:0:
312,192,96347,1,0,0:0:0:0:
426,192,96497,1,0,0:0:0:0:
142,192,96497,1,0,0:0:0:0:
256,192,96647,1,0,0:0:0:0:
85,192,96797,1,0,0:0:0:0:
426,192,96797,1,0,0:0:0:0:
483,192,96947,1,0,0:0:0:0:
199,192,96947,1,0,0:0:0:0:
483,192,97097,1,0,0:0:0:0:
28,192,97247,1,0,0:0:0:0:
85,192,97322,1,0,0:0:0:0:
142,192,97397,1,0,0:0:0:0:
483,192,97397,1,0,0:0:0:0:
199,192,97472,1,0,0:0:0:0:
256,192,97547,1,0,0:0:0:0:
483,192,97547,1,0,0:0:0:0:
199,192,97622,1,0,0:0:0:0:
142,192,97697,1,0,0:0:0:0:
483,192,97697,1,0,0:0:0:0:
85,192,97772,1,0,0:0:0:0:
199,192,97847,1,0,0:0:0:0:
256,192,97922,1,0,0:0:0:0:
312,192,97997,1,0,0:0:0:0:
483,192,97997,1,0,0:0:0:0:
426,192,98072,1,0,0:0:0:0:
369,192,98147,1,0,0:0:0:0:
483,192,98147,1,0,0:0:0:0:
483,192,98297,1,0,0:0:0:0:
199,192,98297,1,0,0:0:0:0:
312,192,98447,1,0,0:0:0:0:
483,192,98597,1,0,0:0:0:0:
142,192,98597,1,0,0:0:0:0:
483,192,98747,1,0,0:0:0:0:
256,192,98747,1,0,0:0:0:0:
483,192,98897,1,0,0:0:0:0:
85,192,98897,1,0,0:0:0:0:
199,192,99047,1,0,0:0:0:0:
483,192,99197,1,0,0:0:0:0:
28,192,99197,1,0,0:0:0:0:
483,192,99347,1,0,0:0:0:0:
142,192,99347,1,0,0:0:0:0:
426,192,99647,1,0,0:0:0:0:
312,192,99722,1,0,0:0:0:0:
199,192,99797,1,0,0:0:0:0:
85,192,99872,1,0,0:0:0:0:
28,192,99947,1,0,0:0:0:0:
483,192,99947,1,0,0:0:0:0:
142,192,100022,1,0,0:0:0:0:
199,192,100097,1,0,0:0:0:0:
483,192,100097,1,0,0:0:0:0:
256,192,100247,1,0,0:0:0:0:
483,192,100397,1,0,0:0:0:0:
312,192,100397,1,0,0:0:0:0:
483,192,100547,1,0,0:0:0:0:
369,192,100547,1,0,0:0:0:0:
483,192,100697,1,0,0:0:0:0:
85,192,100847,1,0,0:0:0:0:
199,192,100922,1,0,0:0:0:0:
483,192,100997,1,0,0:0:0:0:
312,192,101072,1,0,0:0:0:0:
426,192,101147,1,0,0:0:0:0:
28,192,101147,1,0,0:0:0:0:
142,192,101297,1,0,0:0:0:0:
483,192,101297,1,0,0:0:0:0:
256,192,101447,1,0,0:0:0:0:
483,192,101597,1,0,0:0:0:0:
369,192,101597,1,0,0:0:0:0:
28,192,101747,1,0,0:0:0:0:
256,192,101747,1,0,0:0:0:0:
312,192,101847,1,0,0:0:0:0:
369,192,101947,1,0,0:0:0:0:
426,192,102047,1,0,0:0:0:0:
28,192,102147,1,0,0:0:0:0:
369,192,102147,1,0,0:0:0:0:
312,192,102247,1,0,0:0:0:0:
256,192,102347,1,0,0:0:0:0:
199,192,102447,1,0,0:0:0:0:
28,192,102547,1,0,0:0:0:0:
142,192,102547,1,0,0:0:0:0:
426,192,102647,1,0,0:0:0:0:
369,192,102747,1,0,0:0:0:0:
312,192,102847,1,0,0:0:0:0:
28,192,102947,1,0,0:0:0:0:
256,192,102947,1,0,0:0:0:0:
199,192,103047,1,0,0:0:0:0:
142,192,103147,1,0,0:0:0:0:
85,192,103247,1,0,0:0:0:0:
28,192,103347,1,0,0:0:0:0:
256,192,103347,1,0,0:0:0:0:
199,192,103447,1,0,0:0:0:0:
142,192,103547,1,0,0:0:0:0:
369,192,103647,1,0,0:0:0:0:
28,192,103747,1,0,0:0:0:0:
256,192,103747,1,0,0:0:0:0:
199,192,103847,1,0,0:0:0:0:
256,192,103947,1,0,0:0:0:0:
28,192,104047,1,0,0:0:0:0:
199,192,104047,1,0,0:0:0:0:
28,192,104147,1,0,0:0:0:0:
142,192,104147,1,0,0:0:0:0:
369,192,104247,1,0,0:0:0:0:
28,192,104347,1,0,0:0:0:0:
256,192,104347,1,0,0:0:0:0:
199,192,104447,1,0,0:0:0:0:
28,192,104547,1,0,0:0:0:0:
256,192,104547,1,0,0:0:0:0:
199,192,104647,1,0,0:0:0:0:
28,192,104747,1,0,0:0:0:0:
142,192,104747,1,0,0:0:0:0:
369,192,104847,1,0,0:0:0:0:
28,192,104947,1,0,0:0:0:0:
312,192,104947,1,0,0:0:0:0:
199,192,105047,1,0,0:0:0:0:
142,192,105147,1,0,0:0:0:0:
256,192,105247,1,0,0:0:0:0:
28,192,105347,1,0,0:0:0:0:
369,192,105347,1,0,0:0:0:0:
312,192,105447,1,0,0:0:0:0:
199,192,105547,1,0,0:0:0:0:
426,192,105647,1,0,0:0:0:0:
28,192,105747,1,0,0:0:0:0:
369,192,105747,1,0,0:0:0:0:
312,192,105847,1,0,0:0:0:0:
256,192,105947,1,0,0:0:0:0:
199,192,106047,1,0,0:0:0:0:
28,192,106147,1,0,0:0:0:0:
142,192,106147,1,0,0:0:0:0:
199,192,106247,1,0,0:0:0:0:
28,192,106347,1,0,0:0:0:0:
85,192,106347,1,0,0:0:0:0:
256,192,106447,1,0,0:0:0:0:
28,192,106547,1,0,0:0:0:0:
483,192,106547,1,0,0:0:0:0:
426,192,106647,1,0,0:0:0:0:
369,192,106747,1,0,0:0:0:0:
312,192,106847,1,0,0:0:0:0:
28,192,106947,1,0,0:0:0:0:
142,192,106947,1,0,0:0:0:0:
369,192,106947,1,0,0:0:0:0:
312,192,107047,1,0,0:0:0:0:
256,192,107147,1,0,0:0:0:0:
28,192,107247,1,0,0:0:0:0:
199,192,107247,1,0,0:0:0:0:
28,192,107347,1,0,0:0:0:0:
312,192,107347,1,0,0:0:0:0:
256,192,107447,1,0,0:0:0:0:
28,192,107547,1,0,0:0:0:0:
199,192,107547,1,0,0:0:0:0:
142,192,107647,1,0,0:0:0:0:
28,192,107747,1,0,0:0:0:0:
256,192,107747,1,0,0:0:0:0:
369,192,107747,1,0,0:0:0:0:
199,192,107847,1,0,0:0:0:0:
28,192,107947,1,0,0:0:0:0:
142,192,107947,1,0,0:0:0:0:
369,192,107947,1,0,0:0:0:0:
85,192,108047,1,0,0:0:0:0:
142,192,108147,1,0,0:0:0:0:
483,192,108147,1,0,0:0:0:0:
369,192,108221,1,0,0:0:0:0:
312,192,108296,1,0,0:0:0:0:
426,192,108370,1,0,0:0:0:0:
256,192,108445,1,0,0:0:0:0:
312,192,108520,1,0,0:0:0:0:
369,192,108594,1,0,0:0:0:0:
256,192,108669,1,0,0:0:0:0:
199,192,108744,1,0,0:0:0:0:
312,192,108818,1,0,0:0:0:0:
142,192,108893,1,0,0:0:0:0:
199,192,108967,1,0,0:0:0:0:
256,192,109042,1,0,0:0:0:0:
142,192,109117,1,0,0:0:0:0:
85,192,109191,1,0,0:0:0:0:
199,192,109266,1,0,0:0:0:0:
28,192,109341,1,0,0:0:0:0:
256,192,109415,1,0,0:0:0:0:
369,192,109490,1,0,0:0:0:0:
256,192,109564,1,0,0:0:0:0:
199,192,109639,1,0,0:0:0:0:
312,192,109714,1,0,0:0:0:0:
142,192,109788,1,0,0:0:0:0:
199,192,109863,1,0,0:0:0:0:
256,192,109938,1,0,0:0:0:0:
142,192,110012,1,0,0:0:0:0:
85,192,110087,1,0,0:0:0:0:
199,192,110161,1,0,0:0:0:0:
28,192,110236,1,0,0:0:0:0:
85,192,110311,1,0,0:0:0:0:
142,192,110385,1,0,0:0:0:0:
28,192,110460,1,0,0:0:0:0:
142,192,110535,1,0,0:0:0:0:
483,192,110535,1,0,0:0:0:0:
369,192,110610,1,0,0:0:0:0:
312,192,110685,1,0,0:0:0:0:
426,192,110760,1,0,0:0:0:0:
256,192,110835,1,0,0:0:0:0:
312,192,110910,1,0,0:0:0:0:
28,192,110935,1,0,0:0:0:0:
369,192,110985,1,0,0:0:0:0:
256,192,111060,1,0,0:0:0:0:
199,192,111135,1,0,0:0:0:0:
312,192,111210,1,0,0:0:0:0:
142,192,111285,1,0,0:0:0:0:
199,192,111360,1,0,0:0:0:0:
256,192,111435,1,0,0:0:0:0:
142,192,111510,1,0,0:0:0:0:
85,192,111585,1,0,0:0:0:0:
199,192,111660,1,0,0:0:0:0:
142,192,111735,1,0,0:0:0:0:
28,192,111735,1,0,0:0:0:0:
312,192,111810,1,0,0:0:0:0:
199,192,111835,1,0,0:0:0:0:
426,192,111885,1,0,0:0:0:0:
85,192,111935,1,0,0:0:0:0:
312,192,111960,1,0,0:0:0:0:
256,192,112035,1,0,0:0:0:0:
142,192,112035,1,0,0:0:0:0:
369,192,112110,1,0,0:0:0:0:
28,192,112135,1,0,0:0:0:0:
199,192,112185,1,0,0:0:0:0:
85,192,112235,1,0,0:0:0:0:
256,192,112260,1,0,0:0:0:0:
312,192,112335,1,0,0:0:0:0:
28,192,112335,1,0,0:0:0:0:
199,192,112410,1,0,0:0:0:0:
369,192,112435,1,0,0:0:0:0:
142,192,112485,1,0,0:0:0:0:
426,192,112535,1,0,0:0:0:0:
256,192,112560,1,0,0:0:0:0:
312,192,112635,1,0,0:0:0:0:
85,192,112635,1,0,0:0:0:0:
369,192,112710,1,0,0:0:0:0:
142,192,112710,1,0,0:0:0:0:
199,192,112785,1,0,0:0:0:0:
483,192,112835,1,0,0:0:0:0:
85,192,112860,1,0,0:0:0:0:
28,192,112935,1,0,0:0:0:0:
142,192,112935,1,0,0:0:0:0:
256,192,112935,1,0,0:0:0:0:
85,192,113009,1,0,0:0:0:0:
199,192,113084,1,0,0:0:0:0:
312,192,113158,1,0,0:0:0:0:
426,192,113233,1,0,0:0:0:0:
312,192,113308,1,0,0:0:0:0:
199,192,113382,1,0,0:0:0:0:
85,192,113457,1,0,0:0:0:0:
28,192,113532,1,0,0:0:0:0:
256,192,113532,1,0,0:0:0:0:
85,192,113606,1,0,0:0:0:0:
199,192,113681,1,0,0:0:0:0:
312,192,113755,1,0,0:0:0:0:
426,192,113830,1,0,0:0:0:0:
312,192,113905,1,0,0:0:0:0:
199,192,113979,1,0,0:0:0:0:
85,192,114054,1,0,0:0:0:0:
28,192,114129,1,0,0:0:0:0:
199,192,114129,1,0,0:0:0:0:
312,192,114129,1,0,0:0:0:0:
142,192,114203,1,0,0:0:0:0:
256,192,114278,1,0,0:0:0:0:
369,192,114352,1,0,0:0:0:0:
426,192,114427,1,0,0:0:0:0:
369,192,114502,1,0,0:0:0:0:
256,192,114576,1,0,0:0:0:0:
142,192,114651,1,0,0:0:0:0:
85,192,114726,1,0,0:0:0:0:
312,192,114726,1,0,0:0:0:0:
142,192,114800,1,0,0:0:0:0:
256,192,114875,1,0,0:0:0:0:
369,192,114949,1,0,0:0:0:0:
426,192,115024,1,0,0:0:0:0:
369,192,115099,1,0,0:0:0:0:
256,192,115173,1,0,0:0:0:0:
142,192,115248,1,0,0:0:0:0:
85,192,115323,1,0,0:0:0:0:
256,192,115323,1,0,0:0:0:0:
369,192,115323,1,0,0:0:0:0:
199,192,115397,1,0,0:0:0:0:
312,192,115472,1,0,0:0:0:0:
426,192,115546,1,0,0:0:0:0:
483,192,115621,1,0,0:0:0:0:
426,192,115696,1,0,0:0:0:0:
312,192,115770,1,0,0:0:0:0:
199,192,115845,1,0,0:0:0:0:
142,192,115920,1,0,0:0:0:0:
369,192,115920,1,0,0:0:0:0:
199,192,115994,1,0,0:0:0:0:
312,192,116069,1,0,0:0:0:0:
426,192,116143,1,0,0:0:0:0:
483,192,116218,1,0,0:0:0:0:
426,192,116293,1,0,0:0:0:0:
312,192,116367,1,0,0:0:0:0:
199,192,116442,1,0,0:0:0:0:
142,192,116517,1,0,0:0:0:0:
28,192,116517,1,0,0:0:0:0:
369,192,116517,1,0,0:0:0:0:
85,192,116591,1,0,0:0:0:0:
199,192,116666,1,0,0:0:0:0:
312,192,116740,1,0,0:0:0:0:
483,192,116815,1,0,0:0:0:0:
312,192,116890,1,0,0:0:0:0:
199,192,116964,1,0,0:0:0:0:
142,192,117039,1,0,0:0:0:0:
85,192,117114,1,0,0:0:0:0:
199,192,117114,1,0,0:0:0:0:
256,192,117188,1,0,0:0:0:0:
369,192,117263,1,0,0:0:0:0:
426,192,117337,1,0,0:0:0:0:
483,192,117412,1,0,0:0:0:0:
426,192,117487,1,0,0:0:0:0:
369,192,117561,1,0,0:0:0:0:
256,192,117636,1,0,0:0:0:0:
142,192,117711,1,0,0:0:0:0:
312,192,117785,1,0,0:0:0:0:
142,192,117860,1,0,0:0:0:0:
312,192,117935,1,0,0:0:0:0:
142,192,118009,1,0,0:0:0:0:
312,192,118084,1,0,0:0:0:0:
142,192,118158,1,0,0:0:0:0:
312,192,118233,1,0,0:0:0:0:
256,192,118308,1,0,0:0:0:0:
426,192,118382,1,0,0:0:0:0:
256,192,118457,1,0,0:0:0:0:
426,192,118532,1,0,0:0:0:0:
256,192,118606,1,0,0:0:0:0:
426,192,118681,1,0,0:0:0:0:
256,192,118755,1,0,0:0:0:0:
426,192,118830,1,0,0:0:0:0:
369,192,118905,1,0,0:0:0:0:
142,192,118905,1,0,0:0:0:0:
28,192,118905,1,0,0:0:0:0:
312,192,118979,1,0,0:0:0:0:
142,192,119054,1,0,0:0:0:0:
312,192,119129,1,0,0:0:0:0:
85,192,119166,1,0,0:0:0:0:
426,192,119203,1,0,0:0:0:0:
199,192,119203,1,0,0:0:0:0:
369,192,119278,1,0,0:0:0:0:
199,192,119352,1,0,0:0:0:0:
369,192,119427,1,0,0:0:0:0:
142,192,119427,1,0,0:0:0:0:
256,192,119502,1,0,0:0:0:0:
483,192,119502,1,0,0:0:0:0:
426,192,119576,1,0,0:0:0:0:
369,192,119651,1,0,0:0:0:0:
199,192,119651,1,0,0:0:0:0:
483,192,119726,1,0,0:0:0:0:
312,192,119800,1,0,0:0:0:0:
28,192,119800,1,0,0:0:0:0:
369,192,119875,1,0,0:0:0:0:
85,192,119875,1,0,0:0:0:0:
426,192,119949,1,0,0:0:0:0:
142,192,119949,1,0,0:0:0:0:
483,192,120024,1,0,0:0:0:0:
199,192,120024,1,0,0:0:0:0:
28,192,120397,1,0,0:0:0:0:
369,192,120397,1,0,0:0:0:0:
483,192,120397,1,0,0:0:0:0:
199,192,120546,1,0,0:0:0:0:
312,192,120695,1,0,0:0:0:0:
142,192,120844,1,0,0:0:0:0:
483,192,120994,1,0,0:0:0:0:
199,192,121143,1,0,0:0:0:0:
312,192,121292,1,0,0:0:0:0:
142,192,121441,1,0,0:0:0:0:
483,192,121591,1,0,0:0:0:0:
199,192,121740,1,0,0:0:0:0:
312,192,121889,1,0,0:0:0:0:
142,192,122038,1,0,0:0:0:0:
483,192,122188,1,0,0:0:0:0:
199,192,122337,1,0,0:0:0:0:
312,192,122486,1,0,0:0:0:0:
142,192,122635,1,0,0:0:0:0:
483,192,122785,1,0,0:0:0:0:
199,192,122934,1,0,0:0:0:0:
312,192,123083,1,0,0:0:0:0:
142,192,123232,1,0,0:0:0:0:
483,192,123382,1,0,0:0:0:0:
199,192,123531,1,0,0:0:0:0:
312,192,123680,1,0,0:0:0:0:
142,192,123829,1,0,0:0:0:0:
483,192,123979,1,0,0:0:0:0:
199,192,124128,1,0,0:0:0:0:
312,192,124277,1,0,0:0:0:0:
142,192,124426,1,0,0:0:0:0:
483,192,124576,1,0,0:0:0:0:
199,192,124725,1,0,0:0:0:0:
312,192,124874,1,0,0:0:0:0:
142,192,125023,1,0,0:0:0:0:
