osu file format v14

[General]
AudioFilename: audio.ogg
AudioLeadIn: 0
PreviewTime: 123337
Countdown: 0
SampleSet: Soft
StackLeniency: 0.7
Mode: 3
LetterboxInBreaks: 0
SpecialStyle: 0
WidescreenStoryboard: 0

[Editor]
DistanceSpacing: 1.5
BeatDivisor: 3
GridSize: 8
TimelineZoom: 2.2

[Metadata]
Title:Reloaded
TitleUnicode:Reloaded
Artist:nonoc
ArtistUnicode:nonoc
Creator:secXcscX
Version:MEMORY of 4K
Source:Re:ゼロから始める異世界生活 Lost in Memories
Tags:re:zero kara hajimeru isekai seikatsu rezero starting life in another world different from zero anime video game full ver version japanese pop jpop j-pop rock jrock j-rock
BeatmapID:3648255
BeatmapSetID:1781490

[Difficulty]
HPDrainRate:8
CircleSize:4
OverallDifficulty:8.5
ApproachRate:5
SliderMultiplier:1.4
SliderTickRate:1

[Events]
//Background and Video events
0,0,"rem_BG.jpg",0,0
//Break Periods
//Storyboard Layer 0 (Background)
//Storyboard Layer 1 (Fail)
//Storyboard Layer 2 (Pass)
//Storyboard Layer 3 (Foreground)
//Storyboard Layer 4 (Overlay)
//Storyboard Sound Samples

[TimingPoints]
180,315.789473684211,4,2,1,60,1,0
55758,-100,4,2,1,60,0,1
73443,-100,4,2,1,60,0,0
123969,-100,4,2,1,60,0,1
141653,-100,4,2,1,60,0,0
179864,-100,4,2,1,60,0,1
180180,-100,4,2,1,60,0,0
180495,-100,4,2,1,60,0,1
180811,-100,4,2,1,60,0,0
181127,-100,4,2,1,60,0,1
181443,-100,4,2,1,60,0,0
181758,-100,4,2,1,60,0,1
182074,-100,4,2,1,60,0,0
182390,-100,4,2,1,60,0,1
182706,-100,4,2,1,60,0,0
183022,-100,4,2,1,60,0,1
197232,-100,4,2,1,60,0,0

[HitObjects]
64,192,180,128,8,495:0:0:0:0:
448,192,180,1,0,0:0:0:0:
448,192,337,128,0,653:0:0:0:0:
320,192,495,128,0,653:0:0:0:0:
192,192,653,1,0,0:0:0:0:
64,192,811,1,8,0:0:0:0:
448,192,811,128,0,1127:0:0:0:0:
64,192,969,128,0,1285:0:0:0:0:
192,192,1127,128,0,1285:0:0:0:0:
320,192,1285,1,0,0:0:0:0:
64,192,1443,1,2,3:0:0:0:
192,192,1443,1,0,0:0:0:0:
448,192,1443,1,0,0:0:0:0:
192,192,1601,128,0,1758:0:0:0:0:
448,192,1758,1,0,0:0:0:0:
448,192,1916,128,0,2074:0:0:0:0:
64,192,2074,1,0,0:0:0:0:
64,192,2232,128,0,2390:0:0:0:0:
320,192,2390,1,0,0:0:0:0:
320,192,2548,128,0,2706:0:0:0:0:
64,192,2706,128,8,2864:0:0:0:0:
448,192,2706,1,0,0:0:0:0:
448,192,2864,128,0,3180:0:0:0:0:
64,192,3022,1,8,0:0:0:0:
320,192,3022,128,0,3180:0:0:0:0:
192,192,3180,1,0,0:0:0:0:
64,192,3337,1,8,0:0:0:0:
448,192,3337,128,0,3653:0:0:0:0:
64,192,3495,128,0,3811:0:0:0:0:
192,192,3653,128,0,3811:0:0:0:0:
320,192,3811,1,0,0:0:0:0:
64,192,3969,1,8,0:0:0:0:
448,192,3969,1,0,0:0:0:0:
448,192,4127,128,0,4443:0:0:0:0:
64,192,4285,1,8,0:0:0:0:
320,192,4285,128,0,4443:0:0:0:0:
64,192,4443,128,0,4758:0:0:0:0:
192,192,4601,128,8,4758:0:0:0:0:
448,192,4601,1,0,0:0:0:0:
448,192,4758,128,0,5074:0:0:0:0:
320,192,4916,128,0,5074:0:0:0:0:
64,192,5074,128,0,5232:0:0:0:0:
192,192,5232,128,8,5548:0:0:0:0:
448,192,5232,1,0,0:0:0:0:
448,192,5390,128,0,5706:0:0:0:0:
320,192,5548,128,0,5706:0:0:0:0:
192,192,5706,1,0,0:0:0:0:
64,192,5864,1,8,0:0:0:0:
320,192,5864,128,0,6180:0:0:0:0:
64,192,6022,128,0,6337:0:0:0:0:
192,192,6180,128,0,6337:0:0:0:0:
320,192,6337,1,0,0:0:0:0:
64,192,6495,1,2,3:0:0:0:
192,192,6495,1,0,0:0:0:0:
448,192,6495,1,0,0:0:0:0:
192,192,6653,128,0,6811:0:0:0:0:
448,192,6811,1,0,0:0:0:0:
448,192,6969,128,0,7127:0:0:0:0:
64,192,7127,1,0,0:0:0:0:
64,192,7285,128,0,7443:0:0:0:0:
320,192,7443,1,0,0:0:0:0:
320,192,7601,128,0,7758:0:0:0:0:
64,192,7758,128,8,8074:0:0:0:0:
448,192,7758,1,0,0:0:0:0:
192,192,7916,1,0,0:0:0:0:
320,192,8074,1,8,0:0:0:0:
448,192,8074,128,0,8390:0:0:0:0:
64,192,8232,1,0,0:0:0:0:
192,192,8390,128,8,9022:0:0:0:0:
320,192,8390,1,0,0:0:0:0:
448,192,8548,1,0,0:0:0:0:
320,192,8706,128,0,9022:0:0:0:0:
64,192,9022,1,8,0:0:0:0:
448,192,9022,1,0,0:0:0:0:
192,192,9337,1,8,0:0:0:0:
448,192,9337,128,0,10127:0:0:0:0:
64,192,9495,1,0,0:0:0:0:
192,192,9574,1,0,0:0:0:0:
320,192,9653,128,0,10127:0:0:0:0:
192,192,9969,128,0,10127:0:0:0:0:
64,192,10285,1,4,0:0:0:0:
192,192,10285,1,2,0:0:0:0:
320,192,10285,1,0,0:0:0:0:
448,192,10285,1,0,0:0:0:0:
192,192,10601,1,2,0:0:0:0:
320,192,10601,1,0,0:0:0:0:
448,192,10601,1,0,0:0:0:0:
64,192,10758,1,8,0:0:0:0:
192,192,10758,1,0,0:0:0:0:
64,192,10916,1,2,0:0:0:0:
320,192,10916,1,0,0:0:0:0:
448,192,10916,1,0,0:0:0:0:
192,192,11074,1,8,0:0:0:0:
320,192,11074,1,0,0:0:0:0:
64,192,11232,1,2,0:0:0:0:
192,192,11232,1,0,0:0:0:0:
448,192,11232,1,0,0:0:0:0:
64,192,11390,128,8,11706:0:0:0:0:
192,192,11390,128,4,11706:0:0:0:0:
320,192,11390,1,0,0:0:0:0:
320,192,11706,1,8,0:0:0:0:
448,192,11706,1,0,0:0:0:0:
64,192,11864,1,2,0:0:0:0:
192,192,11864,1,0,0:0:0:0:
320,192,11864,1,0,0:0:0:0:
64,192,12022,1,8,0:0:0:0:
448,192,12022,1,0,0:0:0:0:
192,192,12180,1,2,0:0:0:0:
320,192,12180,1,0,0:0:0:0:
448,192,12180,1,0,0:0:0:0:
64,192,12337,1,8,0:0:0:0:
192,192,12337,1,0,0:0:0:0:
64,192,12495,1,2,0:0:0:0:
320,192,12495,1,0,0:0:0:0:
448,192,12495,1,0,0:0:0:0:
192,192,12653,1,8,0:0:0:0:
320,192,12653,1,0,0:0:0:0:
64,192,12811,1,4,0:0:0:0:
192,192,12811,1,2,0:0:0:0:
448,192,12811,1,0,0:0:0:0:
64,192,13127,1,2,0:0:0:0:
192,192,13127,1,0,0:0:0:0:
320,192,13127,1,0,0:0:0:0:
320,192,13285,1,8,0:0:0:0:
448,192,13285,1,0,0:0:0:0:
64,192,13443,1,2,0:0:0:0:
192,192,13443,1,0,0:0:0:0:
448,192,13443,1,0,0:0:0:0:
192,192,13601,1,8,0:0:0:0:
320,192,13601,1,0,0:0:0:0:
64,192,13758,1,2,0:0:0:0:
320,192,13758,1,0,0:0:0:0:
448,192,13758,1,0,0:0:0:0:
192,192,13916,1,4,0:0:0:0:
320,192,13916,128,8,14232:0:0:0:0:
448,192,13916,128,0,14232:0:0:0:0:
64,192,14232,1,8,0:0:0:0:
192,192,14232,1,0,0:0:0:0:
192,192,14390,1,2,0:0:0:0:
320,192,14390,1,0,0:0:0:0:
448,192,14390,1,0,0:0:0:0:
64,192,14548,1,8,0:0:0:0:
448,192,14548,1,0,0:0:0:0:
64,192,14706,1,2,0:0:0:0:
192,192,14706,1,0,0:0:0:0:
320,192,14706,1,0,0:0:0:0:
320,192,14864,1,8,0:0:0:0:
448,192,14864,1,0,0:0:0:0:
64,192,15022,1,2,0:0:0:0:
192,192,15022,1,0,0:0:0:0:
448,192,15022,1,0,0:0:0:0:
192,192,15180,1,8,0:0:0:0:
320,192,15180,1,0,0:0:0:0:
64,192,15337,1,4,0:0:0:0:
320,192,15337,1,2,0:0:0:0:
448,192,15337,1,0,0:0:0:0:
192,192,15653,1,2,0:0:0:0:
320,192,15653,1,0,0:0:0:0:
448,192,15653,1,0,0:0:0:0:
64,192,15811,1,8,0:0:0:0:
448,192,15811,1,0,0:0:0:0:
64,192,15969,1,2,0:0:0:0:
192,192,15969,1,0,0:0:0:0:
320,192,15969,1,0,0:0:0:0:
320,192,16127,1,8,0:0:0:0:
448,192,16127,1,0,0:0:0:0:
64,192,16285,1,2,0:0:0:0:
192,192,16285,1,0,0:0:0:0:
448,192,16285,1,0,0:0:0:0:
64,192,16443,1,4,0:0:0:0:
320,192,16443,128,8,16758:0:0:0:0:
448,192,16443,128,0,16758:0:0:0:0:
64,192,16758,1,8,0:0:0:0:
192,192,16758,1,0,0:0:0:0:
192,192,16916,1,2,0:0:0:0:
320,192,16916,1,0,0:0:0:0:
448,192,16916,1,0,0:0:0:0:
64,192,17074,1,8,0:0:0:0:
448,192,17074,1,0,0:0:0:0:
64,192,17232,1,2,0:0:0:0:
192,192,17232,1,0,0:0:0:0:
320,192,17232,1,0,0:0:0:0:
320,192,17390,1,8,0:0:0:0:
448,192,17390,1,0,0:0:0:0:
64,192,17548,1,2,0:0:0:0:
192,192,17548,1,0,0:0:0:0:
448,192,17548,1,0,0:0:0:0:
192,192,17706,1,8,0:0:0:0:
320,192,17706,1,0,0:0:0:0:
64,192,17864,1,4,0:0:0:0:
320,192,17864,1,2,0:0:0:0:
448,192,17864,1,0,0:0:0:0:
64,192,18180,1,2,0:0:0:0:
192,192,18180,1,0,0:0:0:0:
320,192,18180,1,0,0:0:0:0:
64,192,18337,1,8,0:0:0:0:
448,192,18337,1,0,0:0:0:0:
192,192,18495,1,2,0:0:0:0:
320,192,18495,1,0,0:0:0:0:
448,192,18495,1,0,0:0:0:0:
64,192,18653,1,8,0:0:0:0:
192,192,18653,1,0,0:0:0:0:
64,192,18811,1,2,0:0:0:0:
320,192,18811,1,0,0:0:0:0:
448,192,18811,1,0,0:0:0:0:
64,192,18969,128,8,19285:0:0:0:0:
192,192,18969,128,4,19285:0:0:0:0:
448,192,18969,1,0,0:0:0:0:
320,192,19285,1,8,0:0:0:0:
448,192,19285,1,0,0:0:0:0:
64,192,19443,1,2,0:0:0:0:
192,192,19443,1,0,0:0:0:0:
320,192,19443,1,0,0:0:0:0:
64,192,19601,1,8,0:0:0:0:
448,192,19601,1,0,0:0:0:0:
192,192,19758,1,2,0:0:0:0:
320,192,19758,1,0,0:0:0:0:
448,192,19758,1,0,0:0:0:0:
64,192,19916,1,0,0:0:0:45:Tom_A.wav
320,192,19916,128,0,20074:0:0:0:0:
64,192,20074,128,0,20232:0:0:0:60:Tom_B.wav
448,192,20074,1,0,0:0:0:0:
192,192,20232,128,0,20390:0:0:0:60:Tom_C.wav
320,192,20232,1,0,0:0:0:0:
64,192,20390,1,8,0:0:0:0:
448,192,20390,128,0,20548:0:0:0:0:
64,192,20548,128,0,20864:0:0:0:0:
192,192,20706,128,8,20864:0:0:0:0:
448,192,20706,1,0,0:0:0:0:
320,192,20864,1,0,0:0:0:0:
64,192,21022,128,0,21180:0:0:0:0:
448,192,21022,1,0,0:0:0:0:
192,192,21180,1,8,0:0:0:0:
448,192,21180,128,0,21495:0:0:0:0:
64,192,21337,1,8,0:0:0:0:
320,192,21337,128,0,21495:0:0:0:0:
192,192,21495,1,0,0:0:0:0:
64,192,21653,1,8,0:0:0:0:
448,192,21653,1,0,0:0:0:0:
448,192,21811,128,0,21969:0:0:0:0:
64,192,21969,1,8,0:0:0:0:
192,192,21969,1,0,0:0:0:0:
64,192,22127,128,0,22285:0:0:0:0:
320,192,22285,128,0,22916:0:0:0:0:
448,192,22443,1,8,0:0:0:0:
64,192,22601,1,8,0:0:0:0:
192,192,22758,1,0,0:0:0:0:
64,192,22916,128,8,23074:0:0:0:0:
448,192,22916,1,0,0:0:0:0:
448,192,23074,128,0,23390:0:0:0:0:
64,192,23232,1,2,0:0:0:0:
320,192,23232,128,0,23390:0:0:0:0:
192,192,23390,1,0,0:0:0:0:
64,192,23548,1,0,0:0:0:0:
448,192,23548,128,0,23706:0:0:0:0:
64,192,23706,128,8,24022:0:0:0:0:
320,192,23706,1,0,0:0:0:0:
192,192,23864,128,2,24022:0:0:0:0:
448,192,23864,1,0,0:0:0:0:
320,192,24022,1,0,0:0:0:0:
192,192,24180,1,8,0:0:0:0:
448,192,24180,1,0,0:0:0:0:
192,192,24337,128,0,24416:0:0:0:0:
64,192,24495,1,2,0:0:0:0:
320,192,24495,1,0,0:0:0:0:
448,192,24495,128,0,24574:0:0:0:0:
64,192,24653,128,0,24732:0:0:0:0:
192,192,24811,1,0,0:0:0:0:
320,192,24811,128,0,24890:0:0:0:0:
64,192,24969,1,0,0:0:0:45:Tom_A.wav
448,192,24969,128,0,25127:0:0:0:0:
64,192,25127,128,0,25285:0:0:0:60:Tom_B.wav
320,192,25127,1,0,0:0:0:0:
320,192,25285,128,0,25443:0:0:0:0:
64,192,25443,1,8,0:0:0:0:
192,192,25443,1,4,0:0:0:0:
448,192,25443,1,0,0:0:0:0:
192,192,25601,128,0,25916:0:0:0:0:
64,192,25758,128,0,25916:0:0:0:0:
320,192,25916,128,0,26232:0:0:0:0:
64,192,26074,1,8,0:0:0:0:
192,192,26074,128,0,26232:0:0:0:0:
448,192,26232,128,0,26548:0:0:0:0:
192,192,26390,1,8,0:0:0:0:
320,192,26390,128,0,26548:0:0:0:0:
64,192,26548,128,0,26864:0:0:0:0:
192,192,26706,128,8,26864:0:0:0:0:
448,192,26706,1,0,0:0:0:0:
320,192,26864,128,0,27180:0:0:0:0:
64,192,27022,1,8,0:0:0:0:
448,192,27022,128,0,27180:0:0:0:0:
192,192,27180,128,0,27495:0:0:0:0:
320,192,27337,128,8,27495:0:0:0:0:
448,192,27337,1,0,0:0:0:0:
64,192,27495,128,0,27811:0:0:0:0:
192,192,27653,128,8,27811:0:0:0:0:
320,192,27653,1,0,0:0:0:0:
448,192,27811,128,0,28127:0:0:0:0:
64,192,27969,1,8,0:0:0:0:
320,192,27969,128,0,28127:0:0:0:0:
192,192,28127,128,0,28443:0:0:0:0:
64,192,28285,128,8,28443:0:0:0:0:
448,192,28285,1,0,0:0:0:0:
320,192,28443,128,0,28758:0:0:0:0:
64,192,28601,1,8,0:0:0:0:
192,192,28601,128,0,28758:0:0:0:0:
448,192,28758,128,0,29074:0:0:0:0:
192,192,28916,1,8,0:0:0:0:
320,192,28916,128,0,29074:0:0:0:0:
64,192,29074,128,0,29390:0:0:0:0:
192,192,29232,128,8,29390:0:0:0:0:
448,192,29232,1,0,0:0:0:0:
320,192,29390,128,0,29706:0:0:0:0:
64,192,29548,1,8,0:0:0:0:
448,192,29548,128,0,29706:0:0:0:0:
192,192,29706,128,0,30022:0:0:0:0:
320,192,29864,128,8,30022:0:0:0:0:
448,192,29864,1,0,0:0:0:0:
64,192,30022,1,0,0:0:0:0:
192,192,30180,1,2,0:0:0:0:
320,192,30180,1,8,0:0:0:0:
448,192,30180,1,0,0:0:0:0:
448,192,30337,128,0,30495:0:0:0:0:
64,192,30495,1,4,0:0:0:0:
192,192,30495,1,8,0:0:0:0:
320,192,30495,1,0,0:0:0:0:
320,192,30653,128,0,30969:0:0:0:0:
64,192,30811,1,8,0:0:0:0:
448,192,30811,128,0,30969:0:0:0:0:
192,192,30969,128,0,31285:0:0:0:0:
320,192,31127,128,8,31285:0:0:0:0:
448,192,31127,1,0,0:0:0:0:
64,192,31285,128,0,31601:0:0:0:0:
192,192,31443,128,8,31601:0:0:0:0:
320,192,31443,1,0,0:0:0:0:
448,192,31601,128,0,31916:0:0:0:0:
64,192,31758,1,8,0:0:0:0:
320,192,31758,128,0,31916:0:0:0:0:
192,192,31916,128,0,32232:0:0:0:0:
64,192,32074,128,8,32232:0:0:0:0:
448,192,32074,1,0,0:0:0:0:
320,192,32232,128,0,32548:0:0:0:0:
64,192,32390,1,8,0:0:0:0:
192,192,32390,128,0,32548:0:0:0:0:
448,192,32548,128,0,32864:0:0:0:0:
192,192,32706,1,8,0:0:0:0:
320,192,32706,128,0,32864:0:0:0:0:
64,192,32864,128,0,33180:0:0:0:0:
192,192,33022,128,8,33180:0:0:0:0:
448,192,33022,1,0,0:0:0:0:
320,192,33180,128,0,33495:0:0:0:0:
64,192,33337,1,8,0:0:0:0:
448,192,33337,128,0,33495:0:0:0:0:
192,192,33495,128,0,33811:0:0:0:0:
320,192,33653,128,8,33811:0:0:0:0:
448,192,33653,1,0,0:0:0:0:
64,192,33811,128,0,34127:0:0:0:0:
192,192,33969,128,8,34127:0:0:0:0:
320,192,33969,1,0,0:0:0:0:
448,192,34127,128,0,34443:0:0:0:0:
64,192,34285,1,8,0:0:0:0:
320,192,34285,128,0,34443:0:0:0:0:
192,192,34443,128,0,34758:0:0:0:0:
64,192,34601,128,8,34758:0:0:0:0:
448,192,34601,1,0,0:0:0:0:
320,192,34758,128,0,35074:0:0:0:0:
64,192,34916,1,8,0:0:0:0:
192,192,34916,128,0,35074:0:0:0:0:
448,192,35074,1,0,0:0:0:0:
64,192,35232,128,8,35390:0:0:0:0:
192,192,35232,128,2,35390:0:0:0:0:
320,192,35232,128,0,35390:0:0:0:0:
64,192,35548,1,4,0:0:0:0:
192,192,35548,1,8,0:0:0:0:
448,192,35548,1,0,0:0:0:0:
64,192,35706,1,8,0:0:0:0:
192,192,35706,1,0,0:0:0:0:
64,192,35864,128,8,36180:0:0:0:0:
448,192,35864,1,0,0:0:0:0:
320,192,36022,1,8,0:0:0:0:
448,192,36022,128,0,36337:0:0:0:0:
192,192,36180,1,0,0:0:0:0:
64,192,36337,1,8,0:0:0:0:
192,192,36337,1,0,0:0:0:0:
64,192,36495,1,2,0:0:0:0:
192,192,36495,1,0,0:0:0:0:
448,192,36495,1,0,0:0:0:0:
320,192,36653,1,0,0:0:0:0:
64,192,36811,1,8,0:0:0:0:
448,192,36811,1,0,0:0:0:0:
320,192,36969,1,8,0:0:0:0:
448,192,36969,1,0,0:0:0:0:
64,192,37127,1,2,0:0:0:0:
192,192,37127,1,0,0:0:0:0:
448,192,37127,128,0,37443:0:0:0:0:
64,192,37285,128,8,37601:0:0:0:0:
192,192,37285,1,0,0:0:0:0:
320,192,37443,1,0,0:0:0:0:
320,192,37601,1,8,0:0:0:0:
448,192,37601,1,0,0:0:0:0:
64,192,37758,1,2,0:0:0:0:
320,192,37758,1,0,0:0:0:0:
448,192,37758,1,0,0:0:0:0:
192,192,37916,1,0,0:0:0:0:
64,192,38074,1,8,0:0:0:0:
448,192,38074,1,0,0:0:0:0:
64,192,38232,1,8,0:0:0:0:
192,192,38232,1,0,0:0:0:0:
64,192,38390,128,2,38706:0:0:0:0:
320,192,38390,1,0,0:0:0:0:
448,192,38390,1,0,0:0:0:0:
320,192,38548,1,8,0:0:0:0:
448,192,38548,128,0,38864:0:0:0:0:
192,192,38706,1,0,0:0:0:0:
64,192,38864,1,8,0:0:0:0:
192,192,38864,1,0,0:0:0:0:
64,192,39022,1,2,0:0:0:0:
192,192,39022,1,0,0:0:0:0:
448,192,39022,1,0,0:0:0:0:
320,192,39180,1,0,0:0:0:0:
64,192,39337,1,8,0:0:0:0:
448,192,39337,1,0,0:0:0:0:
320,192,39495,1,8,0:0:0:0:
448,192,39495,1,0,0:0:0:0:
64,192,39653,1,2,0:0:0:0:
192,192,39653,1,0,0:0:0:0:
448,192,39653,128,0,39969:0:0:0:0:
64,192,39811,128,8,40127:0:0:0:0:
192,192,39811,128,0,40127:0:0:0:0:
320,192,40127,1,8,0:0:0:0:
448,192,40127,1,0,0:0:0:0:
64,192,40285,1,2,0:0:0:0:
192,192,40285,1,0,0:0:0:0:
448,192,40285,1,0,0:0:0:0:
64,192,40601,1,4,0:0:0:0:
320,192,40601,1,8,0:0:0:0:
448,192,40601,1,0,0:0:0:0:
320,192,40758,1,8,0:0:0:0:
448,192,40758,1,0,0:0:0:0:
64,192,40916,1,2,0:0:0:0:
192,192,40916,1,0,0:0:0:0:
448,192,40916,128,0,41232:0:0:0:0:
64,192,41074,128,8,41390:0:0:0:0:
192,192,41074,1,0,0:0:0:0:
320,192,41232,1,0,0:0:0:0:
320,192,41390,1,8,0:0:0:0:
448,192,41390,1,0,0:0:0:0:
64,192,41548,1,2,0:0:0:0:
320,192,41548,1,0,0:0:0:0:
448,192,41548,1,0,0:0:0:0:
192,192,41706,1,0,0:0:0:0:
64,192,41864,1,8,0:0:0:0:
448,192,41864,1,0,0:0:0:0:
64,192,42022,1,8,0:0:0:0:
192,192,42022,1,0,0:0:0:0:
64,192,42180,128,2,42495:0:0:0:0:
320,192,42180,1,0,0:0:0:0:
448,192,42180,1,0,0:0:0:0:
320,192,42337,128,8,42653:0:0:0:0:
448,192,42337,128,0,42653:0:0:0:0:
64,192,42653,1,8,0:0:0:0:
192,192,42653,1,0,0:0:0:0:
64,192,42811,1,2,0:0:0:0:
192,192,42811,1,0,0:0:0:0:
448,192,42811,1,0,0:0:0:0:
320,192,42969,1,0,0:0:0:0:
64,192,43127,1,8,0:0:0:0:
448,192,43127,1,0,0:0:0:0:
320,192,43285,1,8,0:0:0:0:
448,192,43285,1,0,0:0:0:0:
64,192,43443,1,2,0:0:0:0:
192,192,43443,1,0,0:0:0:0:
448,192,43443,128,0,43758:0:0:0:0:
64,192,43601,128,8,43916:0:0:0:0:
192,192,43601,1,0,0:0:0:0:
320,192,43758,1,0,0:0:0:0:
320,192,43916,1,8,0:0:0:0:
448,192,43916,1,0,0:0:0:0:
64,192,44074,1,2,0:0:0:0:
320,192,44074,1,0,0:0:0:0:
448,192,44074,1,0,0:0:0:0:
192,192,44232,1,0,0:0:0:0:
64,192,44390,1,8,0:0:0:0:
448,192,44390,1,0,0:0:0:0:
192,192,44548,1,8,0:0:0:0:
320,192,44548,1,0,0:0:0:0:
64,192,44706,1,2,0:0:0:0:
320,192,44706,1,0,0:0:0:0:
448,192,44706,1,0,0:0:0:0:
64,192,44864,1,8,0:0:0:0:
192,192,44864,1,4,0:0:0:0:
448,192,44864,1,0,0:0:0:0:
192,192,45180,128,0,45337:0:0:0:45:Tom_A.wav
448,192,45180,1,0,0:0:0:0:
64,192,45337,128,0,45495:0:0:0:60:Tom_B.wav
320,192,45337,1,0,0:0:0:0:
192,192,45495,1,0,0:0:0:60:Tom_C.wav
448,192,45495,128,0,45653:0:0:0:0:
64,192,45653,1,8,0:0:0:0:
320,192,45653,1,0,0:0:0:0:
192,192,45811,128,0,46127:0:0:0:0:
320,192,45969,128,0,46127:0:0:0:0:
448,192,46127,1,0,0:0:0:0:
64,192,46285,1,8,0:0:0:0:
320,192,46285,1,0,0:0:0:0:
448,192,46443,128,0,46758:0:0:0:0:
320,192,46601,128,0,46758:0:0:0:0:
192,192,46758,1,0,0:0:0:0:
64,192,46916,1,2,0:0:0:0:
320,192,46916,1,0,0:0:0:0:
448,192,46916,1,0,0:0:0:0:
64,192,47074,128,0,47232:0:0:0:0:
320,192,47232,1,0,0:0:0:0:
320,192,47390,128,0,47706:0:0:0:0:
448,192,47469,1,0,0:0:0:0:
192,192,47548,128,0,47706:0:0:0:0:
64,192,47706,1,0,0:0:0:0:
192,192,47864,1,0,0:0:0:0:
64,192,48180,128,8,48653:0:0:0:0:
320,192,48180,128,0,48337:0:0:0:0:
448,192,48180,128,0,48337:0:0:0:0:
192,192,48495,128,8,48653:0:0:0:0:
320,192,48495,128,0,48653:0:0:0:0:
64,192,48811,128,8,48969:0:0:0:0:
192,192,48811,128,0,48969:0:0:0:0:
448,192,48811,128,0,49285:0:0:0:0:
320,192,49127,128,0,49285:0:0:0:0:
192,192,49285,1,0,0:0:0:0:
64,192,49443,128,8,49916:0:0:0:0:
320,192,49443,128,0,49601:0:0:0:0:
448,192,49443,128,0,49601:0:0:0:0:
192,192,49758,128,8,49916:0:0:0:0:
320,192,49758,128,0,49916:0:0:0:0:
64,192,50074,128,8,50232:0:0:0:0:
192,192,50074,128,0,50232:0:0:0:0:
448,192,50074,128,0,50548:0:0:0:0:
320,192,50232,128,0,50548:0:0:0:0:
192,192,50390,128,0,50548:0:0:0:0:
64,192,50548,1,0,0:0:0:0:
320,192,50706,1,8,0:0:0:0:
448,192,50706,1,0,0:0:0:0:
192,192,50864,128,0,51180:0:0:0:0:
320,192,51022,128,0,51180:0:0:0:0:
448,192,51180,1,0,0:0:0:0:
64,192,51337,1,8,0:0:0:0:
192,192,51337,1,0,0:0:0:0:
320,192,51495,128,0,51811:0:0:0:0:
192,192,51653,128,0,51811:0:0:0:0:
64,192,51811,1,0,0:0:0:0:
192,192,51969,1,2,0:0:0:0:
320,192,51969,1,0,0:0:0:0:
448,192,51969,1,0,0:0:0:0:
64,192,52127,128,0,52285:0:0:0:0:
320,192,52285,1,0,0:0:0:0:
192,192,52443,128,0,52758:0:0:0:0:
448,192,52522,1,0,0:0:0:0:
64,192,52601,128,0,52758:0:0:0:0:
320,192,52758,1,0,0:0:0:0:
448,192,52916,128,0,53232:0:0:0:0:
64,192,53232,1,2,0:0:0:0:
192,192,53232,1,8,0:0:0:0:
320,192,53232,1,0,0:0:0:0:
64,192,53390,1,8,0:0:0:0:
448,192,53390,1,0,0:0:0:0:
192,192,53548,1,2,0:0:0:0:
320,192,53548,1,8,0:0:0:0:
448,192,53548,1,0,0:0:0:0:
64,192,53706,1,8,0:0:0:0:
192,192,53706,1,0,0:0:0:0:
64,192,53864,1,2,0:0:0:0:
320,192,53864,1,8,0:0:0:0:
448,192,53864,1,0,0:0:0:0:
192,192,54022,1,8,0:0:0:0:
320,192,54022,1,0,0:0:0:0:
64,192,54180,1,2,0:0:0:0:
192,192,54180,1,8,0:0:0:0:
448,192,54180,1,0,0:0:0:0:
320,192,54337,1,8,0:0:0:0:
448,192,54337,1,0,0:0:0:0:
64,192,54495,1,8,0:0:0:0:
192,192,54495,1,0,0:0:0:0:
64,192,54653,1,8,0:0:0:0:
192,192,54653,1,0,0:0:0:0:
64,192,54811,1,2,0:0:0:0:
320,192,54811,1,8,0:0:0:0:
448,192,54811,1,0,0:0:0:0:
64,192,55127,128,0,55443:0:0:0:0:
192,192,55127,128,0,55443:0:0:0:0:
448,192,55285,128,0,55443:0:0:0:0:
320,192,55443,128,0,55601:0:0:0:0:
192,192,55601,128,0,55758:0:0:0:0:
64,192,55758,1,4,0:0:0:0:
320,192,55758,128,2,56074:0:0:0:0:
448,192,55758,1,0,0:0:0:0:
64,192,56074,1,2,0:0:0:0:
192,192,56074,1,0,0:0:0:0:
448,192,56074,1,0,0:0:0:0:
64,192,56232,128,8,56548:0:0:0:0:
192,192,56232,1,0,0:0:0:0:
320,192,56390,1,2,0:0:0:0:
448,192,56390,128,0,56706:0:0:0:0:
192,192,56548,1,8,0:0:0:0:
64,192,56706,1,2,0:0:0:0:
192,192,56706,1,0,0:0:0:0:
320,192,56706,1,0,0:0:0:0:
320,192,56864,1,8,0:0:0:0:
448,192,56864,128,0,57180:0:0:0:0:
64,192,57022,128,2,57337:0:0:0:0:
192,192,57022,1,0,0:0:0:0:
320,192,57180,1,0,0:0:0:0:
192,192,57337,1,2,0:0:0:0:
320,192,57337,1,0,0:0:0:0:
448,192,57337,1,0,0:0:0:0:
64,192,57495,128,8,57811:0:0:0:0:
192,192,57495,1,0,0:0:0:0:
320,192,57653,1,2,0:0:0:0:
448,192,57653,128,0,57969:0:0:0:0:
192,192,57811,1,8,0:0:0:0:
64,192,57969,1,2,0:0:0:0:
192,192,57969,1,0,0:0:0:0:
320,192,57969,1,0,0:0:0:0:
320,192,58127,1,8,0:0:0:0:
64,192,58285,128,2,58601:0:0:0:0:
192,192,58285,1,0,0:0:0:0:
448,192,58285,1,0,0:0:0:0:
192,192,58601,1,2,0:0:0:0:
320,192,58601,1,0,0:0:0:0:
448,192,58601,128,0,58758:0:0:0:0:
192,192,58758,128,8,58916:0:0:0:0:
64,192,58916,1,2,0:0:0:0:
320,192,58916,1,0,0:0:0:0:
448,192,58916,1,0,0:0:0:0:
320,192,59074,128,8,59232:0:0:0:0:
64,192,59232,1,2,0:0:0:0:
192,192,59232,1,0,0:0:0:0:
448,192,59232,1,0,0:0:0:0:
448,192,59390,128,8,59706:0:0:0:0:
64,192,59548,1,2,0:0:0:0:
192,192,59548,1,0,0:0:0:0:
320,192,59548,1,0,0:0:0:0:
192,192,59706,1,0,0:0:0:0:
64,192,59864,1,2,0:0:0:0:
320,192,59864,1,0,0:0:0:0:
448,192,59864,1,0,0:0:0:0:
320,192,60022,1,8,0:0:0:0:
64,192,60180,1,2,0:0:0:0:
192,192,60180,1,0,0:0:0:0:
448,192,60180,1,0,0:0:0:0:
192,192,60337,1,8,0:0:0:0:
64,192,60495,1,2,0:0:0:0:
320,192,60495,1,0,0:0:0:0:
448,192,60495,1,0,0:0:0:0:
320,192,60653,1,8,0:0:0:0:
64,192,60811,1,2,0:0:0:0:
192,192,60811,1,4,0:0:0:0:
448,192,60811,128,0,61127:0:0:0:0:
64,192,61127,128,2,61601:0:0:0:0:
192,192,61127,1,0,0:0:0:0:
320,192,61127,1,0,0:0:0:0:
192,192,61285,128,8,61601:0:0:0:0:
448,192,61285,1,0,0:0:0:0:
320,192,61443,1,2,0:0:0:0:
448,192,61443,1,0,0:0:0:0:
320,192,61601,128,8,61758:0:0:0:0:
64,192,61758,1,2,0:0:0:0:
192,192,61758,1,0,0:0:0:0:
448,192,61758,1,0,0:0:0:0:
64,192,61916,128,8,62232:0:0:0:0:
320,192,61916,1,0,0:0:0:0:
192,192,62074,1,2,0:0:0:0:
448,192,62074,1,0,0:0:0:0:
320,192,62232,1,0,0:0:0:0:
64,192,62390,1,2,0:0:0:0:
192,192,62390,1,0,0:0:0:0:
448,192,62390,128,0,62706:0:0:0:0:
64,192,62548,1,8,0:0:0:0:
192,192,62706,1,2,0:0:0:0:
320,192,62706,128,0,63022:0:0:0:0:
192,192,62864,128,8,63022:0:0:0:0:
64,192,63022,1,2,0:0:0:0:
448,192,63022,1,0,0:0:0:0:
192,192,63180,1,8,0:0:0:0:
320,192,63180,1,0,0:0:0:0:
64,192,63337,1,2,0:0:0:0:
320,192,63337,1,0,0:0:0:0:
448,192,63337,1,0,0:0:0:0:
192,192,63495,1,8,0:0:0:0:
320,192,63495,1,0,0:0:0:0:
64,192,63653,1,2,0:0:0:0:
192,192,63653,1,0,0:0:0:0:
448,192,63653,1,0,0:0:0:0:
64,192,63811,128,8,63969:0:0:0:0:
320,192,63811,1,2,0:0:0:0:
448,192,63811,128,0,63969:0:0:0:0:
192,192,64127,1,8,0:0:0:0:
320,192,64127,1,0,0:0:0:0:
64,192,64285,1,2,0:0:0:0:
320,192,64285,1,0,0:0:0:0:
448,192,64285,1,0,0:0:0:0:
64,192,64443,128,8,64758:0:0:0:0:
192,192,64443,1,2,0:0:0:0:
448,192,64443,128,0,64758:0:0:0:0:
192,192,64758,1,8,0:0:0:0:
320,192,64758,1,0,0:0:0:0:
64,192,64916,1,2,0:0:0:0:
320,192,64916,1,0,0:0:0:0:
448,192,64916,1,0,0:0:0:0:
64,192,65074,1,8,0:0:0:0:
192,192,65074,1,0,0:0:0:0:
320,192,65232,128,0,65548:0:0:0:0:
448,192,65390,128,0,65548:0:0:0:0:
64,192,65548,1,2,0:0:0:0:
192,192,65548,128,0,65706:0:0:0:0:
320,192,65706,128,0,65864:0:0:0:0:
64,192,65864,1,4,0:0:0:0:
192,192,65864,128,2,66180:0:0:0:0:
448,192,65864,1,0,0:0:0:0:
64,192,66180,1,2,0:0:0:0:
320,192,66180,1,0,0:0:0:0:
448,192,66180,1,0,0:0:0:0:
320,192,66337,1,8,0:0:0:0:
448,192,66337,128,0,66653:0:0:0:0:
64,192,66495,128,2,66811:0:0:0:0:
192,192,66495,1,0,0:0:0:0:
320,192,66653,1,8,0:0:0:0:
192,192,66811,1,2,0:0:0:0:
320,192,66811,1,0,0:0:0:0:
448,192,66811,1,0,0:0:0:0:
64,192,66969,128,8,67285:0:0:0:0:
192,192,66969,1,0,0:0:0:0:
320,192,67127,1,2,0:0:0:0:
448,192,67127,128,0,67443:0:0:0:0:
192,192,67285,1,0,0:0:0:0:
64,192,67443,1,2,0:0:0:0:
192,192,67443,1,0,0:0:0:0:
320,192,67443,1,0,0:0:0:0:
320,192,67601,1,8,0:0:0:0:
448,192,67601,128,0,67916:0:0:0:0:
64,192,67758,128,2,68074:0:0:0:0:
192,192,67758,1,0,0:0:0:0:
320,192,67916,1,8,0:0:0:0:
192,192,68074,1,2,0:0:0:0:
320,192,68074,1,0,0:0:0:0:
448,192,68074,1,0,0:0:0:0:
192,192,68232,1,8,0:0:0:0:
64,192,68390,1,2,0:0:0:0:
320,192,68390,1,0,0:0:0:0:
448,192,68390,128,0,68706:0:0:0:0:
64,192,68706,128,2,68864:0:0:0:0:
192,192,68706,1,0,0:0:0:0:
320,192,68706,1,0,0:0:0:0:
320,192,68864,128,8,69180:0:0:0:0:
64,192,69022,1,2,0:0:0:0:
192,192,69022,1,0,0:0:0:0:
448,192,69022,1,0,0:0:0:0:
192,192,69180,128,8,69337:0:0:0:0:
64,192,69337,1,2,0:0:0:0:
320,192,69337,1,0,0:0:0:0:
448,192,69337,1,0,0:0:0:0:
448,192,69495,128,8,69811:0:0:0:0:
64,192,69653,1,2,0:0:0:0:
192,192,69653,1,0,0:0:0:0:
320,192,69653,1,0,0:0:0:0:
192,192,69811,1,0,0:0:0:0:
64,192,69969,1,2,0:0:0:0:
320,192,69969,1,0,0:0:0:0:
448,192,69969,1,0,0:0:0:0:
320,192,70127,1,8,0:0:0:0:
64,192,70285,1,2,0:0:0:0:
192,192,70285,1,0,0:0:0:0:
448,192,70285,1,0,0:0:0:0:
448,192,70443,1,8,0:0:0:0:
64,192,70601,1,2,0:0:0:0:
192,192,70601,1,0,0:0:0:0:
320,192,70601,1,0,0:0:0:0:
192,192,70758,1,8,0:0:0:0:
64,192,70916,128,2,71232:0:0:0:0:
320,192,70916,1,0,0:0:0:0:
448,192,70916,1,0,0:0:0:0:
192,192,71232,1,2,0:0:0:0:
320,192,71232,1,0,0:0:0:0:
448,192,71232,128,0,71706:0:0:0:0:
320,192,71390,128,8,71706:0:0:0:0:
64,192,71548,1,2,0:0:0:0:
192,192,71548,1,0,0:0:0:0:
64,192,71706,128,8,71864:0:0:0:0:
192,192,71864,1,2,0:0:0:0:
320,192,71864,1,0,0:0:0:0:
448,192,71864,1,0,0:0:0:0:
448,192,72022,128,8,72495:0:0:0:0:
64,192,72180,1,2,0:0:0:0:
192,192,72180,1,8,0:0:0:0:
320,192,72180,1,0,0:0:0:0:
64,192,72495,128,0,72653:0:0:0:0:
192,192,72653,1,8,0:0:0:0:
448,192,72653,1,0,0:0:0:0:
320,192,72732,1,8,0:0:0:0:
64,192,72811,1,2,0:0:0:0:
192,192,72811,128,0,72969:0:0:0:0:
320,192,72969,1,0,0:0:0:45:Tom_A.wav
448,192,72969,128,0,73127:0:0:0:0:
64,192,73127,128,0,73285:0:0:0:60:Tom_B.wav
192,192,73127,1,0,0:0:0:0:
320,192,73285,128,0,73443:0:0:0:60:Tom_C.wav
448,192,73285,1,0,0:0:0:0:
64,192,73443,1,4,0:0:0:0:
192,192,73443,1,2,0:0:0:0:
448,192,73443,1,0,0:0:0:0:
192,192,73601,1,0,0:0:0:0:
64,192,73758,1,2,0:0:0:0:
320,192,73758,1,0,0:0:0:0:
448,192,73758,1,0,0:0:0:0:
192,192,73916,1,8,0:0:0:0:
320,192,73916,1,0,0:0:0:0:
64,192,74074,1,2,0:0:0:0:
192,192,74074,1,0,0:0:0:0:
448,192,74074,1,0,0:0:0:0:
320,192,74232,1,8,0:0:0:0:
448,192,74232,1,0,0:0:0:0:
64,192,74390,1,2,0:0:0:0:
192,192,74390,1,0,0:0:0:0:
320,192,74390,1,0,0:0:0:0:
64,192,74548,128,8,74864:0:0:0:0:
192,192,74548,128,4,74864:0:0:0:0:
448,192,74548,1,0,0:0:0:0:
320,192,74864,1,8,0:0:0:0:
448,192,74864,1,0,0:0:0:0:
192,192,75022,1,2,0:0:0:0:
320,192,75022,1,0,0:0:0:0:
448,192,75022,1,0,0:0:0:0:
64,192,75180,1,8,0:0:0:0:
448,192,75180,1,0,0:0:0:0:
64,192,75337,1,2,0:0:0:0:
192,192,75337,1,0,0:0:0:0:
320,192,75337,1,0,0:0:0:0:
320,192,75495,1,8,0:0:0:0:
448,192,75495,1,0,0:0:0:0:
64,192,75653,1,2,0:0:0:0:
192,192,75653,1,0,0:0:0:0:
448,192,75653,1,0,0:0:0:0:
192,192,75811,1,8,0:0:0:0:
320,192,75811,1,0,0:0:0:0:
64,192,75969,1,4,0:0:0:0:
320,192,75969,1,2,0:0:0:0:
448,192,75969,1,0,0:0:0:0:
192,192,76285,1,2,0:0:0:0:
320,192,76285,1,0,0:0:0:0:
448,192,76285,1,0,0:0:0:0:
64,192,76443,1,8,0:0:0:0:
192,192,76443,1,0,0:0:0:0:
64,192,76601,1,2,0:0:0:0:
320,192,76601,1,0,0:0:0:0:
448,192,76601,1,0,0:0:0:0:
192,192,76758,1,8,0:0:0:0:
320,192,76758,1,0,0:0:0:0:
64,192,76916,1,2,0:0:0:0:
192,192,76916,1,0,0:0:0:0:
448,192,76916,1,0,0:0:0:0:
64,192,77074,128,4,77390:0:0:0:0:
192,192,77074,128,8,77390:0:0:0:0:
320,192,77074,1,0,0:0:0:0:
320,192,77390,1,8,0:0:0:0:
448,192,77390,1,0,0:0:0:0:
64,192,77548,1,2,0:0:0:0:
192,192,77548,1,0,0:0:0:0:
320,192,77548,1,0,0:0:0:0:
64,192,77706,1,8,0:0:0:0:
448,192,77706,1,0,0:0:0:0:
192,192,77864,1,2,0:0:0:0:
320,192,77864,1,0,0:0:0:0:
448,192,77864,1,0,0:0:0:0:
64,192,78022,1,8,0:0:0:0:
192,192,78022,1,0,0:0:0:0:
64,192,78180,1,2,0:0:0:0:
320,192,78180,1,0,0:0:0:0:
448,192,78180,1,0,0:0:0:0:
192,192,78337,1,8,0:0:0:0:
320,192,78337,1,0,0:0:0:0:
64,192,78495,1,4,0:0:0:0:
192,192,78495,1,2,0:0:0:0:
448,192,78495,1,0,0:0:0:0:
448,192,78653,1,0,0:0:0:0:
64,192,78811,1,2,0:0:0:0:
192,192,78811,1,0,0:0:0:0:
320,192,78811,1,0,0:0:0:0:
64,192,78969,1,8,0:0:0:0:
448,192,78969,1,0,0:0:0:0:
192,192,79127,1,2,0:0:0:0:
320,192,79127,1,0,0:0:0:0:
448,192,79127,1,0,0:0:0:0:
64,192,79285,1,8,0:0:0:0:
192,192,79285,1,0,0:0:0:0:
64,192,79443,1,2,0:0:0:0:
320,192,79443,1,0,0:0:0:0:
448,192,79443,1,0,0:0:0:0:
64,192,79601,128,4,79916:0:0:0:0:
192,192,79601,128,8,79916:0:0:0:0:
448,192,79601,1,0,0:0:0:0:
320,192,79916,1,8,0:0:0:0:
448,192,79916,1,0,0:0:0:0:
64,192,80074,1,2,0:0:0:0:
192,192,80074,1,0,0:0:0:0:
320,192,80074,1,0,0:0:0:0:
64,192,80232,1,8,0:0:0:0:
448,192,80232,1,0,0:0:0:0:
192,192,80390,1,2,0:0:0:0:
320,192,80390,1,0,0:0:0:0:
448,192,80390,1,0,0:0:0:0:
64,192,80548,1,8,0:0:0:0:
192,192,80548,1,0,0:0:0:0:
64,192,80706,1,2,0:0:0:0:
320,192,80706,1,0,0:0:0:0:
448,192,80706,1,0,0:0:0:0:
192,192,80864,1,8,0:0:0:0:
320,192,80864,1,0,0:0:0:0:
64,192,81022,1,4,0:0:0:0:
192,192,81022,1,2,0:0:0:0:
448,192,81022,1,0,0:0:0:0:
192,192,81337,1,2,0:0:0:0:
320,192,81337,1,0,0:0:0:0:
448,192,81337,1,0,0:0:0:0:
64,192,81495,1,8,0:0:0:0:
448,192,81495,1,0,0:0:0:0:
64,192,81653,1,2,0:0:0:0:
192,192,81653,1,0,0:0:0:0:
320,192,81653,1,0,0:0:0:0:
320,192,81811,1,8,0:0:0:0:
448,192,81811,1,0,0:0:0:0:
64,192,81969,1,2,0:0:0:0:
192,192,81969,1,0,0:0:0:0:
448,192,81969,1,0,0:0:0:0:
64,192,82127,1,8,0:0:0:0:
320,192,82127,128,4,82443:0:0:0:0:
448,192,82127,128,0,82443:0:0:0:0:
64,192,82443,1,8,0:0:0:0:
192,192,82443,1,0,0:0:0:0:
192,192,82601,1,2,0:0:0:0:
320,192,82601,1,0,0:0:0:0:
448,192,82601,1,0,0:0:0:0:
64,192,82758,1,8,0:0:0:0:
448,192,82758,1,0,0:0:0:0:
64,192,82916,1,2,0:0:0:0:
192,192,82916,1,0,0:0:0:0:
320,192,82916,1,0,0:0:0:0:
320,192,83074,1,0,0:0:0:45:Tom_A.wav
448,192,83074,128,0,83232:0:0:0:0:
64,192,83232,128,0,83390:0:0:0:60:Tom_B.wav
192,192,83232,1,0,0:0:0:0:
320,192,83390,128,0,83548:0:0:0:60:Tom_C.wav
448,192,83390,1,0,0:0:0:0:
64,192,83548,1,8,0:0:0:0:
192,192,83548,128,0,83627:0:0:0:0:
64,192,83706,128,0,83785:0:0:0:0:
320,192,83864,1,8,0:0:0:0:
448,192,83864,128,0,83943:0:0:0:0:
320,192,84022,128,0,84101:0:0:0:0:
64,192,84180,1,2,0:0:0:0:
192,192,84180,1,0,0:0:0:0:
448,192,84180,1,0,0:0:0:0:
320,192,84337,1,0,0:0:0:45:Tom_A.wav
448,192,84337,128,0,84495:0:0:0:0:
192,192,84495,1,0,0:0:0:60:Tom_B.wav
320,192,84495,128,0,84653:0:0:0:0:
64,192,84653,1,0,0:0:0:60:Tom_C.wav
192,192,84653,128,0,84811:0:0:0:0:
448,192,84811,128,0,84890:0:0:0:0:
320,192,84969,128,8,85048:0:0:0:0:
448,192,84969,1,0,0:0:0:0:
192,192,85127,128,0,85206:0:0:0:0:
64,192,85285,128,8,85364:0:0:0:0:
192,192,85285,1,0,0:0:0:0:
320,192,85443,128,0,85522:0:0:0:0:
192,192,85601,128,8,85680:0:0:0:0:
320,192,85601,1,0,0:0:0:0:
64,192,85758,1,2,0:0:0:0:
192,192,85758,1,0,0:0:0:0:
448,192,85758,1,0,0:0:0:0:
64,192,85916,128,0,86074:0:0:0:0:
320,192,85916,1,0,0:0:0:0:
320,192,86074,128,8,86153:0:0:0:0:
448,192,86074,1,0,0:0:0:0:
448,192,86232,128,0,86311:0:0:0:0:
64,192,86390,128,8,86469:0:0:0:0:
192,192,86390,1,0,0:0:0:0:
192,192,86548,128,0,86627:0:0:0:0:
64,192,86706,1,2,0:0:0:0:
320,192,86706,1,0,0:0:0:0:
448,192,86706,1,0,0:0:0:0:
64,192,86864,1,2,0:0:0:0:
320,192,86864,1,0,0:0:0:0:
448,192,86864,1,0,0:0:0:0:
64,192,87022,1,2,0:0:0:0:
320,192,87022,1,0,0:0:0:0:
448,192,87022,1,0,0:0:0:0:
64,192,87180,1,2,0:0:0:0:
192,192,87180,1,8,0:0:0:0:
448,192,87180,128,0,87495:0:0:0:0:
64,192,87495,1,8,0:0:0:0:
320,192,87495,128,0,87574:0:0:0:0:
64,192,87653,128,0,87732:0:0:0:0:
192,192,87811,1,8,0:0:0:0:
448,192,87811,128,0,87890:0:0:0:0:
192,192,87969,128,0,88048:0:0:0:0:
64,192,88127,1,8,0:0:0:0:
448,192,88127,128,0,88206:0:0:0:0:
64,192,88285,128,0,88364:0:0:0:45:Tom_A.wav
320,192,88285,1,0,0:0:0:0:
192,192,88443,128,0,88522:0:0:0:0:
320,192,88601,128,8,88680:0:0:0:0:
448,192,88601,1,0,0:0:0:0:
448,192,88758,128,0,88837:0:0:0:0:
64,192,88916,128,8,88995:0:0:0:0:
192,192,88916,1,0,0:0:0:0:
192,192,89074,128,0,89153:0:0:0:0:
64,192,89232,1,2,0:0:0:0:
320,192,89232,1,0,0:0:0:0:
448,192,89232,1,0,0:0:0:0:
320,192,89390,128,0,89469:0:0:0:0:
320,192,89548,128,0,89627:0:0:0:0:
320,192,89706,128,0,89785:0:0:0:0:
64,192,89864,128,0,89943:0:0:0:0:
64,192,90022,1,8,0:0:0:0:
192,192,90022,128,0,90101:0:0:0:0:
320,192,90180,128,0,90258:0:0:0:0:
320,192,90337,1,8,0:0:0:0:
448,192,90337,128,0,90416:0:0:0:0:
192,192,90495,128,0,90574:0:0:0:0:
192,192,90653,1,8,0:0:0:0:
320,192,90653,128,0,90732:0:0:0:0:
64,192,90811,1,2,0:0:0:0:
320,192,90811,1,0,0:0:0:0:
448,192,90811,1,0,0:0:0:0:
192,192,90969,1,0,0:0:0:0:
448,192,90969,128,0,91127:0:0:0:0:
64,192,91127,1,2,0:0:0:0:
192,192,91127,1,0,0:0:0:0:
320,192,91127,1,0,0:0:0:0:
64,192,91285,1,8,0:0:0:0:
448,192,91285,1,0,0:0:0:0:
192,192,91443,1,2,0:0:0:0:
320,192,91443,1,0,0:0:0:0:
448,192,91443,1,0,0:0:0:0:
64,192,91601,1,8,0:0:0:0:
192,192,91601,1,0,0:0:0:0:
64,192,91758,1,2,0:0:0:0:
320,192,91758,1,0,0:0:0:0:
448,192,91758,1,0,0:0:0:0:
192,192,91916,1,8,0:0:0:0:
320,192,91916,1,0,0:0:0:0:
64,192,92074,1,2,0:0:0:0:
192,192,92074,1,0,0:0:0:0:
448,192,92074,1,0,0:0:0:0:
64,192,92232,128,8,92548:0:0:0:0:
320,192,92232,1,0,0:0:0:0:
448,192,92232,1,0,0:0:0:0:
448,192,92548,128,0,92627:0:0:0:0:
320,192,92706,128,0,92785:0:0:0:0:
192,192,92864,128,0,92943:0:0:0:0:
64,192,93022,128,0,93495:0:0:0:0:
320,192,93180,1,0,0:0:0:0:
448,192,93180,128,0,93495:0:0:0:0:
192,192,93337,1,0,0:0:0:0:
320,192,93337,128,0,93495:0:0:0:0:
64,192,93653,1,4,0:0:0:0:
192,192,93653,1,8,0:0:0:0:
448,192,93653,1,0,0:0:0:0:
64,192,93811,128,0,94127:0:0:0:0:
192,192,93969,128,4,94285:3:0:0:0:
320,192,93969,1,2,0:0:0:0:
448,192,93969,1,0,0:0:0:0:
448,192,94127,128,0,94443:0:0:0:0:
64,192,94285,1,8,0:0:0:0:
320,192,94285,128,0,94443:0:0:0:0:
192,192,94443,1,0,0:0:0:0:
64,192,94601,1,4,3:0:0:0:
320,192,94601,1,2,0:0:0:0:
448,192,94601,1,0,0:0:0:0:
320,192,94758,1,0,0:0:0:0:
64,192,94916,1,8,0:0:0:0:
192,192,94916,1,0,0:0:0:0:
192,192,95074,128,0,95390:0:0:0:0:
64,192,95232,128,4,95548:3:0:0:0:
320,192,95232,1,2,0:0:0:0:
448,192,95232,1,0,0:0:0:0:
448,192,95390,128,0,95706:0:0:0:0:
192,192,95548,1,8,0:0:0:0:
320,192,95548,1,0,0:0:0:0:
64,192,95706,1,0,0:0:0:0:
192,192,95864,1,4,3:0:0:0:
320,192,95864,1,2,0:0:0:0:
448,192,95864,1,0,0:0:0:0:
192,192,96022,1,0,0:0:0:0:
64,192,96180,1,8,0:0:0:0:
448,192,96180,1,0,0:0:0:0:
448,192,96337,128,0,96653:0:0:0:0:
64,192,96495,1,2,0:0:0:0:
192,192,96495,1,4,3:0:0:0:
320,192,96495,128,0,96811:0:0:0:0:
192,192,96653,1,0,0:0:0:0:
64,192,96811,1,8,0:0:0:0:
448,192,96811,1,0,0:0:0:0:
320,192,96969,1,0,0:0:0:0:
64,192,97127,1,4,3:0:0:0:
192,192,97127,1,2,0:0:0:0:
448,192,97127,1,0,0:0:0:0:
192,192,97285,128,0,97601:0:0:0:0:
64,192,97443,1,8,0:0:0:0:
448,192,97443,1,0,0:0:0:0:
320,192,97601,128,0,97916:0:0:0:0:
64,192,97758,1,2,0:0:0:0:
192,192,97758,1,4,3:0:0:0:
448,192,97916,128,0,98232:0:0:0:0:
192,192,98074,1,8,0:0:0:0:
320,192,98074,1,0,0:0:0:0:
192,192,98232,1,0,0:0:0:0:
64,192,98390,1,4,3:0:0:0:
320,192,98390,1,2,0:0:0:0:
448,192,98390,1,0,0:0:0:0:
192,192,98548,1,0,0:0:0:0:
64,192,98706,1,4,0:0:0:0:
320,192,98706,1,8,0:0:0:0:
448,192,98706,1,0,0:0:0:0:
448,192,98864,128,0,99180:0:0:0:0:
64,192,99022,1,4,3:0:0:0:
192,192,99022,1,2,0:0:0:0:
320,192,99022,128,0,99337:0:0:0:0:
64,192,99180,128,0,99495:0:0:0:0:
192,192,99337,128,8,99495:0:0:0:0:
448,192,99337,1,0,0:0:0:0:
448,192,99495,1,0,0:0:0:0:
64,192,99653,1,4,3:0:0:0:
192,192,99653,1,2,0:0:0:0:
320,192,99653,1,0,0:0:0:0:
192,192,99811,1,0,0:0:0:0:
320,192,99969,1,8,0:0:0:0:
448,192,99969,1,0,0:0:0:0:
320,192,100127,128,0,100443:0:0:0:0:
64,192,100285,1,4,3:0:0:0:
192,192,100285,1,2,0:0:0:0:
448,192,100285,128,0,100601:0:0:0:0:
64,192,100443,128,0,100758:0:0:0:0:
192,192,100601,1,8,0:0:0:0:
320,192,100601,1,0,0:0:0:0:
448,192,100758,1,0,0:0:0:0:
64,192,100916,1,4,3:0:0:0:
192,192,100916,1,2,0:0:0:0:
320,192,100916,1,0,0:0:0:0:
320,192,101074,1,0,0:0:0:0:
64,192,101232,1,8,0:0:0:0:
448,192,101232,1,0,0:0:0:0:
448,192,101390,128,0,101706:0:0:0:0:
64,192,101548,1,2,0:0:0:0:
192,192,101548,1,4,3:0:0:0:
320,192,101548,128,0,101864:0:0:0:0:
64,192,101706,128,0,102022:0:0:0:0:
192,192,101864,128,8,102022:0:0:0:0:
448,192,101864,1,0,0:0:0:0:
320,192,102022,1,0,0:0:0:0:
64,192,102180,1,4,3:0:0:0:
192,192,102180,1,2,0:0:0:0:
448,192,102180,1,0,0:0:0:0:
192,192,102337,128,0,102653:0:0:0:0:
64,192,102495,1,8,0:0:0:0:
448,192,102495,1,0,0:0:0:0:
320,192,102653,128,0,102969:0:0:0:0:
64,192,102811,1,2,0:0:0:0:
192,192,102811,1,4,3:0:0:0:
448,192,102969,128,0,103285:0:0:0:0:
64,192,103127,1,8,0:0:0:0:
192,192,103127,1,0,0:0:0:0:
192,192,103285,1,8,0:0:0:0:
320,192,103285,1,0,0:0:0:0:
64,192,103443,128,2,103758:0:0:0:0:
320,192,103443,1,0,0:0:0:0:
448,192,103443,1,0,0:0:0:0:
192,192,103758,1,8,0:0:0:0:
448,192,103758,1,0,0:0:0:0:
320,192,103916,128,0,104232:0:0:0:0:
192,192,104074,128,0,104232:0:0:0:0:
448,192,104232,1,0,0:0:0:0:
64,192,104390,1,8,0:0:0:0:
320,192,104390,1,0,0:0:0:0:
192,192,104548,128,0,104864:0:0:0:0:
320,192,104706,128,0,104864:0:0:0:0:
64,192,104864,1,0,0:0:0:0:
192,192,105022,1,2,0:0:0:0:
320,192,105022,1,0,0:0:0:0:
448,192,105022,1,0,0:0:0:0:
192,192,105180,128,0,105337:0:0:0:0:
320,192,105337,1,0,0:0:0:0:
448,192,105495,128,0,105811:0:0:0:0:
64,192,105574,1,0,0:0:0:0:
320,192,105653,128,0,105811:0:0:0:0:
192,192,105811,1,0,0:0:0:0:
320,192,105969,1,0,0:0:0:0:
64,192,106285,128,8,106443:0:0:0:0:
192,192,106285,128,0,106443:0:0:0:0:
448,192,106285,128,0,106758:0:0:0:0:
192,192,106601,128,8,106758:0:0:0:0:
320,192,106601,128,0,106758:0:0:0:0:
64,192,106916,128,8,107390:0:0:0:0:
320,192,106916,128,0,107074:0:0:0:0:
448,192,106916,128,0,107074:0:0:0:0:
192,192,107232,128,0,107390:0:0:0:0:
320,192,107390,1,0,0:0:0:0:
64,192,107548,128,8,107706:0:0:0:0:
192,192,107548,128,0,107706:0:0:0:0:
448,192,107548,128,0,108022:0:0:0:0:
192,192,107864,128,8,108022:0:0:0:0:
320,192,107864,128,0,108022:0:0:0:0:
64,192,108180,128,8,108653:0:0:0:0:
320,192,108180,128,0,108337:0:0:0:0:
448,192,108180,128,0,108337:0:0:0:0:
192,192,108337,128,0,108653:0:0:0:0:
320,192,108495,128,0,108653:0:0:0:0:
448,192,108653,1,0,0:0:0:0:
192,192,108811,128,8,109127:0:0:0:0:
320,192,108811,128,0,108969:0:0:0:0:
64,192,108969,128,0,109127:0:0:0:0:
320,192,109127,1,8,0:0:0:0:
448,192,109127,1,0,0:0:0:0:
192,192,109285,1,8,0:0:0:0:
320,192,109285,1,0,0:0:0:0:
64,192,109443,1,2,0:0:0:0:
192,192,109443,1,0,0:0:0:0:
448,192,109443,1,0,0:0:0:0:
320,192,109601,128,8,109916:0:0:0:0:
448,192,109601,1,0,0:0:0:0:
64,192,109916,1,2,0:0:0:0:
192,192,109916,1,0,0:0:0:0:
448,192,109916,1,0,0:0:0:0:
192,192,110074,128,0,110390:0:0:0:0:
320,192,110074,128,0,110232:0:0:0:0:
64,192,110232,128,0,110390:0:0:0:0:
320,192,110390,1,8,0:0:0:0:
448,192,110390,1,0,0:0:0:0:
192,192,110548,1,8,0:0:0:0:
320,192,110548,1,0,0:0:0:0:
64,192,110706,1,2,0:0:0:0:
192,192,110706,1,0,0:0:0:0:
448,192,110706,1,0,0:0:0:0:
320,192,110864,1,8,0:0:0:0:
448,192,110864,1,0,0:0:0:0:
192,192,111022,1,8,0:0:0:0:
320,192,111022,1,0,0:0:0:0:
64,192,111180,1,2,0:0:0:0:
192,192,111180,1,0,0:0:0:0:
448,192,111180,1,0,0:0:0:0:
192,192,111337,128,8,111495:0:0:0:0:
320,192,111337,128,0,111653:0:0:0:0:
448,192,111495,128,0,111653:0:0:0:0:
64,192,111653,1,8,0:0:0:0:
192,192,111653,1,0,0:0:0:0:
192,192,111811,1,8,0:0:0:0:
320,192,111811,1,0,0:0:0:0:
64,192,111969,1,2,0:0:0:0:
320,192,111969,1,0,0:0:0:0:
448,192,111969,1,0,0:0:0:0:
64,192,112127,1,8,0:0:0:0:
192,192,112127,128,0,112443:0:0:0:0:
64,192,112443,1,2,0:0:0:0:
320,192,112443,1,0,0:0:0:0:
448,192,112443,1,0,0:0:0:0:
192,192,112601,128,0,112758:0:0:0:0:
320,192,112601,128,0,112916:0:0:0:0:
448,192,112758,128,0,112916:0:0:0:0:
64,192,112916,1,8,0:0:0:0:
192,192,112916,1,0,0:0:0:0:
192,192,113074,1,8,0:0:0:0:
320,192,113074,1,0,0:0:0:0:
64,192,113232,1,2,0:0:0:0:
320,192,113232,1,0,0:0:0:0:
448,192,113232,128,0,113390:0:0:0:0:
64,192,113390,1,8,0:0:0:0:
192,192,113390,128,0,113706:0:0:0:0:
320,192,113548,128,0,113864:0:0:0:45:Tom_A.wav
448,192,113548,1,0,0:0:0:0:
64,192,113864,1,8,0:0:0:0:
448,192,113864,1,0,0:0:0:0:
320,192,114022,128,0,114337:0:0:0:0:
192,192,114180,128,0,114337:0:0:0:0:
64,192,114337,1,0,0:0:0:0:
320,192,114495,1,8,0:0:0:0:
448,192,114495,1,0,0:0:0:0:
192,192,114653,128,0,114969:0:0:0:0:
320,192,114811,128,0,114969:0:0:0:0:
64,192,114969,1,0,0:0:0:0:
192,192,115127,1,2,0:0:0:0:
320,192,115127,1,0,0:0:0:0:
448,192,115127,1,0,0:0:0:0:
320,192,115285,128,0,115443:0:0:0:0:
64,192,115443,1,0,0:0:0:0:
192,192,115601,128,0,115916:0:0:0:0:
448,192,115680,1,0,0:0:0:0:
64,192,115758,128,0,115916:0:0:0:0:
320,192,115916,1,0,0:0:0:0:
192,192,116074,1,0,0:0:0:0:
64,192,116390,128,8,116864:0:0:0:0:
320,192,116390,128,0,116548:0:0:0:0:
448,192,116390,128,0,116548:0:0:0:0:
192,192,116706,128,8,116864:0:0:0:0:
320,192,116706,128,0,116864:0:0:0:0:
64,192,117022,128,8,117180:0:0:0:0:
192,192,117022,128,0,117180:0:0:0:0:
448,192,117022,128,0,117495:0:0:0:0:
320,192,117337,128,0,117495:0:0:0:0:
192,192,117495,1,0,0:0:0:0:
64,192,117653,128,8,118127:0:0:0:0:
320,192,117653,128,0,117811:0:0:0:0:
448,192,117653,128,0,117811:0:0:0:0:
192,192,117969,128,8,118127:0:0:0:0:
320,192,117969,128,0,118127:0:0:0:0:
64,192,118285,128,8,118443:0:0:0:0:
192,192,118285,128,0,118443:0:0:0:0:
448,192,118285,128,0,118758:0:0:0:0:
320,192,118443,128,0,118758:0:0:0:0:
192,192,118601,128,0,118758:0:0:0:0:
64,192,118758,1,0,0:0:0:0:
192,192,118916,1,2,0:0:0:0:
320,192,118916,1,0,0:0:0:0:
448,192,118916,1,0,0:0:0:0:
320,192,119074,1,8,0:0:0:0:
448,192,119074,1,0,0:0:0:0:
320,192,119232,1,8,0:0:0:0:
448,192,119232,1,0,0:0:0:0:
64,192,119390,1,2,0:0:0:0:
192,192,119390,1,0,0:0:0:0:
448,192,119390,1,0,0:0:0:0:
64,192,119548,1,8,0:0:0:0:
192,192,119548,1,0,0:0:0:0:
64,192,119706,1,8,0:0:0:0:
192,192,119706,1,0,0:0:0:0:
64,192,119864,1,2,0:0:0:0:
320,192,119864,1,0,0:0:0:0:
448,192,119864,1,0,0:0:0:0:
320,192,120022,1,8,0:0:0:0:
448,192,120022,1,0,0:0:0:0:
64,192,120180,1,2,0:0:0:0:
192,192,120180,1,0,0:0:0:0:
320,192,120180,1,0,0:0:0:0:
64,192,120337,1,8,0:0:0:0:
192,192,120337,1,0,0:0:0:0:
64,192,120495,1,8,0:0:0:0:
192,192,120495,1,0,0:0:0:0:
64,192,120653,1,2,0:0:0:0:
320,192,120653,1,0,0:0:0:0:
448,192,120653,1,0,0:0:0:0:
320,192,120811,1,8,0:0:0:0:
448,192,120811,1,0,0:0:0:0:
320,192,120969,1,8,0:0:0:0:
448,192,120969,1,0,0:0:0:0:
64,192,121127,1,2,0:0:0:0:
192,192,121127,1,0,0:0:0:0:
448,192,121127,1,0,0:0:0:0:
64,192,121285,1,8,0:0:0:0:
192,192,121285,1,0,0:0:0:0:
64,192,121443,1,4,0:0:0:0:
320,192,121443,1,2,0:0:0:0:
448,192,121443,1,0,0:0:0:0:
192,192,121601,1,8,0:0:0:0:
320,192,121601,1,0,0:0:0:0:
64,192,121758,1,2,0:0:0:0:
192,192,121758,1,0,0:0:0:0:
448,192,121758,1,0,0:0:0:0:
320,192,121916,1,8,0:0:0:0:
448,192,121916,1,0,0:0:0:0:
64,192,122074,1,2,0:0:0:0:
192,192,122074,1,0,0:0:0:0:
320,192,122074,1,0,0:0:0:0:
64,192,122232,1,8,0:0:0:0:
448,192,122232,1,0,0:0:0:0:
192,192,122390,1,2,0:0:0:0:
320,192,122390,1,0,0:0:0:0:
448,192,122390,1,0,0:0:0:0:
64,192,122548,1,8,0:0:0:0:
192,192,122548,1,0,0:0:0:0:
320,192,122706,1,2,0:0:0:0:
448,192,122706,1,0,0:0:0:0:
320,192,122864,1,8,0:0:0:0:
448,192,122864,1,0,0:0:0:0:
64,192,123022,128,8,123337:0:0:0:0:
192,192,123022,1,2,0:0:0:0:
448,192,123022,128,0,123653:0:0:0:0:
320,192,123337,128,0,123653:0:0:0:0:
64,192,123495,128,0,123653:0:0:0:0:
192,192,123653,128,0,123811:0:0:0:0:
320,192,123811,128,0,123969:0:0:0:0:
64,192,123969,128,4,124127:0:0:0:0:
192,192,123969,128,2,124285:0:0:0:0:
448,192,123969,1,0,0:0:0:0:
64,192,124285,1,2,0:0:0:0:
320,192,124285,1,0,0:0:0:0:
448,192,124285,1,0,0:0:0:0:
320,192,124443,1,8,0:0:0:0:
448,192,124443,128,0,124758:0:0:0:0:
64,192,124601,128,2,124916:0:0:0:0:
192,192,124601,128,0,124758:0:0:0:0:
320,192,124758,1,8,0:0:0:0:
192,192,124916,1,2,0:0:0:0:
320,192,124916,1,0,0:0:0:0:
448,192,124916,1,0,0:0:0:0:
64,192,125074,128,8,125390:0:0:0:0:
192,192,125074,1,0,0:0:0:0:
320,192,125232,128,2,125390:0:0:0:0:
448,192,125232,128,0,125548:0:0:0:0:
192,192,125390,1,0,0:0:0:0:
64,192,125548,1,2,0:0:0:0:
192,192,125548,1,0,0:0:0:0:
320,192,125548,1,0,0:0:0:0:
320,192,125706,1,8,0:0:0:0:
448,192,125706,128,0,126022:0:0:0:0:
64,192,125864,128,2,126180:0:0:0:0:
192,192,125864,128,0,126022:0:0:0:0:
320,192,126022,1,8,0:0:0:0:
192,192,126180,1,2,0:0:0:0:
320,192,126180,1,0,0:0:0:0:
448,192,126180,1,0,0:0:0:0:
192,192,126337,128,8,126495:0:0:0:0:
64,192,126495,1,2,0:0:0:0:
320,192,126495,128,0,126653:0:0:0:0:
448,192,126495,128,0,126811:0:0:0:0:
64,192,126811,128,2,126969:0:0:0:0:
192,192,126811,1,0,0:0:0:0:
320,192,126811,1,0,0:0:0:0:
320,192,126969,128,8,127127:0:0:0:0:
64,192,127127,1,2,0:0:0:0:
192,192,127127,1,0,0:0:0:0:
448,192,127127,1,0,0:0:0:0:
192,192,127285,128,8,127443:0:0:0:0:
64,192,127443,1,2,0:0:0:0:
320,192,127443,1,0,0:0:0:0:
448,192,127443,1,0,0:0:0:0:
64,192,127601,128,8,127916:0:0:0:0:
192,192,127758,1,2,0:0:0:0:
320,192,127758,1,0,0:0:0:0:
448,192,127758,1,0,0:0:0:0:
320,192,127916,1,0,0:0:0:0:
64,192,128074,1,2,0:0:0:0:
192,192,128074,1,0,0:0:0:0:
448,192,128074,1,0,0:0:0:0:
448,192,128232,1,8,0:0:0:0:
64,192,128390,1,2,0:0:0:0:
192,192,128390,1,0,0:0:0:0:
320,192,128390,1,0,0:0:0:0:
64,192,128548,1,8,0:0:0:0:
192,192,128706,1,2,0:0:0:0:
320,192,128706,1,0,0:0:0:0:
448,192,128706,1,0,0:0:0:0:
320,192,128864,1,8,0:0:0:0:
64,192,129022,128,2,129337:0:0:0:0:
192,192,129022,128,4,129180:0:0:0:0:
448,192,129022,1,0,0:0:0:0:
192,192,129337,1,2,0:0:0:0:
320,192,129337,1,0,0:0:0:0:
448,192,129337,128,0,129811:0:0:0:0:
64,192,129495,1,8,0:0:0:0:
320,192,129495,128,0,129811:0:0:0:0:
64,192,129653,1,2,0:0:0:0:
192,192,129653,1,0,0:0:0:0:
192,192,129811,128,8,129969:0:0:0:0:
64,192,129969,1,2,0:0:0:0:
320,192,129969,1,0,0:0:0:0:
448,192,129969,1,0,0:0:0:0:
448,192,130127,128,8,130443:0:0:0:0:
64,192,130285,1,2,0:0:0:0:
192,192,130285,1,0,0:0:0:0:
320,192,130285,1,0,0:0:0:0:
320,192,130443,1,0,0:0:0:0:
64,192,130601,128,2,130916:0:0:0:0:
192,192,130601,128,0,130758:0:0:0:0:
448,192,130601,1,0,0:0:0:0:
448,192,130758,1,8,0:0:0:0:
192,192,130916,128,2,131232:0:0:0:0:
320,192,130916,128,0,131074:0:0:0:0:
448,192,131074,128,8,131232:0:0:0:0:
64,192,131232,1,2,0:0:0:0:
320,192,131232,1,0,0:0:0:0:
192,192,131390,1,8,0:0:0:0:
320,192,131390,1,0,0:0:0:0:
64,192,131548,1,2,0:0:0:0:
192,192,131548,1,0,0:0:0:0:
448,192,131548,1,0,0:0:0:0:
192,192,131706,1,8,0:0:0:0:
320,192,131706,1,0,0:0:0:0:
64,192,131864,1,2,0:0:0:0:
320,192,131864,1,0,0:0:0:0:
448,192,131864,1,0,0:0:0:0:
64,192,132022,128,8,132180:0:0:0:0:
192,192,132022,1,2,0:0:0:0:
448,192,132022,128,0,132180:0:0:0:0:
320,192,132337,1,8,0:0:0:0:
448,192,132337,1,0,0:0:0:0:
64,192,132495,1,2,0:0:0:0:
192,192,132495,1,0,0:0:0:0:
320,192,132495,1,0,0:0:0:0:
64,192,132653,128,8,132969:0:0:0:0:
192,192,132653,1,2,0:0:0:0:
448,192,132653,128,0,132969:0:0:0:0:
192,192,132969,1,8,0:0:0:0:
320,192,132969,1,0,0:0:0:0:
64,192,133127,1,2,0:0:0:0:
192,192,133127,1,0,0:0:0:0:
448,192,133127,1,0,0:0:0:0:
320,192,133285,1,8,0:0:0:0:
448,192,133285,1,0,0:0:0:0:
192,192,133443,128,0,133758:0:0:0:0:
64,192,133601,128,0,133758:0:0:0:0:
320,192,133758,128,2,133916:0:0:0:0:
448,192,133758,1,0,0:0:0:0:
192,192,133916,128,0,134074:0:0:0:0:
64,192,134074,1,4,0:0:0:0:
320,192,134074,128,2,134390:0:0:0:0:
448,192,134074,128,0,134232:0:0:0:0:
64,192,134390,1,2,0:0:0:0:
192,192,134390,1,0,0:0:0:0:
448,192,134390,1,0,0:0:0:0:
64,192,134548,128,8,134864:0:0:0:0:
192,192,134548,1,0,0:0:0:0:
320,192,134706,128,2,134864:0:0:0:0:
448,192,134706,128,0,135022:0:0:0:0:
192,192,134864,1,8,0:0:0:0:
64,192,135022,1,2,0:0:0:0:
192,192,135022,1,0,0:0:0:0:
320,192,135022,1,0,0:0:0:0:
320,192,135180,1,8,0:0:0:0:
448,192,135180,128,0,135495:0:0:0:0:
64,192,135337,128,2,135653:0:0:0:0:
192,192,135337,128,0,135495:0:0:0:0:
320,192,135495,1,0,0:0:0:0:
192,192,135653,1,2,0:0:0:0:
320,192,135653,1,0,0:0:0:0:
448,192,135653,1,0,0:0:0:0:
64,192,135811,128,8,136127:0:0:0:0:
192,192,135811,1,0,0:0:0:0:
320,192,135969,128,2,136127:0:0:0:0:
448,192,135969,128,0,136285:0:0:0:0:
192,192,136127,1,8,0:0:0:0:
64,192,136285,1,2,0:0:0:0:
192,192,136285,1,0,0:0:0:0:
320,192,136285,1,0,0:0:0:0:
320,192,136443,128,8,136601:0:0:0:0:
64,192,136601,128,2,136916:0:0:0:0:
192,192,136601,128,0,136758:0:0:0:0:
448,192,136601,1,0,0:0:0:0:
192,192,136916,1,2,0:0:0:0:
320,192,136916,1,0,0:0:0:0:
448,192,136916,128,0,137074:0:0:0:0:
192,192,137074,128,8,137390:0:0:0:0:
64,192,137232,1,2,0:0:0:0:
320,192,137232,1,0,0:0:0:0:
448,192,137232,1,0,0:0:0:0:
320,192,137390,128,8,137548:0:0:0:0:
64,192,137548,1,2,0:0:0:0:
192,192,137548,1,0,0:0:0:0:
448,192,137548,1,0,0:0:0:0:
64,192,137706,128,8,138022:0:0:0:0:
192,192,137864,1,2,0:0:0:0:
320,192,137864,1,0,0:0:0:0:
448,192,137864,1,0,0:0:0:0:
448,192,138022,1,0,0:0:0:0:
64,192,138180,1,2,0:0:0:0:
192,192,138180,1,0,0:0:0:0:
320,192,138180,1,0,0:0:0:0:
320,192,138337,1,8,0:0:0:0:
64,192,138495,1,2,0:0:0:0:
192,192,138495,1,0,0:0:0:0:
448,192,138495,1,0,0:0:0:0:
448,192,138653,1,8,0:0:0:0:
64,192,138811,1,2,0:0:0:0:
192,192,138811,1,0,0:0:0:0:
320,192,138811,1,0,0:0:0:0:
192,192,138969,1,8,0:0:0:0:
64,192,139127,1,2,0:0:0:0:
320,192,139127,128,0,139285:0:0:0:0:
448,192,139127,128,0,139443:0:0:0:0:
64,192,139443,128,2,139758:0:0:0:0:
192,192,139443,1,0,0:0:0:0:
320,192,139443,1,0,0:0:0:0:
192,192,139601,128,8,139758:0:0:0:0:
320,192,139758,1,2,0:0:0:0:
448,192,139758,1,0,0:0:0:0:
448,192,139916,128,8,140232:0:0:0:0:
64,192,140074,1,2,0:0:0:0:
192,192,140074,1,0,0:0:0:0:
320,192,140074,1,0,0:0:0:0:
64,192,140232,128,8,140706:0:0:0:0:
192,192,140390,1,2,0:0:0:0:
320,192,140390,1,8,0:0:0:0:
448,192,140390,1,0,0:0:0:0:
448,192,140706,128,0,140864:0:0:0:0:
192,192,140864,1,8,0:0:0:0:
320,192,140864,1,0,0:0:0:0:
64,192,140943,1,8,0:0:0:0:
320,192,141022,128,2,141180:0:0:0:0:
448,192,141022,1,0,0:0:0:0:
64,192,141180,128,0,141337:0:0:0:45:Tom_A.wav
192,192,141180,1,0,0:0:0:0:
320,192,141337,1,0,0:0:0:60:Tom_B.wav
448,192,141337,128,0,141495:0:0:0:0:
64,192,141495,1,0,0:0:0:60:Tom_C.wav
192,192,141495,128,0,141653:0:0:0:0:
64,192,141653,1,4,0:0:0:0:
320,192,141653,128,8,141732:0:0:0:0:
448,192,141653,1,0,0:0:0:0:
448,192,141811,128,0,141890:0:0:0:0:
192,192,141969,128,8,142127:0:0:0:0:
320,192,141969,128,0,142048:0:0:0:0:
448,192,142127,128,0,142206:0:0:0:0:
64,192,142285,128,2,142522:0:0:0:0:
192,192,142285,128,0,142443:0:0:0:0:
320,192,142285,128,0,142364:0:0:0:0:
448,192,142443,128,0,142522:0:0:0:0:
320,192,142601,128,0,142680:0:0:0:0:
192,192,142758,1,8,0:0:0:0:
448,192,142758,128,0,142837:0:0:0:0:
64,192,142916,128,8,142995:0:0:0:0:
320,192,142916,128,0,142995:0:0:0:0:
64,192,143074,1,8,0:0:0:0:
448,192,143074,128,0,143153:0:0:0:0:
192,192,143153,1,8,0:0:0:0:
64,192,143232,128,8,143390:0:0:0:0:
320,192,143232,128,0,143311:0:0:0:0:
448,192,143390,128,0,143469:0:0:0:0:
64,192,143548,128,2,143785:0:0:0:0:
192,192,143548,128,0,143706:0:0:0:0:
320,192,143548,128,0,143627:0:0:0:0:
448,192,143706,128,0,144022:0:0:0:0:
320,192,143864,128,0,144022:0:0:0:0:
192,192,144022,1,0,0:0:0:0:
320,192,144101,1,0,0:0:0:0:
64,192,144180,1,8,0:0:0:0:
192,192,144180,128,0,144258:0:0:0:0:
64,192,144337,128,0,144416:0:0:0:0:
192,192,144495,128,8,144574:0:0:0:0:
320,192,144495,128,0,144653:0:0:0:0:
64,192,144653,128,0,144732:0:0:0:0:
192,192,144811,128,2,144890:0:0:0:0:
320,192,144811,128,0,144969:0:0:0:0:
448,192,144811,128,0,145048:0:0:0:0:
64,192,144969,128,0,145048:0:0:0:0:
192,192,145127,128,2,145206:0:0:0:0:
64,192,145285,128,8,145364:0:0:0:0:
320,192,145285,1,0,0:0:0:0:
192,192,145443,128,8,145522:0:0:0:0:
448,192,145443,128,0,145601:0:0:0:0:
64,192,145601,128,8,145680:0:0:0:0:
320,192,145601,1,0,0:0:0:0:
192,192,145758,128,8,145837:0:0:0:0:
448,192,145758,128,0,145916:0:0:0:0:
64,192,145916,128,8,145995:0:0:0:0:
320,192,145916,1,0,0:0:0:0:
192,192,146074,128,2,146153:0:0:0:0:
320,192,146074,128,0,146232:0:0:0:0:
448,192,146074,128,0,146311:0:0:0:0:
64,192,146232,128,8,146548:0:0:0:0:
192,192,146390,128,8,146548:0:0:0:0:
448,192,146390,1,0,0:0:0:0:
320,192,146548,1,0,0:0:0:0:
192,192,146627,1,0,0:0:0:0:
64,192,146706,1,8,0:0:0:0:
320,192,146706,128,4,146785:0:0:0:0:
448,192,146706,1,0,0:0:0:0:
64,192,146864,128,0,146943:0:0:0:0:
320,192,147022,128,8,147180:0:0:0:0:
192,192,147022,128,0,147101:0:0:0:0:
64,192,147180,128,0,147258:0:0:0:0:
192,192,147337,128,2,147416:0:0:0:0:
320,192,147337,128,0,147495:0:0:0:0:
448,192,147337,128,0,147574:0:0:0:0:
64,192,147495,128,0,147574:0:0:0:0:
192,192,147653,128,0,147732:0:0:0:0:
64,192,147811,128,8,147890:0:0:0:0:
320,192,147811,1,0,0:0:0:0:
192,192,147969,128,8,148048:0:0:0:0:
448,192,147969,128,0,148048:0:0:0:0:
64,192,148127,128,8,148206:0:0:0:0:
448,192,148127,1,0,0:0:0:0:
320,192,148206,1,8,0:0:0:0:
192,192,148285,128,8,148364:0:0:0:0:
448,192,148285,128,0,148443:0:0:0:0:
64,192,148443,128,0,148522:0:0:0:0:
192,192,148601,128,2,148680:0:0:0:0:
320,192,148601,128,0,148758:0:0:0:0:
448,192,148601,128,0,148837:0:0:0:0:
64,192,148758,128,0,149074:0:0:0:0:
192,192,148916,128,0,149074:0:0:0:0:
320,192,149074,1,0,0:0:0:0:
448,192,149153,1,0,0:0:0:0:
64,192,149232,1,8,0:0:0:0:
192,192,149232,128,0,149311:0:0:0:0:
448,192,149390,128,0,149469:0:0:0:0:
64,192,149548,128,8,149706:0:0:0:0:
192,192,149548,128,0,149627:0:0:0:0:
448,192,149706,128,0,149785:0:0:0:0:
64,192,149864,128,2,150101:0:0:0:0:
192,192,149864,128,0,150022:0:0:0:0:
320,192,149864,128,0,149943:0:0:0:0:
448,192,150022,128,0,150101:0:0:0:0:
320,192,150180,128,2,150258:0:0:0:0:
192,192,150337,1,8,0:0:0:0:
448,192,150337,128,0,150416:0:0:0:0:
64,192,150495,128,8,150653:0:0:0:0:
320,192,150495,128,0,150574:0:0:0:0:
192,192,150653,1,8,0:0:0:0:
448,192,150653,128,0,150732:0:0:0:0:
64,192,150811,128,8,150969:0:0:0:0:
320,192,150811,128,0,150890:0:0:0:0:
448,192,150969,128,0,151048:0:0:0:0:
64,192,151127,128,0,151601:0:0:0:0:
192,192,151127,128,0,151601:0:0:0:0:
320,192,151443,128,0,151601:0:0:0:0:
448,192,151443,128,0,151601:0:0:0:0:
64,192,151758,1,4,0:0:0:0:
192,192,151758,1,8,0:0:0:0:
320,192,151758,1,2,0:0:0:0:
448,192,151758,128,0,152074:0:0:0:0:
64,192,152074,1,8,0:0:0:0:
192,192,152074,1,0,0:0:0:0:
64,192,152232,1,8,0:0:0:0:
192,192,152232,1,0,0:0:0:0:
64,192,152390,1,2,0:0:0:0:
320,192,152390,1,0,0:0:0:0:
448,192,152390,1,0,0:0:0:0:
320,192,152548,1,8,0:0:0:0:
448,192,152548,1,0,0:0:0:0:
64,192,152706,1,8,0:0:0:0:
192,192,152706,1,0,0:0:0:0:
64,192,152864,1,2,0:0:0:0:
192,192,152864,1,0,0:0:0:0:
448,192,152864,1,0,0:0:0:0:
320,192,153022,1,0,0:0:0:0:
448,192,153022,128,0,153337:0:0:0:0:
64,192,153337,1,8,0:0:0:0:
192,192,153337,1,0,0:0:0:0:
64,192,153495,1,8,0:0:0:0:
192,192,153495,1,0,0:0:0:0:
64,192,153653,1,2,0:0:0:0:
320,192,153653,1,0,0:0:0:0:
448,192,153653,1,0,0:0:0:0:
320,192,153811,1,8,0:0:0:0:
448,192,153811,1,0,0:0:0:0:
64,192,153969,1,8,0:0:0:0:
192,192,153969,1,0,0:0:0:0:
64,192,154127,1,2,0:0:0:0:
192,192,154127,1,0,0:0:0:0:
448,192,154127,1,0,0:0:0:0:
320,192,154285,1,8,0:0:0:0:
448,192,154285,128,0,154601:0:0:0:0:
64,192,154601,1,8,0:0:0:0:
192,192,154601,1,0,0:0:0:0:
64,192,154758,1,8,0:0:0:0:
192,192,154758,1,0,0:0:0:0:
64,192,154916,1,2,0:0:0:0:
320,192,154916,1,0,0:0:0:0:
448,192,154916,1,0,0:0:0:0:
192,192,155074,1,8,0:0:0:0:
320,192,155074,1,0,0:0:0:0:
192,192,155232,1,8,0:0:0:0:
320,192,155232,1,0,0:0:0:0:
64,192,155390,1,2,0:0:0:0:
192,192,155390,1,0,0:0:0:0:
448,192,155390,1,0,0:0:0:0:
320,192,155548,1,0,0:0:0:0:
448,192,155548,128,0,155864:0:0:0:0:
64,192,155864,1,8,0:0:0:0:
192,192,155864,1,0,0:0:0:0:
192,192,156022,1,8,0:0:0:0:
320,192,156022,1,0,0:0:0:0:
64,192,156180,1,2,0:0:0:0:
320,192,156180,1,0,0:0:0:0:
448,192,156180,1,0,0:0:0:0:
64,192,156337,1,8,0:0:0:0:
192,192,156337,1,0,0:0:0:0:
192,192,156495,1,8,0:0:0:0:
320,192,156495,1,0,0:0:0:0:
64,192,156653,1,2,0:0:0:0:
320,192,156653,1,0,0:0:0:0:
448,192,156653,1,0,0:0:0:0:
64,192,156811,128,8,157127:0:0:0:0:
192,192,156811,1,0,0:0:0:0:
320,192,157127,1,8,0:0:0:0:
448,192,157127,1,0,0:0:0:0:
320,192,157285,1,8,0:0:0:0:
448,192,157285,1,0,0:0:0:0:
64,192,157443,1,2,0:0:0:0:
192,192,157443,1,0,0:0:0:0:
448,192,157443,1,0,0:0:0:0:
64,192,157601,1,8,0:0:0:0:
192,192,157601,1,0,0:0:0:0:
320,192,157758,1,8,0:0:0:0:
448,192,157758,1,0,0:0:0:0:
64,192,157916,1,2,0:0:0:0:
320,192,157916,1,0,0:0:0:0:
448,192,157916,1,0,0:0:0:0:
64,192,158074,128,0,158390:0:0:0:0:
192,192,158074,1,0,0:0:0:0:
320,192,158390,1,8,0:0:0:0:
448,192,158390,1,0,0:0:0:0:
320,192,158548,1,8,0:0:0:0:
448,192,158548,1,0,0:0:0:0:
64,192,158706,1,2,0:0:0:0:
192,192,158706,1,0,0:0:0:0:
448,192,158706,1,0,0:0:0:0:
64,192,158864,1,8,0:0:0:0:
192,192,158864,1,0,0:0:0:0:
320,192,159022,1,8,0:0:0:0:
448,192,159022,1,0,0:0:0:0:
64,192,159180,1,2,0:0:0:0:
320,192,159180,1,0,0:0:0:0:
448,192,159180,1,0,0:0:0:0:
64,192,159337,128,8,159653:0:0:0:0:
192,192,159337,1,0,0:0:0:0:
320,192,159653,1,8,0:0:0:0:
448,192,159653,1,0,0:0:0:0:
320,192,159811,1,8,0:0:0:0:
448,192,159811,1,0,0:0:0:0:
64,192,159969,1,2,0:0:0:0:
192,192,159969,1,0,0:0:0:0:
448,192,159969,1,0,0:0:0:0:
192,192,160127,1,8,0:0:0:0:
320,192,160127,1,0,0:0:0:0:
192,192,160285,1,8,0:0:0:0:
320,192,160285,1,0,0:0:0:0:
64,192,160443,1,2,0:0:0:0:
320,192,160443,1,0,0:0:0:0:
448,192,160443,1,0,0:0:0:0:
64,192,160601,128,0,160916:0:0:0:0:
192,192,160601,1,0,0:0:0:0:
320,192,160916,1,8,0:0:0:0:
448,192,160916,1,0,0:0:0:0:
192,192,161074,1,8,0:0:0:0:
320,192,161074,1,0,0:0:0:0:
64,192,161232,1,2,0:0:0:0:
192,192,161232,1,0,0:0:0:0:
448,192,161232,1,0,0:0:0:0:
192,192,161390,1,8,0:0:0:0:
320,192,161390,1,0,0:0:0:0:
64,192,161548,1,2,0:0:0:0:
320,192,161548,1,0,0:0:0:0:
448,192,161548,1,0,0:0:0:0:
64,192,161706,1,2,0:0:0:0:
320,192,161706,1,0,0:0:0:0:
448,192,161706,1,0,0:0:0:0:
64,192,161864,1,4,0:0:0:0:
192,192,161864,128,8,162495:0:0:0:0:
448,192,161864,1,0,0:0:0:0:
64,192,162180,1,2,0:0:0:0:
320,192,162180,1,0,0:0:0:0:
448,192,162180,1,0,0:0:0:0:
320,192,162495,1,0,0:0:0:0:
64,192,162653,1,8,0:0:0:0:
192,192,162653,1,0,0:0:0:0:
64,192,162811,1,2,0:0:0:0:
320,192,162811,128,0,165337:0:0:0:0:
448,192,162811,1,0,0:0:0:0:
64,192,162969,1,8,0:0:0:0:
192,192,162969,1,0,0:0:0:0:
192,192,163285,1,8,0:0:0:0:
448,192,163285,1,0,0:0:0:0:
64,192,163443,1,2,0:0:0:0:
192,192,163443,1,0,0:0:0:0:
448,192,163443,1,0,0:0:0:0:
448,192,163758,1,0,0:0:0:0:
64,192,163916,1,8,0:0:0:0:
192,192,163916,1,0,0:0:0:0:
64,192,164074,1,2,0:0:0:0:
192,192,164074,1,0,0:0:0:0:
448,192,164074,1,0,0:0:0:0:
64,192,164390,1,8,0:0:0:0:
448,192,164390,1,0,0:0:0:0:
64,192,164706,1,2,0:0:0:0:
192,192,164706,1,0,0:0:0:0:
448,192,164706,1,0,0:0:0:0:
192,192,165022,1,0,0:0:0:0:
64,192,165180,1,8,0:0:0:0:
448,192,165180,1,0,0:0:0:0:
64,192,165337,1,2,0:0:0:0:
192,192,165337,1,0,0:0:0:0:
448,192,165337,1,0,0:0:0:0:
192,192,165495,1,8,0:0:0:0:
320,192,165495,1,0,0:0:0:0:
320,192,165811,1,8,0:0:0:0:
448,192,165811,1,0,0:0:0:0:
64,192,165969,128,2,166285:0:0:0:0:
192,192,165969,1,0,0:0:0:0:
448,192,165969,1,0,0:0:0:0:
320,192,166285,128,0,166601:0:0:0:0:
64,192,166443,1,8,0:0:0:0:
448,192,166443,1,0,0:0:0:0:
64,192,166601,128,2,166916:0:0:0:0:
192,192,166601,1,0,0:0:0:0:
448,192,166601,1,0,0:0:0:0:
192,192,166916,1,8,0:0:0:0:
320,192,166916,1,4,0:0:0:0:
448,192,166916,128,0,167548:0:0:0:0:
64,192,167232,1,2,0:0:0:0:
192,192,167232,1,0,0:0:0:0:
320,192,167232,1,0,0:0:0:0:
192,192,167548,1,0,0:0:0:0:
320,192,167706,1,8,0:0:0:0:
448,192,167706,1,0,0:0:0:0:
64,192,167864,128,2,170390:0:0:0:0:
192,192,167864,1,0,0:0:0:0:
448,192,167864,1,0,0:0:0:0:
192,192,168022,1,8,0:0:0:0:
320,192,168022,1,0,0:0:0:0:
320,192,168337,1,8,0:0:0:0:
448,192,168337,1,0,0:0:0:0:
192,192,168495,1,2,0:0:0:0:
320,192,168495,1,0,0:0:0:0:
448,192,168495,1,0,0:0:0:0:
448,192,168811,1,0,0:0:0:0:
192,192,168969,1,8,0:0:0:0:
320,192,168969,1,0,0:0:0:0:
192,192,169127,1,2,0:0:0:0:
320,192,169127,1,0,0:0:0:0:
448,192,169127,1,0,0:0:0:0:
192,192,169443,1,8,0:0:0:0:
320,192,169443,1,4,0:0:0:0:
448,192,169443,1,0,0:0:0:0:
192,192,169758,1,8,0:0:0:0:
320,192,169758,1,0,0:0:0:0:
192,192,169916,1,2,0:0:0:0:
448,192,169916,1,0,0:0:0:0:
320,192,170232,1,8,0:0:0:0:
448,192,170232,1,0,0:0:0:0:
192,192,170390,1,2,0:0:0:0:
320,192,170390,1,0,0:0:0:0:
64,192,170548,1,8,0:0:0:0:
192,192,170548,1,4,0:0:0:0:
448,192,170548,1,0,0:0:0:0:
320,192,170864,1,8,0:0:0:0:
448,192,170864,1,0,0:0:0:0:
64,192,171022,1,2,0:0:0:0:
192,192,171022,1,0,0:0:0:0:
320,192,171022,1,0,0:0:0:0:
320,192,171180,1,8,0:0:0:0:
448,192,171180,1,0,0:0:0:0:
64,192,171337,1,2,0:0:0:0:
192,192,171337,1,0,0:0:0:0:
448,192,171337,1,0,0:0:0:0:
64,192,171495,128,0,171653:0:0:0:45:Tom_A.wav
320,192,171495,1,0,0:0:0:0:
192,192,171653,128,0,171811:0:0:0:60:Tom_B.wav
448,192,171653,1,0,0:0:0:0:
64,192,171811,1,0,0:0:0:60:Tom_C.wav
320,192,171811,128,0,171969:0:0:0:0:
64,192,171969,1,4,0:0:0:0:
192,192,171969,1,8,0:0:0:0:
448,192,171969,128,0,172285:0:0:0:0:
64,192,172285,128,0,172601:0:0:0:0:
192,192,172443,1,8,0:0:0:0:
448,192,172443,1,0,0:0:0:0:
192,192,172601,1,2,0:0:0:0:
320,192,172601,1,0,0:0:0:0:
448,192,172601,128,0,172916:0:0:0:0:
64,192,172758,1,8,0:0:0:0:
320,192,172758,1,0,0:0:0:0:
64,192,172916,128,0,173232:0:0:0:0:
192,192,173232,1,8,0:0:0:0:
448,192,173232,128,0,173548:0:0:0:0:
64,192,173390,1,2,0:0:0:0:
192,192,173390,1,0,0:0:0:0:
320,192,173390,1,0,0:0:0:0:
320,192,173548,1,0,0:0:0:0:
64,192,173706,128,8,174022:0:0:0:0:
448,192,173706,1,0,0:0:0:0:
192,192,173864,1,2,0:0:0:0:
320,192,173864,1,0,0:0:0:0:
448,192,173864,1,0,0:0:0:0:
192,192,174022,1,8,0:0:0:0:
320,192,174022,1,0,0:0:0:0:
192,192,174180,128,0,174495:0:0:0:0:
64,192,174337,1,8,0:0:0:0:
448,192,174337,1,0,0:0:0:0:
320,192,174495,1,8,0:0:0:0:
448,192,174495,1,0,0:0:0:0:
192,192,174653,1,8,0:0:0:0:
320,192,174653,1,0,0:0:0:0:
64,192,174811,1,2,0:0:0:0:
192,192,174811,1,0,0:0:0:0:
448,192,174811,1,0,0:0:0:0:
320,192,174969,1,8,0:0:0:0:
448,192,174969,1,0,0:0:0:0:
64,192,175127,1,2,0:0:0:0:
192,192,175127,1,0,0:0:0:0:
320,192,175127,1,0,0:0:0:0:
192,192,175285,1,8,0:0:0:0:
448,192,175285,1,0,0:0:0:0:
64,192,175443,1,2,0:0:0:0:
192,192,175443,1,0,0:0:0:0:
320,192,175443,1,0,0:0:0:0:
64,192,175601,1,8,0:0:0:0:
448,192,175601,1,0,0:0:0:0:
192,192,175758,1,2,0:0:0:0:
320,192,175758,1,0,0:0:0:0:
448,192,175758,1,0,0:0:0:0:
64,192,175916,1,8,0:0:0:0:
320,192,175916,1,0,0:0:0:0:
192,192,176074,1,2,0:0:0:0:
320,192,176074,1,0,0:0:0:0:
448,192,176074,1,0,0:0:0:0:
64,192,176232,1,8,0:0:0:0:
192,192,176232,1,0,0:0:0:0:
64,192,176390,1,2,0:0:0:0:
320,192,176390,1,0,0:0:0:0:
448,192,176390,1,0,0:0:0:0:
192,192,176548,1,8,0:0:0:0:
448,192,176548,1,0,0:0:0:0:
64,192,176706,1,2,0:0:0:0:
320,192,176706,1,0,0:0:0:0:
448,192,176706,1,0,0:0:0:0:
192,192,176864,1,8,0:0:0:0:
320,192,176864,1,0,0:0:0:0:
64,192,177022,128,2,177101:0:0:0:0:
192,192,177022,128,0,177101:0:0:0:0:
448,192,177022,1,0,0:0:0:0:
192,192,177180,128,0,177258:0:0:0:0:
320,192,177180,128,0,177258:0:0:0:0:
320,192,177337,128,0,177416:0:0:0:0:
448,192,177337,128,0,177416:0:0:0:0:
64,192,177495,128,2,177574:0:0:0:0:
192,192,177495,128,0,177574:0:0:0:0:
448,192,177495,1,0,0:0:0:0:
192,192,177653,128,0,177732:0:0:0:0:
320,192,177653,128,0,177732:0:0:0:0:
320,192,177811,128,0,177890:0:0:0:0:
448,192,177811,128,0,177890:0:0:0:0:
64,192,177969,128,2,178127:0:0:0:0:
192,192,177969,128,0,178127:0:0:0:0:
448,192,177969,1,0,0:0:0:0:
320,192,178127,128,0,178285:0:0:0:0:
64,192,178285,128,2,179074:0:0:0:0:
192,192,178285,128,0,179074:0:0:0:0:
448,192,178285,128,0,178601:0:0:0:0:
448,192,178916,128,0,179390:0:0:0:0:
320,192,179074,128,0,179390:0:0:0:0:
192,192,179232,128,0,179390:0:0:0:0:
64,192,179390,128,0,179548:0:0:0:0:
320,192,179548,1,0,0:0:0:0:
448,192,179548,1,0,0:0:0:0:
64,192,179864,128,4,180180:0:0:0:0:
192,192,179864,128,8,180180:0:0:0:0:
320,192,179864,128,2,180180:0:0:0:0:
448,192,179864,128,0,180180:0:0:0:40:Tom_A.wav
64,192,180495,128,2,180811:0:0:0:0:
192,192,180495,128,8,180811:0:0:0:0:
320,192,180495,128,4,180811:0:0:0:0:
448,192,180495,128,0,180811:0:0:0:40:Tom_A.wav
64,192,181127,128,4,181443:0:0:0:0:
192,192,181127,128,8,181443:0:0:0:0:
320,192,181127,128,2,181443:0:0:0:0:
448,192,181127,128,0,181443:0:0:0:40:Tom_A.wav
64,192,181758,128,2,182074:0:0:0:0:
192,192,181758,128,8,182074:0:0:0:0:
320,192,181758,128,4,182074:0:0:0:0:
448,192,181758,128,0,182074:0:0:0:40:Tom_A.wav
64,192,182390,128,4,182706:0:0:0:0:
192,192,182390,128,8,182706:0:0:0:0:
320,192,182390,128,2,182706:0:0:0:0:
448,192,182390,128,0,182706:0:0:0:40:Tom_A.wav
64,192,183022,128,2,183337:0:0:0:0:
192,192,183022,128,8,183337:0:0:0:0:
320,192,183022,128,4,183180:0:0:0:0:
448,192,183022,128,0,183180:0:0:0:40:Tom_A.wav
320,192,183337,128,4,183416:0:0:0:0:
448,192,183337,1,8,0:0:0:0:
320,192,183495,128,0,183574:0:0:0:0:
64,192,183653,1,2,0:0:0:0:
192,192,183653,128,0,183732:0:0:0:0:
448,192,183653,1,0,0:0:0:0:
192,192,183811,128,0,183890:0:0:0:0:
320,192,183969,128,0,184048:0:0:0:0:
320,192,184127,128,0,184206:0:0:0:0:
64,192,184285,1,0,0:0:0:0:
192,192,184285,128,0,184601:0:0:0:0:
320,192,184443,128,0,184601:0:0:0:0:
64,192,184601,1,8,0:0:0:0:
448,192,184601,128,0,184916:0:0:0:0:
64,192,184916,128,2,185390:0:0:0:0:
320,192,184916,1,0,0:0:0:0:
192,192,185074,128,0,185390:0:0:0:0:
448,192,185074,1,0,0:0:0:0:
448,192,185232,1,0,0:0:0:0:
320,192,185390,128,0,185548:0:0:0:0:
64,192,185548,1,2,0:0:0:0:
192,192,185548,1,0,0:0:0:0:
448,192,185548,1,0,0:0:0:0:
64,192,185706,128,0,186022:0:0:0:0:
192,192,185864,1,8,0:0:0:0:
448,192,185864,1,0,0:0:0:0:
320,192,186022,128,0,186101:0:0:0:0:
64,192,186180,128,2,186258:0:0:0:0:
192,192,186180,1,0,0:0:0:0:
448,192,186180,128,0,186495:0:0:0:0:
320,192,186337,128,0,186416:0:0:0:0:
64,192,186495,128,0,186574:0:0:0:0:
192,192,186495,128,0,186811:0:0:0:0:
320,192,186653,128,0,186811:0:0:0:0:
64,192,186811,1,2,0:0:0:0:
448,192,186811,1,0,0:0:0:0:
192,192,186969,1,0,0:0:0:0:
320,192,186969,1,0,0:0:0:0:
64,192,187127,1,8,0:0:0:0:
320,192,187127,1,0,0:0:0:0:
448,192,187127,1,0,0:0:0:0:
192,192,187206,1,8,0:0:0:0:
64,192,187285,1,8,0:0:0:0:
448,192,187285,1,0,0:0:0:0:
192,192,187443,1,0,0:0:0:45:Tom_A.wav
320,192,187443,1,0,0:0:0:0:
64,192,187601,128,4,187758:0:0:0:0:
192,192,187601,128,2,187758:0:0:0:0:
320,192,187601,128,0,187758:0:0:0:0:
448,192,187601,128,0,187758:0:0:0:0:
320,192,187916,1,8,0:0:0:0:
448,192,187916,1,0,0:0:0:0:
64,192,188074,1,2,0:0:0:0:
192,192,188074,1,0,0:0:0:0:
448,192,188074,1,0,0:0:0:0:
64,192,188232,128,4,188548:0:0:0:0:
192,192,188232,128,2,188548:0:0:0:0:
320,192,188232,128,0,188390:0:0:0:0:
448,192,188232,128,0,188390:0:0:0:0:
320,192,188548,1,8,0:0:0:0:
448,192,188548,1,0,0:0:0:0:
64,192,188706,1,2,0:0:0:0:
192,192,188706,1,0,0:0:0:0:
448,192,188706,1,0,0:0:0:0:
320,192,188864,1,8,0:0:0:0:
448,192,188864,1,0,0:0:0:0:
64,192,189022,1,2,0:0:0:0:
192,192,189022,1,0,0:0:0:0:
320,192,189022,128,0,189337:0:0:0:0:
448,192,189180,128,0,189337:0:0:0:0:
64,192,189337,1,0,0:0:0:0:
192,192,189337,128,0,189495:0:0:0:0:
320,192,189495,128,0,189653:0:0:0:0:
64,192,189653,128,4,189969:0:0:0:0:
192,192,189653,1,0,0:0:0:0:
448,192,189653,1,0,0:0:0:0:
192,192,189969,1,2,0:0:0:0:
320,192,189969,1,0,0:0:0:0:
448,192,189969,1,0,0:0:0:0:
192,192,190127,1,8,0:0:0:0:
448,192,190127,1,0,0:0:0:0:
64,192,190285,1,2,0:0:0:0:
320,192,190285,1,0,0:0:0:0:
448,192,190285,1,0,0:0:0:0:
64,192,190443,1,8,0:0:0:0:
320,192,190443,1,0,0:0:0:0:
64,192,190601,1,2,0:0:0:0:
192,192,190601,1,0,0:0:0:0:
320,192,190601,1,0,0:0:0:0:
192,192,190758,1,8,0:0:0:0:
320,192,190758,1,0,0:0:0:0:
64,192,190916,1,2,0:0:0:0:
192,192,190916,128,0,191232:0:0:0:0:
448,192,190916,1,0,0:0:0:0:
64,192,191232,1,2,0:0:0:0:
320,192,191232,1,0,0:0:0:0:
448,192,191232,1,0,0:0:0:0:
320,192,191390,1,8,0:0:0:0:
448,192,191390,1,0,0:0:0:0:
64,192,191548,1,2,0:0:0:0:
192,192,191548,1,0,0:0:0:0:
448,192,191548,1,0,0:0:0:0:
64,192,191706,1,8,0:0:0:0:
448,192,191706,1,0,0:0:0:0:
64,192,191864,1,2,0:0:0:0:
192,192,191864,1,0,0:0:0:0:
320,192,191864,1,0,0:0:0:0:
192,192,192022,1,8,0:0:0:0:
320,192,192022,1,0,0:0:0:0:
64,192,192180,1,2,0:0:0:0:
192,192,192180,1,0,0:0:0:0:
448,192,192180,128,0,192495:0:0:0:0:
64,192,192495,1,2,0:0:0:0:
192,192,192495,1,0,0:0:0:0:
320,192,192495,1,0,0:0:0:0:
64,192,192653,1,8,0:0:0:0:
320,192,192653,1,0,0:0:0:0:
64,192,192811,1,2,0:0:0:0:
192,192,192811,1,0,0:0:0:0:
448,192,192811,1,0,0:0:0:0:
192,192,192969,1,8,0:0:0:0:
448,192,192969,1,0,0:0:0:0:
192,192,193127,1,2,0:0:0:0:
320,192,193127,1,0,0:0:0:0:
448,192,193127,1,0,0:0:0:0:
192,192,193285,1,8,0:0:0:0:
320,192,193285,1,0,0:0:0:0:
64,192,193443,1,2,0:0:0:0:
320,192,193443,128,0,193758:0:0:0:0:
448,192,193443,1,0,0:0:0:0:
64,192,193758,1,2,0:0:0:0:
192,192,193758,1,0,0:0:0:0:
448,192,193758,1,0,0:0:0:0:
64,192,193916,1,8,0:0:0:0:
192,192,193916,1,0,0:0:0:0:
64,192,194074,1,2,0:0:0:0:
320,192,194074,1,0,0:0:0:0:
448,192,194074,1,0,0:0:0:0:
64,192,194232,1,8,0:0:0:0:
448,192,194232,1,0,0:0:0:0:
192,192,194390,1,2,0:0:0:0:
320,192,194390,1,0,0:0:0:0:
448,192,194390,1,0,0:0:0:0:
192,192,194548,1,8,0:0:0:0:
320,192,194548,1,0,0:0:0:0:
64,192,194706,128,2,195022:0:0:0:0:
192,192,194706,128,0,194864:0:0:0:0:
448,192,194706,1,0,0:0:0:0:
192,192,195022,1,2,0:0:0:0:
320,192,195022,1,0,0:0:0:0:
448,192,195022,128,0,195337:0:0:0:0:
320,192,195180,128,8,195337:0:0:0:0:
64,192,195337,1,2,0:0:0:0:
192,192,195337,1,0,0:0:0:0:
64,192,195495,128,8,195811:0:0:0:0:
320,192,195495,1,0,0:0:0:0:
192,192,195653,1,2,0:0:0:0:
320,192,195653,1,0,0:0:0:0:
448,192,195653,1,0,0:0:0:0:
448,192,195811,128,8,196285:0:0:0:0:
64,192,195969,1,4,0:0:0:0:
192,192,195969,1,2,0:0:0:0:
320,192,195969,1,0,0:0:0:0:
64,192,196285,128,0,196443:0:0:0:0:
192,192,196443,1,8,0:0:0:0:
448,192,196443,1,0,0:0:0:0:
320,192,196522,1,8,0:0:0:0:
64,192,196601,1,8,0:0:0:0:
192,192,196601,128,0,196758:0:0:0:0:
320,192,196758,1,0,0:0:0:45:Tom_A.wav
448,192,196758,128,0,196916:0:0:0:0:
64,192,196916,128,0,197074:0:0:0:60:Tom_B.wav
192,192,196916,1,0,0:0:0:0:
320,192,197074,128,0,197232:0:0:0:60:Tom_C.wav
448,192,197074,1,0,0:0:0:0:
64,192,197232,128,4,197706:0:0:0:0:
192,192,197232,128,0,197706:0:0:0:0:
448,192,197232,1,0,0:0:0:0:
320,192,197390,1,0,0:0:0:0:
320,192,197548,1,0,0:0:0:0:
448,192,197706,1,0,0:0:0:0:
64,192,197864,1,2,0:0:0:0:
320,192,197864,1,0,0:0:0:0:
448,192,197864,1,0,0:0:0:0:
192,192,198022,1,8,0:0:0:0:
320,192,198022,1,0,0:0:0:0:
64,192,198180,1,8,0:0:0:0:
192,192,198180,1,0,0:0:0:0:
64,192,198337,1,2,0:0:0:0:
320,192,198337,128,0,198653:0:0:0:0:
448,192,198337,128,0,198653:0:0:0:0:
64,192,198653,1,8,0:0:0:0:
192,192,198653,1,0,0:0:0:0:
192,192,198811,1,8,0:0:0:0:
320,192,198811,1,0,0:0:0:0:
320,192,198969,1,8,0:0:0:0:
448,192,198969,1,0,0:0:0:0:
64,192,199127,128,2,199443:0:0:0:0:
192,192,199127,128,0,199443:0:0:0:0:
448,192,199127,1,0,0:0:0:0:
320,192,199285,1,8,0:0:0:0:
320,192,199443,1,8,0:0:0:0:
64,192,199601,1,2,0:0:0:0:
192,192,199601,1,0,0:0:0:0:
448,192,199601,1,0,0:0:0:0:
192,192,199758,1,8,0:0:0:0:
320,192,199758,128,0,200232:0:0:0:0:
448,192,199758,128,0,200232:0:0:0:0:
192,192,199916,1,8,0:0:0:0:
192,192,200074,1,8,0:0:0:0:
64,192,200232,1,0,0:0:0:0:
64,192,200390,1,2,0:0:0:0:
192,192,200390,1,0,0:0:0:0:
448,192,200390,1,0,0:0:0:0:
192,192,200548,1,8,0:0:0:0:
320,192,200548,1,0,0:0:0:0:
320,192,200706,1,8,0:0:0:0:
448,192,200706,1,0,0:0:0:0:
64,192,200864,128,2,201180:0:0:0:0:
192,192,200864,128,0,201180:0:0:0:0:
448,192,200864,1,0,0:0:0:0:
320,192,201180,1,8,0:0:0:0:
448,192,201180,1,0,0:0:0:0:
192,192,201337,1,8,0:0:0:0:
320,192,201337,1,0,0:0:0:0:
64,192,201495,1,8,0:0:0:0:
192,192,201495,1,0,0:0:0:0:
64,192,201653,1,2,0:0:0:0:
320,192,201653,128,0,201969:0:0:0:0:
448,192,201653,128,0,201969:0:0:0:0:
192,192,201811,1,8,0:0:0:0:
192,192,201969,1,8,0:0:0:0:
64,192,202127,1,2,0:0:0:0:
320,192,202127,1,0,0:0:0:0:
448,192,202127,1,0,0:0:0:0:
64,192,202285,128,8,202758:0:0:0:0:
192,192,202285,128,0,202758:0:0:0:0:
448,192,202285,1,0,0:0:0:0:
448,192,202443,1,8,0:0:0:0:
448,192,202601,1,8,0:0:0:0:
320,192,202758,1,0,0:0:0:0:
64,192,202916,1,2,0:0:0:0:
320,192,202916,1,0,0:0:0:0:
448,192,202916,1,0,0:0:0:0:
192,192,203074,1,8,0:0:0:0:
448,192,203074,1,0,0:0:0:0:
64,192,203232,1,8,0:0:0:0:
192,192,203232,1,0,0:0:0:0:
64,192,203390,1,2,0:0:0:0:
320,192,203390,128,0,203706:0:0:0:0:
448,192,203390,128,0,203706:0:0:0:0:
64,192,203706,1,8,0:0:0:0:
192,192,203706,1,0,0:0:0:0:
192,192,203864,1,8,0:0:0:0:
448,192,203864,1,0,0:0:0:0:
320,192,204022,1,8,0:0:0:0:
448,192,204022,1,0,0:0:0:0:
64,192,204180,128,2,204495:0:0:0:0:
192,192,204180,128,0,204495:0:0:0:0:
320,192,204180,1,0,0:0:0:0:
448,192,204337,1,8,0:0:0:0:
448,192,204495,1,8,0:0:0:0:
64,192,204653,1,2,0:0:0:0:
192,192,204653,1,0,0:0:0:0:
320,192,204653,1,0,0:0:0:0:
64,192,204811,1,8,0:0:0:0:
320,192,204811,128,0,205285:0:0:0:0:
448,192,204811,128,0,205285:0:0:0:0:
64,192,204969,1,8,0:0:0:0:
64,192,205127,1,8,0:0:0:0:
192,192,205285,1,0,0:0:0:0:
64,192,205443,1,2,0:0:0:0:
192,192,205443,1,0,0:0:0:0:
448,192,205443,1,0,0:0:0:0:
64,192,205601,1,8,0:0:0:0:
320,192,205601,1,0,0:0:0:0:
320,192,205758,1,8,0:0:0:0:
448,192,205758,1,0,0:0:0:0:
64,192,205916,128,2,206232:0:0:0:0:
192,192,205916,128,0,206232:0:0:0:0:
448,192,205916,1,0,0:0:0:0:
320,192,206232,1,8,0:0:0:0:
448,192,206232,1,0,0:0:0:0:
64,192,206390,1,2,0:0:0:0:
192,192,206390,1,0,0:0:0:0:
448,192,206390,1,0,0:0:0:0:
320,192,206548,1,8,0:0:0:0:
448,192,206548,1,0,0:0:0:0:
64,192,206706,1,2,0:0:0:0:
192,192,206706,1,0,0:0:0:0:
320,192,206706,1,0,0:0:0:0:
64,192,206864,1,2,0:0:0:0:
192,192,206864,1,0,0:0:0:0:
448,192,206864,1,0,0:0:0:0:
64,192,207022,1,2,0:0:0:0:
320,192,207022,1,0,0:0:0:0:
448,192,207022,1,0,0:0:0:0:
192,192,207180,1,2,0:0:0:0:
320,192,207180,1,0,0:0:0:0:
448,192,207180,1,0,0:0:0:0:
64,192,207337,128,4,212390:0:0:0:0:
192,192,207337,128,2,212285:0:0:0:0:
320,192,207337,128,0,212180:0:0:0:0:
