osu file format v14

[General]
AudioFilename: audio.mp3
AudioLeadIn: 0
PreviewTime: 178760
Countdown: 0
SampleSet: Soft
StackLeniency: 0.7
Mode: 0
LetterboxInBreaks: 0
WidescreenStoryboard: 0

[Editor]
DistanceSpacing: 1.5
BeatDivisor: 4
GridSize: 8
TimelineZoom: 2.1

[Metadata]
Title:Reloaded
TitleUnicode:Reloaded
Artist:nonoc
ArtistUnicode:nonoc
Creator:SpokenAway
Version:Lost in Memories
Source:Re:ゼロから始める異世界生活 Lost in Memories
Tags:re:zero rock jrock j-rock kara hajimeru isekai seikatsu starting life in a different world from zero japanese anime game SEGA video game rezero
BeatmapID:2715288
BeatmapSetID:1309794

[Difficulty]
HPDrainRate:6
CircleSize:4
OverallDifficulty:9
ApproachRate:9.3
SliderMultiplier:1.75
SliderTickRate:1

[Events]
//Background and Video events
0,0,"bg.png",0,0
//Break Periods
//Storyboard Layer 0 (Background)
//Storyboard Layer 1 (Fail)
//Storyboard Layer 2 (Pass)
//Storyboard Layer 3 (Foreground)
//Storyboard Layer 4 (Overlay)
//Storyboard Sound Samples

[TimingPoints]
125,315.789473684211,4,2,1,80,1,0
125,-166.666666666667,4,2,1,40,0,0
10230,-100,4,2,1,70,0,0
20335,-133.333333333333,4,2,1,50,0,0
25388,-125,4,2,1,55,0,0
35493,-111.111111111111,4,2,1,65,0,0
45598,-133.333333333333,4,2,1,50,0,0
53177,-100,4,2,1,70,0,0
55703,-83.3333333333333,4,2,1,85,0,1
72125,-133.333333333333,4,2,1,50,0,0
73388,-90.9090909090909,4,2,1,80,0,0
74730,-90.9090909090909,4,2,1,5,0,0
74809,-90.9090909090909,4,2,1,80,0,0
83493,-125,4,2,1,55,0,0
85940,-125,4,2,1,5,0,0
86019,-125,4,2,1,50,0,0
93519,-125,4,2,1,5,0,0
93598,-111.111111111111,4,2,1,60,0,0
103703,-133.333333333333,4,2,1,50,0,0
108756,-111.111111111111,4,2,1,60,0,0
113809,-133.333333333333,4,2,1,50,0,0
118782,-133.333333333333,4,2,1,5,0,0
118861,-100,4,2,1,70,0,0
123914,-83.3333333333333,4,2,1,85,0,1
140335,-133.333333333333,4,2,1,50,0,0
141598,-125,4,2,1,55,0,0
144046,-125,4,2,1,5,0,0
144125,-125,4,2,1,55,0,0
151703,-111.111111111111,4,2,1,60,0,0
161809,-90.9090909090909,4,2,1,80,0,0
167098,-90.9090909090909,4,2,1,5,0,0
167177,-90.9090909090909,4,2,1,80,0,0
171914,-111.111111111111,4,2,1,70,0,0
174440,-83.3333333333333,4,2,1,85,0,0
179493,-99.9999999999999,4,2,1,70,0,0
179888,-99.9999999999999,4,2,1,5,0,0
180440,-99.9999999999999,4,2,1,70,0,0
180519,-99.9999999999999,4,2,1,5,0,0
181072,-99.9999999999999,4,2,1,70,0,0
181151,-99.9999999999999,4,2,1,5,0,0
181703,-99.9999999999999,4,2,1,70,0,0
181782,-99.9999999999999,4,2,1,5,0,0
182335,-99.9999999999999,4,2,1,70,0,0
182414,-99.9999999999999,4,2,1,5,0,0
182967,-99.9999999999999,4,2,1,70,0,0
183046,-99.9999999999999,4,2,1,5,0,0
183282,-99.9999999999999,4,2,1,70,0,0
189598,-83.3333333333333,4,2,1,85,0,1
195914,-133.333333333333,4,2,1,50,0,0
197177,-111.111111111111,4,2,1,60,0,0
207282,-249.999999999999,4,2,1,50,0,0
207361,-249.999999999999,4,2,1,5,0,0

[Colours]
Combo1 : 11,88,193
Combo2 : 201,192,24
Combo3 : 138,69,0
Combo4 : 116,137,148

[HitObjects]
31,33,125,6,0,P|52:136|68:247,1,209.999993591309,6|2,3:2|3:2,0:0:0:0:
25,354,1388,6,0,P|89:361|133:325,2,104.999996795654,10|2|2,0:0|0:0|0:0,0:0:0:0:
202,226,2651,6,0,L|229:106,2,104.999996795654,2|2|2,3:2|3:2|3:2,0:0:0:0:
295,359,3914,6,0,B|348:338|348:338|412:351,2,104.999996795654,2|2|2,3:2|3:2|3:2,0:0:0:0:
512,225,5177,6,0,P|452:234|377:120,1,209.999993591309,2|2,3:2|3:2,0:0:0:0:
510,45,6440,6,0,P|461:33|396:21,2,104.999996795654,10|2|2,0:0|0:0|0:0,0:0:0:0:
256,192,7703,12,0,9914,0:0:0:0:
73,122,10230,6,0,P|65:77|55:26,1,87.5,6|0,3:1|0:0,0:0:0:0:
224,141,10546,1,10,0:0:0:0:
86,257,10703,2,0,P|41:249|-10:239,1,87.5,2|8,3:2|0:0,0:0:0:0:
224,141,11019,1,2,3:2:0:0:
77,31,11177,1,10,0:0:0:0:
217,237,11336,6,0,P|289:230|307:118,1,175,2|2,3:2|3:2,0:0:0:0:
486,242,11809,1,10,0:0:0:0:
341,359,11967,2,0,P|260:342|168:324,1,175,2|0,3:2|3:2,0:0:0:0:
45,170,12440,1,10,0:0:0:0:
220,232,12598,1,2,3:2:0:0:
45,371,12756,6,0,P|37:326|27:275,1,87.5,14|0,0:0|0:0,0:0:0:0:
170,157,13072,1,10,0:0:0:0:
35,44,13230,2,0,P|27:89|17:140,1,87.5,0|10,3:2|0:0,0:0:0:0:
222,87,13546,1,0,3:2:0:0:
122,229,13704,1,10,0:0:0:0:
132,26,13862,6,0,B|215:4|215:4|267:5|310:49,1,175,6|2,3:2|3:2,0:0:0:0:
396,196,14336,1,8,0:0:0:0:
196,166,14494,1,2,3:2:0:0:
298,344,14652,2,0,P|306:299|316:248,1,87.5,10|0,0:0|3:2,0:0:0:0:
483,127,14967,2,0,P|492:174|501:223,1,87.5,8|0,0:0|3:2,0:0:0:0:
332,109,15283,6,0,B|359:67|359:67|345:12,1,87.5,14|0,0:0|0:0,0:0:0:0:
142,102,15599,1,10,0:0:0:0:
314,202,15757,1,2,3:2:0:0:
128,285,15915,2,0,P|81:276|32:267,1,87.5,8|0,0:0|3:2,0:0:0:0:
215,154,16231,1,10,0:0:0:0:
82,14,16388,6,0,P|14:40|27:155,1,175,6|0,3:2|3:2,0:0:0:0:
196,231,16862,1,8,0:0:0:0:
78,92,17020,1,0,3:2:0:0:
85,298,17178,1,8,0:0:0:0:
207,121,17336,1,2,3:2:0:0:
240,344,17494,1,10,0:0:0:0:
72,196,17652,1,2,3:2:0:0:
252,351,17809,6,0,P|299:342|348:333,1,87.5,14|0,0:0|0:0,0:0:0:0:
185,223,18125,1,10,0:0:0:0:
352,137,18283,2,0,P|343:184|334:233,1,87.5,2|8,3:2|0:0,0:0:0:0:
512,144,18599,1,2,3:2:0:0:
357,49,18757,1,10,0:0:0:0:
511,299,18914,6,0,B|459:288|394:274|394:274|338:336,1,175,6|0,3:2|3:2,0:0:0:0:
177,170,19387,1,8,0:0:0:0:
248,373,19545,1,0,3:2:0:0:
362,187,19703,1,8,0:0:0:0:
156,307,19861,1,0,3:2:0:0:
112,312,19939,1,0,3:2:0:0:
71,300,20018,1,0,3:2:0:0:
37,273,20097,1,0,3:2:0:0:
17,234,20176,1,0,3:2:0:0:
13,191,20255,1,0,3:2:0:0:
28,150,20335,6,0,L|110:134,1,65.6250025033952,6|0,3:2|0:0,0:0:0:0:
175,50,20651,2,0,L|92:34,1,65.6250025033952,10|0,0:0|0:0,0:0:0:0:
198,138,20966,1,2,0:0:0:0:
253,14,21125,2,0,L|269:105,1,65.6250025033952,2|8,3:2|0:0,0:0:0:0:
329,162,21440,5,0,0:0:0:0:
329,162,21598,2,0,P|335:127|345:79,1,65.6250025033952,2|0,3:2|0:0,0:0:0:0:
435,41,21914,1,10,0:0:0:0:
435,41,22072,2,0,P|441:75|451:124,1,65.6250025033952,2|0,0:0|0:0,0:0:0:0:
329,162,22387,1,0,3:2:0:0:
465,214,22545,1,8,0:0:0:0:
465,214,22861,6,0,P|430:207|382:198,1,65.6250025033952,2|0,3:2|0:0,0:0:0:0:
343,310,23177,2,0,P|377:303|426:294,1,65.6250025033952,10|0,0:0|0:0,0:0:0:0:
274,230,23493,1,2,0:0:0:0:
251,342,23651,2,0,P|216:335|168:326,1,65.6250025033952,2|10,3:2|0:0,0:0:0:0:
274,230,23966,1,2,1:2:0:0:
135,173,24124,6,0,P|141:206|147:237,1,65.6250025033952,2|0,3:2|0:0,0:0:0:0:
234,97,24440,1,10,0:0:0:0:
91,50,24598,2,0,P|83:87|78:114,1,65.6250025033952,2|0,0:0|0:0,0:0:0:0:
214,174,24914,1,2,3:2:0:0:
85,242,25072,1,10,0:0:0:0:
210,340,25230,1,2,0:0:0:0:
210,340,25308,1,2,0:0:0:0:
210,340,25388,6,0,P|204:307|198:270,1,70,6|0,3:2|0:0,0:0:0:0:
351,218,25703,1,2,3:2:0:0:
211,173,25861,1,2,0:0:0:0:
291,311,26019,2,0,P|324:305|361:299,1,70,2|0,3:2|0:0,0:0:0:0:
465,197,26335,1,2,3:2:0:0:
465,197,26493,1,2,0:0:0:0:
335,134,26651,5,2,3:2:0:0:
471,69,26809,1,2,0:0:0:0:
327,139,26967,1,2,3:2:0:0:
389,11,27124,2,0,P|356:5|319:-1,1,70,2|0,0:0|3:2,0:0:0:0:
167,13,27440,1,2,0:0:0:0:
238,141,27598,2,0,P|244:108|250:71,1,70,2|0,3:2|0:0,0:0:0:0:
109,109,27914,6,0,P|115:142|121:179,1,70,2|0,3:2|0:0,0:0:0:0:
253,248,28230,1,2,3:2:0:0:
253,248,28387,1,2,0:0:0:0:
90,334,28545,2,0,P|96:301|102:264,1,70,2|2,3:2|0:0,0:0:0:0:
209,164,28861,1,2,3:2:0:0:
190,346,29019,6,0,B|256:333|256:333|264:334|264:334|327:319,1,140,2|2,0:0|0:0,0:0:0:0:
474,251,29493,1,2,3:2:0:0:
334,203,29651,1,2,0:0:0:0:
416,330,29808,1,2,3:2:0:0:
319,195,29966,1,2,0:0:0:0:
470,101,30124,2,0,P|464:134|458:171,1,70,2|2,3:2|0:0,0:0:0:0:
388,40,30440,6,0,P|344:89|256:56,1,140,2|2,3:2|3:2,0:0:0:0:
132,33,30914,1,2,0:0:0:0:
186,159,31072,2,0,P|192:126|198:89,1,70,2|0,3:2|0:0,0:0:0:0:
49,144,31388,2,0,P|55:177|61:214,1,70,2|2,3:2|0:0,0:0:0:0:
203,290,31703,1,2,3:2:0:0:
58,353,31861,1,2,0:0:0:0:
140,224,32019,1,2,3:2:0:0:
243,367,32177,6,0,P|319:351|395:336,1,140,2|2,0:0|0:0,0:0:0:0:
285,233,32651,1,2,3:2:0:0:
285,233,32808,1,2,0:0:0:0:
420,165,32967,2,0,P|414:198|408:235,1,70,2|0,3:2|0:0,0:0:0:0:
493,354,33282,2,0,P|487:317|481:284,1,70,2|2,3:2|0:0,0:0:0:0:
330,362,33598,2,0,P|364:355|398:350,1,70,2|2,3:2|0:0,0:0:0:0:
285,233,33914,1,2,3:2:0:0:
202,359,34072,6,0,P|148:361|104:271,1,140,2|2,0:0|0:0,0:0:0:0:
194,199,34545,2,0,P|187:233|182:267,1,70,2|2,3:2|0:0,0:0:0:0:
61,176,34861,1,2,3:2:0:0:
188,113,35019,1,2,0:0:0:0:
47,18,35177,2,0,P|53:52|58:86,1,70,2|0,3:2|0:0,0:0:0:0:
194,199,35493,6,0,P|234:189|270:180,1,78.7499975967408,4|0,3:2|3:2,0:0:0:0:
381,66,35809,2,0,P|344:56|304:47,1,78.7499975967408,10|0,0:0|3:2,0:0:0:0:
353,192,36125,1,2,1:2:0:0:
463,85,36282,1,2,3:2:0:0:
342,204,36440,1,10,0:0:0:0:
511,283,36598,6,0,B|433:258|433:258|394:263|356:309,1,157.499995193482,2|2,0:0|3:2,0:0:0:0:
212,214,37072,1,8,0:0:0:0:
252,372,37230,2,0,P|261:334|270:295,1,78.7499975967408,2|2,3:2|1:2,0:0:0:0:
127,200,37546,1,2,3:2:0:0:
127,200,37703,1,10,0:0:0:0:
276,144,37861,1,2,0:0:0:0:
171,298,38019,6,0,P|133:289|94:279,1,78.7499975967408,2|0,3:2|3:2,0:0:0:0:
0,143,38335,2,0,P|38:134|76:124,1,78.7499975967408,10|0,0:0|3:2,0:0:0:0:
243,54,38651,1,2,1:2:0:0:
96,12,38808,1,0,3:2:0:0:
161,146,38967,1,10,0:0:0:0:
251,22,39125,6,0,P|291:27|361:43,1,78.7499975967408,0|0,0:0|3:2,0:0:0:0:
484,82,39440,2,0,P|443:87|373:103,1,78.7499975967408,2|10,3:2|0:0,0:0:0:0:
310,280,39756,2,0,P|369:231|335:145,1,157.499995193482,2|0,3:2|3:2,0:0:0:0:
483,267,40230,2,0,P|445:258|406:248,1,78.7499975967408,8|2,0:0|0:0,0:0:0:0:
260,197,40545,1,0,3:2:0:0:
372,329,40703,1,2,3:2:0:0:
204,370,40861,6,0,P|213:334|223:293,1,78.7499975967408,10|0,0:0|3:2,0:0:0:0:
62,199,41177,2,0,P|73:242|81:276,1,78.7499975967408,2|0,1:2|3:2,0:0:0:0:
183,124,41493,1,10,0:0:0:0:
30,58,41651,6,0,P|19:101|11:135,1,78.7499975967408,2|0,0:0|3:2,0:0:0:0:
162,221,41966,1,2,3:2:0:0:
116,65,42124,1,8,0:0:0:0:
333,167,42282,2,0,P|254:149|162:130,1,157.499995193482,2|2,3:2|3:2,0:0:0:0:
323,57,42756,1,8,0:0:0:0:
323,57,42914,1,2,0:0:0:0:
414,205,43072,6,0,P|425:162|433:128,1,78.7499975967408,2|0,3:2|3:2,0:0:0:0:
247,182,43388,2,0,P|258:225|266:259,1,78.7499975967408,10|0,0:0|3:2,0:0:0:0:
450,293,43703,1,2,1:2:0:0:
333,167,43861,1,2,3:2:0:0:
462,302,44019,1,10,0:0:0:0:
290,360,44177,6,0,B|250:331|205:329|205:329|177:358|116:355,1,157.499995193482,2|2,0:0|3:2,0:0:0:0:
15,254,44651,1,8,0:0:0:0:
166,198,44808,1,2,3:2:0:0:
166,198,45124,5,8,3:0:0:0:
107,124,45282,1,8,3:0:0:0:
41,55,45440,1,8,3:0:0:0:
196,11,45598,5,6,3:2:0:0:
272,195,46230,1,0,3:2:0:0:
371,28,46861,1,10,0:0:0:0:
382,57,47177,1,2,0:0:0:0:
392,83,47493,1,2,0:0:0:0:
498,234,48124,5,2,3:2:0:0:
446,158,48441,1,0,3:2:0:0:
392,83,48757,1,2,3:2:0:0:
498,234,49388,5,2,3:2:0:0:
422,286,49704,1,0,3:2:0:0:
347,340,50020,1,2,3:2:0:0:
250,216,50652,5,0,3:2:0:0:
114,356,51283,1,0,3:2:0:0:
114,356,51915,5,2,3:2:0:0:
175,287,52231,1,0,3:2:0:0:
238,220,52546,1,2,3:2:0:0:
304,156,52862,1,2,0:0:0:0:
136,52,53178,5,12,0:0:0:0:
304,156,53336,1,0,3:2:0:0:
130,40,53494,5,8,0:0:0:0:
252,244,53652,1,0,3:2:0:0:
121,23,53809,5,8,0:0:0:0:
168,307,53967,1,0,3:2:0:0:
116,8,54125,5,8,0:0:0:0:
69,336,54283,1,0,3:2:0:0:
333,190,54441,5,8,0:0:0:0:
16,69,54599,1,8,0:0:0:0:
350,195,54757,1,8,0:0:0:0:
350,195,55704,6,0,P|422:165|392:38,1,209.999993591309,6|8,3:1|0:0,0:0:0:0:
179,116,56178,1,2,3:2:0:0:
312,294,56336,2,0,P|364:282|425:269,1,104.999996795654,10|0,0:0|3:2,0:0:0:0:
179,110,56652,1,8,0:0:0:0:
410,50,56809,1,2,3:2:0:0:
212,258,56967,6,0,P|112:237|2:217,1,209.999993591309,10|8,0:0|0:0,0:0:0:0:
263,134,57441,1,2,3:2:0:0:
116,9,57599,2,0,P|50:17|45:145,1,209.999993591309,10|8,0:0|0:0,0:0:0:0:
258,240,58073,1,2,3:2:0:0:
13,350,58231,6,0,P|24:297|37:236,1,104.999996795654,10|0,0:0|0:0,0:0:0:0:
258,240,58546,1,10,0:0:0:0:
98,84,58704,2,0,P|109:136|122:197,1,104.999996795654,2|8,3:2|0:0,0:0:0:0:
348,263,59020,1,2,3:2:0:0:
141,360,59178,1,8,0:0:0:0:
240,143,59336,1,2,3:2:0:0:
317,372,59494,6,0,B|377:382|377:382|422:346,1,104.999996795654,10|0,0:0|3:2,0:0:0:0:
512,149,59809,2,0,B|458:137|458:137|407:175,1,104.999996795654,8|0,0:0|3:2,0:0:0:0:
190,220,60125,1,10,0:0:0:0:
351,76,60283,1,0,3:2:0:0:
145,0,60441,2,0,P|156:52|169:113,1,104.999996795654,10|0,0:0|3:2,0:0:0:0:
325,265,60757,6,0,P|336:213|349:152,1,104.999996795654,14|0,0:0|0:0,0:0:0:0:
111,203,61073,1,10,0:0:0:0:
291,379,61231,2,0,P|239:368|178:355,1,104.999996795654,2|8,3:2|0:0,0:0:0:0:
0,198,61546,2,0,P|52:187|113:174,1,104.999996795654,2|8,3:2|0:0,0:0:0:0:
309,7,61862,6,0,P|273:81|150:32,1,209.999993591309,2|0,3:2|0:0,0:0:0:0:
307,228,62336,2,0,P|296:176|283:115,1,104.999996795654,10|0,0:0|3:2,0:0:0:0:
512,229,62652,1,10,0:0:0:0:
321,348,62809,2,0,P|270:337|219:326,1,104.999996795654,2|8,3:2|0:0,0:0:0:0:
114,177,63125,1,2,0:0:0:0:
0,371,63283,6,0,P|51:360|102:349,1,104.999996795654,2|0,3:2|3:2,0:0:0:0:
242,178,63599,1,10,0:0:0:0:
7,122,63757,2,0,P|17:173|28:224,1,104.999996795654,2|0,3:2|0:0,0:0:0:0:
228,93,64073,1,2,3:2:0:0:
29,20,64231,1,8,0:0:0:0:
152,231,64388,6,0,B|257:209|257:209|315:228|349:281,1,209.999993591309,2|0,3:2|3:2,0:0:0:0:
483,362,64862,2,0,P|493:310|504:259,1,104.999996795654,8|0,0:0|3:2,0:0:0:0:
315,120,65178,1,2,0:0:0:0:
407,318,65336,1,2,3:2:0:0:
512,62,65494,1,10,0:0:0:0:
334,230,65652,1,2,0:0:0:0:
436,6,65809,6,0,B|355:25|355:25|339:26|339:26|202:54,1,209.999993591309,6|8,3:2|0:0,0:0:0:0:
0,176,66283,1,2,3:2:0:0:
245,224,66441,1,10,0:0:0:0:
6,332,66599,1,0,3:2:0:0:
260,221,66757,1,8,0:0:0:0:
57,62,66915,1,2,3:2:0:0:
151,351,67073,6,0,B|215:323|273:322|273:322|304:371|370:366,1,209.999993591309,10|8,0:0|0:0,0:0:0:0:
512,307,67546,1,2,3:2:0:0:
375,195,67704,2,0,B|336:233|336:233|350:281,1,104.999996795654,10|0,0:0|3:2,0:0:0:0:
166,71,68020,1,8,0:0:0:0:
377,0,68178,1,2,3:2:0:0:
185,172,68336,6,0,P|240:161|288:151,1,104.999996795654,10|0,0:0|0:0,0:0:0:0:
493,52,68652,1,10,0:0:0:0:
429,279,68809,2,0,P|418:224|408:176,1,104.999996795654,2|8,3:2|0:0,0:0:0:0:
210,274,69125,2,0,P|198:330|189:377,1,104.999996795654,2|8,3:2|0:0,0:0:0:0:
58,226,69441,1,2,3:2:0:0:
287,151,69599,5,8,0:0:0:0:
63,63,69757,1,0,3:2:0:0:
210,274,69915,1,8,0:0:0:0:
260,45,70073,1,0,3:2:0:0:
58,226,70231,2,0,P|114:214|161:205,1,104.999996795654,10|0,0:0|3:2,0:0:0:0:
357,374,70546,2,0,P|306:363|254:353,1,104.999996795654,10|0,0:0|3:2,0:0:0:0:
395,189,70862,6,0,P|384:240|374:292,1,104.999996795654,10|0,0:0|0:0,0:0:0:0:
199,115,71178,1,10,0:0:0:0:
453,33,71336,2,0,P|464:84|474:136,1,104.999996795654,2|8,3:2|0:0,0:0:0:0:
266,276,71652,2,0,P|276:229|287:173,1,104.999996795654,2|8,3:2|0:0,0:0:0:0:
490,306,71967,1,2,3:2:0:0:
366,104,72125,5,14,0:0:0:0:
298,28,72599,5,8,3:0:0:0:
294,47,72678,1,8,3:0:0:0:
290,66,72757,2,0,P|236:55|202:48,1,65.6250025033952,10|0,3:0|3:2,0:0:0:0:
213,215,73073,2,0,P|266:204|301:197,1,65.6250025033952,2|0,3:2|3:2,0:0:0:0:
62,24,73388,6,0,L|39:131,1,96.250002937317,6|0,3:2|0:0,0:0:0:0:
213,215,73704,1,10,0:0:0:0:
36,326,73862,2,0,L|13:219,1,96.250002937317,2|8,0:0|0:0,0:0:0:0:
213,314,74178,1,2,3:2:0:0:
134,142,74336,1,10,0:0:0:0:
229,336,74494,6,0,P|305:322|394:306,1,144.375004405975,6|0,3:2|0:0,0:0:0:0:
439,353,74809,2,0,B|472:311|472:311|458:248,1,96.250002937317,2|8,3:2|0:0,0:0:0:0:
309,171,75125,2,0,P|350:187|445:86,1,192.500005874634,2|0,3:2|3:2,0:0:0:0:
215,12,75599,1,10,0:0:0:0:
360,105,75757,1,2,3:2:0:0:
162,206,75915,6,0,P|172:160|185:99,1,96.250002937317,14|0,0:0|0:0,0:0:0:0:
305,252,76231,1,8,0:0:0:0:
91,312,76388,1,0,3:2:0:0:
262,167,76546,1,8,0:0:0:0:
38,223,76704,1,0,3:2:0:0:
239,333,76862,1,10,0:0:0:0:
18,118,77020,6,0,B|85:101|146:85|146:85|192:133,1,192.500005874634,6|0,3:2|3:2,0:0:0:0:
434,208,77494,1,8,0:0:0:0:
296,33,77652,1,0,3:2:0:0:
297,265,77809,1,8,0:0:0:0:
448,99,77967,1,0,3:2:0:0:
497,323,78125,2,0,P|451:313|390:300,1,96.250002937317,8|2,0:0|3:2,0:0:0:0:
215,380,78440,6,0,P|205:334|192:273,1,96.250002937317,12|0,0:0|0:0,0:0:0:0:
338,169,78757,1,10,0:0:0:0:
181,51,78915,2,0,P|171:97|158:158,1,96.250002937317,2|8,3:2|0:0,0:0:0:0:
320,280,79231,1,2,3:2:0:0:
255,118,79388,1,10,0:0:0:0:
187,322,79546,6,0,B|101:306|101:306|90:301|90:301|-25:276,1,192.500005874634,6|2,3:2|3:2,0:0:0:0:
173,167,80020,1,8,0:0:0:0:
3,56,80178,2,0,P|13:102|26:163,1,96.250002937317,2|8,3:2|0:0,0:0:0:0:
248,114,80494,1,2,3:2:0:0:
66,0,80652,1,10,0:0:0:0:
100,207,80809,1,2,3:2:0:0:
251,28,80967,6,0,B|313:14|379:0|379:0|429:56,1,192.500005874634,14|10,0:0|0:0,0:0:0:0:
323,191,81441,2,0,P|333:145|346:84,1,96.250002937317,2|8,3:2|0:0,0:0:0:0:
501,222,81757,1,2,3:2:0:0:
309,278,81915,1,10,3:2:0:0:
493,376,82073,5,6,3:2:0:0:
493,376,82388,5,2,3:2:0:0:
414,169,82546,1,8,3:2:0:0:
202,222,82704,5,2,3:2:0:0:
402,369,82861,1,8,3:2:0:0:
313,235,83020,1,10,3:0:0:0:
230,372,83178,2,0,P|184:362|123:349,1,96.250002937317,10|10,3:0|3:0,0:0:0:0:
17,268,83494,6,0,P|53:260|109:247,1,70,2|0,0:0|0:0,0:0:0:0:
166,113,83809,1,2,3:2:0:0:
40,181,83967,1,2,0:0:0:0:
178,266,84125,2,0,P|170:230|157:174,1,70,10|0,0:0|3:2,0:0:0:0:
336,100,84441,1,10,0:0:0:0:
166,19,84599,1,2,3:2:0:0:
245,201,84757,6,0,P|281:193|337:180,1,70,2|2,0:0|3:2,0:0:0:0:
433,111,85073,1,2,0:0:0:0:
507,230,85231,2,0,P|471:222|415:209,1,70,2|0,3:2|0:0,0:0:0:0:
245,201,85546,1,2,3:2:0:0:
362,310,85704,2,0,P|308:326|244:344,1,105,10|0,0:0|0:0,0:0:0:0:
182,360,86020,6,0,P|174:325|166:291,1,70,2|0,3:2|0:0,0:0:0:0:
41,213,86336,2,0,P|33:247|25:281,1,70,2|0,3:2|0:0,0:0:0:0:
245,201,86652,1,10,0:0:0:0:
51,102,86809,1,10,0:0:0:0:
257,27,86967,1,10,0:0:0:0:
156,251,87125,6,0,B|135:180|135:180|148:148|182:119,1,140,2|2,3:2|3:2,0:0:0:0:
346,135,87599,2,0,P|312:127|278:119,1,70,2|2,0:0|3:2,0:0:0:0:
392,24,87915,2,0,P|426:16|460:8,1,70,2|2,0:0|3:2,0:0:0:0:
346,135,88231,1,10,0:0:0:0:
474,249,88388,1,2,3:2:0:0:
332,302,88546,6,0,P|340:268|348:234,1,70,2|0,0:0|0:0,0:0:0:0:
453,96,88862,2,0,P|461:130|469:164,1,70,2|0,3:2|0:0,0:0:0:0:
264,142,89178,1,10,0:0:0:0:
392,24,89336,1,0,3:2:0:0:
392,24,89415,1,2,0:0:0:0:
392,24,89494,1,2,3:2:0:0:
384,176,89652,1,0,3:2:0:0:
270,56,89809,6,0,P|236:64|202:72,1,70,2|2,0:0|3:2,0:0:0:0:
41,96,90125,1,2,0:0:0:0:
166,216,90283,2,0,P|158:182|150:148,1,70,2|0,3:2|0:0,0:0:0:0:
0,297,90599,1,2,3:2:0:0:
199,342,90757,1,10,0:0:0:0:
52,179,90915,1,2,3:2:0:0:
0,384,91073,6,0,P|34:376|68:368,1,70,10|0,0:0|3:2,0:0:0:0:
286,255,91388,5,10,0:0:0:0:
52,179,91546,1,2,3:2:0:0:
199,342,91704,5,10,0:0:0:0:
243,92,91862,1,0,3:2:0:0:
412,347,92020,5,10,0:0:0:0:
348,62,92178,1,2,3:2:0:0:
161,47,93125,6,0,B|234:34|234:34|270:44|270:44|353:25,1,175,2|0,0:0|0:0,0:0:0:0:
356,28,93599,5,6,3:2:0:0:
477,135,93757,1,2,0:0:0:0:
324,201,93915,2,0,P|331:160|343:98,1,78.7499975967408,10|2,0:0|0:0,0:0:0:0:
491,240,94231,2,0,P|441:230|388:220,1,78.7499975967408,2|2,3:2|0:0,0:0:0:0:
239,223,94546,1,10,0:0:0:0:
355,365,94704,6,0,P|365:315|374:262,1,78.7499975967408,2|0,0:0|3:2,0:0:0:0:
198,144,95020,2,0,P|208:194|217:246,1,78.7499975967408,2|8,0:0|0:0,0:0:0:0:
143,370,95336,2,0,P|193:360|245:350,1,78.7499975967408,2|0,0:0|3:2,0:0:0:0:
106,235,95652,1,2,0:0:0:0:
26,373,95809,2,0,P|16:323|6:270,1,78.7499975967408,10|2,0:0|0:0,0:0:0:0:
177,281,96125,5,2,3:2:0:0:
29,201,96283,1,2,0:0:0:0:
184,56,96441,2,0,P|193:98|203:158,1,78.7499975967408,10|0,0:0|0:0,0:0:0:0:
367,165,96757,1,2,3:2:0:0:
313,14,96915,2,0,P|304:56|293:116,1,78.7499975967408,2|10,0:0|0:0,0:0:0:0:
418,254,97231,6,0,P|409:212|398:151,1,78.7499975967408,2|0,0:0|3:2,0:0:0:0:
244,266,97546,2,0,P|286:257|346:246,1,78.7499975967408,2|8,0:0|0:0,0:0:0:0:
475,358,97862,2,0,P|433:349|372:338,1,78.7499975967408,2|0,0:0|3:2,0:0:0:0:
213,374,98178,1,2,0:0:0:0:
321,250,98336,1,10,0:0:0:0:
156,174,98494,2,0,P|165:216|175:276,1,78.7499975967408,2|2,0:0|3:2,0:0:0:0:
12,362,98809,5,2,0:0:0:0:
89,223,98967,1,10,0:0:0:0:
134,374,99125,1,2,0:0:0:0:
0,269,99283,2,0,P|8:230|19:166,1,78.7499975967408,2|2,3:2|0:0,0:0:0:0:
182,98,99599,1,8,0:0:0:0:
43,26,99757,1,2,0:0:0:0:
188,192,99915,6,0,P|196:149|207:89,1,78.7499975967408,2|2,3:2|0:0,0:0:0:0:
383,152,100231,1,8,0:0:0:0:
281,0,100388,2,0,P|289:43|300:102,1,78.7499975967408,2|0,0:0|3:2,0:0:0:0:
468,169,100704,1,2,0:0:0:0:
307,238,100862,1,10,0:0:0:0:
463,343,101020,2,0,P|455:300|443:240,1,78.7499975967408,2|0,0:0|3:2,0:0:0:0:
233,285,101336,5,2,0:0:0:0:
368,172,101494,1,10,0:0:0:0:
380,350,101652,2,0,P|337:342|277:330,1,78.7499975967408,2|0,0:0|3:2,0:0:0:0:
96,380,101967,1,2,0:0:0:0:
233,285,102125,1,10,0:0:0:0:
73,202,102283,6,0,P|81:245|92:304,1,78.7499975967408,2|0,0:0|3:2,0:0:0:0:
229,173,102599,2,0,P|237:130|248:70,1,78.7499975967408,2|8,0:0|0:0,0:0:0:0:
43,118,102915,2,0,P|86:110|145:98,1,78.7499975967408,2|0,0:0|3:2,0:0:0:0:
303,18,103231,1,2,3:2:0:0:
477,122,103388,1,10,0:0:0:0:
477,122,103703,5,14,3:0:0:0:
302,226,104335,1,0,3:2:0:0:
488,313,104967,5,10,0:0:0:0:
446,231,105283,1,2,3:1:0:0:
397,152,105599,1,2,0:0:0:0:
121,20,106231,5,2,3:2:0:0:
173,125,106546,1,0,3:2:0:0:
232,227,106862,1,2,3:2:0:0:
106,349,107494,5,2,3:2:0:0:
143,237,107809,1,0,3:2:0:0:
173,125,108125,1,2,3:2:0:0:
11,167,108757,6,0,P|52:159|109:147,1,78.7499975967408,6|0,3:2|0:0,0:0:0:0:
266,196,109073,1,2,3:2:0:0:
162,299,109231,1,0,3:2:0:0:
186,110,109388,1,10,0:0:0:0:
362,260,109546,1,2,3:2:0:0:
362,260,109862,5,10,0:0:0:0:
498,125,110020,2,0,P|490:167|482:202,1,78.7499975967408,2|0,0:0|0:0,0:0:0:0:
266,196,110336,1,2,3:2:0:0:
392,42,110494,2,0,P|399:80|407:119,1,78.7499975967408,2|8,3:2|0:0,0:0:0:0:
235,279,110809,1,0,3:2:0:0:
316,117,110967,1,0,3:2:0:0:
383,283,111125,1,10,0:0:0:0:
188,155,111283,6,0,P|195:116|203:77,1,78.7499975967408,2|0,3:2|0:0,0:0:0:0:
31,137,111599,2,0,P|38:175|46:214,1,78.7499975967408,2|2,3:2|3:2,0:0:0:0:
235,279,111915,1,10,0:0:0:0:
73,384,112073,1,2,3:2:0:0:
73,384,112388,5,10,0:0:0:0:
159,208,112546,2,0,P|197:200|236:192,1,78.7499975967408,2|0,0:0|0:0,0:0:0:0:
442,239,112862,1,2,3:2:0:0:
325,94,113020,1,0,3:2:0:0:
323,293,113178,1,10,0:0:0:0:
464,135,113336,1,2,3:2:0:0:
500,358,113494,1,10,3:0:0:0:
500,358,113809,5,6,3:2:0:0:
327,211,114441,1,0,3:2:0:0:
283,364,115073,5,8,0:0:0:0:
278,340,115388,1,2,0:0:0:0:
275,316,115704,1,2,0:0:0:0:
27,278,116336,5,2,3:2:0:0:
120,231,116652,1,0,3:2:0:0:
215,186,116967,1,2,3:2:0:0:
156,330,117599,5,2,3:2:0:0:
120,231,117915,1,0,3:2:0:0:
83,133,118230,1,2,3:2:0:0:
168,35,118546,6,0,B|220:18|220:18|267:35,1,98.4375037550928,2|0,0:0|0:0,0:0:0:0:
286,46,118862,5,14,0:0:0:0:
376,145,119020,1,0,3:2:0:0:
469,241,119178,1,0,3:2:0:0:
220,196,119336,5,8,0:0:0:0:
412,31,119494,1,0,3:2:0:0:
208,209,119652,1,0,3:2:0:0:
432,343,119809,5,8,0:0:0:0:
282,131,119967,1,0,3:2:0:0:
154,372,120125,5,8,0:0:0:0:
361,227,120283,1,0,3:2:0:0:
118,146,120441,1,0,3:2:0:0:
305,347,120599,5,8,0:0:0:0:
37,252,120757,1,0,3:2:0:0:
282,131,120915,1,0,3:2:0:0:
138,289,121073,5,8,0:0:0:0:
24,33,121231,1,0,3:2:0:0:
252,213,121388,6,0,L|228:329,1,87.5,8|0,0:0|3:2,0:0:0:0:
442,196,121704,2,0,L|465:312,1,87.5,8|0,0:0|3:2,0:0:0:0:
204,60,122020,6,0,L|180:176,1,87.5,8|0,0:0|3:2,0:0:0:0:
491,0,122336,2,0,L|514:116,1,87.5,8|0,0:0|3:2,0:0:0:0:
378,300,122652,5,8,0:0:0:0:
309,18,122809,1,0,3:2:0:0:
389,317,122967,1,0,3:2:0:0:
179,156,123915,6,0,P|157:259|135:365,1,209.999993591309,6|8,3:1|0:0,0:0:0:0:
34,164,124388,1,2,3:2:0:0:
284,126,124546,2,0,P|271:73|258:5,1,104.999996795654,10|0,0:0|3:2,0:0:0:0:
475,160,124862,1,8,0:0:0:0:
275,255,125020,1,2,3:2:0:0:
511,376,125178,6,0,P|460:310|325:334,1,209.999993591309,10|8,0:0|0:0,0:0:0:0:
145,157,125652,1,2,3:2:0:0:
85,376,125809,2,0,B|142:389|142:389|200:350,1,104.999996795654,10|0,0:0|3:2,0:0:0:0:
283,183,126125,1,8,0:0:0:0:
122,287,126283,1,2,3:2:0:0:
108,39,126441,6,0,P|163:51|229:65,1,104.999996795654,10|0,0:0|0:0,0:0:0:0:
416,99,126757,1,10,0:0:0:0:
305,285,126915,2,0,P|293:230|279:164,1,104.999996795654,2|8,3:2|0:0,0:0:0:0:
44,174,127231,2,0,P|95:184|146:196,1,104.999996795654,2|8,3:2|0:0,0:0:0:0:
424,375,127546,6,0,B|467:285|467:285|460:234|424:176,1,209.999993591309,2|0,3:2|0:0,0:0:0:0:
215,129,128020,1,8,0:0:0:0:
379,285,128178,1,0,3:2:0:0:
441,75,128336,2,0,B|389:60|389:60|340:88,1,104.999996795654,10|0,0:0|3:2,0:0:0:0:
166,280,128652,1,10,0:0:0:0:
383,168,128809,1,0,3:2:0:0:
154,33,128967,6,0,P|164:84|176:135,1,104.999996795654,14|0,0:0|0:0,0:0:0:0:
373,274,129283,1,10,0:0:0:0:
121,379,129441,2,0,P|131:327|143:276,1,104.999996795654,2|8,3:2|0:0,0:0:0:0:
0,79,129757,1,2,3:2:0:0:
47,301,129915,1,8,0:0:0:0:
191,116,130073,1,2,3:2:0:0:
271,363,130231,6,0,P|220:352|168:340,1,104.999996795654,8|0,0:0|0:0,0:0:0:0:
347,186,130546,2,0,P|398:175|449:163,1,104.999996795654,10|0,0:0|3:2,0:0:0:0:
227,16,130862,1,10,0:0:0:0:
217,237,131020,2,0,P|166:226|114:214,1,104.999996795654,2|8,3:2|0:0,0:0:0:0:
317,100,131336,1,2,0:0:0:0:
124,10,131494,6,0,P|37:47|73:164,1,209.999993591309,2|10,3:2|0:0,0:0:0:0:
223,114,131967,2,0,P|172:102|120:91,1,104.999996795654,2|0,3:2|0:0,0:0:0:0:
239,253,132283,1,2,3:2:0:0:
45,302,132441,1,8,0:0:0:0:
266,384,132599,6,0,P|281:295|307:150,1,209.999993591309,2|0,3:2|3:2,0:0:0:0:
475,309,133073,2,0,B|422:318|422:318|379:279,1,104.999996795654,8|0,0:0|3:2,0:0:0:0:
239,87,133388,1,2,0:0:0:0:
449,201,133546,1,2,3:2:0:0:
229,284,133704,1,10,0:0:0:0:
398,96,133862,1,2,0:0:0:0:
118,0,134020,6,0,B|136:91|136:91|136:109|136:109|166:232,1,209.999993591309,6|8,3:2|0:0,0:0:0:0:
342,351,134494,1,2,3:2:0:0:
235,127,134652,1,10,0:0:0:0:
351,366,134809,1,0,3:2:0:0:
93,255,134967,1,8,0:0:0:0:
348,141,135125,1,2,3:2:0:0:
137,337,135283,6,0,P|179:271|85:158,1,209.999993591309,10|8,0:0|0:0,0:0:0:0:
358,49,135757,1,2,3:2:0:0:
319,271,135915,2,0,P|265:259|216:248,1,104.999996795654,10|0,0:0|3:2,0:0:0:0:
451,159,136231,1,8,0:0:0:0:
261,47,136388,1,2,3:2:0:0:
415,244,136546,6,0,P|403:298|392:347,1,104.999996795654,10|0,0:0|0:0,0:0:0:0:
130,292,136862,1,10,0:0:0:0:
314,120,137020,2,0,P|326:174|337:223,1,104.999996795654,2|8,3:2|0:0,0:0:0:0:
136,384,137336,2,0,P|190:372|239:361,1,104.999996795654,2|8,3:2|0:0,0:0:0:0:
109,163,137652,1,2,3:2:0:0:
30,380,137809,5,8,0:0:0:0:
207,154,137967,1,0,3:2:0:0:
11,279,138125,1,8,0:0:0:0:
114,58,138283,1,0,3:2:0:0:
207,291,138441,2,0,P|261:279|310:268,1,104.999996795654,10|0,0:0|3:2,0:0:0:0:
488,99,138757,2,0,P|434:87|385:76,1,104.999996795654,10|0,0:0|3:2,0:0:0:0:
438,317,139073,6,0,P|450:263|461:214,1,104.999996795654,10|0,0:0|0:0,0:0:0:0:
225,181,139388,1,10,0:0:0:0:
375,0,139546,2,0,P|387:54|398:103,1,104.999996795654,2|8,3:2|0:0,0:0:0:0:
205,284,139862,2,0,B|262:295|262:295|305:259,1,104.999996795654,2|8,3:2|0:0,0:0:0:0:
136,88,140178,1,2,3:2:0:0:
39,349,140336,5,14,0:0:0:0:
42,264,140809,5,8,3:0:0:0:
24,254,140888,1,8,3:0:0:0:
6,245,140967,2,0,L|21:169,1,65.6250025033952,10|0,0:0|1:2,0:0:0:0:
164,163,141283,2,0,L|181:245,1,65.6250025033952,2|0,3:2|3:2,0:0:0:0:
235,353,141599,6,0,L|325:337,1,70,6|0,3:2|0:0,0:0:0:0:
431,288,141915,2,0,L|415:378,1,70,2|2,3:2|0:0,0:0:0:0:
302,225,142231,5,10,0:0:0:0:
302,225,142546,2,0,L|392:209,1,70,0|2,1:2|3:2,0:0:0:0:
255,116,142862,1,2,3:2:0:0:
255,116,142941,1,0,1:2:0:0:
255,116,143020,1,2,3:2:0:0:
396,51,143178,2,0,L|380:141,1,70,2|2,3:2|1:2,0:0:0:0:
243,21,143494,5,10,0:0:0:0:
243,21,143809,2,0,P|186:5|137:40,1,105,0|0,1:2|0:0,0:0:0:0:
126,60,144125,5,2,3:2:0:0:
262,222,144441,1,2,3:2:0:0:
100,358,144757,1,10,0:0:0:0:
100,358,145073,5,8,0:0:0:0:
288,384,145231,1,2,3:2:0:0:
288,384,145309,1,2,0:0:0:0:
288,384,145388,2,0,L|272:293,1,70,2|0,3:2|0:0,0:0:0:0:
160,241,145704,2,0,L|147:303,3,35,2|2|2|2,3:2|1:2|1:2|1:2,0:0:0:0:
269,170,146020,1,10,0:0:0:0:
269,170,146336,2,0,L|359:154,1,70,0|0,3:2|0:0,0:0:0:0:
465,227,146652,5,2,3:2:0:0:
285,361,146967,1,2,3:2:0:0:
429,148,147283,1,10,0:0:0:0:
429,148,147757,5,2,3:2:0:0:
281,238,147915,2,0,P|266:170|244:74,1,140,2|2,3:2|3:2,0:0:0:0:
146,34,148388,1,2,1:2:0:0:
146,34,148467,1,2,1:2:0:0:
146,34,148546,2,0,B|101:68|101:68|46:69|18:31,1,140
59,160,149020,1,2,1:2:0:0:
59,160,149099,1,2,1:2:0:0:
59,160,149178,6,0,L|149:144,1,70,2|0,3:2|0:0,0:0:0:0:
234,213,149494,1,2,3:2:0:0:
73,349,149809,1,10,0:0:0:0:
73,349,150283,5,2,3:2:0:0:
242,301,150441,2,0,P|207:294|152:285,1,70,2|2,3:2|3:2,0:0:0:0:
267,196,150757,2,0,P|302:189|357:180,1,70,10|0,3:2|0:0,0:0:0:0:
425,286,151073,2,0,B|461:243|461:243|462:202|462:202|509:174,1,140,2|0,0:0|3:2,0:0:0:0:
390,38,151704,6,0,P|350:30|293:18,1,78.7499975967408,6|0,3:2|0:0,0:0:0:0:
183,89,152020,1,2,3:2:0:0:
309,146,152178,1,0,3:2:0:0:
183,243,152336,2,0,P|191:203|202:146,1,78.7499975967408,10|0,0:0|3:2,0:0:0:0:
335,240,152652,2,0,P|343:280|354:336,1,78.7499975967408,2|8,3:2|0:0,0:0:0:0:
202,366,152967,6,0,P|242:358|298:346,1,78.7499975967408,2|0,0:0|0:0,0:0:0:0:
183,243,153283,2,0,P|143:235|86:223,1,78.7499975967408,2|0,3:2|3:2,0:0:0:0:
245,152,153599,1,10,0:0:0:0:
130,86,153757,1,0,3:2:0:0:
241,30,153915,2,0,P|281:22|337:11,1,78.7499975967408,2|8,3:2|0:0,0:0:0:0:
459,113,154231,6,0,P|467:73|478:16,1,78.7499975967408,2|0,3:2|0:0,0:0:0:0:
354,165,154546,2,0,P|346:125|334:68,1,78.7499975967408,2|0,3:2|3:2,0:0:0:0:
471,203,154862,1,10,0:0:0:0:
357,252,155020,1,0,3:2:0:0:
495,328,155178,2,0,P|456:319|418:311,1,78.7499975967408,2|8,3:2|0:0,0:0:0:0:
275,379,155494,6,0,P|267:343|258:302,1,78.7499975967408,2|0,0:0|0:0,0:0:0:0:
144,219,155809,2,0,P|136:255|127:295,1,78.7499975967408,2|0,3:2|3:2,0:0:0:0:
264,216,156125,1,10,0:0:0:0:
165,128,156283,1,0,3:2:0:0:
251,33,156441,1,0,3:2:0:0:
347,117,156599,1,8,0:0:0:0:
166,33,156757,6,0,P|127:41|89:49,1,78.7499975967408,2|0,3:2|0:0,0:0:0:0:
163,156,157073,1,2,3:2:0:0:
37,122,157231,1,0,3:2:0:0:
30,264,157388,2,0,P|69:255|106:247,1,78.7499975967408,10|0,0:0|3:2,0:0:0:0:
210,372,157704,2,0,P|171:363|133:355,1,78.7499975967408,2|8,3:2|0:0,0:0:0:0:
270,222,158020,6,0,P|279:265|286:298,1,78.7499975967408,2|0,0:0|0:0,0:0:0:0:
407,171,158336,1,2,3:2:0:0:
278,137,158494,1,0,3:2:0:0:
360,264,158652,2,0,P|403:255|436:247,1,78.7499975967408,10|0,0:0|3:2,0:0:0:0:
512,111,158967,2,0,P|475:103|435:94,1,78.7499975967408,2|8,3:2|0:0,0:0:0:0:
278,137,159283,6,0,P|270:100|261:60,1,78.7499975967408,2|0,3:2|0:0,0:0:0:0:
121,173,159599,1,0,3:2:0:0:
268,229,159757,1,0,3:2:0:0:
148,330,159915,2,0,P|111:322|71:313,1,78.7499975967408,8|0,0:0|3:2,0:0:0:0:
202,175,160231,2,0,P|194:212|185:251,1,78.7499975967408,0|8,3:2|0:0,0:0:0:0:
301,384,160546,6,0,P|293:347|284:307,1,78.7499975967408
450,247,160862,2,0,P|413:239|373:230,1,78.7499975967408,2|0,3:2|3:2,0:0:0:0:
214,102,161178,1,8,0:0:0:0:
405,52,161336,1,0,3:2:0:0:
278,212,161494,1,10,0:0:0:0:
180,28,161652,1,8,0:0:0:0:
75,223,161809,6,0,P|127:212|198:197,1,96.250002937317,6|0,3:2|0:0,0:0:0:0:
0,118,162125,1,8,0:0:0:0:
1,322,162282,2,0,B|59:312|118:294|118:294|146:317|191:332,1,192.500005874634,0|0,0:0|3:2,0:0:0:0:
390,229,162757,2,0,P|337:219|266:204,1,96.250002937317,10|0,0:0|3:2,0:0:0:0:
123,54,163073,5,0,0:0:0:0:
193,235,163231,1,0,3:2:0:0:
346,53,163388,2,0,P|293:63|222:78,1,96.250002937317,8|0,0:0|0:0,0:0:0:0:
67,195,163704,1,0,0:0:0:0:
276,293,163862,1,0,3:2:0:0:
64,384,164020,2,0,P|74:331|89:260,1,96.250002937317,8|0,0:0|0:0,0:0:0:0:
256,105,164336,6,0,P|266:158|281:229,1,96.250002937317,0|0,3:2|0:0,0:0:0:0:
475,294,164652,1,8,0:0:0:0:
221,378,164809,2,0,B|269:325|269:325|328:296|403:336,1,192.500005874634,0|0,0:0|3:2,0:0:0:0:
196,203,165283,1,8,0:0:0:0:
352,9,165441,6,0,P|308:71|201:42,1,192.500005874634,0|0,3:2|3:2,0:0:0:0:
0,167,165915,2,0,P|50:158|124:142,1,96.250002937317,10|0,0:0|0:0,0:0:0:0:
307,274,166231,2,0,P|316:224|332:150,1,96.250002937317,2|0,0:0|3:2,0:0:0:0:
124,338,166546,2,0,P|115:288|99:214,1,96.250002937317,10|0,0:0|0:0,0:0:0:0:
272,372,166862,6,0,P|340:358|423:339,1,144.375004405975,2|0,3:2|0:0,0:0:0:0:
488,369,167178,2,0,B|508:322|508:322|463:264,1,96.250002937317,10|0,0:0|0:0,0:0:0:0:
320,168,167494,2,0,B|300:215|300:215|345:273,1,96.250002937317,0|0,0:0|3:2,0:0:0:0:
509,143,167809,1,10,0:0:0:0:
336,46,167967,6,0,B|300:10|246:9|246:9|208:43|144:29,1,192.500005874634,0|0,3:2|3:2,0:0:0:0:
19,160,168441,2,0,P|67:150|143:135,1,96.250002937317,8|0,0:0|0:0,0:0:0:0:
326,203,168757,1,0,0:0:0:0:
125,287,168915,1,0,3:2:0:0:
324,384,169073,2,0,P|314:336|299:260,1,96.250002937317,8|0,0:0|0:0,0:0:0:0:
199,87,169388,6,0,P|189:135|174:211,1,96.250002937317,0|0,3:2|0:0,0:0:0:0:
334,35,169704,1,8,0:0:0:0:
420,222,169862,2,0,P|372:212|296:197,1,96.250002937317,0|0,3:2|0:0,0:0:0:0:
114,239,170178,1,0,3:2:0:0:
293,119,170336,1,8,0:0:0:0:
111,14,170494,6,0,P|29:41|53:161,1,192.500005874634,0|0,3:2|3:2,0:0:0:0:
247,251,170967,1,8,0:0:0:0:
104,92,171125,1,0,3:2:0:0:
80,324,171283,5,8,0:0:0:0:
207,125,171441,1,0,3:2:0:0:
253,353,171599,1,8,3:0:0:0:
148,260,171757,1,8,3:0:0:0:
273,177,171915,6,0,P|321:188|372:203,1,78.7499975967408,0|0,3:2|0:0,0:0:0:0:
511,144,172231,2,0,P|495:225|479:326,2,157.499995193482,2|10|2,0:0|0:0|0:0,0:0:0:0:
457,21,173178,6,0,P|405:77|309:44,1,157.499995193482,2|0,3:2|1:2,0:0:0:0:
172,8,173652,2,0,B|191:70|206:106|206:106|149:167,1,157.499995193482,2|2,3:2|3:2,0:0:0:0:
246,243,174125,1,2,0:0:0:0:
50,340,174283,1,8,0:0:0:0:
50,340,174362,1,2,0:0:0:0:
50,340,174441,6,0,P|106:328|169:316,1,104.999996795654,14|0,0:0|3:2,0:0:0:0:
354,126,174757,5,8,0:0:0:0:
256,356,174915,1,0,3:2:0:0:
238,39,175073,5,8,0:0:0:0:
344,293,175231,1,0,3:2:0:0:
387,9,175388,5,8,0:0:0:0:
231,241,175546,1,0,3:2:0:0:
512,243,175704,6,0,P|500:186|488:123,1,104.999996795654,8|0,0:0|3:2,0:0:0:0:
237,23,176020,5,8,0:0:0:0:
410,219,176178,1,0,3:2:0:0:
223,11,176336,5,8,0:0:0:0:
297,293,176494,1,0,3:2:0:0:
65,129,176652,5,8,0:0:0:0:
350,15,176809,1,0,3:2:0:0:
186,271,176967,6,0,P|129:259|66:247,1,104.999996795654,8|0,0:0|3:2,0:0:0:0:
342,146,177283,1,0,3:2:0:0:
138,43,177440,2,0,P|150:100|162:163,1,104.999996795654,8|0,0:0|3:2,0:0:0:0:
347,246,177756,1,0,3:2:0:0:
144,371,177914,2,0,P|156:314|168:251,1,104.999996795654,8|0,0:0|3:2,0:0:0:0:
311,62,178230,5,8,0:0:0:0:
145,61,179809,6,0,L|160:-14,1,43.75,6|0,3:2|0:0,0:0:0:0:
419,121,180441,2,0,L|403:46,1,43.75,6|0,3:2|0:0,0:0:0:0:
114,200,181073,2,0,L|130:125,1,43.75,6|0,3:2|0:0,0:0:0:0:
436,254,181704,2,0,L|420:179,1,43.75,6|0,3:2|0:0,0:0:0:0:
88,324,182336,2,0,L|104:249,1,43.75,6|0,3:2|0:0,0:0:0:0:
453,369,182967,2,0,L|437:294,1,43.75,6|0,3:2|0:0,0:0:0:0:
254,146,183283,5,0,3:2:0:0:
254,146,183362,1,0,3:2:0:0:
254,146,183441,1,0,3:2:0:0:
322,338,183599,1,8,0:0:0:0:
124,276,183757,1,2,3:2:0:0:
109,254,183836,1,2,3:2:0:0:
93,232,183915,2,0,P|136:222|184:212,1,87.5,2|0,3:2|0:0,0:0:0:0:
373,155,184231,2,0,P|363:111|353:63,1,87.5,10|0,0:0|0:0,0:0:0:0:
174,10,184546,6,0,P|164:54|154:101,1,87.5,2|0,3:2|0:0,0:0:0:0:
291,170,184862,1,2,3:2:0:0:
186,287,185020,2,0,P|177:242|166:195,1,87.5,2|0,0:0|3:2,0:0:0:0:
342,266,185336,1,2,0:0:0:0:
273,143,185494,1,2,3:2:0:0:
342,365,185652,6,0,P|411:336|408:214,1,175,2|0,0:0|1:2,0:0:0:0:
512,114,186125,2,0,P|468:104|420:94,1,87.5,2|0,3:2|1:2,0:0:0:0:
259,21,186441,1,2,3:2:0:0:
350,167,186599,1,2,3:2:0:0:
164,125,186757,2,0,P|208:115|255:105,1,87.5,8|2,0:0|1:2,0:0:0:0:
51,259,187073,6,0,P|34:174|15:87,1,175,2|2,3:2|3:2,0:0:0:0:
239,197,187546,2,0,P|192:207|147:216,1,87.5,2|0,3:2|0:0,0:0:0:0:
37,346,187862,2,0,P|81:356|128:365,1,87.5,2|8,3:2|0:0,0:0:0:0:
365,336,188178,6,0,P|305:352|231:268,1,175,2|0,3:2|3:2,0:0:0:0:
337,173,188652,2,0,P|327:217|317:264,1,87.5,8|0,0:0|3:2,0:0:0:0:
169,90,188967,1,10,0:0:0:0:
406,54,189125,1,2,0:0:0:0:
197,194,189283,1,2,0:0:0:0:
431,236,189441,1,2,0:0:0:0:
277,37,189599,6,0,B|202:15|139:1|139:1|89:55,1,209.999993591309,6|8,3:2|0:0,0:0:0:0:
25,267,190073,1,2,3:2:0:0:
174,91,190231,1,10,0:0:0:0:
205,315,190388,1,0,3:2:0:0:
55,131,190546,1,8,0:0:0:0:
32,366,190704,1,2,3:2:0:0:
311,175,190862,6,0,P|258:199|317:341,1,209.999993591309,10|8,0:0|0:0,0:0:0:0:
507,240,191336,1,2,3:2:0:0:
393,86,191494,2,0,P|335:74|274:61,1,104.999996795654,10|0,0:0|3:2,0:0:0:0:
88,176,191809,1,8,0:0:0:0:
309,257,191967,1,2,3:2:0:0:
78,373,192125,6,0,P|90:315|103:254,1,104.999996795654,10|0,0:0|0:0,0:0:0:0:
291,137,192441,1,10,0:0:0:0:
61,39,192599,2,0,P|73:97|86:158,1,104.999996795654,2|8,3:2|0:0,0:0:0:0:
213,306,192915,2,0,B|273:315|273:315|317:282,1,104.999996795654,2|8,3:2|0:0,0:0:0:0:
512,185,193231,1,2,3:2:0:0:
282,130,193388,5,8,0:0:0:0:
503,22,193546,1,0,3:2:0:0:
389,224,193704,1,8,0:0:0:0:
281,18,193862,1,0,3:2:0:0:
195,233,194020,2,0,P|142:220|76:208,1,104.999996795654,10|0,0:0|3:2,0:0:0:0:
0,43,194336,2,0,P|53:30|119:18,1,104.999996795654,10|0,0:0|3:2,0:0:0:0:
8,235,194652,6,0,P|19:184|33:116,1,104.999996795654,10|0,0:0|0:0,0:0:0:0:
276,179,194967,1,10,0:0:0:0:
117,359,195125,2,0,P|106:308|92:240,1,104.999996795654,2|8,3:2|0:0,0:0:0:0:
377,150,195441,2,0,P|366:201|352:269,1,104.999996795654,2|8,3:2|0:0,0:0:0:0:
154,108,195757,1,2,3:2:0:0:
432,24,195915,5,14,0:0:0:0:
440,32,196388,5,8,3:0:0:0:
440,32,196467,1,8,3:0:0:0:
440,32,196546,1,10,0:0:0:0:
305,113,196704,1,8,3:0:0:0:
475,133,196862,2,0,B|462:169|462:169|482:215,1,65.6250025033952,10|0,3:0|0:0,0:0:0:0:
475,303,197178,6,0,B|393:279|393:279|360:283|312:325,1,157.499995193482,6|0,3:2|1:2,0:0:0:0:
173,226,197652,1,0,0:0:0:0:
230,379,197809,2,0,P|238:339|249:283,1,78.7499975967408,8|2,0:0|3:2,0:0:0:0:
86,211,198125,1,2,0:0:0:0:
243,112,198283,6,0,P|251:152|262:208,1,78.7499975967408,10|0,0:0|0:0,0:0:0:0:
157,72,198599,1,0,3:2:0:0:
86,211,198757,2,0,P|126:203|182:192,1,78.7499975967408,0|0,3:2|3:2,0:0:0:0:
330,134,199073,1,10,0:0:0:0:
224,21,199231,1,0,3:2:0:0:
389,42,199388,1,0,3:2:0:0:
389,42,199546,1,10,0:0:0:0:
264,206,199704,6,0,L|433:171,1,157.499995193482,0|0,3:2|3:2,0:0:0:0:
252,114,200178,1,2,0:0:0:0:
298,295,200336,2,0,P|258:287|202:276,1,78.7499975967408,8|2,0:0|3:2,0:0:0:0:
71,183,200652,1,0,3:2:0:0:
158,339,200809,6,0,P|133:297|190:201,1,157.499995193482,10|2,0:0|3:2,0:0:0:0:
342,90,201283,2,0,P|334:130|323:186,1,78.7499975967408,0|2,3:2|3:2,0:0:0:0:
461,282,201599,1,10,0:0:0:0:
290,353,201757,1,0,3:2:0:0:
481,278,201915,1,2,3:2:0:0:
296,195,202073,1,8,0:0:0:0:
477,89,202231,6,0,P|469:129|458:185,1,78.7499975967408,2|2,3:2|3:2,0:0:0:0:
460,188,202467,1,2,0:0:0:0:
460,188,202546,1,2,3:2:0:0:
378,59,202704,1,0,0:0:0:0:
296,195,202862,2,0,P|336:187|392:176,1,78.7499975967408,10|0,0:0|3:2,0:0:0:0:
267,56,203178,1,2,3:2:0:0:
174,217,203336,6,0,B|160:135|160:135|161:122|161:122|146:43,1,157.499995193482,8|0,0:0|3:2,0:0:0:0:
14,193,203809,2,0,P|54:185|110:174,1,78.7499975967408,2|2,3:2|3:2,0:0:0:0:
267,228,204125,1,10,0:0:0:0:
120,299,204283,1,2,3:2:0:0:
264,384,204441,2,0,P|256:344|245:288,1,78.7499975967408,0|10,3:2|0:0,0:0:0:0:
479,254,204757,6,0,P|409:269|351:192,1,157.499995193482,2|0,3:2|3:2,0:0:0:0:
483,125,205231,1,0,0:0:0:0:
353,38,205388,2,0,P|345:78|334:134,1,78.7499975967408,10|0,0:0|3:2,0:0:0:0:
179,156,205704,1,0,3:2:0:0:
295,277,205862,6,0,L|260:123,1,157.499995193482,10|0,0:0|3:2,0:0:0:0:
70,99,206336,1,8,0:0:0:0:
197,245,206494,1,2,3:2:0:0:
31,229,206652,5,10,0:0:0:0:
179,156,206809,1,8,3:0:0:0:
251,304,206967,1,10,3:0:0:0:
103,377,207125,1,8,3:0:0:0:
102,185,207283,5,6,3:2:0:0:
256,192,207362,12,0,212177,0:0:0:0:
