osu file format v14

[General]
AudioFilename: audio.mp3
AudioLeadIn: 0
PreviewTime: 178760
Countdown: 0
SampleSet: Soft
StackLeniency: 0.7
Mode: 0
LetterboxInBreaks: 0
WidescreenStoryboard: 1

[Editor]
DistanceSpacing: 1.5
BeatDivisor: 4
GridSize: 8
TimelineZoom: 2.1

[Metadata]
Title:Reloaded
TitleUnicode:Reloaded
Artist:nonoc
ArtistUnicode:nonoc
Creator:SpokenAway
Version:Insane
Source:Re:ゼロから始める異世界生活 Lost in Memories
Tags:re:zero rock jrock j-rock kara hajimeru isekai seikatsu starting life in a different world from zero japanese anime game SEGA video game rezero
BeatmapID:2715287
BeatmapSetID:1309794

[Difficulty]
HPDrainRate:5.5
CircleSize:3.8
OverallDifficulty:8
ApproachRate:9
SliderMultiplier:1.7
SliderTickRate:1

[Events]
//Background and Video events
0,0,"bg.png",0,0
//Break Periods
2,20535,24788
2,141798,148735
//Storyboard Layer 0 (Background)
//Storyboard Layer 1 (Fail)
//Storyboard Layer 2 (Pass)
//Storyboard Layer 3 (Foreground)
//Storyboard Layer 4 (Overlay)
//Storyboard Sound Samples

[TimingPoints]
125,315.789473684211,4,2,1,80,1,0
125,-166.666666666667,4,2,1,40,0,0
10230,-100,4,2,1,70,0,0
20335,-133.333333333333,4,2,1,50,0,0
25388,-125,4,2,1,55,0,0
35493,-111.111111111111,4,2,1,65,0,0
45598,-133.333333333333,4,2,1,50,0,0
53177,-100,4,2,1,70,0,0
55703,-83.3333333333333,4,2,1,85,0,1
72125,-133.333333333333,4,2,1,50,0,0
73388,-90.9090909090909,4,2,1,80,0,0
83493,-125,4,2,1,55,0,0
93519,-125,4,2,1,5,0,0
93598,-111.111111111111,4,2,1,60,0,0
103703,-133.333333333333,4,2,1,50,0,0
108756,-111.111111111111,4,2,1,60,0,0
113809,-133.333333333333,4,2,1,50,0,0
118861,-100,4,2,1,70,0,0
123914,-83.3333333333333,4,2,1,85,0,1
140335,-133.333333333333,4,2,1,50,0,0
141598,-125,4,2,1,55,0,0
151703,-111.111111111111,4,2,1,60,0,0
161809,-90.9090909090909,4,2,1,80,0,0
167098,-90.9090909090909,4,2,1,5,0,0
167177,-90.9090909090909,4,2,1,80,0,0
171914,-111.111111111111,4,2,1,70,0,0
174440,-83.3333333333333,4,2,1,85,0,0
179493,-99.9999999999999,4,2,1,70,0,0
189598,-83.3333333333333,4,2,1,85,0,1
195914,-133.333333333333,4,2,1,50,0,0
197177,-111.111111111111,4,2,1,60,0,0
207282,-249.999999999999,4,2,1,50,0,0
207361,-249.999999999999,4,2,1,5,0,0

[Colours]
Combo1 : 11,88,193
Combo2 : 201,192,24
Combo3 : 138,69,0
Combo4 : 116,137,148

[HitObjects]
21,327,125,6,0,P|54:276|193:290,1,203.999993774414,6|2,3:2|3:2,0:0:0:0:
360,370,1388,6,0,P|371:327|393:250,2,101.999996887207,10|2|2,0:0|0:0|0:0,0:0:0:0:
512,190,2651,6,0,P|458:197|415:153,2,101.999996887207,2|2|2,3:2|3:2|3:2,0:0:0:0:
299,104,3914,6,0,B|275:56|275:56|294:-1,2,101.999996887207,2|2|2,3:2|3:2|3:2,0:0:0:0:
83,232,5177,6,0,B|73:168|55:104|55:104|106:43,1,203.999993774414,2|2,3:2|3:2,0:0:0:0:
232,201,6440,6,0,P|229:257|189:292,2,101.999996887207,10|2|2,0:0|0:0|0:0,0:0:0:0:
256,192,7703,12,0,9914,0:0:0:0:
379,361,10230,6,0,L|490:338,1,85,6|0,3:1|0:0,0:0:0:0:
313,259,10546,1,10,0:0:0:0:
467,176,10703,2,0,L|444:287,1,85,2|8,3:2|0:0,0:0:0:0:
309,147,11019,1,2,3:2:0:0:
453,88,11177,1,10,0:0:0:0:
292,18,11335,6,0,B|227:5|180:-8|180:-8|121:53,1,170,2|2,3:2|3:2,0:0:0:0:
21,124,11808,1,10,0:0:0:0:
203,85,11966,2,0,P|183:168|160:271,1,170,2|0,3:2|3:2,0:0:0:0:
3,305,12440,1,10,0:0:0:0:
3,305,12598,1,2,3:2:0:0:
158,375,12756,6,0,P|199:366|269:352,1,85,14|0,0:0|0:0,0:0:0:0:
341,223,13072,1,10,0:0:0:0:
341,223,13230,1,0,3:2:0:0:
442,384,13388,2,0,P|401:375|331:361,1,85,10|0,0:0|3:2,0:0:0:0:
232,256,13703,1,10,0:0:0:0:
412,129,13861,6,0,P|457:154|438:275,1,170,6|2,3:2|3:2,0:0:0:0:
291,153,14335,2,0,P|300:112|314:42,1,85,8|2,0:0|3:2,0:0:0:0:
164,11,14651,1,10,0:0:0:0:
164,11,14808,1,0,3:2:0:0:
198,149,14967,2,0,P|157:140|87:126,1,85,8|0,0:0|3:2,0:0:0:0:
0,271,15282,6,0,P|41:262|111:248,1,85,14|0,0:0|0:0,0:0:0:0:
257,216,15598,1,10,0:0:0:0:
165,347,15756,1,2,3:2:0:0:
353,317,15914,2,0,P|312:308|242:294,1,85,8|0,0:0|3:2,0:0:0:0:
361,192,16230,1,10,0:0:0:0:
461,345,16387,6,0,L|500:150,1,170,6|0,3:2|3:2,0:0:0:0:
333,104,16861,1,8,0:0:0:0:
487,49,17019,1,0,3:2:0:0:
361,192,17177,2,0,B|323:207|323:207|262:168,1,85,8|2,0:0|3:2,0:0:0:0:
198,21,17493,1,10,0:0:0:0:
333,104,17651,1,2,3:2:0:0:
172,198,17809,6,0,P|181:157|195:87,1,85,14|0,0:0|0:0,0:0:0:0:
266,272,18124,1,10,0:0:0:0:
109,318,18282,2,0,P|100:277|86:207,1,85,2|8,3:2|0:0,0:0:0:0:
205,119,18598,1,2,3:2:0:0:
205,119,18756,1,10,0:0:0:0:
51,7,18914,6,0,P|-6:37|26:138,1,170,6|0,3:2|3:2,0:0:0:0:
190,220,19388,2,0,P|149:211|79:197,1,85,8|0,0:0|3:2,0:0:0:0:
5,341,19703,2,0,P|46:332|116:318,1,85,8|0,0:0|3:2,0:0:0:0:
207,383,20019,1,0,3:2:0:0:
207,383,20098,1,0,3:2:0:0:
207,383,20177,2,0,L|219:318,1,42.5,0|0,3:2|3:2,0:0:0:0:
318,235,20335,5,6,3:2:0:0:
7,85,25388,6,0,P|79:69|154:55,1,136,6|2,3:2|3:2,0:0:0:0:
270,13,25861,1,2,0:0:0:0:
270,13,26019,2,0,P|258:58|249:101,1,68,2|0,3:2|0:0,0:0:0:0:
148,162,26335,1,2,3:2:0:0:
148,162,26493,1,2,0:0:0:0:
278,236,26651,6,0,P|269:200|257:148,1,68,2|2,3:2|0:0,0:0:0:0:
166,257,26966,1,2,3:2:0:0:
265,332,27124,2,0,B|304:338|304:338|351:308,1,68,2|0,0:0|3:2,0:0:0:0:
434,224,27440,1,2,0:0:0:0:
434,224,27598,2,0,P|398:215|346:203,1,68,2|0,3:2|0:0,0:0:0:0:
461,71,27914,6,0,P|452:107|440:159,1,68,2|0,3:2|0:0,0:0:0:0:
362,36,28230,1,2,3:2:0:0:
362,36,28387,1,2,0:0:0:0:
293,145,28545,2,0,P|329:136|381:124,1,68,2|2,3:2|0:0,0:0:0:0:
256,42,28861,1,2,3:2:0:0:
168,151,29019,6,0,P|201:171|197:277,1,136,2|2,0:0|0:0,0:0:0:0:
67,242,29493,2,0,P|103:233|155:221,1,68,2|2,3:2|0:0,0:0:0:0:
18,149,29808,1,2,3:2:0:0:
18,149,29966,1,2,0:0:0:0:
148,63,30124,2,0,P|139:99|127:151,1,68,2|2,3:2|0:0,0:0:0:0:
213,244,30440,6,0,B|279:220|279:220|312:216|354:246,1,136,2|2,3:2|3:2,0:0:0:0:
452,327,30914,1,2,0:0:0:0:
452,327,31072,2,0,P|459:292|470:240,1,68,2|0,3:2|0:0,0:0:0:0:
357,151,31388,2,0,P|365:188|375:237,1,68,2|2,3:2|0:0,0:0:0:0:
475,133,31703,6,0,P|483:96|493:47,1,68,2|2,3:2|0:0,0:0:0:0:
377,16,32019,1,2,3:2:0:0:
357,151,32177,2,0,P|286:134|203:118,1,136,2|2,0:0|0:0,0:0:0:0:
124,51,32651,1,2,3:2:0:0:
124,51,32808,1,2,0:0:0:0:
66,160,32967,6,0,B|105:166|105:166|149:138,1,68,2|0,3:2|0:0,0:0:0:0:
251,249,33282,2,0,P|214:241|165:231,1,68,2|2,3:2|0:0,0:0:0:0:
70,341,33598,2,0,P|104:334|156:323,1,68,2|2,3:2|0:0,0:0:0:0:
251,249,33914,1,2,3:2:0:0:
139,133,34072,6,0,P|109:142|113:247,1,136,2|2,0:0|0:0,0:0:0:0:
235,158,34545,2,0,P|228:124|217:72,1,68,2|2,3:2|0:0,0:0:0:0:
349,139,34861,1,2,3:2:0:0:
349,139,35019,1,2,0:0:0:0:
251,249,35177,2,0,P|285:242|337:231,1,68,2|0,3:2|0:0,0:0:0:0:
459,351,35493,6,0,P|423:343|368:330,1,76.4999976654053,4|0,3:2|3:2,0:0:0:0:
470,171,35809,2,0,P|462:207|449:262,1,76.4999976654053,10|0,0:0|3:2,0:0:0:0:
349,139,36124,1,2,1:2:0:0:
482,85,36282,1,2,3:2:0:0:
482,85,36440,1,10,0:0:0:0:
344,17,36598,6,0,P|308:9|253:-4,1,76.4999976654053,2|0,0:0|3:2,0:0:0:0:
255,169,36914,2,0,P|263:133|276:78,1,76.4999976654053,2|8,3:2|0:0,0:0:0:0:
127,8,37230,2,0,P|135:44|148:99,1,76.4999976654053,2|2,3:2|1:2,0:0:0:0:
263,173,37545,1,2,3:2:0:0:
94,240,37703,2,0,P|102:204|115:149,1,76.4999976654053,10|2,0:0|0:0,0:0:0:0:
246,262,38019,6,0,P|254:298|267:353,1,76.4999976654053,2|0,3:2|3:2,0:0:0:0:
76,342,38335,2,0,P|112:334|167:321,1,76.4999976654053,10|0,0:0|3:2,0:0:0:0:
269,181,38651,1,2,1:2:0:0:
269,181,38808,1,0,3:2:0:0:
237,343,38967,1,10,0:0:0:0:
400,274,39125,6,0,P|364:266|309:253,1,76.4999976654053,2|0,0:0|3:2,0:0:0:0:
461,190,39440,1,2,3:2:0:0:
354,123,39598,1,10,0:0:0:0:
495,70,39756,2,0,B|479:29|420:24|424:45|381:47|352:2,1,152.999995330811,2|0,3:2|3:2,0:0:0:0:
193,110,40230,2,0,P|229:102|284:89,1,76.4999976654053,8|2,0:0|0:0,0:0:0:0:
128,0,40545,5,0,3:2:0:0:
128,0,40703,1,2,3:2:0:0:
82,116,40861,2,0,P|90:152|103:207,1,76.4999976654053,10|0,0:0|3:2,0:0:0:0:
230,275,41177,2,0,P|238:239|251:184,1,76.4999976654053,2|0,1:2|3:2,0:0:0:0:
124,273,41493,5,10,0:0:0:0:
224,363,41651,2,0,B|266:368|266:368|305:337,1,76.4999976654053,2|0,0:0|3:2,0:0:0:0:
359,207,41966,1,2,3:2:0:0:
230,275,42124,1,8,0:0:0:0:
417,378,42282,6,0,P|428:312|445:210,1,152.999995330811,2|2,3:2|3:2,0:0:0:0:
345,108,42756,1,8,0:0:0:0:
345,108,42914,1,2,0:0:0:0:
293,220,43072,6,0,P|335:210|384:199,1,76.4999976654053,2|0,3:2|3:2,0:0:0:0:
506,104,43388,2,0,P|470:96|415:83,1,76.4999976654053,10|0,0:0|3:2,0:0:0:0:
309,0,43703,1,2,1:2:0:0:
309,0,43861,1,2,3:2:0:0:
355,117,44019,1,10,0:0:0:0:
179,54,44177,6,0,P|225:95|184:190,1,152.999995330811,2|2,0:0|3:2,0:0:0:0:
70,125,44651,1,8,0:0:0:0:
118,244,44808,1,2,3:2:0:0:
118,244,45124,5,8,3:0:0:0:
38,336,45282,1,8,3:0:0:0:
160,330,45440,1,8,3:0:0:0:
10,206,45598,5,6,3:2:0:0:
10,206,46230,5,0,3:2:0:0:
123,84,46861,1,10,0:0:0:0:
141,74,47177,1,2,0:0:0:0:
160,65,47493,1,2,0:0:0:0:
363,20,48125,6,0,P|348:79|332:150,2,127.500004863739,2|0|2,3:2|3:2|3:2,0:0:0:0:
512,263,49387,2,0,P|474:218|396:210,2,127.500004863739,2|0|2,3:2|3:2|3:2,0:0:0:0:
293,364,50651,5,0,3:2:0:0:
293,364,51282,1,0,3:2:0:0:
33,338,51914,6,0,P|69:307|154:321,1,127.500004863739,2|0,3:2|3:2,0:0:0:0:
48,143,52546,2,0,L|73:279,1,127.500004863739,0|2,3:2|0:0,0:0:0:0:
178,33,53177,6,0,P|220:24|269:14,1,85,12|0,0:0|3:2,0:0:0:0:
411,155,53493,1,8,0:0:0:0:
348,2,53651,1,0,3:2:0:0:
286,211,53808,1,8,0:0:0:0:
433,63,53966,1,0,3:2:0:0:
478,271,54124,2,0,P|436:262|386:252,1,85,8|0,0:0|3:2,0:0:0:0:
196,357,54440,5,8,0:0:0:0:
292,169,54598,1,8,0:0:0:0:
387,363,54756,1,8,0:0:0:0:
69,59,55704,6,0,P|86:154|106:273,1,203.999993774414,6|8,3:1|0:0,0:0:0:0:
294,275,56178,1,2,3:2:0:0:
211,90,56336,2,0,P|201:144|192:197,1,101.999996887207,10|0,0:0|3:2,0:0:0:0:
380,282,56652,1,8,0:0:0:0:
206,346,56809,1,2,3:2:0:0:
325,167,56967,6,0,P|357:222|500:192,1,203.999993774414,10|8,0:0|0:0,0:0:0:0:
380,70,57441,1,2,3:2:0:0:
224,223,57599,2,0,B|206:123|180:4,1,203.999993774414,10|8,0:0|0:0,0:0:0:0:
0,75,58073,1,2,3:2:0:0:
80,218,58231,6,0,P|90:164|99:111,1,101.999996887207,10|0,0:0|0:0,0:0:0:0:
234,235,58546,1,10,0:0:0:0:
62,346,58704,2,0,P|116:336|169:327,1,101.999996887207,2|8,3:2|0:0,0:0:0:0:
345,209,59020,2,0,P|291:199|238:190,1,101.999996887207,2|8,3:2|0:0,0:0:0:0:
304,358,59336,1,2,3:2:0:0:
442,254,59494,6,0,B|475:211|475:211|450:158,1,101.999996887207,10|0,0:0|3:2,0:0:0:0:
336,32,59810,2,0,B|305:79|305:79|331:128,1,101.999996887207,8|0,0:0|3:2,0:0:0:0:
152,82,60125,1,10,0:0:0:0:
152,82,60283,1,0,3:2:0:0:
224,262,60441,2,0,P|233:211|243:155,1,101.999996887207,10|0,0:0|3:2,0:0:0:0:
43,60,60757,6,0,P|52:111|62:167,1,101.999996887207,14|0,0:0|0:0,0:0:0:0:
224,262,61073,1,10,0:0:0:0:
35,359,61231,2,0,P|44:308|54:252,1,101.999996887207,2|8,3:2|0:0,0:0:0:0:
243,371,61546,2,0,P|192:362|136:352,1,101.999996887207,2|8,3:2|0:0,0:0:0:0:
202,133,61862,6,0,P|243:213|374:193,1,203.999993774414,2|0,3:2|0:0,0:0:0:0:
316,26,62336,2,0,P|307:77|297:133,1,101.999996887207,10|0,0:0|3:2,0:0:0:0:
471,170,62652,1,10,0:0:0:0:
365,316,62810,2,0,P|356:265|346:209,1,101.999996887207,2|8,3:2|0:0,0:0:0:0:
243,351,63125,1,2,0:0:0:0:
154,200,63283,6,0,P|205:209|261:219,1,101.999996887207,2|0,3:2|3:2,0:0:0:0:
104,341,63599,1,10,0:0:0:0:
38,195,63757,2,0,B|14:147|14:147|61:98,1,101.999996887207,2|0,3:2|0:0,0:0:0:0:
202,12,64073,1,2,3:2:0:0:
202,12,64231,1,8,0:0:0:0:
154,200,64388,6,0,P|256:179|366:157,1,203.999993774414,2|0,3:2|3:2,0:0:0:0:
499,64,64862,2,0,P|490:115|480:171,1,101.999996887207,8|0,0:0|3:2,0:0:0:0:
336,248,65178,1,2,0:0:0:0:
336,248,65336,1,2,3:2:0:0:
486,313,65494,1,10,0:0:0:0:
328,369,65652,1,2,0:0:0:0:
481,164,65810,6,0,B|419:148|346:126|346:126|277:179,1,203.999993774414,6|8,3:2|0:0,0:0:0:0:
114,148,66283,1,2,3:2:0:0:
217,0,66441,2,0,B|250:48|250:48|230:99,1,101.999996887207,10|0,0:0|3:2,0:0:0:0:
82,225,66757,1,8,0:0:0:0:
141,69,66915,1,2,3:2:0:0:
279,238,67073,6,0,P|198:258|225:386,1,203.999993774414,10|8,0:0|0:0,0:0:0:0:
387,305,67546,1,2,3:2:0:0:
339,150,67704,2,0,P|241:130|127:105,1,203.999993774414,10|8,0:0|0:0,0:0:0:0:
307,49,68178,1,2,3:2:0:0:
335,236,68336,6,0,P|386:227|442:217,1,101.999996887207,10|0,0:0|0:0,0:0:0:0:
307,49,68652,1,10,0:0:0:0:
203,229,68810,2,0,P|194:178|184:122,1,101.999996887207,2|8,3:2|0:0,0:0:0:0:
61,25,69125,2,0,P|52:76|42:132,1,101.999996887207,2|8,3:2|0:0,0:0:0:0:
203,229,69441,1,2,3:2:0:0:
37,325,69599,6,0,P|28:274|18:218,1,101.999996887207,8|0,0:0|3:2,0:0:0:0:
161,362,69915,1,8,0:0:0:0:
161,362,70073,1,0,3:2:0:0:
204,218,70231,2,0,P|153:227|97:237,1,101.999996887207,10|0,0:0|3:2,0:0:0:0:
285,366,70546,2,0,P|294:315|304:259,1,101.999996887207,10|0,0:0|3:2,0:0:0:0:
465,154,70862,6,0,P|474:205|484:261,1,101.999996887207,10|0,0:0|0:0,0:0:0:0:
359,132,71178,1,10,0:0:0:0:
291,255,71336,2,0,P|342:246|398:236,1,101.999996887207,2|8,3:2|0:0,0:0:0:0:
257,115,71652,2,0,P|206:106|150:96,1,101.999996887207,2|8,3:2|0:0,0:0:0:0:
18,170,71967,1,2,3:2:0:0:
162,262,72125,5,14,0:0:0:0:
31,353,72598,1,8,3:0:0:0:
31,353,72677,1,8,3:0:0:0:
31,353,72756,2,0,L|117:335,1,63.7500024318696,10|2,3:0|3:2,0:0:0:0:
239,278,73072,2,0,L|152:260,1,63.7500024318696,2|0,3:2|3:2,0:0:0:0:
333,371,73388,6,0,P|341:326|352:276,1,93.5000028533936,6|0,3:2|0:0,0:0:0:0:
412,133,73703,1,10,0:0:0:0:
510,245,73861,2,0,B|469:262|469:262|417:232,1,93.5000028533936,2|8,0:0|0:0,0:0:0:0:
326,96,74177,1,2,3:2:0:0:
326,96,74335,1,10,0:0:0:0:
231,222,74493,6,0,P|277:213|326:203,1,93.5000028533936,6|0,3:2|0:0,0:0:0:0:
211,76,74810,2,0,P|165:67|116:57,1,93.5000028533936,2|8,3:2|0:0,0:0:0:0:
5,215,75125,2,0,B|35:163|103:165|87:190|140:199|185:143,1,187.000005706787,2|0,3:2|3:2,0:0:0:0:
316,236,75598,1,10,0:0:0:0:
316,236,75756,1,2,3:2:0:0:
179,302,75914,6,0,P|133:293|84:283,1,93.5000028533936,14|0,0:0|0:0,0:0:0:0:
255,150,76230,2,0,P|264:196|274:245,1,93.5000028533936,10|0,0:0|3:2,0:0:0:0:
366,362,76545,2,0,P|410:352|461:343,1,93.5000028533936,10|0,0:0|3:2,0:0:0:0:
316,236,76861,1,10,0:0:0:0:
456,128,77019,6,0,P|522:160|504:268,1,187.000005706787,6|0,3:2|3:2,0:0:0:0:
391,192,77493,1,8,0:0:0:0:
391,192,77651,1,0,3:2:0:0:
394,49,77809,2,0,P|439:40|489:30,1,93.5000028533936,8|0,0:0|3:2,0:0:0:0:
296,139,78124,2,0,P|251:130|201:120,1,93.5000028533936,10|2,0:0|3:2,0:0:0:0:
61,31,78440,6,4,P|106:22|156:12,1,93.5000028533936,14|0,0:0|0:0,0:0:0:0:
43,135,78756,1,10,0:0:0:0:
203,206,78914,2,0,P|194:161|184:111,1,93.5000028533936,2|8,3:2|0:0,0:0:0:0:
76,239,79230,1,2,3:2:0:0:
76,239,79387,1,10,0:0:0:0:
218,328,79545,6,0,B|281:315|338:303|338:303|383:349,1,187.000005706787,6|2,3:2|3:2,0:0:0:0:
503,244,80019,1,8,0:0:0:0:
380,143,80177,2,0,B|357:190|357:190|382:231,1,93.5000028533936,2|8,3:2|0:0,0:0:0:0:
474,103,80493,1,2,3:2:0:0:
474,103,80651,1,10,0:0:0:0:
503,244,80808,1,2,3:2:0:0:
357,141,80967,6,4,P|269:116|163:93,1,187.000005706787,14|10,0:0|0:0,0:0:0:0:
37,24,81440,2,0,P|46:69|56:119,1,93.5000028533936,2|8,3:2|0:0,0:0:0:0:
162,183,81756,1,2,3:2:0:0:
162,183,81914,1,10,3:2:0:0:
13,255,82072,5,6,3:2:0:0:
181,335,82387,5,2,3:2:0:0:
82,203,82545,1,8,3:2:0:0:
93,358,82703,5,2,3:2:0:0:
230,240,82861,1,8,3:2:0:0:
287,379,83019,1,10,3:0:0:0:
287,379,83177,2,0,P|332:370|382:360,1,93.5000028533936,10|10,3:0|3:0,0:0:0:0:
485,211,83493,6,0,P|425:255|364:228,1,136,2|2,0:0|3:2,0:0:0:0:
308,129,83966,1,2,0:0:0:0:
435,100,84124,2,0,L|416:184,1,68,10|0,0:0|3:2,0:0:0:0:
359,43,84440,1,10,0:0:0:0:
359,43,84598,1,2,3:2:0:0:
306,139,84756,6,0,L|222:120,1,68,2|2,0:0|3:2,0:0:0:0:
96,134,85072,1,2,0:0:0:0:
159,0,85230,2,0,P|176:64|198:147,1,136,2|2,3:2|3:2,0:0:0:0:
117,283,85703,2,0,L|136:199,1,68,10|2,0:0|0:0,0:0:0:0:
325,262,86019,6,0,P|289:254|241:243,1,68,2|0,3:2|0:0,0:0:0:0:
207,366,86335,2,0,P|243:357|291:347,1,68,2|0,3:2|0:0,0:0:0:0:
174,225,86651,1,10,0:0:0:0:
102,367,86808,1,10,0:0:0:0:
243,274,86966,1,10,0:0:0:0:
79,244,87124,6,0,P|69:182|54:97,1,136,2|2,3:2|3:2,0:0:0:0:
161,34,87598,2,0,P|125:25|77:15,1,68,2|2,0:0|3:2,0:0:0:0:
157,133,87914,2,0,P|193:124|241:114,1,68,2|2,0:0|3:2,0:0:0:0:
311,24,88230,1,10,0:0:0:0:
311,24,88387,1,2,3:2:0:0:
382,144,88545,6,0,P|346:135|298:125,1,68,2|0,0:0|0:0,0:0:0:0:
451,16,88861,2,0,P|442:52|432:100,1,68,2|0,3:2|0:0,0:0:0:0:
509,212,89177,2,0,P|500:176|490:128,1,68,10|0,0:0|3:2,0:0:0:0:
406,286,89493,2,0,P|415:250|425:202,1,68,2|0,3:2|3:2,0:0:0:0:
312,293,89809,5,2,0:0:0:0:
312,293,89967,1,0,3:2:0:0:
408,200,90124,1,2,0:0:0:0:
211,129,90282,2,0,P|276:168|347:134,1,136,2|2,3:2|3:2,0:0:0:0:
212,298,90756,1,10,0:0:0:0:
103,191,90914,1,2,3:2:0:0:
56,364,91072,6,0,P|93:355|140:345,1,68,10|0,0:0|3:2,0:0:0:0:
285,221,91388,2,0,P|248:212|201:202,1,68,10|2,0:0|3:2,0:0:0:0:
293,344,91703,5,10,0:0:0:0:
375,193,91861,1,0,3:2:0:0:
409,378,92019,5,10,0:0:0:0:
290,234,92177,1,2,3:2:0:0:
496,364,93124,6,0,B|472:311|472:311|490:266|490:266|447:194,1,170,2|0,0:0|0:0,0:0:0:0:
439,184,93598,6,0,P|402:177|360:169,1,76.4999976654053,6|2,3:2|0:0,0:0:0:0:
271,31,93915,2,0,P|278:71|285:109,1,76.4999976654053,10|2,0:0|0:0,0:0:0:0:
155,198,94231,2,0,P|162:158|169:120,1,76.4999976654053,2|2,3:2|0:0,0:0:0:0:
272,226,94546,1,10,0:0:0:0:
150,292,94704,6,0,P|110:285|72:278,1,76.4999976654053,2|0,0:0|3:2,0:0:0:0:
243,374,95020,2,0,P|283:367|321:360,1,76.4999976654053,2|8,0:0|0:0,0:0:0:0:
461,284,95336,2,0,P|421:277|383:270,1,76.4999976654053,2|0,0:0|3:2,0:0:0:0:
509,182,95652,1,2,0:0:0:0:
377,105,95810,2,0,P|384:145|391:183,1,76.4999976654053,10|2,0:0|0:0,0:0:0:0:
480,46,96125,5,2,3:2:0:0:
480,46,96283,1,2,0:0:0:0:
299,3,96441,2,0,P|292:43|285:81,1,76.4999976654053,10|0,0:0|0:0,0:0:0:0:
161,158,96757,1,2,3:2:0:0:
294,230,96915,2,0,P|287:190|280:152,1,76.4999976654053,2|10,0:0|0:0,0:0:0:0:
129,72,97231,6,0,P|169:65|207:58,1,76.4999976654053,2|0,0:0|3:2,0:0:0:0:
174,233,97546,2,0,P|167:193|160:155,1,76.4999976654053,2|8,0:0|0:0,0:0:0:0:
44,89,97862,2,0,P|37:129|30:167,1,76.4999976654053,2|0,0:0|3:2,0:0:0:0:
174,233,98178,1,2,0:0:0:0:
31,288,98336,1,10,0:0:0:0:
162,353,98494,6,0,B|205:358|205:358|237:335,1,76.4999976654053,2|2,0:0|3:2,0:0:0:0:
387,376,98810,2,0,P|394:336|401:298,1,76.4999976654053,2|10,0:0|0:0,0:0:0:0:
369,158,99125,1,2,0:0:0:0:
269,256,99283,2,0,P|308:248|347:242,1,76.4999976654053,2|2,3:2|0:0,0:0:0:0:
229,144,99599,1,8,0:0:0:0:
229,144,99757,1,2,0:0:0:0:
362,69,99915,6,0,P|354:112|348:147,1,76.4999976654053,2|2,3:2|0:0,0:0:0:0:
495,129,100231,1,8,0:0:0:0:
445,281,100389,2,0,P|439:242|431:203,1,76.4999976654053,2|0,0:0|3:2,0:0:0:0:
293,261,100704,1,2,0:0:0:0:
407,357,100862,1,10,0:0:0:0:
248,378,101020,6,0,P|172:360|70:340,1,152.999995330811,2|2,0:0|0:0,0:0:0:0:
13,237,101494,1,10,0:0:0:0:
156,194,101652,2,0,P|148:235|142:272,1,76.4999976654053,2|0,0:0|3:2,0:0:0:0:
47,143,101967,1,2,0:0:0:0:
47,143,102125,1,10,0:0:0:0:
165,93,102283,6,0,P|206:85|243:79,1,76.4999976654053,2|0,0:0|3:2,0:0:0:0:
330,206,102599,2,0,P|292:198|254:192,1,76.4999976654053,2|8,0:0|0:0,0:0:0:0:
334,44,102915,2,0,P|341:81|347:119,1,76.4999976654053,2|0,0:0|3:2,0:0:0:0:
484,186,103231,1,2,3:2:0:0:
378,296,103388,1,10,0:0:0:0:
378,296,103704,5,14,3:0:0:0:
237,190,104336,1,0,3:2:0:0:
201,357,104967,1,10,0:0:0:0:
178,345,105283,1,2,3:1:0:0:
154,335,105599,1,2,0:0:0:0:
122,146,106231,6,0,P|60:164|-18:188,2,127.500004863739,2|0|2,3:2|3:2|3:2,0:0:0:0:
277,36,107494,6,0,P|339:54|417:78,2,127.500004863739,2|0|2,3:2|3:2|3:2,0:0:0:0:
29,30,108757,6,0,B|63:89|63:89|72:129|42:183,1,152.999995330811,6|2,3:2|3:2,0:0:0:0:
166,259,109231,1,0,3:2:0:0:
26,313,109388,1,10,0:0:0:0:
26,313,109546,1,2,3:2:0:0:
87,239,109861,5,10,0:0:0:0:
163,354,110019,2,0,P|202:345|258:333,1,76.4999976654053,2|0,0:0|0:0,0:0:0:0:
344,244,110335,1,2,3:2:0:0:
412,375,110493,2,0,P|372:366|316:354,1,76.4999976654053,2|8,3:2|0:0,0:0:0:0:
481,283,110808,1,0,3:2:0:0:
393,173,110967,2,0,P|384:213|372:269,1,76.4999976654053,0|10,3:2|0:0,0:0:0:0:
248,130,111282,6,0,P|257:170|269:226,1,76.4999976654053,2|0,3:2|0:0,0:0:0:0:
406,84,111598,2,0,B|365:90|365:90|319:59,1,76.4999976654053,2|2,3:2|3:2,0:0:0:0:
194,10,111914,1,10,0:0:0:0:
248,130,112072,1,2,3:2:0:0:
156,90,112387,5,10,0:0:0:0:
160,214,112545,2,0,P|120:205|64:193,1,76.4999976654053,2|0,0:0|0:0,0:0:0:0:
18,334,112861,2,0,P|58:325|114:313,1,76.4999976654053,2|0,3:2|3:2,0:0:0:0:
247,230,113177,1,10,0:0:0:0:
177,369,113335,1,2,3:2:0:0:
177,369,113493,1,10,3:0:0:0:
327,338,113809,5,6,3:2:0:0:
327,338,114440,1,0,3:2:0:0:
512,200,115072,6,0,P|474:233|396:212,2,127.500004863739,8|2|2,0:0|0:0|0:0,0:0:0:0:
290,139,116335,6,0,P|277:77|257:10,2,127.500004863739,2|0|2,3:2|3:2|3:2,0:0:0:0:
147,245,117598,6,0,P|134:306|116:383,2,127.500004863739,2|0|2,3:2|3:2|3:2,0:0:0:0:
47,22,118861,6,0,P|57:71|67:128,1,85,14|0,0:0|3:2,0:0:0:0:
222,174,119177,1,0,3:2:0:0:
83,270,119335,2,0,P|41:261|0:253,1,85,8|0,0:0|3:2,0:0:0:0:
141,119,119650,1,0,3:2:0:0:
202,278,119809,2,0,P|248:269|308:257,1,85,8|0,0:0|3:2,0:0:0:0:
450,171,120124,6,0,P|441:217|429:277,1,85,8|0,0:0|3:2,0:0:0:0:
272,156,120440,1,0,3:2:0:0:
374,23,120598,2,0,P|381:64|389:106,1,85,8|0,0:0|3:2,0:0:0:0:
240,12,120913,1,0,3:2:0:0:
188,172,121072,2,0,P|234:163|295:151,1,85,8|0,0:0|3:2,0:0:0:0:
366,306,121388,6,0,P|375:260|387:200,1,85,8|0,0:0|3:2,0:0:0:0:
245,348,121703,2,0,P|236:302|225:242,1,85,8|0,0:0|3:2,0:0:0:0:
85,174,122019,6,0,P|131:165|192:153,1,85,8|0,0:0|3:2,0:0:0:0:
326,39,122335,2,0,P|280:30|220:18,1,85,8|0,0:0|3:2,0:0:0:0:
342,206,122651,1,8,0:0:0:0:
458,50,122808,1,0,3:2:0:0:
235,114,122966,1,0,3:2:0:0:
452,23,123914,6,0,P|503:73|440:184,1,203.999993774414,6|8,3:1|0:0,0:0:0:0:
305,72,124387,1,2,3:2:0:0:
261,233,124545,2,0,P|311:222|380:208,1,101.999996887207,10|0,0:0|3:2,0:0:0:0:
203,110,124861,1,8,0:0:0:0:
155,272,125019,1,2,3:2:0:0:
305,72,125177,6,0,B|238:20|238:20|180:15|111:41,1,203.999993774414,10|8,0:0|0:0,0:0:0:0:
184,189,125651,1,2,3:2:0:0:
13,71,125809,2,0,P|32:172|49:275,1,203.999993774414,10|8,0:0|0:0,0:0:0:0:
194,181,126282,1,2,3:2:0:0:
225,350,126440,6,0,P|175:339|106:325,1,101.999996887207,10|0,0:0|0:0,0:0:0:0:
281,205,126756,1,10,0:0:0:0:
319,362,126914,2,0,P|369:351|438:337,1,101.999996887207,2|8,3:2|0:0,0:0:0:0:
510,187,127230,2,0,B|460:204|460:204|399:152,1,101.999996887207,2|8,3:2|0:0,0:0:0:0:
213,100,127545,6,0,P|264:123|368:32,1,203.999993774414,2|0,3:2|0:0,0:0:0:0:
192,0,128019,1,8,0:0:0:0:
192,0,128177,1,0,3:2:0:0:
113,140,128335,2,0,P|124:190|138:259,1,101.999996887207,10|0,0:0|3:2,0:0:0:0:
296,325,128651,2,0,P|307:275|321:206,1,101.999996887207,10|0,0:0|3:2,0:0:0:0:
111,324,128967,6,0,P|161:313|230:299,1,101.999996887207,14|0,0:0|0:0,0:0:0:0:
328,146,129282,1,10,0:0:0:0:
418,330,129440,2,0,P|368:319|299:305,1,101.999996887207,2|8,3:2|0:0,0:0:0:0:
180,201,129756,2,0,B|163:151|163:151|206:91,1,101.999996887207,2|8,3:2|0:0,0:0:0:0:
412,0,130072,6,0,P|431:92|459:232,1,203.999993774414,2|0,3:2|0:0,0:0:0:0:
256,150,130545,2,0,P|306:139|375:125,1,101.999996887207,10|0,0:0|3:2,0:0:0:0:
252,256,130861,1,10,0:0:0:0:
399,325,131019,2,0,P|388:275|374:206,1,101.999996887207,2|8,3:2|0:0,0:0:0:0:
504,121,131335,1,2,0:0:0:0:
347,29,131493,6,0,B|300:3|248:41|260:55|212:91|145:48|145:48|154:44,1,203.999993774414,2|10,3:2|0:0,0:0:0:0:
13,154,131967,2,0,P|24:104|38:35,1,101.999996887207,2|0,3:2|0:0,0:0:0:0:
186,137,132282,2,0,P|197:187|211:256,1,101.999996887207,2|8,3:2|0:0,0:0:0:0:
0,374,132598,6,0,P|36:311|160:320,1,203.999993774414,2|0,3:2|3:2,0:0:0:0:
320,372,133072,2,0,P|331:322|345:253,1,101.999996887207,8|0,0:0|3:2,0:0:0:0:
475,173,133387,1,2,0:0:0:0:
475,173,133545,1,2,3:2:0:0:
334,122,133703,1,10,0:0:0:0:
427,262,133861,1,2,0:0:0:0:
449,66,134019,6,0,B|318:32|318:32|249:70,1,203.999993774414,6|8,3:2|0:0,0:0:0:0:
158,187,134493,1,2,3:2:0:0:
334,122,134651,2,0,P|323:172|309:241,1,101.999996887207,10|0,0:0|3:2,0:0:0:0:
137,292,134966,1,8,0:0:0:0:
240,149,135124,1,2,3:2:0:0:
321,335,135282,6,0,B|375:303|431:347|413:368|462:403|531:366,1,203.999993774414,10|8,0:0|0:0,0:0:0:0:
359,245,135756,1,2,3:2:0:0:
506,177,135914,2,0,B|521:232|521:232|480:279,1,101.999996887207,10|0,0:0|3:2,0:0:0:0:
358,153,136230,1,8,0:0:0:0:
358,153,136387,1,2,3:2:0:0:
504,66,136545,6,0,P|454:55|385:41,1,101.999996887207,10|0,0:0|0:0,0:0:0:0:
216,0,136861,1,10,0:0:0:0:
266,172,137019,2,0,P|277:122|291:53,1,101.999996887207,2|8,3:2|0:0,0:0:0:0:
83,0,137335,2,0,P|94:50|108:119,1,101.999996887207,2|8,3:2|0:0,0:0:0:0:
266,172,137651,1,2,3:2:0:0:
99,290,137809,6,0,P|110:240|124:171,1,101.999996887207,8|0,0:0|3:2,0:0:0:0:
257,362,138124,2,0,P|246:312|232:243,1,101.999996887207,8|0,0:0|3:2,0:0:0:0:
392,176,138440,1,10,0:0:0:0:
392,176,138598,1,0,3:2:0:0:
435,343,138756,2,0,P|385:332|335:321,1,101.999996887207,10|0,0:0|3:2,0:0:0:0:
166,188,139072,6,0,P|216:177|266:166,1,101.999996887207,10|0,0:0|0:0,0:0:0:0:
380,42,139387,1,10,0:0:0:0:
189,0,139545,2,0,P|200:50|211:100,1,101.999996887207,2|8,3:2|0:0,0:0:0:0:
24,167,139861,2,0,P|35:117|46:67,1,101.999996887207,2|8,3:2|0:0,0:0:0:0:
166,188,140177,1,2,3:2:0:0:
4,284,140335,5,14,0:0:0:0:
86,355,140808,1,8,3:0:0:0:
86,355,140887,1,8,3:0:0:0:
86,355,140967,2,0,L|162:340,1,63.7500024318696,10|0,0:0|1:2,0:0:0:0:
289,258,141282,2,0,L|212:243,1,63.7500024318696,2|0,3:2|3:2,0:0:0:0:
309,380,141598,5,6,3:2:0:0:
256,192,149335,12,0,151072,0:0:0:0:
430,15,151703,6,0,P|439:57|449:106,1,76.4999976654053,6|0,3:2|0:0,0:0:0:0:
336,164,152019,1,2,3:2:0:0:
336,164,152177,1,0,3:2:0:0:
452,253,152335,2,0,P|461:211|471:162,1,76.4999976654053,10|0,0:0|3:2,0:0:0:0:
348,258,152651,2,0,P|357:300|367:349,1,76.4999976654053,2|8,3:2|0:0,0:0:0:0:
204,360,152967,6,0,P|246:351|295:341,1,76.4999976654053,2|0,0:0|0:0,0:0:0:0:
196,235,153282,2,0,P|154:226|105:216,1,76.4999976654053,2|0,3:2|3:2,0:0:0:0:
234,132,153598,1,10,0:0:0:0:
234,132,153756,1,0,3:2:0:0:
109,51,153914,2,0,P|118:93|128:142,1,76.4999976654053,2|8,3:2|0:0,0:0:0:0:
0,224,154230,6,0,P|9:182|19:133,1,76.4999976654053,2|0,3:2|0:0,0:0:0:0:
116,313,154545,2,0,P|79:305|25:294,1,76.4999976654053,2|0,3:2|3:2,0:0:0:0:
169,202,154861,1,10,0:0:0:0:
169,202,155019,1,0,3:2:0:0:
220,330,155177,2,0,P|257:322|311:311,1,76.4999976654053,2|8,3:2|0:0,0:0:0:0:
431,358,155493,6,0,P|439:321|450:267,1,76.4999976654053,2|0,0:0|0:0,0:0:0:0:
314,168,155809,2,0,P|322:205|333:259,1,76.4999976654053,2|0,3:2|3:2,0:0:0:0:
469,138,156124,1,10,0:0:0:0:
469,138,156282,1,0,3:2:0:0:
313,82,156440,1,0,3:2:0:0:
313,82,156598,1,8,0:0:0:0:
512,7,156756,6,0,P|475:15|421:26,1,76.4999976654053,2|0,3:2|0:0,0:0:0:0:
375,185,157072,2,0,P|383:148|394:94,1,76.4999976654053,2|0,3:2|3:2,0:0:0:0:
205,137,157387,1,10,0:0:0:0:
205,137,157545,1,0,3:2:0:0:
290,3,157703,2,0,P|298:40|309:94,1,76.4999976654053,2|8,3:2|0:0,0:0:0:0:
274,235,158019,6,0,P|237:227|183:216,1,76.4999976654053,2|0,0:0|0:0,0:0:0:0:
137,350,158335,2,0,P|174:342|228:331,1,76.4999976654053,2|0,3:2|3:2,0:0:0:0:
115,234,158651,1,10,0:0:0:0:
115,234,158808,1,0,3:2:0:0:
34,358,158967,2,0,P|26:321|15:267,1,76.4999976654053,2|8,3:2|0:0,0:0:0:0:
145,130,159282,6,0,P|94:146|21:70,1,152.999995330811,2|0,3:2|3:2,0:0:0:0:
119,0,159756,1,0,3:2:0:0:
218,65,159914,2,0,P|226:102|237:156,1,76.4999976654053,8|0,0:0|3:2,0:0:0:0:
146,232,160230,1,0,3:2:0:0:
259,295,160388,6,0,B|301:312|301:312|348:289,1,76.4999976654053,8|0,0:0|3:2,0:0:0:0:
420,185,160703,1,0,0:0:0:0:
297,221,160861,1,2,3:2:0:0:
297,221,161019,1,0,3:2:0:0:
417,341,161177,2,0,P|409:304|398:250,1,76.4999976654053,8|0,0:0|3:2,0:0:0:0:
326,118,161493,2,0,P|318:155|307:209,1,76.4999976654053,10|8,0:0|0:0,0:0:0:0:
486,59,161809,6,0,P|449:51|380:36,1,93.5000028533936,6|0,3:2|0:0,0:0:0:0:
226,0,162124,2,0,P|238:54|249:106,1,93.5000028533936,8|0,0:0|0:0,0:0:0:0:
81,117,162440,1,0,0:0:0:0:
81,117,162598,1,0,3:2:0:0:
190,268,162756,2,0,P|202:214|213:162,1,93.5000028533936,10|0,0:0|3:2,0:0:0:0:
45,252,163072,5,0,0:0:0:0:
45,252,163230,1,0,3:2:0:0:
172,364,163388,2,0,P|226:352|278:341,1,93.5000028533936,8|0,0:0|0:0,0:0:0:0:
385,208,163703,2,0,P|331:196|279:185,1,93.5000028533936,0|0,0:0|3:2,0:0:0:0:
357,384,164019,2,0,P|367:338|380:278,1,93.5000028533936,8|0,0:0|0:0,0:0:0:0:
478,140,164335,6,0,P|488:186|501:246,1,93.5000028533936,0|0,3:2|0:0,0:0:0:0:
318,158,164651,1,8,0:0:0:0:
456,58,164808,1,0,0:0:0:0:
272,25,164967,2,0,P|318:35|378:48,1,93.5000028533936,0|0,0:0|3:2,0:0:0:0:
226,147,165282,1,8,0:0:0:0:
112,15,165440,6,0,B|79:91|79:91|81:154|121:185,1,187.000005706787,0|0,3:2|3:2,0:0:0:0:
290,288,165914,2,0,P|244:278|184:265,1,93.5000028533936,10|0,0:0|0:0,0:0:0:0:
35,372,166230,2,0,B|86:384|86:384|136:349,1,93.5000028533936,2|0,0:0|3:2,0:0:0:0:
19,180,166545,2,0,P|29:226|42:286,1,93.5000028533936,10|0,0:0|0:0,0:0:0:0:
184,181,166861,6,0,P|115:173|87:83,1,140.25000428009,2|0,3:2|0:0,0:0:0:0:
111,44,167177,2,0,P|157:34|217:21,1,93.5000028533936,10|0,0:0|0:0,0:0:0:0:
340,146,167493,2,0,P|294:136|234:123,1,93.5000028533936,0|0,0:0|3:2,0:0:0:0:
404,24,167809,1,10,0:0:0:0:
473,172,167966,6,0,P|455:259|430:377,1,187.000005706787,0|0,3:2|3:2,0:0:0:0:
271,380,168440,2,0,P|261:334|248:274,1,93.5000028533936,8|0,0:0|0:0,0:0:0:0:
105,212,168756,1,0,0:0:0:0:
245,160,168914,1,0,3:2:0:0:
169,314,169072,2,0,P|123:304|63:291,1,93.5000028533936,8|0,0:0|0:0,0:0:0:0:
4,139,169388,6,0,P|50:129|110:116,1,93.5000028533936,0|0,3:2|0:0,0:0:0:0:
240,14,169703,1,8,0:0:0:0:
336,179,169861,2,0,P|290:169|230:156,1,93.5000028533936,0|0,3:2|0:0,0:0:0:0:
364,42,170177,1,0,3:2:0:0:
364,42,170335,1,8,0:0:0:0:
490,195,170493,6,0,P|423:224|464:346,1,187.000005706787,0|0,3:2|3:2,0:0:0:0:
213,358,170967,2,0,P|259:348|319:335,1,93.5000028533936,8|0,0:0|3:2,0:0:0:0:
150,242,171282,2,0,P|104:232|44:219,1,93.5000028533936,8|0,0:0|3:2,0:0:0:0:
205,92,171598,1,8,3:0:0:0:
255,181,171756,1,8,3:0:0:0:
86,145,171914,6,0,P|96:99|105:47,1,76.4999976654053,0|0,3:2|0:0,0:0:0:0:
292,101,172230,2,0,P|274:25|182:9,2,152.999995330811,2|10|2,0:0|0:0|0:0,0:0:0:0:
433,213,173177,2,0,B|379:198|335:183|335:183|270:227,1,152.999995330811,2|0,3:2|1:2,0:0:0:0:
275,319,173651,2,0,B|322:306|361:326|346:344|390:365|434:345,1,152.999995330811,2|2,3:2|3:2,0:0:0:0:
294,212,174125,1,2,0:0:0:0:
184,306,174282,1,8,0:0:0:0:
184,306,174361,1,2,0:0:0:0:
184,306,174440,6,0,P|175:259|161:188,1,101.999996887207,14|0,0:0|3:2,0:0:0:0:
15,77,174756,1,8,0:0:0:0:
86,254,174914,1,0,3:2:0:0:
148,33,175072,1,8,0:0:0:0:
20,194,175230,1,0,3:2:0:0:
196,133,175388,2,0,P|243:124|314:110,1,101.999996887207,8|0,0:0|3:2,0:0:0:0:
437,9,175703,6,0,P|428:56|414:127,1,101.999996887207,8|0,0:0|3:2,0:0:0:0:
262,243,176019,1,8,0:0:0:0:
342,64,176177,1,0,3:2:0:0:
434,280,176335,1,8,0:0:0:0:
276,141,176493,1,0,3:2:0:0:
238,357,176651,2,0,P|285:348|356:334,1,101.999996887207,8|0,0:0|3:2,0:0:0:0:
144,203,176967,6,0,P|97:194|26:180,1,101.999996887207,8|0,0:0|3:2,0:0:0:0:
221,50,177282,1,0,3:2:0:0:
257,234,177440,2,0,P|304:225|375:211,1,101.999996887207,8|0,0:0|3:2,0:0:0:0:
495,90,177756,1,0,3:2:0:0:
302,21,177914,2,0,P|311:68|325:139,1,101.999996887207,8|0,0:0|3:2,0:0:0:0:
491,269,178230,1,8,0:0:0:0:
124,371,179809,5,6,3:2:0:0:
348,272,180440,1,6,3:2:0:0:
130,210,181072,1,6,3:2:0:0:
341,123,181703,1,6,3:2:0:0:
143,60,182335,1,6,3:2:0:0:
340,0,182967,1,6,3:2:0:0:
265,113,183282,6,0,L|201:99,2,42.5,0|0|0,3:2|3:2|3:2,0:0:0:0:
411,189,183598,2,0,P|420:145|432:92,1,85,8|2,0:0|3:2,0:0:0:0:
276,196,183914,2,0,P|285:239|297:292,1,85,2|0,3:2|0:0,0:0:0:0:
471,339,184230,1,10,0:0:0:0:
471,339,184545,6,0,P|388:350|296:365,1,170,2|2,3:2|3:2,0:0:0:0:
150,377,185019,2,0,P|141:336|125:271,1,85,2|0,0:0|3:2,0:0:0:0:
259,194,185335,2,0,P|248:233|234:299,1,85,2|2,0:0|3:2,0:0:0:0:
43,207,185652,6,0,P|111:218|176:122,1,170,2|0,0:0|1:2,0:0:0:0:
71,50,186125,2,0,P|81:89|95:155,1,85,2|0,3:2|1:2,0:0:0:0:
183,9,186441,1,2,3:2:0:0:
183,9,186599,1,2,3:2:0:0:
269,129,186757,2,0,P|230:119|164:105,1,85,8|2,0:0|1:2,0:0:0:0:
360,15,187073,6,0,B|391:86|391:86|394:135|362:175,1,170,2|2,3:2|3:2,0:0:0:0:
223,263,187546,2,0,P|267:253|328:239,1,85,2|0,3:2|0:0,0:0:0:0:
391,371,187861,2,0,P|347:361|286:347,1,85,2|8,3:2|0:0,0:0:0:0:
428,215,188177,6,0,P|488:241|477:352,1,170,2|0,3:2|3:2,0:0:0:0:
330,277,188651,2,0,P|340:233|354:172,1,85,8|0,0:0|3:2,0:0:0:0:
218,78,188966,1,10,0:0:0:0:
218,78,189124,1,2,0:0:0:0:
246,232,189283,1,2,0:0:0:0:
343,90,189441,1,2,0:0:0:0:
117,1,189599,6,0,P|136:105|153:210,1,203.999993774414,6|8,3:2|0:0,0:0:0:0:
325,282,190073,1,2,3:2:0:0:
167,355,190231,2,0,B|113:368|113:368|58:325,1,101.999996887207,10|0,0:0|3:2,0:0:0:0:
195,209,190546,1,8,0:0:0:0:
195,209,190704,1,2,3:2:0:0:
286,375,190862,6,0,P|337:380|408:246,1,203.999993774414,10|8,0:0|0:0,0:0:0:0:
281,149,191336,1,2,3:2:0:0:
479,124,191494,2,0,B|461:65|400:55|393:84|326:75|313:3,1,203.999993774414,10|8,0:0|0:0,0:0:0:0:
130,0,191967,1,2,3:2:0:0:
190,178,192124,6,0,P|200:127|215:49,1,101.999996887207,10|0,0:0|0:0,0:0:0:0:
33,162,192440,1,10,0:0:0:0:
167,273,192598,2,0,P|217:262|295:247,1,101.999996887207,2|8,3:2|0:0,0:0:0:0:
413,362,192914,2,0,P|423:311|438:233,1,101.999996887207,2|8,3:2|0:0,0:0:0:0:
302,147,193230,1,2,3:2:0:0:
470,58,193388,6,0,P|480:108|495:186,1,101.999996887207,8|0,0:0|3:2,0:0:0:0:
264,70,193703,2,0,P|314:59|392:44,1,101.999996887207,8|0,0:0|3:2,0:0:0:0:
316,240,194019,2,0,P|265:229|187:214,1,101.999996887207,10|0,0:0|3:2,0:0:0:0:
94,91,194335,1,10,0:0:0:0:
94,91,194493,1,0,3:2:0:0:
15,261,194651,6,0,P|65:250|143:235,1,101.999996887207,10|0,0:0|0:0,0:0:0:0:
310,241,194966,1,10,0:0:0:0:
127,348,195124,2,0,P|177:358|255:373,1,101.999996887207,2|8,3:2|0:0,0:0:0:0:
405,259,195440,2,0,P|394:309|379:387,1,101.999996887207,2|8,3:2|0:0,0:0:0:0:
230,271,195756,1,2,3:2:0:0:
402,165,195914,5,14,0:0:0:0:
261,110,196387,1,8,3:0:0:0:
261,110,196466,1,8,3:0:0:0:
261,110,196545,2,0,L|280:189,1,63.7500024318696,10|8,0:0|3:0,0:0:0:0:
381,82,196861,2,0,L|400:2,1,63.7500024318696,10|0,3:0|0:0,0:0:0:0:
261,13,197177,6,0,P|182:29|76:54,1,152.999995330811,6|0,3:2|1:2,0:0:0:0:
10,192,197651,1,0,0:0:0:0:
10,192,197809,2,0,P|28:150|137:146,1,152.999995330811,8|2,0:0|0:0,0:0:0:0:
105,291,198282,2,0,P|97:250|87:201,1,76.4999976654053,10|0,0:0|0:0,0:0:0:0:
214,133,198598,5,0,3:2:0:0:
214,133,198756,2,0,P|206:173|196:222,1,76.4999976654053,0|0,3:2|3:2,0:0:0:0:
255,325,199072,2,0,P|295:317|344:307,1,76.4999976654053,10|0,0:0|3:2,0:0:0:0:
391,201,199387,1,0,3:2:0:0:
391,201,199545,1,10,0:0:0:0:
475,331,199703,6,0,P|490:257|513:165,1,152.999995330811,0|0,3:2|3:2,0:0:0:0:
382,108,200177,1,2,0:0:0:0:
382,108,200335,2,0,P|422:100|471:90,1,76.4999976654053,8|2,0:0|3:2,0:0:0:0:
327,21,200651,1,0,3:2:0:0:
327,21,200809,6,0,P|286:13|237:3,1,76.4999976654053,10|0,0:0|0:0,0:0:0:0:
116,59,201124,1,2,3:2:0:0:
245,135,201282,1,0,3:2:0:0:
108,217,201440,1,2,3:2:0:0:
108,217,201598,2,0,P|115:176|125:127,1,76.4999976654053,10|0,0:0|3:2,0:0:0:0:
243,220,201914,2,0,P|250:260|260:309,1,76.4999976654053,2|8,3:2|0:0,0:0:0:0:
75,350,202230,6,0,P|115:342|164:332,1,76.4999976654053,2|2,3:2|3:2,0:0:0:0:
243,220,202545,1,2,3:2:0:0:
340,371,202703,1,0,0:0:0:0:
340,371,202861,2,0,P|300:363|251:353,1,76.4999976654053,10|0,0:0|3:2,0:0:0:0:
353,243,203177,1,2,3:2:0:0:
484,354,203335,6,0,B|463:301|451:258|451:258|488:204,1,152.999995330811,8|0,0:0|3:2,0:0:0:0:
337,151,203809,2,0,B|324:195|324:195|356:235,1,76.4999976654053,2|2,3:2|3:2,0:0:0:0:
455,124,204124,1,10,0:0:0:0:
455,124,204282,1,2,3:2:0:0:
323,54,204440,2,0,P|283:46|234:36,1,76.4999976654053,0|10,3:2|0:0,0:0:0:0:
94,139,204756,6,0,P|57:92|110:2,1,152.999995330811,2|0,3:2|3:2,0:0:0:0:
198,101,205230,1,0,0:0:0:0:
198,101,205388,2,0,P|190:141|180:190,1,76.4999976654053,10|0,0:0|3:2,0:0:0:0:
54,230,205703,1,0,3:2:0:0:
172,326,205861,6,0,P|251:308|340:292,1,152.999995330811,10|0,0:0|3:2,0:0:0:0:
453,214,206335,2,0,P|413:206|364:196,1,76.4999976654053,8|2,0:0|3:2,0:0:0:0:
230,118,206651,1,10,0:0:0:0:
379,69,206808,1,8,3:0:0:0:
279,201,206966,1,10,3:0:0:0:
226,32,207124,1,8,3:0:0:0:
374,194,207282,5,6,3:2:0:0:
256,192,207361,12,0,212177,0:0:0:0:
