osu file format v14

[General]
AudioFilename: audio.mp3
AudioLeadIn: 0
PreviewTime: 178760
Countdown: 0
SampleSet: Soft
StackLeniency: 0.7
Mode: 0
LetterboxInBreaks: 0
WidescreenStoryboard: 1

[Editor]
DistanceSpacing: 1.5
BeatDivisor: 4
GridSize: 8
TimelineZoom: 2.1

[Metadata]
Title:Reloaded
TitleUnicode:Reloaded
Artist:nonoc
ArtistUnicode:nonoc
Creator:SpokenAway
Version:Hard
Source:Re:ゼロから始める異世界生活 Lost in Memories
Tags:re:zero rock jrock j-rock kara hajimeru isekai seikatsu starting life in a different world from zero japanese anime game SEGA video game rezero
BeatmapID:2715285
BeatmapSetID:1309794

[Difficulty]
HPDrainRate:5
CircleSize:3.6
OverallDifficulty:7
ApproachRate:8
SliderMultiplier:1.4
SliderTickRate:1

[Events]
//Background and Video events
0,0,"bg.png",0,0
//Break Periods
2,20535,24164
2,141798,148427
//Storyboard Layer 0 (Background)
//Storyboard Layer 1 (Fail)
//Storyboard Layer 2 (Pass)
//Storyboard Layer 3 (Foreground)
//Storyboard Layer 4 (Overlay)
//Storyboard Sound Samples

[TimingPoints]
125,315.789473684211,4,2,1,80,1,0
125,-166.666666666667,4,2,1,40,0,0
10230,-100,4,2,1,70,0,0
20335,-133.333333333333,4,2,1,50,0,0
25388,-125,4,2,1,55,0,0
35414,-125,4,2,1,5,0,0
35493,-111.111111111111,4,2,1,65,0,0
45598,-133.333333333333,4,2,1,50,0,0
53177,-100,4,2,1,70,0,0
55703,-83.3333333333333,4,2,1,85,0,1
72125,-133.333333333333,4,2,1,50,0,0
73309,-133.333333333333,4,2,1,5,0,0
73388,-90.9090909090909,4,2,1,80,0,0
83493,-125,4,2,1,55,0,0
85940,-125,4,2,1,5,0,0
86019,-125,4,2,1,50,0,0
93598,-111.111111111111,4,2,1,60,0,0
103703,-133.333333333333,4,2,1,50,0,0
108756,-111.111111111111,4,2,1,60,0,0
113809,-133.333333333333,4,2,1,50,0,0
118861,-100,4,2,1,70,0,0
123914,-83.3333333333333,4,2,1,85,0,1
140335,-133.333333333333,4,2,1,50,0,0
141598,-125,4,2,1,55,0,0
151703,-111.111111111111,4,2,1,60,0,0
161809,-90.9090909090909,4,2,1,80,0,0
162046,-90.9090909090909,4,2,1,5,0,0
162125,-90.9090909090909,4,2,1,80,0,0
167098,-90.9090909090909,4,2,1,5,0,0
167177,-90.9090909090909,4,2,1,80,0,0
171914,-100,4,2,1,70,0,0
174440,-83.3333333333333,4,2,1,85,0,0
179493,-99.9999999999999,4,2,1,70,0,0
189598,-83.3333333333333,4,2,1,85,0,1
195914,-133.333333333333,4,2,1,50,0,0
197098,-133.333333333333,4,2,1,5,0,0
197177,-111.111111111111,4,2,1,60,0,0
207282,-249.999999999999,4,2,1,50,0,0
207361,-249.999999999999,4,2,1,5,0,0
212177,-199.999999999999,4,2,1,50,0,0

[Colours]
Combo1 : 11,88,193
Combo2 : 201,192,24
Combo3 : 138,69,0
Combo4 : 116,137,148

[HitObjects]
476,32,125,6,0,P|461:125|443:214,1,167.999994873047,6|2,3:2|3:2,0:0:0:0:
352,317,1388,6,0,B|393:334|393:334|433:320,2,83.9999974365235,10|2|2,0:0|0:0|0:0,0:0:0:0:
227,229,2651,6,0,B|210:188|210:188|224:148,2,83.9999974365235,2|2|2,3:2|3:2|3:2,0:0:0:0:
150,352,3914,6,0,P|93:344|68:311,2,83.9999974365235,2|2|2,3:2|3:2|3:2,0:0:0:0:
82,231,5177,6,0,B|30:185|30:185|76:88,1,167.999994873047,2|2,3:2|3:2,0:0:0:0:
230,88,6440,6,0,L|249:-7,2,83.9999974365235,10|2|2,0:0|0:0|0:0,0:0:0:0:
256,192,7703,12,0,9914,0:0:0:0:
29,27,10230,6,0,P|43:99|60:187,1,140,6|10,3:1|0:0,0:0:0:0:
130,216,10703,2,0,P|122:255|113:306,1,70,2|8,3:2|0:0,0:0:0:0:
75,366,11019,1,2,3:2:0:0:
37,282,11177,1,10,0:0:0:0:
127,285,11335,6,0,B|195:274|195:274|203:270|203:270|290:258,1,140,2|2,3:2|3:2,0:0:0:0:
357,244,11808,1,10,0:0:0:0:
357,244,11966,2,0,P|347:183|256:146,1,140,2|0,3:2|3:2,0:0:0:0:
229,77,12440,1,10,0:0:0:0:
229,77,12598,1,2,3:2:0:0:
311,38,12756,6,0,P|350:30|401:21,1,70,14|0,0:0|0:0,0:0:0:0:
465,70,13072,1,10,0:0:0:0:
465,70,13230,2,0,P|457:109|448:160,1,70,0|10,3:2|0:0,0:0:0:0:
371,182,13545,2,0,P|379:221|388:272,1,70,0|10,3:2|0:0,0:0:0:0:
456,349,13861,6,0,P|381:332|303:317,1,140,6|2,3:2|3:2,0:0:0:0:
251,266,14335,1,8,0:0:0:0:
251,266,14493,1,2,3:2:0:0:
197,339,14651,2,0,P|156:340|110:310,1,70,10|0,0:0|3:2,0:0:0:0:
44,296,14967,2,0,P|40:336|69:383,1,70,8|0,0:0|3:2,0:0:0:0:
129,274,15282,6,0,B|152:226|152:226|89:143,1,140,14|10,0:0|0:0,0:0:0:0:
51,84,15756,1,2,3:2:0:0:
51,84,15914,2,0,P|90:76|141:67,1,70,8|0,0:0|3:2,0:0:0:0:
200,113,16230,1,10,0:0:0:0:
255,20,16387,6,0,B|307:53|307:53|286:145,1,140,6|0,3:2|3:2,0:0:0:0:
225,194,16861,2,0,P|233:233|242:284,1,70,8|0,0:0|3:2,0:0:0:0:
315,311,17177,2,0,P|323:272|332:221,1,70,8|2,0:0|3:2,0:0:0:0:
385,171,17493,1,10,0:0:0:0:
385,171,17651,1,2,3:2:0:0:
426,252,17809,6,0,P|463:258|516:235,1,70,14|0,0:0|0:0,0:0:0:0:
467,162,18124,1,10,0:0:0:0:
508,76,18282,2,0,P|444:61|345:41,1,140,2|2,3:2|3:2,0:0:0:0:
296,99,18756,1,10,0:0:0:0:
225,23,18914,6,0,B|177:58|177:58|205:136,1,140,6|0,3:2|3:2,0:0:0:0:
274,193,19388,2,0,P|266:232|257:283,1,70,8|0,0:0|3:2,0:0:0:0:
208,336,19703,2,0,P|169:328|118:319,1,70,8|0,0:0|3:2,0:0:0:0:
71,262,20019,2,0,L|60:218,3,35,0|0|0|0,3:2|3:2|3:2|3:2,0:0:0:0:
75,177,20335,5,6,3:2:0:0:
30,88,24914,5,2,3:2:0:0:
30,88,25072,2,0,L|102:71,1,52.5000020027161,10|2,0:0|0:0,0:0:0:0:
172,17,25388,6,0,B|210:64|210:64|184:132,1,112,6|2,3:2|3:2,0:0:0:0:
122,158,25861,1,2,0:0:0:0:
122,158,26019,2,0,P|134:210|148:289,1,112,2|2,3:2|3:2,0:0:0:0:
201,337,26493,1,2,0:0:0:0:
201,337,26651,2,0,P|235:336|277:323,1,56,2|2,3:2|0:0,0:0:0:0:
300,261,26966,1,2,3:2:0:0:
300,261,27124,6,0,P|361:277|420:293,1,112,2|2,0:0|0:0,0:0:0:0:
483,251,27598,2,0,P|472:223|450:198,1,56,2|0,3:2|0:0,0:0:0:0:
374,178,27914,2,0,P|384:121|343:65,1,112,2|2,3:2|3:2,0:0:0:0:
300,14,28388,1,2,0:0:0:0:
233,65,28546,2,0,L|180:50,2,56,2|2|2,3:2|0:0|3:2,0:0:0:0:
292,124,29019,1,2,0:0:0:0:
174,215,29335,5,2,0:0:0:0:
174,215,29493,2,0,L|230:205,1,56,2|2,3:2|0:0,0:0:0:0:
269,279,29809,2,0,L|213:289,1,56,2|2,3:2|0:0,0:0:0:0:
160,354,30125,2,0,L|104:344,1,56,2|2,3:2|0:0,0:0:0:0:
37,272,30440,6,0,P|26:217|12:155,1,112,2|2,3:2|3:2,0:0:0:0:
49,87,30914,1,2,0:0:0:0:
49,87,31072,2,0,P|98:115|162:92,1,112,2|2,3:2|3:2,0:0:0:0:
210,43,31546,1,2,0:0:0:0:
258,110,31703,2,0,L|240:190,2,56,2|2|2,3:2|0:0|3:2,0:0:0:0:
317,50,32177,1,2,0:0:0:0:
477,121,32493,5,2,0:0:0:0:
477,121,32651,2,0,L|467:177,1,56,2|2,3:2|0:0,0:0:0:0:
449,271,32967,2,0,P|388:259|331:253,1,112,2|2,3:2|3:2,0:0:0:0:
267,298,33440,1,2,0:0:0:0:
213,232,33598,2,0,L|224:170,2,56,2|2|2,3:2|0:0|3:2,0:0:0:0:
165,302,34072,1,2,0:0:0:0:
135,168,34387,5,2,0:0:0:0:
135,168,34545,2,0,L|79:178,1,56,2|2,3:2|0:0,0:0:0:0:
27,244,34861,2,0,L|37:300,1,56,2|2,3:2|0:0,0:0:0:0:
106,347,35177,2,0,P|136:348|186:313,1,84,2|0,3:2|0:0,0:0:0:0:
217,284,35493,6,0,L|283:298,1,62.9999980773926,4|0,3:2|3:2,0:0:0:0:
334,365,35809,2,0,L|404:352,1,62.9999980773926,10|0,0:0|3:2,0:0:0:0:
460,284,36124,1,2,1:2:0:0:
460,284,36282,2,0,L|390:271,1,62.9999980773926,2|10,3:2|0:0,0:0:0:0:
320,217,36598,6,0,B|362:181|362:181|349:110,1,125.999996154785,2|2,0:0|3:2,0:0:0:0:
260,138,37072,1,8,0:0:0:0:
260,138,37230,2,0,P|226:125|192:43,1,125.999996154785,2|2,3:2|3:2,0:0:0:0:
283,18,37703,1,10,0:0:0:0:
283,18,37861,1,2,0:0:0:0:
345,88,38019,6,0,L|415:75,1,62.9999980773926,2|0,3:2|3:2,0:0:0:0:
490,107,38335,2,0,L|477:177,1,62.9999980773926,10|0,0:0|3:2,0:0:0:0:
414,230,38651,2,0,P|438:292|465:357,1,125.999996154785,2|10,1:2|0:0,0:0:0:0:
371,374,39125,6,0,P|313:383|267:334,1,125.999996154785,0|2,0:0|3:2,0:0:0:0:
223,262,39598,1,10,0:0:0:0:
167,330,39756,2,0,B|132:290|132:290|154:217,1,125.999996154785,2|0,3:2|3:2,0:0:0:0:
229,175,40230,2,0,L|205:110,1,62.9999980773926,8|2,0:0|0:0,0:0:0:0:
163,45,40545,5,0,3:2:0:0:
163,45,40703,1,2,3:2:0:0:
102,109,40861,2,0,L|89:179,1,62.9999980773926,10|0,0:0|3:2,0:0:0:0:
22,227,41177,2,0,L|35:297,1,62.9999980773926,2|0,1:2|3:2,0:0:0:0:
98,356,41493,1,10,0:0:0:0:
98,356,41651,6,0,P|172:366|222:316,1,125.999996154785,2|2,0:0|3:2,0:0:0:0:
263,267,42124,1,8,0:0:0:0:
315,337,42282,2,0,P|377:325|461:311,1,125.999996154785,2|2,3:2|3:2,0:0:0:0:
489,242,42756,1,8,0:0:0:0:
489,242,42914,1,2,0:0:0:0:
408,205,43072,6,0,L|419:143,1,62.9999980773926,2|0,3:2|3:2,0:0:0:0:
495,98,43388,2,0,L|482:28,1,62.9999980773926,10|0,0:0|3:2,0:0:0:0:
399,39,43703,1,2,1:2:0:0:
399,39,43861,2,0,L|329:26,1,62.9999980773926,2|10,3:2|0:0,0:0:0:0:
248,18,44177,2,0,P|248:53|261:88,1,62.9999980773926,2|0,0:0|0:0,0:0:0:0:
330,128,44493,2,0,P|330:163|317:198,1,62.9999980773926,2|8,3:2|0:0,0:0:0:0:
309,295,44809,6,0,P|263:253|192:197,1,125.999996154785,2|8,3:2|3:0,0:0:0:0:
140,264,45282,1,8,3:0:0:0:
79,184,45440,1,8,3:0:0:0:
22,279,45598,5,6,3:2:0:0:
22,279,46230,5,0,3:2:0:0:
41,172,46861,2,0,P|32:120|18:55,2,105.000004005432,10|2|2,0:0|0:0|0:0,0:0:0:0:
160,79,48124,6,0,B|205:46|205:46|266:65,2,105.000004005432,2|0|2,3:2|3:2|3:2,0:0:0:0:
348,153,49387,2,0,P|377:135|383:56,2,105.000004005432,2|0|2,3:2|3:2|3:2,0:0:0:0:
184,247,50651,5,0,3:2:0:0:
184,247,51282,1,0,3:2:0:0:
376,357,51914,6,0,B|341:319|341:319|364:260,2,105.000004005432,2|0|2,3:2|3:2|3:2,0:0:0:0:
500,253,52861,1,2,0:0:0:0:
500,253,53177,6,0,L|478:157,1,70,12|0,0:0|3:2,0:0:0:0:
393,134,53493,1,8,0:0:0:0:
475,94,53651,1,0,3:2:0:0:
484,184,53808,1,8,0:0:0:0:
398,219,53966,1,0,3:2:0:0:
301,172,54124,2,0,L|322:76,1,70,8|0,0:0|3:2,0:0:0:0:
249,24,54440,6,0,L|153:45,1,70,8|8,0:0|0:0,0:0:0:0:
91,128,54756,1,8,0:0:0:0:
9,354,55703,6,0,P|88:338|177:325,1,167.999994873047,6|8,3:1|0:0,0:0:0:0:
249,256,56177,1,2,3:2:0:0:
311,334,56335,2,0,L|411:311,1,83.9999974365235,10|0,0:0|3:2,0:0:0:0:
462,241,56651,2,0,L|362:218,1,83.9999974365235,8|2,0:0|3:2,0:0:0:0:
303,156,56966,6,0,B|271:105|271:105|371:11,1,167.999994873047,10|8,0:0|0:0,0:0:0:0:
451,32,57440,1,2,3:2:0:0:
388,110,57598,2,0,P|387:157|421:205,1,83.9999974365235,10|0,0:0|0:0,0:0:0:0:
482,252,57914,2,0,P|483:299|449:347,1,83.9999974365235,8|2,0:0|3:2,0:0:0:0:
365,337,58230,6,0,P|318:336|270:370,1,83.9999974365235,10|0,0:0|0:0,0:0:0:0:
189,367,58545,1,10,0:0:0:0:
189,367,58703,2,0,P|188:320|222:272,1,83.9999974365235,2|8,3:2|0:0,0:0:0:0:
282,223,59019,2,0,P|283:176|249:128,1,83.9999974365235,2|8,3:2|0:0,0:0:0:0:
207,61,59335,1,2,3:2:0:0:
135,131,59493,6,0,L|112:229,1,83.9999974365235,10|0,0:0|3:2,0:0:0:0:
30,157,59809,2,0,L|52:60,1,83.9999974365235,8|0,0:0|3:2,0:0:0:0:
135,131,60124,2,0,L|232:109,1,83.9999974365235,10|0,0:0|3:2,0:0:0:0:
284,36,60440,2,0,P|332:30|375:67,1,83.9999974365235,10|0,0:0|3:2,0:0:0:0:
452,91,60756,6,0,L|430:188,1,83.9999974365235,14|0,0:0|0:0,0:0:0:0:
377,257,61072,1,10,0:0:0:0:
322,171,61230,2,0,P|274:165|231:202,1,83.9999974365235,2|8,3:2|0:0,0:0:0:0:
190,267,61545,2,0,P|142:273|99:236,1,83.9999974365235,2|8,3:2|0:0,0:0:0:0:
63,148,61861,6,0,P|17:176|14:293,1,167.999994873047,2|0,3:2|0:0,0:0:0:0:
94,354,62335,2,0,L|191:332,1,83.9999974365235,10|0,0:0|3:2,0:0:0:0:
277,278,62651,1,10,0:0:0:0:
277,278,62809,2,0,L|374:300,1,83.9999974365235,2|8,3:2|0:0,0:0:0:0:
447,355,63124,1,2,0:0:0:0:
447,355,63282,6,0,P|461:280|483:177,1,167.999994873047,2|10,3:2|0:0,0:0:0:0:
471,89,63756,2,0,P|434:63|368:70,1,83.9999974365235,2|0,3:2|0:0,0:0:0:0:
339,143,64072,2,0,P|294:136|250:86,1,83.9999974365235,2|8,3:2|0:0,0:0:0:0:
197,37,64387,6,0,B|139:70|139:70|167:167,1,167.999994873047,2|0,3:2|3:2,0:0:0:0:
247,229,64861,2,0,L|223:332,1,83.9999974365235,8|0,0:0|3:2,0:0:0:0:
137,357,65177,1,2,0:0:0:0:
76,283,65335,1,2,3:2:0:0:
76,283,65493,2,0,L|52:180,1,83.9999974365235,10|2,0:0|0:0,0:0:0:0:
3,73,65809,6,0,P|81:56|170:37,1,167.999994873047,6|8,3:2|0:0,0:0:0:0:
268,15,66282,1,2,3:2:0:0:
268,15,66440,2,0,L|244:118,1,83.9999974365235,10|0,0:0|3:2,0:0:0:0:
175,166,66756,1,8,0:0:0:0:
175,166,66914,1,2,3:2:0:0:
209,278,67072,6,0,P|264:243|362:288,1,167.999994873047,10|8,0:0|0:0,0:0:0:0:
427,345,67545,1,2,3:2:0:0:
502,277,67703,2,0,P|507:230|465:185,1,83.9999974365235,10|0,0:0|3:2,0:0:0:0:
388,182,68019,2,0,L|364:79,1,83.9999974365235,8|2,0:0|3:2,0:0:0:0:
448,37,68335,6,0,L|467:118,1,83.9999974365235,10|0,0:0|0:0,0:0:0:0:
388,182,68651,1,10,0:0:0:0:
388,182,68809,2,0,P|385:230|406:263,1,83.9999974365235,2|8,3:2|0:0,0:0:0:0:
354,348,69124,2,0,L|273:329,1,83.9999974365235,2|8,3:2|0:0,0:0:0:0:
159,367,69440,6,0,B|126:310|126:310|202:221,1,167.999994873047,2|0,3:2|3:2,0:0:0:0:
293,172,69914,2,0,L|240:107,1,83.9999974365235,8|0,0:0|3:2,0:0:0:0:
170,36,70230,1,10,0:0:0:0:
170,36,70387,1,0,3:2:0:0:
122,124,70545,2,0,P|74:101|15:107,1,83.9999974365235,10|0,0:0|3:2,0:0:0:0:
13,196,70861,6,0,L|33:293,1,83.9999974365235,10|0,0:0|0:0,0:0:0:0:
113,345,71177,1,10,0:0:0:0:
113,345,71335,2,0,L|210:324,1,83.9999974365235,2|8,3:2|0:0,0:0:0:0:
255,246,71651,2,0,L|352:266,1,83.9999974365235,2|8,3:2|0:0,0:0:0:0:
449,258,71966,1,2,3:2:0:0:
373,347,72125,5,14,0:0:0:0:
416,167,72598,2,0,L|465:158,2,26.2500010013581,8|8|10,3:0|3:0|3:0,0:0:0:0:
322,156,72914,1,0,3:2:0:0:
322,156,73072,2,0,L|340:62,1,78.7500030040742,2|0,3:2|0:0,0:0:0:0:
302,36,73388,6,0,P|264:0|160:33,1,154.000004699707,6|10,3:2|0:0,0:0:0:0:
104,82,73861,2,0,L|125:184,1,77.0000023498536,2|8,0:0|0:0,0:0:0:0:
200,212,74177,1,2,3:2:0:0:
200,212,74335,1,10,0:0:0:0:
152,291,74493,2,0,L|49:269,1,77.0000023498536,6|0,3:2|0:0,0:0:0:0:
0,228,74809,2,0,P|-7:191|19:138,1,77.0000023498536,2|8,3:2|0:0,0:0:0:0:
110,151,75124,6,0,B|128:91|128:91|36:36,1,154.000004699707,2|0,3:2|3:2,0:0:0:0:
134,0,75598,1,10,0:0:0:0:
134,0,75756,1,2,3:2:0:0:
202,61,75914,6,0,L|300:44,1,77.0000023498536,14|0,0:0|0:0,0:0:0:0:
361,7,76230,2,0,L|459:23,1,77.0000023498536,8|0,0:0|3:2,0:0:0:0:
473,104,76545,2,0,L|372:89,1,77.0000023498536,8|0,0:0|3:2,0:0:0:0:
308,106,76861,1,10,0:0:0:0:
308,106,77019,6,0,L|340:265,1,154.000004699707,6|0,3:2|3:2,0:0:0:0:
430,304,77493,1,8,0:0:0:0:
430,304,77651,1,0,3:2:0:0:
350,361,77809,2,0,P|307:366|261:329,1,77.0000023498536,8|0,0:0|3:2,0:0:0:0:
239,258,78124,2,0,P|196:253|150:290,1,77.0000023498536,8|2,0:0|3:2,0:0:0:0:
79,343,78440,6,4,P|34:295|60:201,1,154.000004699707,14|10,0:0|0:0,0:0:0:0:
132,176,78914,2,0,L|113:78,1,77.0000023498536,2|8,3:2|0:0,0:0:0:0:
59,34,79230,1,2,3:2:0:0:
59,34,79387,1,10,0:0:0:0:
0,125,79545,6,0,P|13:198|34:293,1,154.000004699707,6|2,3:2|3:2,0:0:0:0:
98,346,80019,1,8,0:0:0:0:
98,346,80177,2,0,L|196:327,1,77.0000023498536,2|8,3:2|0:0,0:0:0:0:
258,290,80493,1,2,3:2:0:0:
258,290,80651,2,0,L|239:192,1,77.0000023498536,10|2,0:0|3:2,0:0:0:0:
164,131,80967,6,4,B|141:77|141:77|247:25,1,154.000004699707,14|10,0:0|0:0,0:0:0:0:
308,78,81440,2,0,L|406:59,1,77.0000023498536,2|8,3:2|0:0,0:0:0:0:
468,112,81756,1,2,3:2:0:0:
468,112,81914,1,10,3:2:0:0:
384,182,82072,5,6,3:2:0:0:
228,175,82387,1,2,3:2:0:0:
228,175,82545,2,0,L|244:262,1,77.0000023498536,8|2,3:2|3:2,0:0:0:0:
305,345,82861,1,8,3:2:0:0:
407,297,83019,1,2,3:0:0:0:
407,297,83177,2,0,L|453:225,1,77.0000023498536,10|10,3:0|3:0,0:0:0:0:
512,172,83494,6,0,P|449:174|412:120,1,112,2|2,0:0|3:2,0:0:0:0:
406,61,83968,1,2,0:0:0:0:
406,61,84125,2,0,L|330:46,1,56,10|0,0:0|3:2,0:0:0:0:
305,121,84441,2,0,L|229:135,1,56,10|2,0:0|3:2,0:0:0:0:
218,53,84757,2,0,L|142:38,1,56,2|2,0:0|3:2,0:0:0:0:
89,80,85073,1,2,0:0:0:0:
89,80,85231,1,2,3:2:0:0:
11,204,85546,1,2,3:2:0:0:
11,204,85704,2,0,P|58:196|119:184,1,84,10|0,0:0|0:0,0:0:0:0:
136,185,86020,6,0,L|163:259,1,56,2|0,3:2|0:0,0:0:0:0:
218,293,86336,2,0,L|245:219,1,56,2|0,3:2|0:0,0:0:0:0:
312,176,86652,2,0,L|339:250,1,56,10|10,0:0|0:0,0:0:0:0:
381,313,86967,1,10,0:0:0:0:
440,233,87125,1,2,3:2:0:0:
508,78,87440,5,2,3:2:0:0:
508,78,87598,2,0,L|434:51,1,56,2|2,0:0|3:2,0:0:0:0:
394,0,87914,2,0,L|320:27,1,56,2|2,0:0|3:2,0:0:0:0:
306,96,88230,2,0,L|232:69,1,56,10|2,0:0|3:2,0:0:0:0:
183,33,88545,6,0,B|143:59|143:59|164:136,1,112,2|2,0:0|3:2,0:0:0:0:
274,222,89177,2,0,L|200:249,1,56,10|0,0:0|3:2,0:0:0:0:
174,311,89493,2,0,L|100:284,1,56,2|0,3:2|3:2,0:0:0:0:
40,268,89809,2,0,L|27:192,1,56,2|2,0:0|3:2,0:0:0:0:
101,145,90124,1,2,0:0:0:0:
101,145,90282,5,2,3:2:0:0:
23,39,90598,1,2,3:2:0:0:
23,39,90756,2,0,P|52:30|99:26,1,56,10|2,0:0|3:2,0:0:0:0:
164,75,91072,6,0,P|228:83|267:43,1,112,10|10,0:0|0:0,0:0:0:0:
350,15,91545,1,2,3:2:0:0:
350,15,91703,2,0,P|359:44|363:91,1,56,10|0,0:0|3:2,0:0:0:0:
304,142,92019,1,10,0:0:0:0:
391,185,92177,5,2,3:2:0:0:
494,80,93598,6,0,L|476:171,1,62.9999980773926,6|2,3:2|0:0,0:0:0:0:
406,175,93914,2,0,L|423:266,1,62.9999980773926,10|2,0:0|0:0,0:0:0:0:
424,323,94230,1,2,3:2:0:0:
424,323,94388,2,0,P|393:324|346:307,1,62.9999980773926,2|10,0:0|0:0,0:0:0:0:
319,245,94703,6,0,P|288:244|241:261,1,62.9999980773926,2|0,0:0|3:2,0:0:0:0:
217,324,95019,2,0,P|186:325|139:308,1,62.9999980773926,2|8,0:0|0:0,0:0:0:0:
76,364,95335,2,0,P|58:310|34:233,1,125.999996154785,2|2,0:0|0:0,0:0:0:0:
85,176,95809,2,0,L|105:90,1,62.9999980773926,10|2,0:0|0:0,0:0:0:0:
57,44,96124,6,0,P|90:28|143:24,1,62.9999980773926,2|2,3:2|0:0,0:0:0:0:
180,74,96440,2,0,P|213:90|266:94,1,62.9999980773926,10|0,0:0|0:0,0:0:0:0:
310,51,96756,1,2,3:2:0:0:
310,51,96914,2,0,L|329:135,1,62.9999980773926,2|10,0:0|0:0,0:0:0:0:
267,172,97230,6,0,L|248:256,1,62.9999980773926,2|0,0:0|3:2,0:0:0:0:
324,273,97545,2,0,L|343:357,1,62.9999980773926,2|8,0:0|0:0,0:0:0:0:
408,377,97861,2,0,L|427:293,1,62.9999980773926,2|0,0:0|3:2,0:0:0:0:
487,265,98177,1,2,0:0:0:0:
487,265,98335,1,10,0:0:0:0:
427,208,98493,6,0,P|419:139|473:89,1,125.999996154785,2|2,0:0|0:0,0:0:0:0:
403,31,98967,2,0,L|313:49,1,62.9999980773926,10|2,0:0|0:0,0:0:0:0:
293,109,99282,2,0,L|203:91,1,62.9999980773926,2|2,3:2|0:0,0:0:0:0:
173,46,99598,1,8,0:0:0:0:
173,46,99756,1,2,0:0:0:0:
109,98,99914,6,0,L|91:188,1,62.9999980773926,2|2,3:2|0:0,0:0:0:0:
19,202,100230,1,8,0:0:0:0:
19,202,100387,2,0,B|33:264|33:264|33:271|33:271|50:338,1,125.999996154785,2|2,0:0|0:0,0:0:0:0:
125,363,100861,1,10,0:0:0:0:
125,363,101019,2,0,L|215:345,1,62.9999980773926,2|0,0:0|3:2,0:0:0:0:
223,276,101335,6,0,L|313:294,1,62.9999980773926,2|10,0:0|0:0,0:0:0:0:
317,212,101651,2,0,L|227:194,1,62.9999980773926,2|0,0:0|3:2,0:0:0:0:
214,134,101966,1,2,0:0:0:0:
214,134,102124,1,10,0:0:0:0:
267,64,102282,6,0,P|304:42|398:51,1,125.999996154785,2|2,0:0|0:0,0:0:0:0:
464,64,102756,1,8,0:0:0:0:
409,124,102914,2,0,L|439:267,1,125.999996154785,2|2,0:0|3:2,0:0:0:0:
496,302,103388,2,0,L|471:387,1,62.9999980773926,10|0,0:0|0:0,0:0:0:0:
376,345,103703,5,14,3:0:0:0:
376,345,104335,1,0,3:2:0:0:
232,222,104967,2,0,P|276:200|343:231,2,105.000004005432,10|2|2,0:0|3:1|0:0,0:0:0:0:
142,343,106231,6,0,P|91:331|26:317,2,105.000004005432,2|0|2,3:2|3:2|3:2,0:0:0:0:
107,185,107494,6,0,B|55:206|55:206|-5:166,2,105.000004005432,2|0|2,3:2|3:2|3:2,0:0:0:0:
218,24,108757,6,0,L|250:174,1,125.999996154785,6|2,3:2|3:2,0:0:0:0:
328,192,109231,1,0,3:2:0:0:
328,192,109389,2,0,L|311:275,1,62.9999980773926,10|2,0:0|3:2,0:0:0:0:
230,356,109862,1,10,0:0:0:0:
230,356,110020,6,0,P|296:338|354:365,1,125.999996154785,2|2,0:0|3:2,0:0:0:0:
441,349,110494,2,0,L|457:258,1,62.9999980773926,2|8,3:2|0:0,0:0:0:0:
380,225,110809,1,0,3:2:0:0:
380,225,110968,2,0,L|363:134,1,62.9999980773926,0|10,3:2|0:0,0:0:0:0:
440,100,111283,1,2,3:2:0:0:
440,100,111599,6,0,L|356:66,1,62.9999980773926,2|2,3:2|3:2,0:0:0:0:
308,23,111915,1,10,0:0:0:0:
308,23,112073,2,0,L|224:57,1,62.9999980773926,2|0,3:2|0:0,0:0:0:0:
210,132,112388,1,10,0:0:0:0:
210,132,112546,6,0,B|164:102|164:102|88:128,1,125.999996154785,2|2,0:0|3:2,0:0:0:0:
20,180,113020,1,0,3:2:0:0:
20,180,113178,2,0,L|54:264,1,62.9999980773926,10|2,0:0|3:2,0:0:0:0:
135,263,113494,1,10,3:0:0:0:
135,263,113809,5,6,3:2:0:0:
16,362,114440,1,0,3:2:0:0:
226,258,115072,6,0,L|241:142,2,105.000004005432,8|2|2,0:0|0:0|0:0,0:0:0:0:
375,366,116335,6,0,P|439:370|477:332,2,105.000004005432,2|0|2,3:2|3:2|3:2,0:0:0:0:
490,219,117598,6,0,B|475:174|475:174|474:165|474:165|454:104,2,105.000004005432,2|0|2,3:2|3:2|3:2,0:0:0:0:
352,36,118862,6,0,P|342:75|332:126,1,70,14|0,0:0|3:2,0:0:0:0:
232,159,119178,1,0,3:2:0:0:
323,237,119336,2,0,P|357:230|391:221,1,70,8|0,0:0|3:2,0:0:0:0:
484,287,119651,1,0,3:2:0:0:
403,353,119809,1,8,0:0:0:0:
403,353,120125,6,0,P|364:343|312:333,1,70,8|0,0:0|3:2,0:0:0:0:
237,372,120440,1,0,3:2:0:0:
211,269,120599,2,0,P|177:261|142:263,1,70,8|0,0:0|3:2,0:0:0:0:
47,308,120914,1,0,3:2:0:0:
25,206,121073,2,0,P|33:161|61:120,1,70,8|0,0:0|3:2,0:0:0:0:
117,62,121389,6,0,L|185:46,1,70,8|0,0:0|3:2,0:0:0:0:
307,28,121704,2,0,L|291:96,1,70,8|0,0:0|3:2,0:0:0:0:
186,146,122020,2,0,L|201:214,1,70,8|0,0:0|3:2,0:0:0:0:
316,271,122336,2,0,L|300:339,1,70,8|0,0:0|3:2,0:0:0:0:
402,373,122652,5,8,0:0:0:0:
485,319,122809,1,0,3:2:0:0:
406,264,122967,1,0,3:2:0:0:
438,44,123914,6,0,B|493:78|493:78|463:176,1,167.999994873047,6|8,3:1|0:0,0:0:0:0:
376,229,124387,1,2,3:2:0:0:
326,140,124545,2,0,P|291:117|225:122,1,83.9999974365235,10|0,0:0|3:2,0:0:0:0:
212,207,124861,2,0,P|177:230|111:225,1,83.9999974365235,8|2,0:0|3:2,0:0:0:0:
86,133,125177,6,0,P|39:151|27:268,1,167.999994873047,10|8,0:0|0:0,0:0:0:0:
83,335,125651,1,2,3:2:0:0:
149,259,125809,2,0,L|248:242,1,83.9999974365235,10|0,0:0|3:2,0:0:0:0:
289,327,126124,2,0,L|388:343,1,83.9999974365235,8|2,0:0|3:2,0:0:0:0:
443,268,126440,6,0,L|343:251,1,83.9999974365235,10|0,0:0|0:0,0:0:0:0:
287,190,126756,1,10,0:0:0:0:
287,190,126914,2,0,L|303:90,1,83.9999974365235,2|8,3:2|0:0,0:0:0:0:
364,28,127230,2,0,L|264:11,1,83.9999974365235,2|8,3:2|0:0,0:0:0:0:
204,79,127545,1,2,3:2:0:0:
136,3,127703,6,0,P|86:12|53:59,1,83.9999974365235,8|0,0:0|0:0,0:0:0:0:
122,116,128019,2,0,L|103:198,1,83.9999974365235,8|0,0:0|3:2,0:0:0:0:
30,268,128335,2,0,L|52:349,1,83.9999974365235,10|0,0:0|3:2,0:0:0:0:
152,363,128651,2,0,P|201:369|253:339,1,83.9999974365235,10|0,0:0|3:2,0:0:0:0:
314,297,128967,6,0,P|301:257|271:228,1,83.9999974365235,14|0,0:0|0:0,0:0:0:0:
192,165,129282,1,10,0:0:0:0:
259,90,129440,2,0,L|341:49,1,83.9999974365235,2|8,3:2|0:0,0:0:0:0:
430,20,129756,2,0,L|406:101,1,83.9999974365235,2|8,3:2|0:0,0:0:0:0:
326,181,130072,6,0,P|385:178|458:269,1,167.999994873047,2|0,3:2|0:0,0:0:0:0:
450,360,130546,2,0,L|341:337,1,83.9999974365235,10|0,0:0|3:2,0:0:0:0:
296,266,130861,1,10,0:0:0:0:
296,266,131019,2,0,L|187:289,1,83.9999974365235,2|8,3:2|0:0,0:0:0:0:
121,356,131335,1,2,0:0:0:0:
121,356,131493,6,0,B|76:318|76:318|136:204,1,167.999994873047,2|10,3:2|0:0,0:0:0:0:
218,178,131967,2,0,L|195:69,1,83.9999974365235,2|0,3:2|0:0,0:0:0:0:
127,26,132282,2,0,L|104:135,1,83.9999974365235,2|8,3:2|0:0,0:0:0:0:
17,187,132598,6,0,P|46:268|69:352,1,167.999994873047,2|0,3:2|3:2,0:0:0:0:
165,373,133072,2,0,P|214:364|237:329,1,83.9999974365235,8|0,0:0|3:2,0:0:0:0:
203,240,133387,1,2,0:0:0:0:
301,206,133545,1,2,3:2:0:0:
301,206,133703,2,0,P|293:160|253:109,1,83.9999974365235,10|2,0:0|0:0,0:0:0:0:
159,61,134019,6,0,P|217:3|310:25,1,167.999994873047,6|8,3:2|0:0,0:0:0:0:
397,46,134493,1,2,3:2:0:0:
397,46,134651,2,0,L|417:149,1,83.9999974365235,10|0,0:0|3:2,0:0:0:0:
349,207,134966,1,8,0:0:0:0:
349,207,135124,1,2,3:2:0:0:
453,254,135282,6,0,B|481:336|481:336|377:365,1,167.999994873047,10|8,0:0|0:0,0:0:0:0:
321,297,135756,1,2,3:2:0:0:
260,378,135914,2,0,P|204:372|169:330,1,83.9999974365235,10|0,0:0|3:2,0:0:0:0:
226,263,136230,2,0,L|201:159,1,83.9999974365235,8|2,0:0|3:2,0:0:0:0:
127,110,136545,6,0,L|230:85,1,83.9999974365235,10|0,0:0|0:0,0:0:0:0:
149,14,136861,1,10,0:0:0:0:
149,14,137019,2,0,L|46:38,1,83.9999974365235,2|8,3:2|0:0,0:0:0:0:
8,115,137335,2,0,L|32:218,1,83.9999974365235,2|8,3:2|0:0,0:0:0:0:
13,318,137651,6,0,P|92:301|177:286,1,167.999994873047,2|0,3:2|3:2,0:0:0:0:
237,180,138125,2,0,L|324:238,1,83.9999974365235,8|0,0:0|3:2,0:0:0:0:
394,290,138440,1,10,0:0:0:0:
470,223,138598,1,0,3:2:0:0:
470,223,138756,2,0,L|446:119,1,83.9999974365235,10|0,0:0|3:2,0:0:0:0:
368,82,139072,6,0,P|359:38|311:2,1,83.9999974365235,10|0,0:0|0:0,0:0:0:0:
231,8,139387,1,10,0:0:0:0:
202,105,139546,2,0,L|300:86,1,83.9999974365235,2|8,3:2|0:0,0:0:0:0:
331,178,139861,2,0,L|312:276,1,83.9999974365235,2|8,3:2|0:0,0:0:0:0:
243,332,140177,1,2,3:2:0:0:
164,241,140335,5,14,0:0:0:0:
42,354,140809,2,0,L|30:384,2,26.2500010013581,8|8|10,3:0|3:0|0:0,0:0:0:0:
79,260,141125,1,0,1:2:0:0:
79,260,141282,2,0,L|61:191,1,52.5000020027161,2|0,3:2|3:2,0:0:0:0:
106,116,141598,5,6,3:2:0:0:
256,192,149177,12,0,151388,0:0:0:0:
474,360,151703,6,0,L|457:269,1,62.9999980773926,6|0,3:2|0:0,0:0:0:0:
401,251,152019,1,2,3:2:0:0:
401,251,152177,1,0,3:2:0:0:
471,209,152335,2,0,L|488:118,1,62.9999980773926,10|0,0:0|3:2,0:0:0:0:
411,105,152651,2,0,L|394:14,1,62.9999980773926,2|8,3:2|0:0,0:0:0:0:
320,67,152967,6,0,P|286:73|246:44,1,62.9999980773926,2|0,0:0|0:0,0:0:0:0:
184,30,153282,2,0,P|178:64|207:104,1,62.9999980773926,2|0,3:2|3:2,0:0:0:0:
261,148,153598,2,0,P|267:182|238:222,1,62.9999980773926,10|0,0:0|3:2,0:0:0:0:
162,224,153914,2,0,L|179:315,1,62.9999980773926,2|8,3:2|0:0,0:0:0:0:
257,313,154230,6,0,L|240:404,1,62.9999980773926,2|0,3:2|0:0,0:0:0:0:
152,368,154545,2,0,L|61:351,1,62.9999980773926,2|0,3:2|3:2,0:0:0:0:
36,286,154861,2,0,L|19:195,1,62.9999980773926,10|0,0:0|3:2,0:0:0:0:
73,157,155177,2,0,L|90:66,1,62.9999980773926,2|8,3:2|0:0,0:0:0:0:
148,43,155493,6,0,L|239:26,1,62.9999980773926,2|0,0:0|0:0,0:0:0:0:
251,102,155809,2,0,L|160:119,1,62.9999980773926,2|0,3:2|3:2,0:0:0:0:
173,197,156124,1,10,0:0:0:0:
173,197,156282,1,0,3:2:0:0:
248,239,156440,1,0,3:2:0:0:
248,239,156598,1,8,0:0:0:0:
177,299,156756,6,0,P|192:334|231:363,1,62.9999980773926,2|0,3:2|0:0,0:0:0:0:
291,362,157072,2,0,L|368:337,1,62.9999980773926,2|0,3:2|3:2,0:0:0:0:
438,325,157388,2,0,L|418:246,1,62.9999980773926,10|0,0:0|3:2,0:0:0:0:
356,213,157703,2,0,P|372:179|399:154,1,62.9999980773926,2|8,3:2|0:0,0:0:0:0:
455,120,158019,6,0,P|439:86|412:61,1,62.9999980773926,2|0,0:0|0:0,0:0:0:0:
359,21,158335,1,2,3:2:0:0:
359,21,158493,1,0,3:2:0:0:
312,88,158651,2,0,L|234:64,1,62.9999980773926,10|0,0:0|3:2,0:0:0:0:
186,18,158967,2,0,L|108:42,1,62.9999980773926,2|8,3:2|0:0,0:0:0:0:
41,81,159282,6,0,P|66:140|94:210,1,125.999996154785,2|0,3:2|3:2,0:0:0:0:
141,277,159756,1,0,3:2:0:0:
141,277,159914,2,0,L|171:210,1,62.9999980773926,8|0,0:0|3:2,0:0:0:0:
218,155,160230,2,0,L|279:141,1,62.9999980773926,0|8,3:2|0:0,0:0:0:0:
301,219,160545,6,0,L|362:232,1,62.9999980773926
444,243,160861,2,0,P|443:209|431:182,1,62.9999980773926,2|0,3:2|3:2,0:0:0:0:
383,122,161177,1,10,0:0:0:0:
383,122,161335,1,0,3:2:0:0:
437,61,161493,2,0,P|412:39|365:30,1,62.9999980773926,10|8,0:0|0:0,0:0:0:0:
276,76,161810,6,0,B|225:41|225:41|155:82,1,115.50000352478,6|0,3:2|0:0,0:0:0:0:
139,91,162125,2,0,L|157:174,1,77.0000023498536,8|0,0:0|0:0,0:0:0:0:
231,235,162440,2,0,L|204:316,1,77.0000023498536,0|0,0:0|3:2,0:0:0:0:
127,362,162756,1,10,0:0:0:0:
55,302,162914,6,0,B|85:258|85:258|24:159,1,154.000004699707,0|0,3:2|3:2,0:0:0:0:
0,79,163388,2,0,P|33:46|84:36,1,77.0000023498536,8|0,0:0|0:0,0:0:0:0:
105,119,163703,1,0,0:0:0:0:
105,119,163861,1,0,3:2:0:0:
177,56,164020,6,0,L|252:39,1,77.0000023498536,8|0,0:0|0:0,0:0:0:0:
349,23,164336,2,0,L|424:39,1,77.0000023498536,0|0,3:2|0:0,0:0:0:0:
512,68,164652,1,8,0:0:0:0:
440,125,164809,1,0,0:0:0:0:
512,183,164968,2,0,L|496:258,1,77.0000023498536,0|0,0:0|3:2,0:0:0:0:
396,278,165283,1,8,0:0:0:0:
421,374,165441,6,0,B|358:364|358:364|350:359|350:359|263:342,1,154.000004699707,0|0,3:2|3:2,0:0:0:0:
238,256,165915,2,0,L|218:160,1,77.0000023498536,10|0,0:0|0:0,0:0:0:0:
152,118,166231,2,0,L|132:213,1,77.0000023498536,2|0,0:0|3:2,0:0:0:0:
50,227,166546,2,0,L|69:322,1,77.0000023498536,10|0,0:0|0:0,0:0:0:0:
144,361,166862,6,0,P|179:338|264:352,1,115.50000352478,2|0,3:2|0:0,0:0:0:0:
285,356,167178,2,0,P|327:361|374:338,1,77.0000023498536,10|0,0:0|0:0,0:0:0:0:
437,299,167494,2,0,L|415:198,1,77.0000023498536,0|0,0:0|3:2,0:0:0:0:
356,157,167809,1,10,0:0:0:0:
431,103,167967,6,0,P|404:56|287:57,1,154.000004699707,0|0,3:2|3:2,0:0:0:0:
219,52,168440,2,0,L|237:148,1,77.0000023498536,8|0,0:0|0:0,0:0:0:0:
287,202,168756,1,0,0:0:0:0:
287,202,168914,1,0,3:2:0:0:
206,243,169072,2,0,L|191:318,1,77.0000023498536,8|0,0:0|0:0,0:0:0:0:
107,359,169388,6,0,L|92:284,1,77.0000023498536,0|0,3:2|0:0,0:0:0:0:
112,193,169703,1,8,0:0:0:0:
20,180,169861,2,0,P|34:129|60:106,1,77.0000023498536,0|0,3:2|0:0,0:0:0:0:
106,39,170177,1,0,3:2:0:0:
106,39,170335,1,8,0:0:0:0:
185,107,170493,6,0,B|241:77|241:77|321:143,1,154.000004699707,0|0,3:2|3:2,0:0:0:0:
387,187,170967,2,0,L|326:258,1,77.0000023498536,8|0,0:0|3:2,0:0:0:0:
280,319,171282,1,8,0:0:0:0:
280,319,171440,1,0,3:2:0:0:
362,361,171598,2,0,P|407:364|455:321,1,77.0000023498536,8|8,3:0|3:0,0:0:0:0:
487,257,171914,5,0,3:2:0:0:
487,257,172230,2,0,P|498:185|509:112,2,140,2|10|2,0:0|0:0|0:0,0:0:0:0:
361,350,173177,2,0,P|317:368|236:301,1,140,2|0,3:2|1:2,0:0:0:0:
277,247,173651,2,0,B|260:188|260:188|259:180|259:180|241:103,1,140,2|2,3:2|3:2,0:0:0:0:
175,35,174125,2,0,P|111:26|84:40,1,70,2|8,0:0|0:0,0:0:0:0:
77,47,174361,1,2,0:0:0:0:
77,47,174440,6,0,L|55:144,1,83.9999974365235,14|0,0:0|3:2,0:0:0:0:
135,211,174756,1,8,0:0:0:0:
135,211,174914,1,0,3:2:0:0:
54,296,175072,1,8,0:0:0:0:
54,296,175230,1,0,3:2:0:0:
158,349,175388,2,0,P|202:339|255:327,1,83.9999974365235,8|0,0:0|3:2,0:0:0:0:
267,215,175703,6,0,P|311:225|364:237,1,83.9999974365235,8|0,0:0|3:2,0:0:0:0:
442,314,176019,1,8,0:0:0:0:
442,314,176177,1,0,3:2:0:0:
501,213,176335,1,8,0:0:0:0:
501,213,176493,1,0,3:2:0:0:
400,152,176651,2,0,P|410:108|422:55,1,83.9999974365235,8|0,0:0|3:2,0:0:0:0:
314,14,176967,6,0,P|304:58|292:111,1,83.9999974365235,8|0,0:0|3:2,0:0:0:0:
202,169,177282,1,0,3:2:0:0:
164,57,177440,2,0,P|108:54|71:84,1,83.9999974365235,8|0,0:0|3:2,0:0:0:0:
10,159,177756,1,0,3:2:0:0:
123,185,177914,2,0,P|174:185|214:153,1,83.9999974365235,8|0,0:0|3:2,0:0:0:0:
276,59,178230,5,8,0:0:0:0:
66,354,179808,5,6,3:2:0:0:
186,281,180440,1,6,3:2:0:0:
63,212,181072,1,6,3:2:0:0:
179,134,181703,1,6,3:2:0:0:
52,73,182335,1,6,3:2:0:0:
181,19,182967,1,6,3:2:0:0:
277,104,183282,6,0,L|320:95,2,35,0|0|0,3:2|3:2|3:2,0:0:0:0:
196,150,183598,2,0,L|178:244,1,70,8|2,0:0|3:2,0:0:0:0:
109,255,183914,2,0,L|126:349,1,70,2|0,3:2|0:0,0:0:0:0:
201,359,184230,2,0,L|295:341,1,70,10|0,0:0|0:0,0:0:0:0:
347,297,184546,6,0,B|406:315|406:315|440:240,1,140,2|2,3:2|3:2,0:0:0:0:
366,198,185020,2,0,L|377:120,1,70,2|0,0:0|3:2,0:0:0:0:
443,76,185336,1,2,0:0:0:0:
443,76,185494,1,2,3:2:0:0:
359,25,185652,6,0,P|300:19|234:79,1,140,2|0,0:0|1:2,0:0:0:0:
164,104,186125,2,0,P|177:167|192:190,1,70,2|0,3:2|1:2,0:0:0:0:
252,213,186440,2,0,P|239:276|224:299,1,70,2|2,3:2|3:2,0:0:0:0:
185,348,186756,1,8,0:0:0:0:
185,348,186914,1,2,1:2:0:0:
134,280,187072,6,0,P|76:233|19:184,1,140,2|2,3:2|3:2,0:0:0:0:
24,106,187545,2,0,L|106:77,1,70,2|0,3:2|0:0,0:0:0:0:
148,21,187861,2,0,P|187:28|230:50,1,70,2|8,3:2|0:0,0:0:0:0:
297,105,188177,6,0,B|285:162|285:162|281:172|281:172|264:261,1,140,2|0,3:2|3:2,0:0:0:0:
195,285,188651,2,0,L|236:361,1,70,8|0,0:0|3:2,0:0:0:0:
310,365,188966,1,10,0:0:0:0:
376,313,189124,1,2,0:0:0:0:
376,313,189282,2,0,L|395:228,1,70,2|2,0:0|0:0,0:0:0:0:
495,155,189598,6,0,P|436:172|361:81,1,167.999994873047,6|8,3:2|0:0,0:0:0:0:
299,27,190072,1,2,3:2:0:0:
237,107,190230,2,0,L|130:86,1,83.9999974365235,10|0,0:0|3:2,0:0:0:0:
69,36,190545,2,0,P|49:80|61:145,1,83.9999974365235,8|2,0:0|3:2,0:0:0:0:
137,186,190861,6,0,B|82:229|82:229|127:316,1,167.999994873047,10|8,0:0|0:0,0:0:0:0:
207,254,191335,1,2,3:2:0:0:
257,341,191493,2,0,L|353:324,1,83.9999974365235,10|0,0:0|3:2,0:0:0:0:
415,259,191809,2,0,L|319:242,1,83.9999974365235,8|2,0:0|3:2,0:0:0:0:
289,152,192124,6,0,L|385:135,1,83.9999974365235,10|0,0:0|0:0,0:0:0:0:
440,63,192440,1,10,0:0:0:0:
440,63,192598,2,0,L|344:46,1,83.9999974365235,2|8,3:2|0:0,0:0:0:0:
266,2,192914,2,0,P|264:49|295:91,1,83.9999974365235,2|8,3:2|0:0,0:0:0:0:
371,137,193230,1,2,3:2:0:0:
312,219,193388,6,0,L|216:202,1,83.9999974365235,8|0,0:0|3:2,0:0:0:0:
132,233,193703,2,0,L|115:137,1,83.9999974365235,8|0,0:0|3:2,0:0:0:0:
48,75,194019,2,0,P|99:60|145:74,1,83.9999974365235,10|0,0:0|3:2,0:0:0:0:
208,136,194335,1,10,0:0:0:0:
208,136,194493,1,0,3:2:0:0:
226,36,194651,6,0,P|278:29|317:55,1,83.9999974365235,10|0,0:0|0:0,0:0:0:0:
384,113,194966,1,10,0:0:0:0:
384,113,195124,2,0,L|365:206,1,83.9999974365235,2|8,3:2|0:0,0:0:0:0:
275,238,195440,2,0,L|293:331,1,83.9999974365235,2|8,3:2|0:0,0:0:0:0:
378,371,195756,1,2,3:2:0:0:
431,274,195914,5,14,0:0:0:0:
512,140,196387,1,8,3:0:0:0:
512,140,196466,1,8,3:0:0:0:
512,140,196545,2,0,L|443:124,1,52.5000020027161,10|8,0:0|3:0,0:0:0:0:
417,50,196861,2,0,L|336:69,1,78.7500030040742,10|0,3:0|0:0,0:0:0:0:
309,100,197177,6,0,P|277:66|193:49,1,125.999996154785,6|0,3:2|1:2,0:0:0:0:
126,73,197651,1,0,0:0:0:0:
126,73,197809,2,0,L|153:211,1,125.999996154785,8|2,0:0|0:0,0:0:0:0:
75,277,198282,6,0,B|112:248|112:248|203:285,1,125.999996154785,10|0,0:0|3:2,0:0:0:0:
228,355,198756,2,0,L|311:341,1,62.9999980773926,0|0,3:2|3:2,0:0:0:0:
366,297,199072,1,10,0:0:0:0:
366,297,199230,1,0,3:2:0:0:
291,249,199388,2,0,P|292:204|312:170,1,62.9999980773926,0|10,3:2|0:0,0:0:0:0:
378,131,199703,6,0,P|327:97|257:53,1,125.999996154785,0|0,3:2|3:2,0:0:0:0:
373,16,200177,1,2,0:0:0:0:
373,16,200335,2,0,L|452:33,1,62.9999980773926,8|2,0:0|3:2,0:0:0:0:
491,126,200651,1,0,3:2:0:0:
491,126,200809,6,0,B|480:182|480:182|477:190|477:190|462:266,1,125.999996154785,10|2,0:0|3:2,0:0:0:0:
437,337,201282,1,0,3:2:0:0:
437,337,201440,1,2,3:2:0:0:
364,277,201598,2,0,P|335:262|303:260,1,62.9999980773926,10|0,0:0|3:2,0:0:0:0:
237,316,201914,1,2,3:2:0:0:
184,245,202072,1,8,0:0:0:0:
132,316,202230,6,0,B|77:302|77:302|61:229,1,125.999996154785,2|2,3:2|3:2,0:0:0:0:
108,160,202703,1,0,0:0:0:0:
108,160,202861,2,0,P|87:136|57:106,1,62.9999980773926,10|0,0:0|3:2,0:0:0:0:
62,29,203177,1,2,3:2:0:0:
62,29,203335,6,0,P|126:40|193:59,1,125.999996154785,8|0,0:0|3:2,0:0:0:0:
220,137,203809,2,0,L|300:123,1,62.9999980773926,2|2,3:2|3:2,0:0:0:0:
340,59,204124,2,0,B|380:100|380:100|363:186,1,125.999996154785,10|0,0:0|3:2,0:0:0:0:
294,218,204598,1,10,0:0:0:0:
370,261,204756,6,0,P|367:321|427:366,1,125.999996154785,2|0,3:2|3:2,0:0:0:0:
475,298,205230,1,0,0:0:0:0:
475,298,205388,2,0,L|489:218,1,62.9999980773926,10|0,0:0|3:2,0:0:0:0:
468,117,205703,1,0,3:2:0:0:
468,117,205861,6,0,B|420:100|420:100|411:93|411:93|351:72,1,125.999996154785,10|0,0:0|3:2,0:0:0:0:
268,30,206335,1,8,0:0:0:0:
268,30,206493,1,2,3:2:0:0:
227,108,206651,2,0,P|192:108|149:81,1,62.9999980773926,10|8,0:0|3:0,0:0:0:0:
126,18,206966,1,10,3:0:0:0:
85,96,207124,1,8,3:0:0:0:
22,18,207282,5,6,3:2:0:0:
256,192,207361,12,0,212177,0:0:0:0:
