osu file format v14

[General]
AudioFilename: audio.mp3
AudioLeadIn: 0
PreviewTime: 52552
Countdown: 0
SampleSet: Soft
StackLeniency: 0.3
Mode: 0
LetterboxInBreaks: 0
WidescreenStoryboard: 1

[Editor]
Bookmarks: 588,4108,6557,16506,18955,28751,38547,43445,50792,53241,63036,72832,77577,87526
DistanceSpacing: 1
BeatDivisor: 2
GridSize: 32
TimelineZoom: 1

[Metadata]
Title:Relive
TitleUnicode:Relive
Artist:nonoc
ArtistUnicode:nonoc
Creator:fieryrage
Version:Wanpachi's Normal
Source:Re:ゼロから始める異世界生活 Memory Snow
Tags:re:zero kara hajimeru isekai seikatsu rezero starting life in another world different from zero anime ova original video animation japanese english rock short cut ver version cycopton wanpachi -keitaro error- dashyy- apo11o dorsalplum glaceon wafer iwaifu ascendance
BeatmapID:2320204
BeatmapSetID:1108759

[Difficulty]
HPDrainRate:4
CircleSize:3
OverallDifficulty:4.5
ApproachRate:5
SliderMultiplier:0.999999999999999
SliderTickRate:1

[Events]
//Background and Video events
0,0,"I really love Rem Like a lot Like a whole lot You have no idea I love her so much that it is inexplicable and I'm ninety-nine percent sure I have an unhealthy obsession.jpg",0,0
//Break Periods
2,16706,17755
//Storyboard Layer 0 (Background)
//Storyboard Layer 1 (Fail)
//Storyboard Layer 2 (Pass)
//Storyboard Layer 3 (Foreground)
//Storyboard Layer 4 (Overlay)
//Storyboard Sound Samples

[TimingPoints]
588,306.122448979592,4,2,1,65,1,0
588,-100,4,2,1,65,0,0
1812,-100,4,2,1,50,0,0
4108,-100,4,2,1,60,0,0
4950,-100,4,2,1,50,0,0
5026,-100,4,2,1,40,0,0
5179,-100,4,2,1,50,0,0
5332,-100,4,2,1,60,0,0
5715,-100,4,2,1,50,0,0
5792,-100,4,2,1,60,0,0
6174,-100,4,2,1,50,0,0
6251,-100,4,2,1,60,0,0
6327,-100,4,2,1,50,0,0
6404,-100,4,2,1,60,0,0
6557,-100,4,2,1,65,0,0
16353,-100,4,2,4,65,0,0
16506,-100,4,2,1,40,0,0
17730,-100,4,2,1,50,0,0
18190,-100,4,2,1,45,0,0
18955,-100,4,2,1,65,0,0
19261,-100,4,2,1,55,0,0
21098,-100,4,2,1,65,0,0
21710,-100,4,2,1,55,0,0
23241,-100,4,2,1,65,0,0
24159,-100,4,2,1,55,0,0
25996,-100,4,2,1,65,0,0
26608,-100,4,2,1,55,0,0
28139,-100,4,2,1,60,0,0
28751,-100,4,2,1,65,0,0
33190,-100,4,2,4,65,0,0
33266,-100,4,2,1,65,0,0
33496,-100,4,2,4,65,0,0
33572,-100,4,2,1,65,0,0
37628,-100,4,2,1,50,0,0
38547,-100,4,2,1,60,0,0
43445,-100,4,2,1,65,0,0
43751,-100,4,2,4,65,0,0
43827,-100,4,2,1,65,0,0
44057,-100,4,2,4,65,0,0
44133,-100,4,2,1,65,0,0
44363,-100,4,2,4,65,0,0
44440,-100,4,2,1,65,0,0
45052,-100,4,2,1,55,0,0
45128,-100,4,2,1,65,0,0
45741,-100,4,2,1,60,0,0
45894,-100,4,2,1,65,0,0
46200,-100,4,2,4,65,0,0
46276,-100,4,2,1,65,0,0
46506,-100,4,2,4,65,0,0
46582,-100,4,2,1,65,0,0
46812,-100,4,2,4,65,0,0
46889,-100,4,2,1,65,0,0
47501,-100,4,2,1,55,0,0
47577,-100,4,2,1,65,0,0
47883,-100,4,2,1,60,0,0
48036,-100,4,2,1,55,0,0
48190,-100,4,2,1,60,0,0
48343,-100,4,2,1,65,0,0
48496,-100,4,2,1,50,0,0
50639,-100,4,2,1,55,0,0
50792,-100,4,2,1,60,0,0
50945,-100,4,2,1,50,0,0
51863,-100,4,2,1,55,0,0
52475,-100,4,2,4,60,0,0
52552,-100,4,2,1,60,0,0
52628,-100,4,2,1,45,0,0
52934,-100,4,2,1,55,0,0
53241,-100,4,2,1,70,0,1
62730,-100,4,2,4,70,0,1
62807,-100,4,2,1,70,0,1
67322,-100,4,2,1,60,0,1
67399,-100,4,2,1,55,0,1
67475,-100,4,2,1,60,0,1
67552,-100,4,2,1,65,0,1
67628,-100,4,2,1,70,0,1
72373,-100,4,2,1,60,0,1
72679,-100,4,2,1,65,0,1
72832,-100,4,2,1,70,0,1
76506,-100,4,2,1,60,0,1
77118,-100,4,2,1,65,0,1
77577,-100,4,2,1,65,0,0
81404,-100,4,2,5,65,0,0
81480,-100,4,2,1,65,0,0
81557,-100,4,2,1,55,0,0
81633,-100,4,2,1,60,0,0
81710,-100,4,2,1,65,0,0
81863,-100,4,2,4,65,0,0
81940,-100,4,2,1,65,0,0
87220,-100,4,2,1,60,0,0
87526,-100,4,2,1,55,0,0
87603,-100,4,2,1,65,0,0
87679,-100,4,2,1,45,0,0
87832,-100,4,2,1,65,0,0
88139,-100,4,2,4,65,0,0
88215,-100,4,2,1,65,0,0
88598,-100,4,2,1,70,0,0
88674,-100,4,2,2,5,0,0
89057,-100,4,2,1,20,0,0

[Colours]
Combo1 : 152,115,172
Combo2 : 189,196,193
Combo3 : 98,98,98
Combo4 : 224,148,71
Combo5 : 255,117,117
Combo6 : 111,184,227

[HitObjects]
65,93,588,5,6,1:3:0:0:
431,253,1812,2,0,P|436:293|433:316,2,50,0|0|0,0:0|0:0|0:0,0:0:0:0:
390,223,2271,2,0,L|289:243,1,99.9999999999999,2|2,0:0|0:0,0:0:0:0:
216,177,2883,1,2,0:0:0:0:
179,270,3190,2,0,L|128:260,1,50,0|0,0:0|0:0,0:0:0:0:
82,276,3496,1,2,0:0:0:0:
19,197,3802,2,0,P|25:165|25:142,1,50,0|2,0:0|0:0,0:0:0:0:
14,98,4108,6,0,P|66:76|117:74,1,99.9999999999999,4|0,1:0|1:0,0:0:0:0:
151,99,4567,1,8,0:0:0:0:
239,52,4873,2,0,L|233:0,2,50,8|8|8,0:0|1:3|0:3,0:0:0:0:
325,101,5485,2,0,L|319:153,1,50,8|8,0:0|0:0,0:0:0:0:
342,195,5792,1,8,0:0:0:0:
433,155,6098,2,0,P|456:152|485:152,1,50,8|8,0:0|0:0,0:0:0:0:
511,193,6404,1,8,0:0:0:0:
476,229,6557,6,0,P|451:283|448:344,1,99.9999999999999,4|0,1:0|1:0,0:0:0:0:
452,372,7016,1,10,0:0:0:0:
359,333,7322,2,0,L|349:393,2,50,2|2|8,1:0|1:0|0:0,0:0:0:0:
355,283,7781,2,0,P|348:260|333:229,1,50,0|0,0:0|1:0,0:0:0:0:
240,211,8241,1,10,0:0:0:0:
201,243,8394,2,0,L|81:212,1,99.9999999999999,2|0,0:0|1:0,0:0:0:0:
54,224,8853,1,8,0:0:0:0:
25,182,9006,6,0,P|11:115|28:77,1,99.9999999999999,6|0,1:0|1:0,0:0:0:0:
66,65,9465,1,10,0:0:0:0:
164,49,9771,2,0,P|171:18|181:-9,2,50,2|0|8,1:0|1:0|0:0,0:0:0:0:
188,96,10230,2,0,P|192:121|207:142,1,50,0|2,0:0|1:0,0:0:0:0:
284,203,10690,1,10,0:0:0:0:
370,152,10996,2,0,P|400:147|424:148,1,50,10|2,0:0|1:0,0:0:0:0:
464,170,11302,1,10,0:0:0:0:
480,217,11455,6,0,L|465:339,1,99.9999999999999,4|0,1:0|1:0,0:0:0:0:
447,361,11914,1,10,0:0:0:0:
350,335,12220,2,0,P|353:366|349:396,2,50,2|2|8,1:0|1:0|0:0,0:0:0:0:
308,306,12679,2,0,L|258:299,1,50,0|0,0:0|1:0,0:0:0:0:
158,292,13139,1,10,0:0:0:0:
120,258,13292,2,0,L|114:144,1,99.9999999999999,2|0,0:0|1:0,0:0:0:0:
161,140,13751,1,8,0:0:0:0:
201,168,13904,6,0,P|249:190|303:160,1,99.9999999999999,6|0,1:0|1:0,0:0:0:0:
319,133,14363,1,10,0:0:0:0:
365,114,14516,2,0,L|471:137,1,99.9999999999999,2|10,0:0|0:0,0:0:0:0:
491,230,15128,1,0,1:0:0:0:
475,277,15281,1,8,0:0:0:0:
374,277,15588,1,8,0:0:0:0:
339,370,15894,2,0,L|286:353,1,50,10|2,0:0|1:0,0:0:0:0:
256,319,16200,2,0,L|203:336,1,50,0|10,1:0|0:0,0:0:0:0:
173,298,16506,5,0,0:0:0:0:
283,100,18955,5,6,1:0:0:0:
376,61,19261,2,0,P|435:67|467:106,1,99.9999999999999,8|0,0:0|0:0,0:0:0:0:
424,187,19873,1,8,0:0:0:0:
462,279,20179,2,0,L|452:334,1,50,0|0,1:0|1:0,0:0:0:0:
364,372,20639,2,0,P|310:382|269:354,1,99.9999999999999,0|0,0:0|1:0,0:0:0:0:
259,311,21098,1,10,0:0:0:0:
209,224,21404,5,2,1:0:0:0:
122,276,21710,2,0,L|21:263,1,99.9999999999999,8|0,0:0|0:0,0:0:0:0:
9,164,22322,1,8,0:0:0:0:
92,109,22628,2,0,P|94:80|90:60,1,50,0|0,0:0|1:0,0:0:0:0:
173,4,23088,2,0,P|227:-6|268:22,1,99.9999999999999,0|0,0:0|1:0,0:0:0:0:
282,62,23547,1,10,0:0:0:0:
217,138,23853,5,2,1:0:0:0:
271,221,24159,2,0,L|387:200,1,99.9999999999999,8|0,0:0|0:0,0:0:0:0:
376,302,24771,1,8,0:0:0:0:
457,362,25077,2,0,P|474:342|499:325,1,50,0|0,1:0|1:0,0:0:0:0:
507,230,25537,2,0,L|498:131,1,99.9999999999999,0|0,0:0|1:0,0:0:0:0:
464,92,25996,1,10,0:0:0:0:
376,139,26302,5,2,1:0:0:0:
275,133,26608,2,0,P|261:173|268:234,1,99.9999999999999,8|0,0:0|0:0,0:0:0:0:
293,326,27220,2,0,L|242:341,1,50,8|0,0:0|0:0,0:0:0:0:
209,304,27526,1,0,0:0:0:0:
161,289,27679,1,0,1:0:0:0:
64,314,27985,2,0,L|74:211,1,99.9999999999999,0|8,0:0|0:0,0:0:0:0:
109,178,28445,1,10,0:0:0:0:
64,88,28751,5,6,1:0:0:0:
143,26,29057,1,8,0:0:0:0:
233,71,29363,2,0,L|341:61,1,99.9999999999999,0|8,1:0|0:0,0:0:0:0:
367,97,29822,1,0,0:0:0:0:
334,191,30128,1,0,1:0:0:0:
366,229,30281,2,0,P|374:271|340:336,2,99.9999999999999,8|0|8,0:0|1:0|0:0,0:0:0:0:
446,168,31200,5,2,1:0:0:0:
432,70,31506,2,0,P|405:71|378:75,1,50,8|0,0:0|0:0,0:0:0:0:
346,109,31812,2,0,P|292:107|238:99,1,99.9999999999999,0|8,1:0|0:0,0:0:0:0:
211,65,32271,1,0,0:0:0:0:
172,157,32577,1,0,1:0:0:0:
202,196,32730,2,0,L|193:298,1,99.9999999999999,8|0,0:0|1:0,0:0:0:0:
151,323,33190,2,0,L|155:372,1,50,10|0,0:0|1:0,0:0:0:0:
60,341,33649,5,6,1:0:0:0:
47,241,33955,1,8,0:0:0:0:
99,156,34261,2,0,P|152:157|201:167,1,99.9999999999999,0|8,1:0|0:0,0:0:0:0:
233,131,34720,1,0,0:0:0:0:
327,164,35026,1,0,1:0:0:0:
354,121,35179,2,0,L|333:11,2,99.9999999999999,8|0|8,0:0|1:0|0:0,0:0:0:0:
448,154,36098,5,2,1:0:0:0:
440,253,36404,1,8,0:0:0:0:
345,282,36710,2,0,L|225:268,1,99.9999999999999,0|0,1:0|0:0,0:0:0:0:
210,235,37169,1,6,1:3:0:0:
287,106,37628,2,0,P|337:124|390:118,2,99.9999999999999,0|2|0,0:0|0:0|0:0,0:0:0:0:
218,32,38547,6,0,L|66:62,1,150,6|0,1:0|0:0,0:0:0:0:
35,96,39159,1,2,1:0:0:0:
85,182,39465,1,0,1:0:0:0:
183,168,39771,2,0,P|196:211|204:276,1,99.9999999999999,0|0,1:0|1:0,0:0:0:0:
284,324,40383,1,2,1:0:0:0:
377,286,40690,1,2,1:0:0:0:
473,311,40996,6,0,P|481:254|429:151,1,150,2|0,1:0|0:0,0:0:0:0:
416,130,41608,1,2,1:0:0:0:
326,86,41914,1,0,1:0:0:0:
246,145,42220,2,0,L|255:257,1,99.9999999999999,0|0,1:0|1:0,0:0:0:0:
176,307,42832,2,0,P|182:333|179:358,2,50,2|2|2,1:0|0:0|1:0,0:0:0:0:
89,258,43445,6,0,P|80:198|83:148,1,99.9999999999999,6|10,1:0|0:0,0:0:0:0:
119,126,43904,2,0,L|95:28,1,99.9999999999999,0|0,1:0|0:0,0:0:0:0:
194,41,44516,2,0,L|302:20,1,99.9999999999999,6|0,0:3|1:0,0:0:0:0:
340,34,44975,1,8,0:3:0:0:
425,85,45281,2,0,P|420:112|419:162,1,50,8|0,0:0|1:0,0:0:0:0:
432,182,45588,1,8,0:0:0:0:
470,273,45894,6,0,L|363:285,1,99.9999999999999,4|10,1:0|0:0,0:0:0:0:
335,320,46353,2,0,L|228:308,1,99.9999999999999,0|0,1:0|1:0,0:0:0:0:
178,226,46965,2,0,P|165:166|183:99,1,99.9999999999999,6|0,1:3|1:0,0:0:0:0:
207,94,47424,1,8,0:3:0:0:
147,14,47730,1,10,0:0:0:0:
97,17,47883,1,2,0:0:0:0:
34,95,48190,1,10,1:3:0:0:
256,192,48343,12,10,50792,0:0:0:0:
328,0,51863,5,8,0:0:0:0:
263,76,52169,1,8,0:0:0:0:
171,35,52475,1,10,0:0:0:0:
142,76,52628,2,0,P|119:68|83:62,2,50,0|0|2,0:0|0:0|0:0,0:0:0:0:
144,176,53241,6,0,L|246:169,1,99.9999999999999,6|8,1:0|0:0,0:0:0:0:
274,208,53700,1,0,0:0:0:0:
298,251,53853,2,0,P|358:274|402:245,1,99.9999999999999,2|8,1:0|0:0,0:0:0:0:
422,167,54465,2,0,P|426:110|450:67,1,99.9999999999999,2|8,1:0|0:0,0:0:0:0:
404,43,54924,1,0,0:0:0:0:
357,25,55077,2,0,L|246:36,1,99.9999999999999,2|8,1:0|0:0,0:0:0:0:
159,15,55690,6,0,L|144:81,1,50,2|2,1:0|0:0,0:0:0:0:
136,112,55996,1,8,0:0:0:0:
151,159,56149,2,0,P|214:183|280:157,1,99.9999999999999,2|2,0:0|0:0,0:0:0:0:
344,172,56761,2,0,B|379:198|379:198|374:314,1,150,2|8,0:0|0:0,0:0:0:0:
301,375,57526,1,2,1:0:0:0:
259,346,57679,1,0,0:0:0:0:
209,340,57832,2,0,P|164:348|149:355,1,50,10|2,0:0|0:0,0:0:0:0:
110,345,58139,6,0,P|88:268|95:232,1,99.9999999999999,6|8,1:0|0:0,0:0:0:0:
131,158,58751,2,0,L|147:109,1,50,2|0,1:0|0:0,0:0:0:0:
159,62,59057,1,10,0:0:0:0:
127,22,59210,2,0,L|241:8,1,99.9999999999999,2|0,0:0|0:0,0:0:0:0:
268,37,59669,1,10,0:0:0:0:
366,18,59975,1,2,1:0:0:0:
421,100,60281,1,10,0:0:0:0:
406,199,60588,5,2,1:0:0:0:
372,236,60741,2,0,P|371:276|375:309,1,50,2|8,0:0|0:0,0:0:0:0:
344,328,61047,2,0,P|283:316|208:337,1,99.9999999999999,2|2,0:0|0:0,0:0:0:0:
183,243,61659,2,0,P|223:196|243:120,2,99.9999999999999,6|6|6,1:3|1:3|1:3,0:0:0:0:
84,225,62577,1,2,1:0:0:0:
50,188,62730,2,0,L|41:129,1,50,10|0,0:0|1:0,0:0:0:0:
46,88,63037,6,0,L|150:104,1,99.9999999999999,6|8,1:0|0:0,0:0:0:0:
194,103,63496,1,0,0:0:0:0:
244,107,63649,2,0,P|247:157|222:212,1,99.9999999999999,2|8,1:0|0:0,0:0:0:0:
262,295,64261,2,0,P|313:322|362:323,1,99.9999999999999,2|8,1:0|0:0,0:0:0:0:
399,301,64720,1,0,0:0:0:0:
441,274,64873,2,0,P|468:223|469:174,1,99.9999999999999,2|8,1:0|0:0,0:0:0:0:
424,92,65485,6,0,P|396:83|357:77,1,50,2|2,1:0|0:0,0:0:0:0:
325,75,65792,1,8,0:0:0:0:
275,76,65945,2,0,P|217:89|146:117,1,99.9999999999999,2|2,0:0|0:0,0:0:0:0:
123,186,66557,2,0,L|136:289,1,99.9999999999999,6|0,1:0|0:0,0:0:0:0:
173,317,67016,1,8,0:0:0:0:
263,273,67322,2,0,P|266:249|271:224,2,50,10|10|10,0:3|0:0|0:0,0:0:0:0:
305,299,67781,5,0,0:0:0:0:
404,285,68088,1,0,0:0:0:0:
438,248,68241,2,0,L|427:193,1,50,10|0,0:0|0:0,0:0:0:0:
420,149,68547,1,10,0:0:0:0:
483,71,68853,1,10,0:0:0:0:
460,26,69006,2,0,P|414:21|313:58,1,150,2|8,1:0|0:0,0:0:0:0:
236,112,69771,2,0,L|242:182,2,50,2|0|10,0:0|1:0|0:0,0:0:0:0:
194,85,70230,5,2,0:0:0:0:
93,76,70536,1,0,0:0:0:0:
72,121,70690,2,0,P|71:161|86:194,1,50,10|0,0:0|1:0,0:0:0:0:
104,209,70996,1,10,0:0:0:0:
198,241,71302,1,10,0:0:0:0:
244,222,71455,2,0,P|312:203|353:213,1,99.9999999999999,2|0,1:0|0:0,0:0:0:0:
363,251,71914,2,0,B|348:273|348:273|337:300|347:329|347:329|353:343,2,99.9999999999999,10|10|10,0:0|0:0|0:0,0:0:0:0:
425,173,72832,6,0,P|430:116|424:94,1,50,6|0,1:0|0:0,0:0:0:0:
456,80,73139,1,8,0:0:0:0:
434,35,73292,2,0,L|319:16,1,99.9999999999999,2|0,0:0|1:0,0:0:0:0:
286,8,73751,1,8,0:0:0:0:
246,99,74057,2,0,L|257:151,1,50,8|0,0:0|0:0,0:0:0:0:
267,196,74363,1,8,0:0:0:0:
302,232,74516,2,0,L|279:337,1,99.9999999999999,0|0,1:0|1:0,0:0:0:0:
245,365,74975,1,8,0:0:0:0:
158,318,75281,6,0,P|107:311|58:321,1,99.9999999999999,8|10,0:0|0:0,0:0:0:0:
41,273,75741,1,0,1:0:0:0:
58,226,75894,2,0,P|92:221|113:219,2,50,10|0|10,0:0|1:0|0:0,0:0:0:0:
39,179,76353,1,6,1:3:0:0:
251,46,77118,2,0,P|242:68|236:96,1,50,10|10,0:0|0:0,0:0:0:0:
275,125,77424,1,8,0:0:0:0:
316,154,77577,6,0,L|295:256,1,99.9999999999999,6|0,1:0|1:0,0:0:0:0:
252,277,78036,1,10,0:0:0:0:
340,332,78343,2,0,L|331:393,2,50,2|2|8,1:0|1:0|0:0,0:0:0:0:
387,316,78802,2,0,P|401:293|413:240,1,50,0|0,0:0|1:0,0:0:0:0:
478,199,79261,1,10,0:0:0:0:
448,158,79414,2,0,L|432:50,1,99.9999999999999,2|0,0:0|1:0,0:0:0:0:
391,32,79873,1,8,0:0:0:0:
342,44,80026,6,0,L|240:32,1,99.9999999999999,6|0,1:0|1:0,0:0:0:0:
203,63,80485,1,10,0:0:0:0:
115,118,80791,2,0,P|84:116|55:119,2,50,2|0|10,1:0|1:0|0:0,0:0:0:0:
150,153,81251,2,0,P|181:151|210:154,1,50,0|14,0:0|0:0,0:0:0:0:
258,233,81710,1,10,0:0:0:0:
271,332,82016,2,0,L|337:328,1,50,2|2,0:0|1:0,0:0:0:0:
370,321,82322,1,10,0:0:0:0:
409,290,82475,6,0,P|405:231|424:168,1,99.9999999999999,6|0,1:0|1:0,0:0:0:0:
453,160,82934,1,10,0:0:0:0:
371,101,83240,2,0,L|380:42,2,50,2|2|8,1:0|1:0|0:0,0:0:0:0:
330,130,83699,2,0,P|306:128|281:129,1,50,0|0,0:0|1:0,0:0:0:0:
181,118,84159,1,10,0:0:0:0:
155,160,84312,2,0,P|144:207|150:265,1,99.9999999999999,2|0,0:0|1:0,0:0:0:0:
189,285,84771,1,8,0:0:0:0:
238,277,84924,6,0,L|358:263,1,99.9999999999999,6|0,1:0|1:0,0:0:0:0:
384,280,85383,1,10,0:0:0:0:
422,311,85536,2,0,P|482:295|506:264,1,99.9999999999999,2|2,0:0|0:0,0:0:0:0:
471,172,86149,1,2,1:0:0:0:
484,123,86302,1,8,0:0:0:0:
413,52,86608,1,10,0:0:0:0:
328,104,86914,1,10,0:0:0:0:
282,82,87067,2,0,P|252:84|219:95,1,50,10|10,0:0|0:0,0:0:0:0:
190,116,87373,1,8,0:0:0:0:
141,103,87526,6,0,L|157:209,1,99.9999999999999,8|0,0:3|1:0,0:0:0:0:
117,294,88139,1,10,0:0:0:0:
136,340,88292,1,6,1:3:0:0:
232,312,88598,2,0,B|267:300|302:312|302:323|302:335|337:347|372:335,1,150,6|0,1:0|0:0,0:0:0:0:
