osu file format v14

[General]
AudioFilename: audio.mp3
AudioLeadIn: 0
PreviewTime: 52552
Countdown: 0
SampleSet: Soft
StackLeniency: 0.3
Mode: 0
LetterboxInBreaks: 0
WidescreenStoryboard: 1

[Editor]
DistanceSpacing: 1.2
BeatDivisor: 4
GridSize: 8
TimelineZoom: 2.1

[Metadata]
Title:Relive
TitleUnicode:Relive
Artist:nonoc
ArtistUnicode:nonoc
Creator:fieryrage
Version:Keitaro's Hard
Source:Re:ゼロから始める異世界生活 Memory Snow
Tags:re:zero kara hajimeru isekai seikatsu rezero starting life in another world different from zero anime ova original video animation japanese english rock short cut ver version cycopton wanpachi -keitaro error- dashyy- apo11o dorsalplum glaceon wafer iwaifu ascendance
BeatmapID:2317126
BeatmapSetID:1108759

[Difficulty]
HPDrainRate:5
CircleSize:4
OverallDifficulty:6
ApproachRate:8
SliderMultiplier:1.4
SliderTickRate:1

[Events]
//Background and Video events
0,0,"I really love Rem Like a lot Like a whole lot You have no idea I love her so much that it is inexplicable and I'm ninety-nine percent sure I have an unhealthy obsession.jpg",0,0
//Break Periods
2,38547,42695
//Storyboard Layer 0 (Background)
//Storyboard Layer 1 (Fail)
//Storyboard Layer 2 (Pass)
//Storyboard Layer 3 (Foreground)
//Storyboard Layer 4 (Overlay)
//Storyboard Sound Samples

[TimingPoints]
588,306.122448979592,4,2,1,65,1,0
588,-100,4,2,1,65,0,0
1812,-100,4,2,1,50,0,0
4108,-100,4,2,1,60,0,0
4950,-100,4,2,1,50,0,0
5026,-100,4,2,1,40,0,0
5179,-100,4,2,1,50,0,0
5332,-100,4,2,1,60,0,0
5715,-100,4,2,1,50,0,0
5792,-100,4,2,1,60,0,0
6174,-100,4,2,1,50,0,0
6251,-100,4,2,1,60,0,0
6327,-100,4,2,1,50,0,0
6404,-100,4,2,1,60,0,0
6557,-100,4,2,1,65,0,1
6633,-100,4,2,1,65,0,0
16353,-100,4,2,4,65,0,0
16506,-100,4,2,1,40,0,0
17730,-100,4,2,1,50,0,0
18190,-100,4,2,1,45,0,0
18955,-100,4,2,1,65,0,0
19261,-100,4,2,1,55,0,0
21098,-100,4,2,1,65,0,0
21710,-100,4,2,1,55,0,0
23241,-100,4,2,1,65,0,0
24159,-100,4,2,1,55,0,0
25996,-100,4,2,1,65,0,0
26608,-100,4,2,1,55,0,0
28139,-100,4,2,1,60,0,0
28751,-100,4,2,1,65,0,1
28827,-100,4,2,1,65,0,0
33190,-100,4,2,4,65,0,0
33266,-100,4,2,1,65,0,0
33496,-100,4,2,4,65,0,0
33572,-100,4,2,1,65,0,0
37628,-100,4,2,1,50,0,0
38547,-100,4,2,1,60,0,0
43445,-100,4,2,1,65,0,0
43751,-100,4,2,4,65,0,0
43827,-100,4,2,1,65,0,0
44057,-100,4,2,4,65,0,0
44133,-100,4,2,1,65,0,0
44363,-100,4,2,4,65,0,0
44440,-100,4,2,1,65,0,0
45052,-100,4,2,1,55,0,0
45128,-100,4,2,1,65,0,0
45741,-100,4,2,1,60,0,0
45894,-100,4,2,1,65,0,0
46200,-100,4,2,4,65,0,0
46276,-100,4,2,1,65,0,0
46506,-100,4,2,4,65,0,0
46582,-100,4,2,1,65,0,0
46812,-100,4,2,4,65,0,0
46889,-100,4,2,1,65,0,0
47501,-100,4,2,1,55,0,0
47577,-100,4,2,1,65,0,0
47883,-100,4,2,1,60,0,0
48036,-100,4,2,1,55,0,0
48190,-100,4,2,1,60,0,0
48343,-100,4,2,1,65,0,0
48496,-100,4,2,1,50,0,0
50639,-100,4,2,1,55,0,0
50792,-100,4,2,1,60,0,0
50945,-100,4,2,1,50,0,0
51863,-100,4,2,1,55,0,0
52475,-100,4,2,4,60,0,0
52552,-100,4,2,1,60,0,0
52628,-100,4,2,1,45,0,0
52934,-100,4,2,1,55,0,0
53241,-100,4,2,1,70,0,1
61659,-100,4,2,1,70,0,0
62730,-100,4,2,4,70,0,0
62807,-100,4,2,1,70,0,0
63036,-100,4,2,1,70,0,1
67322,-100,4,2,1,60,0,1
67399,-100,4,2,1,55,0,1
67475,-100,4,2,1,60,0,1
67552,-100,4,2,1,65,0,1
67628,-100,4,2,1,70,0,1
72373,-100,4,2,1,60,0,1
72679,-100,4,2,1,65,0,1
72832,-100,4,2,1,70,0,1
76353,-100,4,2,1,70,0,0
76506,-100,4,2,1,60,0,0
77118,-100,4,2,1,65,0,0
77577,-100,4,2,1,65,0,1
77654,-100,4,2,1,65,0,0
81404,-100,4,2,5,65,0,0
81480,-100,4,2,1,65,0,0
81557,-100,4,2,1,55,0,0
81633,-100,4,2,1,60,0,0
81710,-100,4,2,1,65,0,0
81863,-100,4,2,4,65,0,0
81940,-100,4,2,1,65,0,0
87220,-100,4,2,1,60,0,0
87526,-100,4,2,1,55,0,0
87603,-100,4,2,1,65,0,0
87679,-100,4,2,1,45,0,0
87832,-100,4,2,1,65,0,0
88139,-100,4,2,4,65,0,0
88215,-100,4,2,1,65,0,0
88598,-100,4,2,1,70,0,0
88674,-100,4,2,2,5,0,0
89057,-100,4,2,1,20,0,0

[Colours]
Combo1 : 152,115,172
Combo2 : 189,196,193
Combo3 : 98,98,98
Combo4 : 224,148,71
Combo5 : 255,117,117
Combo6 : 111,184,227

[HitObjects]
57,34,588,5,6,1:3:0:0:
333,131,1812,2,0,P|372:116|396:89,2,70,0|0|0,0:0|0:0|0:0,0:0:0:0:
278,193,2271,2,0,L|294:41,2,140,2|2|2,0:0|0:0|0:0,0:0:0:0:
157,300,3190,2,0,P|117:282|74:285,1,70,0|0,0:0|0:0,0:0:0:0:
35,325,3496,2,0,P|54:274|55:189,1,140,2|0,0:0|0:0,0:0:0:0:
18,115,3955,1,2,0:0:0:0:
82,65,4108,6,0,L|245:77,1,140,4|0,1:0|1:0,0:0:0:0:
278,127,4567,2,0,L|359:133,1,70,8|0,0:0|1:0,0:0:0:0:
414,86,4873,2,0,L|406:43,4,35,8|8|8|8|8,0:0|0:3|1:3|0:3|0:3,0:0:0:0:
482,132,5332,1,0,1:0:0:0:
482,132,5485,6,0,L|467:200,1,70,8|8,0:0|0:0,0:0:0:0:
479,235,5715,1,8,0:0:0:0:
479,235,5792,2,0,P|438:218|392:220,1,70,8|0,0:0|1:0,0:0:0:0:
338,190,6098,1,8,0:0:0:0:
282,240,6251,1,8,0:0:0:0:
214,204,6404,1,8,0:0:0:0:
158,263,6557,6,0,P|132:215|172:130,1,140,4|0,1:0|1:0,0:0:0:0:
232,98,7016,2,0,B|155:107|155:107|97:65,1,140,10|2,0:0|1:0,0:0:0:0:
35,22,7475,1,2,1:0:0:0:
35,22,7628,2,0,L|24:105,1,70,8|0,0:0|0:0,0:0:0:0:
10,173,7934,2,0,L|91:167,1,70,0|0,1:0|1:0,0:0:0:0:
131,234,8241,2,0,L|200:239,1,70,10|2,0:0|0:0,0:0:0:0:
267,290,8547,2,0,P|287:252|280:207,2,70,0|0|8,1:0|1:0|0:0,0:0:0:0:
225,362,9006,6,0,P|276:327|369:359,1,140,6|0,1:0|1:0,0:0:0:0:
428,367,9465,2,0,B|426:316|426:316|443:274|443:274|439:208,1,140,10|2,0:0|1:0,0:0:0:0:
418,149,9924,1,0,1:0:0:0:
418,149,10077,2,0,P|454:145|491:160,1,70,8|0,0:0|0:0,0:0:0:0:
491,72,10383,2,0,L|333:61,1,140,2|10,1:0|0:0,0:0:0:0:
281,109,10843,1,0,0:0:0:0:
204,74,10996,2,0,L|216:-4,2,70,10|2|10,0:0|1:0|0:0,0:0:0:0:
126,107,11455,6,0,P|147:152|170:270,1,140,4|0,1:0|1:0,0:0:0:0:
197,318,11914,2,0,P|137:318|104:299,1,70,10|0,0:0|0:0,0:0:0:0:
52,350,12220,2,0,B|42:290|42:290|57:261|57:261|50:191,1,140,2|8,1:0|0:0,0:0:0:0:
8,143,12679,2,0,P|51:182|132:175,1,140,0|0,0:0|1:0,0:0:0:0:
194,123,13139,2,0,L|186:45,1,70,10|2,0:0|0:0,0:0:0:0:
262,16,13445,1,0,1:0:0:0:
262,16,13598,1,0,1:0:0:0:
337,53,13751,1,8,0:0:0:0:
411,13,13904,6,0,P|428:64|379:135,1,140,6|0,1:0|1:0,0:0:0:0:
308,167,14363,2,0,P|304:218|328:259,1,70,10|2,0:0|0:0,0:0:0:0:
370,292,14669,2,0,L|445:282,2,70,0|10|0,1:0|0:0|1:0,0:0:0:0:
289,316,15128,2,0,L|214:306,2,70,0|8|0,1:0|0:0|1:0,0:0:0:0:
353,370,15588,2,0,L|456:358,1,70,8|0,0:0|1:0,0:0:0:0:
499,328,15894,2,0,P|513:290|499:240,1,70,10|2,0:0|1:0,0:0:0:0:
459,194,16200,1,0,1:0:0:0:
459,194,16353,1,10,0:0:0:0:
74,24,18955,6,0,L|55:187,1,140,6|8,1:0|0:0,0:0:0:0:
57,163,19873,1,8,0:0:0:0:
57,163,20485,1,8,0:0:0:0:
254,319,20945,1,0,1:0:0:0:
254,319,21098,2,0,P|219:281|154:279,1,105,10|0,0:0|0:0,0:0:0:0:
147,311,21404,6,0,L|76:296,1,70,2|2,1:0|1:0,0:0:0:0:
20,235,21710,1,8,0:0:0:0:
20,235,22322,1,8,0:0:0:0:
20,235,22934,1,8,0:0:0:0:
129,106,23241,2,0,L|139:262,1,140,2|10,1:0|0:0,0:0:0:0:
210,299,23700,1,2,1:0:0:0:
210,299,23853,6,0,L|205:384,1,70,2|0,1:0|0:0,0:0:0:0:
285,342,24159,1,8,0:0:0:0:
285,342,24771,1,8,0:0:0:0:
285,342,25383,1,8,0:0:0:0:
483,185,25843,1,0,1:0:0:0:
483,185,25996,2,0,P|439:168|384:202,1,105,10|0,0:0|0:0,0:0:0:0:
376,232,26302,6,0,L|280:218,1,70,2|2,1:0|1:0,0:0:0:0:
223,210,26608,1,8,0:0:0:0:
223,210,27220,1,8,0:0:0:0:
223,210,27832,1,8,0:0:0:0:
109,85,28139,2,0,L|93:166,1,70,10|8,0:0|0:0,0:0:0:0:
19,189,28445,2,0,L|35:270,1,70,10|8,0:0|0:0,0:0:0:0:
16,340,28751,6,0,P|43:288|145:290,1,140,6|8,1:0|0:0,0:0:0:0:
201,281,29210,1,0,0:0:0:0:
201,281,29363,2,0,P|236:314|327:302,1,140,0|8,1:0|0:0,0:0:0:0:
398,340,29822,2,0,P|404:295|396:265,1,70,0|2,0:0|1:0,0:0:0:0:
485,263,30128,1,0,1:0:0:0:
485,263,30281,2,0,P|467:218|439:195,1,70,8|0,0:0|0:0,0:0:0:0:
406,132,30588,2,0,L|485:124,1,70,0|0,1:0|1:0,0:0:0:0:
464,41,30894,2,0,L|394:48,1,70,8|0,0:0|0:0,0:0:0:0:
325,96,31200,6,0,B|252:80|252:80|193:116,1,140,2|8,1:0|0:0,0:0:0:0:
127,162,31659,1,0,0:0:0:0:
127,162,31812,2,0,L|115:72,2,70,0|0|8,1:0|1:0|0:0,0:0:0:0:
59,212,32271,2,0,P|100:246|192:222,1,140,0|0,0:0|1:0,0:0:0:0:
259,202,32730,2,0,L|268:281,1,70,8|0,0:0|0:0,0:0:0:0:
341,311,33036,2,0,L|348:241,1,70,0|10,1:0|0:0,0:0:0:0:
425,205,33343,1,0,1:0:0:0:
425,205,33496,1,10,0:0:0:0:
389,129,33649,6,0,L|237:123,1,140,6|8,1:0|0:0,0:0:0:0:
166,109,34108,1,0,0:0:0:0:
166,109,34261,2,0,P|154:49|169:24,2,70,0|0|8,1:0|1:0|0:0,0:0:0:0:
196,187,34720,2,0,P|148:205|57:172,1,140,0|0,0:0|1:0,0:0:0:0:
14,246,35179,2,0,L|28:316,1,70,8|0,0:0|0:0,0:0:0:0:
111,309,35485,2,0,L|97:379,1,70,0|0,1:0|1:0,0:0:0:0:
181,382,35792,2,0,L|194:313,1,70,8|0,0:0|0:0,0:0:0:0:
269,275,36098,6,0,P|329:256|396:325,1,140,2|8,1:0|0:0,0:0:0:0:
455,355,36557,1,0,0:0:0:0:
455,355,36710,2,0,L|470:203,1,140,0|0,1:0|0:0,0:0:0:0:
433,139,37169,1,6,1:3:0:0:
416,8,43445,5,6,1:0:0:0:
416,8,43598,1,0,0:0:0:0:
362,72,43751,2,0,P|296:80|235:22,1,140,10|10,0:0|0:0,0:0:0:0:
162,8,44210,2,0,L|156:100,1,70,0|10,0:0|0:0,0:0:0:0:
92,131,44516,1,6,0:3:0:0:
252,180,44822,1,0,1:0:0:0:
132,297,45128,1,8,0:3:0:0:
132,297,45281,2,0,L|58:288,2,70,8|0|8,0:0|1:0|0:0,0:0:0:0:
276,383,45894,6,0,P|306:333|287:250,1,140,4|10,1:0|0:0,0:0:0:0:
252,180,46353,2,0,L|344:168,1,70,0|10,1:0|0:0,0:0:0:0:
347,91,46659,2,0,L|255:79,1,70,0|10,1:0|0:0,0:0:0:0:
235,9,46965,2,0,B|173:25|173:25|166:38|166:38|96:50,1,140,6|0,1:3|1:0,0:0:0:0:
51,112,47424,2,0,L|69:193,1,70,8|0,0:3|0:0,0:0:0:0:
134,228,47730,2,0,P|97:260|63:266,1,70,10|2,0:0|0:0,0:0:0:0:
31,335,48036,2,0,P|77:351|99:377,1,70,8|10,0:3|1:3,0:0:0:0:
162,319,48343,1,6,1:0:0:0:
256,192,48419,12,10,50792,0:0:0:0:
108,63,51863,5,8,0:0:0:0:
108,63,52169,1,8,0:0:0:0:
108,63,52475,1,10,0:0:0:0:
451,69,53241,6,0,P|411:39|326:77,1,140,6|8,1:0|0:0,0:0:0:0:
249,53,53700,1,0,0:0:0:0:
238,136,53853,2,0,B|196:134|175:105|175:105|133:95|99:120,1,140,2|8,1:0|0:0,0:0:0:0:
32,143,54312,1,0,0:0:0:0:
94,199,54465,2,0,P|101:228|92:278,1,70,2|0,1:0|0:0,0:0:0:0:
49,336,54771,2,0,P|98:355|137:345,1,70,8|0,0:0|0:0,0:0:0:0:
170,291,55077,2,0,B|222:282|242:287|242:287|265:317|333:314,1,140,2|8,1:0|0:0,0:0:0:0:
374,271,55536,1,0,0:0:0:0:
317,215,55690,5,2,1:0:0:0:
317,215,55843,2,0,L|329:139,1,70,2|8,0:0|0:0,0:0:0:0:
293,69,56149,2,0,P|250:67|220:89,1,70,2|0,0:0|1:0,0:0:0:0:
158,128,56455,2,0,P|118:110|97:81,1,70,2|8,0:0|0:0,0:0:0:0:
29,47,56761,2,0,P|62:120|65:204,1,140,2|0,0:0|0:0,0:0:0:0:
21,249,57220,2,0,P|66:262|102:256,1,70,8|0,0:0|0:0,0:0:0:0:
150,202,57526,1,2,1:0:0:0:
150,202,57679,1,0,0:0:0:0:
205,265,57832,2,0,L|197:338,1,70,10|2,0:0|0:0,0:0:0:0:
271,374,58139,6,0,B|309:350|326:329|326:329|372:322|408:346,1,140,6|8,1:0|0:0,0:0:0:0:
474,359,58598,1,0,0:0:0:0:
506,281,58751,2,0,P|485:251|449:235,1,70,2|0,1:0|0:0,0:0:0:0:
390,183,59057,2,0,P|413:148|454:125,1,70,10|2,0:0|0:0,0:0:0:0:
497,74,59363,2,0,P|430:91|354:55,1,140,0|10,1:0|0:0,0:0:0:0:
298,15,59822,1,0,0:0:0:0:
238,73,59975,2,0,B|225:112|244:144|244:144|212:180|221:221,1,140,2|10,1:0|0:0,0:0:0:0:
292,355,60588,6,0,P|246:308|174:313,1,140,2|8,1:0|0:0,0:0:0:0:
97,341,61047,1,2,0:0:0:0:
97,341,61200,2,0,L|81:258,2,70,0|2|8,1:0|0:0|0:0,0:0:0:0:
14,354,61659,5,6,1:3:0:0:
47,189,61965,1,6,1:3:0:0:
80,24,62271,1,6,1:3:0:0:
244,58,62577,1,2,1:0:0:0:
244,58,62654,1,0,1:0:0:0:
244,58,62730,2,0,L|330:49,1,70,10|0,0:0|1:0,0:0:0:0:
397,49,63036,6,0,B|394:85|367:115|367:115|356:159|383:210,1,140,6|8,1:0|0:0,0:0:0:0:
434,235,63496,1,0,0:0:0:0:
369,288,63649,2,0,P|331:262|296:261,1,70,2|0,1:0|0:0,0:0:0:0:
240,210,63955,2,0,P|225:257|238:295,1,70,8|0,0:0|0:0,0:0:0:0:
281,341,64261,2,0,B|244:322|209:330|209:330|184:367|132:369,1,140,2|8,1:0|0:0,0:0:0:0:
81,326,64720,1,0,0:0:0:0:
137,264,64873,2,0,B|146:210|124:177|124:177|83:188|49:184,1,140,2|8,1:0|0:0,0:0:0:0:
21,119,65332,1,0,0:0:0:0:
78,57,65485,5,2,1:0:0:0:
78,57,65639,2,0,L|157:68,1,70,2|8,0:0|0:0,0:0:0:0:
230,76,65945,2,0,L|240:0,1,70,2|0,0:0|1:0,0:0:0:0:
322,16,66251,2,0,L|312:85,1,70,2|8,0:0|0:0,0:0:0:0:
383,130,66557,2,0,P|336:165|258:143,1,140,6|0,1:0|0:0,0:0:0:0:
204,207,67016,1,8,0:0:0:0:
315,332,67322,2,0,L|322:278,3,35,10|8|10|8,0:3|0:3|0:0|0:0,0:0:0:0:
360,287,67628,2,0,L|355:252,3,35,10|0|2|0,0:0|0:0|0:0|0:0,0:0:0:0:
386,223,67934,6,0,B|424:209|460:208|460:208|477:180|471:141,1,140,6|10,1:0|0:0,0:0:0:0:
424,76,68394,1,0,0:0:0:0:
352,120,68547,2,0,P|324:106|301:66,2,70,10|0|10,0:0|1:0|0:0,0:0:0:0:
424,76,69006,2,0,P|468:93|510:172,1,140,2|0,1:0|0:0,0:0:0:0:
483,251,69465,2,0,P|440:239|401:228,1,70,8|0,0:0|1:0,0:0:0:0:
343,274,69771,2,0,P|333:226|331:187,2,70,2|0|10,0:0|1:0|0:0,0:0:0:0:
386,345,70230,1,2,0:0:0:0:
302,349,70383,6,0,B|267:341|267:341|227:350,1,70,4|0,1:0|0:0,0:0:0:0:
181,281,70690,2,0,B|147:273|147:273|112:281,1,70,10|0,0:0|1:0,0:0:0:0:
53,341,70996,2,0,P|61:279|65:195,1,140,10|10,0:0|0:0,0:0:0:0:
21,129,71455,2,0,P|54:171|161:162,1,140,2|0,1:0|0:0,0:0:0:0:
215,203,71914,2,0,L|206:120,1,70,10|0,0:0|0:0,0:0:0:0:
208,49,72220,2,0,L|154:59,3,35,10|0|8|8,0:0|0:0|0:3|0:3,0:0:0:0:
236,22,72526,2,0,L|281:27,3,35,10|8|8|8,0:0|0:0|0:0|0:0,0:0:0:0:
311,15,72832,6,0,B|321:71|293:90|293:90|277:136|296:163,1,140,6|8,1:0|0:0,0:0:0:0:
357,195,73292,1,2,0:0:0:0:
357,195,73445,2,0,L|442:192,1,70,8|0,0:0|1:0,0:0:0:0:
440,275,73751,2,0,L|355:272,1,70,8|0,0:0|1:0,0:0:0:0:
303,323,74057,2,0,B|258:304|237:290|237:290|198:297|172:337,1,140,8|8,0:0|0:0,0:0:0:0:
109,366,74516,1,0,1:0:0:0:
49,306,74669,2,0,P|41:264|52:229,1,70,8|0,0:0|1:0,0:0:0:0:
114,187,74975,2,0,P|114:144|97:103,1,70,8|0,0:0|1:0,0:0:0:0:
47,58,75281,6,0,P|117:101|192:74,1,140,8|10,0:0|0:0,0:0:0:0:
242,47,75741,1,0,1:0:0:0:
315,88,75894,2,0,P|326:44|316:7,2,70,10|0|10,0:0|1:0|0:0,0:0:0:0:
241,128,76353,1,6,1:3:0:0:
421,344,76965,1,0,1:0:0:0:
421,344,77042,1,0,1:0:0:0:
421,344,77118,2,0,L|492:358,2,70,10|10|8,0:0|0:0|0:0,0:0:0:0:
408,261,77577,6,0,B|369:267|346:301|346:301|314:318|267:310,1,140,6|0,1:0|1:0,0:0:0:0:
215,360,78036,2,0,P|200:314|252:231,1,140,10|2,0:0|1:0,0:0:0:0:
295,173,78496,1,2,1:0:0:0:
295,173,78649,2,0,P|256:165|214:152,1,70,8|0,0:0|0:0,0:0:0:0:
155,111,78955,2,0,L|162:23,1,70,0|0,1:0|1:0,0:0:0:0:
80,16,79261,2,0,L|74:85,1,70,10|2,0:0|0:0,0:0:0:0:
94,167,79567,2,0,P|38:163|10:140,2,70,0|0|8,1:0|1:0|0:0,0:0:0:0:
162,215,80026,6,0,P|136:249|157:354,1,140,6|0,1:0|1:0,0:0:0:0:
225,365,80485,2,0,P|241:323|245:278,1,70,10|0,0:0|0:0,0:0:0:0:
309,242,80792,2,0,P|295:196|291:153,2,70,2|0|10,1:0|1:0|0:0,0:0:0:0:
387,293,81251,1,0,0:0:0:0:
387,293,81404,2,0,L|444:283,4,35,14|0|8|8|10,0:0|0:0|0:3|0:3|0:0,0:0:0:0:
315,251,81863,1,2,0:0:0:0:
315,251,81940,1,0,0:0:0:0:
315,251,82016,2,0,L|324:173,2,70,2|2|10,0:0|1:0|0:0,0:0:0:0:
237,284,82475,6,0,B|198:290|168:258|168:258|185:215|181:173,1,140,6|0,1:0|1:0,0:0:0:0:
144,121,82934,2,0,P|105:126|62:132,1,70,10|0,0:0|0:0,0:0:0:0:
21,64,83241,2,0,P|48:16|141:21,1,140,2|8,1:0|0:0,0:0:0:0:
200,49,83700,2,0,P|256:68|330:23,1,140,0|0,0:0|1:0,0:0:0:0:
402,3,84159,2,0,P|407:47|417:90,1,70,10|2,0:0|0:0,0:0:0:0:
391,153,84465,2,0,P|432:167|469:184,2,70,0|0|8,1:0|1:0|0:0,0:0:0:0:
313,185,84924,6,0,P|301:234|342:318,1,140,6|0,1:0|1:0,0:0:0:0:
419,324,85383,2,0,P|428:284|429:247,1,70,10|2,0:0|0:0,0:0:0:0:
456,177,85690,2,0,P|424:163|391:153,1,70,0|2,1:0|0:0,0:0:0:0:
324,101,85996,2,0,P|313:63|313:12,1,70,0|2,1:0|1:0,0:0:0:0:
230,10,86302,2,0,P|202:44|105:68,1,140,8|10,0:0|0:0,0:0:0:0:
62,229,86914,2,0,P|19:218|-19:216,2,70,10|10|10,0:0|0:0|0:0,0:0:0:0:
100,303,87373,1,8,0:0:0:0:
180,277,87526,6,0,L|178:231,2,35,8|8|8,0:3|0:3|0:3,0:0:0:0:
235,347,87832,1,0,1:0:0:0:
235,347,87985,1,0,1:0:0:0:
303,297,88139,2,0,L|378:314,1,70,10|6,0:0|1:3,0:0:0:0:
476,181,88598,2,0,L|242:205,1,210,6|0,1:0|0:0,0:0:0:0:
