osu file format v14

[General]
AudioFilename: audio.mp3
AudioLeadIn: 0
PreviewTime: 52552
Countdown: 0
SampleSet: Soft
StackLeniency: 0.3
Mode: 0
LetterboxInBreaks: 0
WidescreenStoryboard: 1

[Editor]
DistanceSpacing: 0.3
BeatDivisor: 4
GridSize: 8
TimelineZoom: 1

[Metadata]
Title:Relive
TitleUnicode:Relive
Artist:nonoc
ArtistUnicode:nonoc
Creator:fieryrage
Version:Dash's Insane
Source:Re:ゼロから始める異世界生活 Memory Snow
Tags:re:zero kara hajimeru isekai seikatsu rezero starting life in another world different from zero anime ova original video animation japanese english rock short cut ver version cycopton wanpachi -keitaro error- dashyy- apo11o dorsalplum glaceon wafer iwaifu ascendance
BeatmapID:2318036
BeatmapSetID:1108759

[Difficulty]
HPDrainRate:5
CircleSize:4.1
OverallDifficulty:8
ApproachRate:9
SliderMultiplier:1.5
SliderTickRate:1

[Events]
//Background and Video events
0,0,"I really love Rem Like a lot Like a whole lot You have no idea I love her so much that it is inexplicable and I'm ninety-nine percent sure I have an unhealthy obsession.jpg",0,0
//Break Periods
2,16706,18355
//Storyboard Layer 0 (Background)
//Storyboard Layer 1 (Fail)
//Storyboard Layer 2 (Pass)
//Storyboard Layer 3 (Foreground)
//Storyboard Layer 4 (Overlay)
//Storyboard Sound Samples

[TimingPoints]
588,306.122448979592,4,2,1,65,1,0
588,-125,4,2,1,65,0,0
1812,-133.333333333333,4,2,1,50,0,0
4108,-111.111111111111,4,2,1,60,0,0
4950,-111.111111111111,4,2,1,50,0,0
5026,-111.111111111111,4,2,1,40,0,0
5179,-111.111111111111,4,2,1,50,0,0
5332,-111.111111111111,4,2,1,60,0,0
5485,-100,4,2,1,60,0,0
5715,-100,4,2,1,50,0,0
5792,-100,4,2,1,60,0,0
6174,-100,4,2,1,50,0,0
6251,-100,4,2,1,60,0,0
6327,-100,4,2,1,50,0,0
6404,-100,4,2,1,60,0,0
6557,-83.3333333333333,4,2,1,65,0,0
16353,-83.3333333333333,4,2,4,65,0,0
16506,-83.3333333333333,4,2,1,40,0,0
17730,-83.3333333333333,4,2,1,50,0,0
18190,-83.3333333333333,4,2,1,45,0,0
18955,-125,4,2,1,65,0,0
19261,-125,4,2,1,55,0,0
21098,-125,4,2,1,65,0,0
21710,-125,4,2,1,55,0,0
23241,-125,4,2,1,65,0,0
24159,-125,4,2,1,55,0,0
25996,-125,4,2,1,65,0,0
26608,-125,4,2,1,55,0,0
28139,-100,4,2,1,60,0,0
28751,-90.9090909090909,4,2,1,65,0,1
28827,-100,4,2,1,65,0,0
33190,-100,4,2,4,65,0,0
33266,-100,4,2,1,65,0,0
33496,-100,4,2,4,65,0,0
33572,-100,4,2,1,65,0,0
37628,-200,4,2,1,50,0,0
38547,-125,4,2,1,60,0,0
43445,-100,4,2,1,65,0,0
43751,-100,4,2,4,65,0,0
43827,-100,4,2,1,65,0,0
44057,-100,4,2,4,65,0,0
44133,-100,4,2,1,65,0,0
44363,-100,4,2,4,65,0,0
44440,-100,4,2,1,65,0,0
45052,-100,4,2,1,55,0,0
45128,-100,4,2,1,65,0,0
45741,-100,4,2,1,60,0,0
45894,-100,4,2,1,65,0,0
46200,-100,4,2,4,65,0,0
46276,-100,4,2,1,65,0,0
46506,-100,4,2,4,65,0,0
46582,-100,4,2,1,65,0,0
46812,-100,4,2,4,65,0,0
46889,-100,4,2,1,65,0,0
47501,-100,4,2,1,55,0,0
47577,-100,4,2,1,65,0,0
47883,-100,4,2,1,60,0,0
48036,-100,4,2,1,55,0,0
48190,-100,4,2,1,60,0,0
48343,-166.666666666667,4,2,1,65,0,0
48496,-166.666666666667,4,2,1,50,0,0
50639,-166.666666666667,4,2,1,55,0,0
50792,-125,4,2,1,60,0,0
50945,-125,4,2,1,50,0,0
51863,-125,4,2,1,55,0,0
52475,-125,4,2,4,60,0,0
52552,-125,4,2,1,60,0,0
52628,-250,4,2,1,45,0,0
52934,-250,4,2,1,55,0,0
53241,-76.9230769230769,4,2,1,70,0,1
61659,-100,4,2,1,70,0,0
62730,-100,4,2,4,70,0,0
62807,-100,4,2,1,70,0,0
63036,-83.3333333333333,4,2,1,70,0,1
67322,-83.3333333333333,4,2,1,60,0,1
67399,-83.3333333333333,4,2,1,55,0,1
67475,-83.3333333333333,4,2,1,60,0,1
67552,-83.3333333333333,4,2,1,65,0,1
67628,-83.3333333333333,4,2,1,70,0,1
72373,-83.3333333333333,4,2,1,60,0,1
72679,-83.3333333333333,4,2,1,65,0,1
72832,-83.3333333333333,4,2,1,70,0,1
76353,-100,4,2,1,70,0,0
76506,-100,4,2,1,60,0,0
77118,-100,4,2,1,65,0,0
77577,-83.3333333333333,4,2,1,65,0,0
81404,-83.3333333333333,4,2,5,65,0,0
81480,-83.3333333333333,4,2,1,65,0,0
81557,-83.3333333333333,4,2,1,55,0,0
81633,-83.3333333333333,4,2,1,60,0,0
81710,-83.3333333333333,4,2,1,65,0,0
81863,-83.3333333333333,4,2,4,65,0,0
81940,-83.3333333333333,4,2,1,65,0,0
87220,-83.3333333333333,4,2,1,60,0,0
87526,-83.3333333333333,4,2,1,55,0,0
87603,-83.3333333333333,4,2,1,65,0,0
87679,-83.3333333333333,4,2,1,45,0,0
87832,-83.3333333333333,4,2,1,65,0,0
88139,-83.3333333333333,4,2,4,65,0,0
88215,-83.3333333333333,4,2,1,65,0,0
88598,-83.3333333333333,4,2,1,70,0,0
88674,-83.3333333333333,4,2,2,5,0,0
89057,-83.3333333333333,4,2,1,20,0,0

[Colours]
Combo1 : 152,115,172
Combo2 : 189,196,193
Combo3 : 98,98,98
Combo4 : 224,148,71
Combo5 : 255,117,117
Combo6 : 111,184,227

[HitObjects]
44,238,588,6,0,L|39:185,1,30,6|0,1:3|0:0,0:0:0:0:
294,344,1812,5,0,0:0:0:0:
351,291,1965,1,0,0:0:0:0:
270,273,2118,1,0,0:0:0:0:
306,349,2271,2,0,P|304:305|294:216,2,112.500004291535,2|2|2,0:0|0:0|0:0,0:0:0:0:
401,172,3190,5,0,0:0:0:0:
342,112,3343,1,0,0:0:0:0:
342,112,3496,2,0,P|289:113|230:109,1,112.500004291535,2|0,0:0|0:0,0:0:0:0:
167,66,3955,1,2,0:0:0:0:
49,261,4108,6,0,P|62:213|17:123,1,134.999995880127,4|0,1:0|1:0,0:0:0:0:
153,276,4567,2,0,L|147:355,1,67.4999979400635,8|0,0:0|1:0,0:0:0:0:
354,218,4873,1,8,0:0:0:0:
328,218,4949,1,8,0:3:0:0:
303,219,5026,1,8,1:3:0:0:
278,220,5102,1,8,0:3:0:0:
251,221,5179,2,0,P|251:180|257:137,1,67.4999979400635,8|0,0:3|1:0,0:0:0:0:
166,26,5485,5,8,0:0:0:0:
364,75,5639,1,8,0:0:0:0:
364,75,5715,1,8,0:0:0:0:
364,75,5792,2,0,L|267:81,1,75,8|0,0:0|1:0,0:0:0:0:
15,84,6098,5,8,0:0:0:0:
49,69,6174,1,8,0:0:0:0:
86,68,6251,1,8,0:0:0:0:
120,82,6327,1,8,0:0:0:0:
147,108,6404,1,8,0:0:0:0:
161,143,6480,1,8,0:0:0:0:
161,180,6557,6,0,B|136:261|136:261|190:353,1,179.999994506836,4|0,1:0|1:0,0:0:0:0:
340,209,7016,1,10,0:0:0:0:
446,225,7169,1,0,0:0:0:0:
268,269,7322,2,0,P|265:214|266:157,1,89.9999972534181,2|2,1:0|1:0,0:0:0:0:
396,11,7628,2,0,P|392:66|396:180,1,134.999995880127,8|0,0:0|0:0,0:0:0:0:
469,116,7934,5,0,1:0:0:0:
323,62,8088,1,0,1:0:0:0:
210,125,8241,2,0,L|115:120,1,89.9999972534181,10|2,0:0|0:0,0:0:0:0:
270,241,8547,1,0,1:0:0:0:
297,132,8700,1,0,1:0:0:0:
245,58,8853,1,8,0:0:0:0:
273,255,9006,6,0,P|182:245|81:269,1,179.999994506836,6|0,1:0|1:0,0:0:0:0:
28,133,9465,2,0,P|38:183|28:232,1,89.9999972534181,10|0,0:0|0:0,0:0:0:0:
186,362,9771,1,2,1:0:0:0:
9,342,9924,1,0,1:0:0:0:
197,356,10077,1,8,0:0:0:0:
285,332,10230,1,0,0:0:0:0:
122,307,10383,6,0,P|123:254|121:201,1,89.9999972534181,2|0,1:0|1:0,0:0:0:0:
232,97,10690,2,0,P|230:141|231:186,1,89.9999972534181,10|0,0:0|0:0,0:0:0:0:
28,124,10996,1,10,0:0:0:0:
144,81,11149,1,2,1:0:0:0:
311,157,11302,1,10,0:0:0:0:
374,86,11455,6,0,B|418:165|418:165|400:286,1,179.999994506836,4|0,1:0|1:0,0:0:0:0:
478,95,11914,2,0,L|485:4,1,89.9999972534181,10|0,0:0|0:0,0:0:0:0:
316,168,12220,2,0,L|322:265,1,89.9999972534181,2|2,1:0|1:0,0:0:0:0:
467,102,12526,2,0,L|474:11,1,89.9999972534181,8|0,0:0|0:0,0:0:0:0:
236,56,12832,5,0,1:0:0:0:
337,12,12985,1,0,1:0:0:0:
394,152,13139,1,10,0:0:0:0:
468,182,13292,1,2,0:0:0:0:
385,161,13445,2,0,P|382:115|386:54,2,89.9999972534181,0|0|8,1:0|1:0|0:0,0:0:0:0:
224,234,13904,6,0,P|239:177|205:55,1,179.999994506836,6|0,1:0|1:0,0:0:0:0:
117,104,14363,1,10,0:0:0:0:
117,104,14516,1,2,0:0:0:0:
154,185,14669,1,0,1:0:0:0:
131,17,14822,1,10,0:0:0:0:
27,130,14975,1,0,1:0:0:0:
111,121,15128,1,0,1:0:0:0:
17,144,15281,6,0,P|11:77|10:33,1,89.9999972534181,8|0,0:0|1:0,0:0:0:0:
102,264,15588,2,0,P|100:318|102:366,1,89.9999972534181,8|0,0:0|1:0,0:0:0:0:
184,223,15894,5,10,0:0:0:0:
280,336,16047,1,2,1:0:0:0:
393,240,16200,1,0,1:0:0:0:
297,127,16353,2,0,L|293:178,1,44.999998626709,10|0,0:0|0:0,0:0:0:0:
285,245,16506,5,0,0:0:0:0:
125,57,18955,5,6,1:0:0:0:
48,45,19108,1,2,0:0:0:0:
123,72,19261,2,0,P|167:71|206:70,1,60,8|0,0:0|0:0,0:0:0:0:
367,37,19567,2,0,P|306:29|257:22,1,90,0|0,0:0|0:0,0:0:0:0:
264,24,19873,1,8,0:0:0:0:
305,103,20026,1,0,0:0:0:0:
234,207,20179,5,0,1:0:0:0:
299,255,20332,2,0,P|340:253|385:246,1,60,0|8,1:0|0:0,0:0:0:0:
467,357,20639,2,0,B|414:322|414:322|350:341,1,120,0|0,0:0|1:0,0:0:0:0:
232,303,21098,1,10,0:0:0:0:
166,346,21251,1,0,0:0:0:0:
12,308,21404,5,2,1:0:0:0:
85,283,21557,1,2,1:0:0:0:
22,226,21710,2,0,P|26:182|27:151,1,60,8|0,0:0|0:0,0:0:0:0:
96,21,22016,2,0,P|86:52|106:122,1,90,0|0,0:0|0:0,0:0:0:0:
87,124,22322,2,0,P|121:136|182:130,1,90,8|0,0:0|0:0,0:0:0:0:
181,118,22628,5,0,0:0:0:0:
261,190,22781,2,0,P|256:153|256:117,1,60,0|8,1:0|0:0,0:0:0:0:
315,68,23088,1,0,0:0:0:0:
417,164,23241,1,2,1:0:0:0:
502,46,23394,1,0,1:0:0:0:
393,21,23547,2,0,P|405:59|413:97,1,60,10|2,0:0|1:0,0:0:0:0:
498,168,23853,5,2,1:0:0:0:
432,239,24006,1,0,0:0:0:0:
511,314,24159,2,0,P|506:264|504:234,1,60,8|0,0:0|0:0,0:0:0:0:
424,343,24465,2,0,P|384:338|285:340,1,120,0|8,0:0|0:0,0:0:0:0:
236,290,24924,1,0,0:0:0:0:
55,352,25077,5,0,1:0:0:0:
141,379,25230,2,0,L|136:318,1,60,0|8,1:0|0:0,0:0:0:0:
53,142,25536,2,0,B|76:199|76:199|57:258,1,120,0|0,0:0|1:0,0:0:0:0:
150,79,25996,1,10,0:0:0:0:
187,207,26149,1,0,0:0:0:0:
287,22,26302,5,2,1:0:0:0:
224,134,26455,1,2,1:0:0:0:
385,117,26608,2,0,P|344:119|308:117,1,60,8|0,0:0|0:0,0:0:0:0:
255,248,26914,2,0,P|293:252|386:261,1,120,0|8,0:0|0:0,0:0:0:0:
408,189,27373,1,0,0:0:0:0:
391,368,27526,5,0,0:0:0:0:
453,314,27679,2,0,P|450:282|454:241,1,60,0|8,1:0|0:0,0:0:0:0:
495,186,27985,1,0,0:0:0:0:
358,85,28139,6,0,L|398:88,3,37.5,10|0|8|0,0:0|0:0|0:0|0:0,0:0:0:0:
499,42,28445,2,0,L|446:46,3,37.5,10|0|8|0,0:0|0:0|0:0|0:0,0:0:0:0:
289,152,28751,6,0,P|257:102|176:92,1,123.75000377655,6|0,1:0|0:0,0:0:0:0:
184,68,29057,2,0,P|130:63|83:60,1,75,8|0,0:0|0:0,0:0:0:0:
281,13,29363,2,0,P|325:9|369:5,1,75,0|0,1:0|1:0,0:0:0:0:
164,142,29669,1,8,0:0:0:0:
201,205,29822,6,0,B|174:279|174:279|193:360,1,150,0|0,0:0|1:0,0:0:0:0:
92,258,30281,1,8,0:0:0:0:
264,302,30434,1,0,0:0:0:0:
83,269,30588,1,0,1:0:0:0:
45,341,30741,1,0,1:0:0:0:
124,190,30894,2,0,P|121:141|113:100,1,75,8|0,0:0|0:0,0:0:0:0:
267,11,31200,6,0,L|259:140,1,112.5,2|0,1:0|0:0,0:0:0:0:
243,132,31506,1,8,0:0:0:0:
369,81,31659,1,0,0:0:0:0:
438,188,31812,2,0,P|483:185|524:182,1,75,0|0,1:0|1:0,0:0:0:0:
414,338,32118,1,8,0:0:0:0:
339,299,32271,6,0,P|340:260|327:140,1,150,0|0,0:0|1:0,0:0:0:0:
387,83,32730,1,8,0:0:0:0:
238,183,32883,1,0,0:0:0:0:
136,60,33036,1,0,1:0:0:0:
92,126,33190,1,10,0:0:0:0:
149,68,33343,1,0,1:0:0:0:
101,137,33496,1,10,0:0:0:0:
198,321,33649,6,0,B|174:265|174:265|186:182,1,112.5,6|0,1:0|0:0,0:0:0:0:
164,200,33955,2,0,L|241:196,1,75,8|0,0:0|0:0,0:0:0:0:
338,363,34261,2,0,P|342:303|341:258,1,75,0|0,1:0|1:0,0:0:0:0:
451,166,34567,1,8,0:0:0:0:
488,93,34720,6,0,L|319:84,1,150,0|0,0:0|1:0,0:0:0:0:
154,44,35179,1,8,0:0:0:0:
230,18,35332,1,0,0:0:0:0:
148,57,35485,1,0,1:0:0:0:
221,216,35639,1,0,1:0:0:0:
280,108,35792,2,0,P|229:112|193:119,1,75,8|0,0:0|0:0,0:0:0:0:
36,57,36098,5,2,1:0:0:0:
36,57,36404,2,0,P|56:107|49:174,1,112.5,8|0,0:0|0:0,0:0:0:0:
47,189,36710,1,0,1:0:0:0:
181,138,36863,1,8,0:0:0:0:
243,272,37016,1,0,0:0:0:0:
364,213,37169,2,0,P|409:204|463:190,1,75,6|0,1:3|0:0,0:0:0:0:
316,359,37628,6,0,P|317:320|316:283,2,75,0|2|0,0:0|0:0|0:0,0:0:0:0:
74,326,38547,6,0,L|70:256,1,60,6|0,1:0|0:0,0:0:0:0:
18,201,38853,1,0,1:0:0:0:
183,166,39159,2,0,P|181:205|182:237,2,60,2|0|0,1:0|0:0|1:0,0:0:0:0:
104,190,39618,1,2,0:0:0:0:
50,34,39771,6,0,L|118:37,1,60,0|0,1:0|0:0,0:0:0:0:
190,8,40077,1,0,1:0:0:0:
411,79,40383,2,0,L|404:144,1,60,2|0,1:0|0:0,0:0:0:0:
480,61,40690,2,0,L|477:-7,1,60,2|0,1:0|0:0,0:0:0:0:
318,74,40996,6,0,P|322:119|311:212,1,120,2|0,1:0|1:0,0:0:0:0:
482,362,41608,2,0,L|419:357,2,60,2|0|0,1:0|0:0|1:0,0:0:0:0:
341,362,42067,1,2,0:0:0:0:
362,284,42220,5,0,1:0:0:0:
405,107,42526,1,0,1:0:0:0:
233,294,42832,2,0,P|224:255|226:221,1,60,2|2,1:0|0:0,0:0:0:0:
156,320,43139,2,0,P|148:278|149:205,1,90,2|0,1:0|0:0,0:0:0:0:
123,215,43445,6,0,P|124:172|124:132,1,75,6|0,1:0|0:0,0:0:0:0:
313,42,43751,2,0,P|256:43|221:46,1,75,10|0,0:0|1:0,0:0:0:0:
156,19,44057,1,10,0:0:0:0:
156,19,44210,1,0,0:0:0:0:
45,131,44363,1,10,0:0:0:0:
214,281,44516,6,0,P|220:231|221:107,1,150,6|0,0:3|1:0,0:0:0:0:
295,104,44975,1,8,0:3:0:0:
295,104,45052,1,8,0:3:0:0:
295,104,45128,1,8,0:3:0:0:
152,167,45281,1,8,0:0:0:0:
291,228,45434,1,0,1:0:0:0:
406,160,45588,2,0,L|496:170,1,75,8|8,0:0|0:3,0:0:0:0:
481,169,45817,1,8,0:0:0:0:
481,169,45894,6,0,B|454:223|454:223|468:293,1,112.5,4|0,1:0|0:0,0:0:0:0:
411,328,46200,1,10,0:0:0:0:
290,261,46353,1,0,1:0:0:0:
138,345,46506,1,10,0:0:0:0:
221,370,46659,6,0,P|216:299|214:208,2,150,0|6|0,1:0|1:3|1:0,0:0:0:0:
114,273,47424,1,8,0:3:0:0:
114,273,47501,1,8,0:3:0:0:
114,273,47577,1,0,0:0:0:0:
25,190,47730,2,0,L|23:143,3,37.5,10|0|2|0,0:0|0:0|0:0|0:0,0:0:0:0:
111,145,48036,2,0,L|113:103,3,37.5,8|0|10|0,0:3|0:0|1:3|0:0,0:0:0:0:
193,74,48343,5,6,1:0:0:0:
476,198,49567,5,0,1:0:0:0:
172,339,50792,6,0,P|171:306|168:267,2,60,10|0|0,0:0|0:0|0:0,0:0:0:0:
274,307,51251,1,2,0:0:0:0:
49,156,51557,1,2,0:0:0:0:
286,32,51863,6,0,L|327:35,1,30,8|0,0:0|0:0,0:0:0:0:
43,168,52169,2,0,L|5:171,1,30,8|0,0:0|0:0,0:0:0:0:
283,316,52475,2,0,L|354:322,1,60,10|0,0:0|0:0,0:0:0:0:
475,142,53241,6,0,P|421:136|311:137,1,146.249993305207,6|0,1:0|0:0,0:0:0:0:
283,80,53547,1,8,0:0:0:0:
364,234,53700,1,0,0:0:0:0:
228,341,53853,2,0,P|226:281|219:222,1,97.4999955368044,2|0,1:0|0:0,0:0:0:0:
436,264,54159,2,0,P|429:323|426:366,1,97.4999955368044,8|0,0:0|0:0,0:0:0:0:
229,154,54465,6,0,P|219:200|93:242,1,194.999991073609,2|8,1:0|0:0,0:0:0:0:
35,299,54924,1,0,0:0:0:0:
15,39,55077,2,0,B|-17:135|-17:135|19:221,1,194.999991073609,2|8,1:0|0:0,0:0:0:0:
82,169,55536,1,0,0:0:0:0:
168,363,55690,5,2,1:0:0:0:
269,341,55843,2,0,P|275:293|287:244,1,97.4999955368044,2|8,0:0|0:0,0:0:0:0:
233,97,56149,2,0,P|271:126|308:161,1,97.4999955368044,2|0,0:0|1:0,0:0:0:0:
457,193,56455,2,0,P|412:211|363:225,1,97.4999955368044,2|8,0:0|0:0,0:0:0:0:
204,183,56761,1,2,0:0:0:0:
391,0,56914,6,0,P|380:59|382:172,1,146.249993305207,0|0,1:0|0:0,0:0:0:0:
452,109,57220,1,8,0:0:0:0:
307,33,57373,1,0,0:0:0:0:
141,131,57526,1,2,1:0:0:0:
222,32,57679,1,0,0:0:0:0:
308,166,57832,1,10,0:0:0:0:
218,52,57985,1,2,0:0:0:0:
206,207,58139,6,0,P|155:213|13:242,1,194.999991073609,6|8,1:0|0:0,0:0:0:0:
70,0,58751,1,2,1:0:0:0:
136,54,58904,1,0,0:0:0:0:
83,195,59057,1,10,0:0:0:0:
139,258,59210,6,0,P|149:313|294:338,1,194.999991073609,2|0,0:0|0:0,0:0:0:0:
464,314,59669,2,0,P|402:309|347:311,1,97.4999955368044,10|0,0:0|0:0,0:0:0:0:
220,243,59975,2,0,P|296:240|342:245,1,97.4999955368044,2|0,1:0|0:0,0:0:0:0:
474,185,60281,2,0,P|415:185|356:191,1,97.4999955368044,10|0,0:0|0:0,0:0:0:0:
278,39,60588,5,2,1:0:0:0:
175,17,60741,2,0,B|195:91|195:91|158:167,1,146.249993305207,2|0,0:0|0:0,0:0:0:0:
149,160,61047,2,0,P|146:239|150:274,1,97.4999955368044,2|0,0:0|1:0,0:0:0:0:
0,165,61353,1,2,0:0:0:0:
103,51,61506,1,8,0:0:0:0:
71,270,61659,6,0,P|71:194|68:102,2,150,6|6|6,1:3|1:3|1:3,0:0:0:0:
336,309,62577,1,2,1:0:0:0:
336,309,62654,1,0,1:0:0:0:
336,309,62730,2,0,P|289:308|241:303,1,75,10|0,0:0|1:0,0:0:0:0:
343,100,63036,6,0,P|360:149|463:164,1,134.999995880127,6|0,1:0|0:0,0:0:0:0:
477,108,63343,1,8,0:0:0:0:
512,261,63496,1,0,0:0:0:0:
357,367,63649,2,0,P|363:318|365:271,1,89.9999972534181,2|0,1:0|0:0,0:0:0:0:
224,178,63955,2,0,P|220:122|219:70,1,89.9999972534181,8|0,0:0|0:0,0:0:0:0:
495,42,64261,6,0,P|425:39|308:28,1,179.999994506836,2|8,1:0|0:0,0:0:0:0:
245,73,64720,1,0,0:0:0:0:
56,12,64873,2,0,P|39:72|115:199,1,179.999994506836,2|8,1:0|0:0,0:0:0:0:
37,246,65332,1,0,0:0:0:0:
269,262,65485,5,2,1:0:0:0:
193,311,65639,2,0,P|194:262|191:208,1,89.9999972534181,2|8,0:0|0:0,0:0:0:0:
342,144,65945,2,0,P|294:166|251:193,1,89.9999972534181,2|0,0:0|1:0,0:0:0:0:
124,96,66251,2,0,P|167:125|212:149,1,89.9999972534181,2|8,0:0|0:0,0:0:0:0:
421,67,66557,6,0,B|453:132|453:132|436:201,1,134.999995880127,6|0,1:0|0:0,0:0:0:0:
482,258,66863,1,0,0:0:0:0:
366,366,67016,2,0,P|368:309|375:257,1,89.9999972534181,8|0,0:0|0:0,0:0:0:0:
252,156,67322,5,10,0:3:0:0:
253,178,67398,1,8,0:3:0:0:
254,200,67475,1,10,0:0:0:0:
256,223,67551,1,8,0:0:0:0:
241,249,67628,5,10,0:0:0:0:
242,271,67704,1,0,0:0:0:0:
243,293,67781,1,0,0:0:0:0:
245,316,67857,1,0,0:0:0:0:
231,339,67934,5,6,1:0:0:0:
115,324,68088,1,0,0:0:0:0:
226,358,68241,1,10,0:0:0:0:
388,315,68394,1,0,0:0:0:0:
166,239,68547,6,0,B|151:150|151:150|197:67,1,179.999994506836,10|10,0:0|0:0,0:0:0:0:
453,152,69006,2,0,P|366:160|256:185,1,179.999994506836,2|0,1:0|0:0,0:0:0:0:
283,8,69465,2,0,P|285:62|287:111,1,89.9999972534181,8|0,0:0|1:0,0:0:0:0:
373,50,69771,5,2,0:0:0:0:
206,13,69924,1,0,1:0:0:0:
83,105,70077,1,10,0:0:0:0:
83,105,70230,1,2,0:0:0:0:
163,129,70383,5,4,1:0:0:0:
120,11,70536,1,0,0:0:0:0:
177,136,70690,1,10,0:0:0:0:
92,267,70843,1,0,1:0:0:0:
216,367,70996,6,0,P|229:306|244:186,1,179.999994506836,10|10,0:0|0:0,0:0:0:0:
33,329,71455,2,0,P|21:257|18:144,1,179.999994506836,2|0,1:0|0:0,0:0:0:0:
121,17,71914,2,0,P|132:68|109:122,1,89.9999972534181,10|0,0:0|0:0,0:0:0:0:
275,238,72220,6,0,L|279:189,3,44.999998626709,10|0|8|8,0:0|0:0|0:3|0:3,0:0:0:0:
209,115,72526,2,0,L|212:173,3,44.999998626709,10|8|8|8,0:0|0:0|0:0|0:0,0:0:0:0:
305,114,72832,5,6,1:0:0:0:
478,154,72985,1,0,0:0:0:0:
312,93,73139,1,8,0:0:0:0:
479,12,73292,1,2,0:0:0:0:
395,151,73445,2,0,P|398:211|397:268,1,89.9999972534181,8|0,0:0|1:0,0:0:0:0:
327,15,73751,2,0,P|273:17|217:17,1,89.9999972534181,8|0,0:0|1:0,0:0:0:0:
491,84,74057,5,8,0:0:0:0:
508,170,74210,1,0,0:0:0:0:
476,330,74363,1,8,0:0:0:0:
512,153,74516,1,0,1:0:0:0:
414,234,74669,2,0,P|349:238|297:245,1,89.9999972534181,8|0,0:0|1:0,0:0:0:0:
158,278,74975,2,0,P|216:282|267:289,1,89.9999972534181,8|0,0:0|1:0,0:0:0:0:
270,163,75281,5,8,0:0:0:0:
233,376,75434,1,0,0:0:0:0:
55,308,75588,2,0,P|55:248|59:201,1,89.9999972534181,10|0,0:0|1:0,0:0:0:0:
170,53,75894,2,0,P|172:108|171:169,1,89.9999972534181,10|0,0:0|1:0,0:0:0:0:
281,153,76200,1,10,0:0:0:0:
178,275,76353,6,0,P|180:326|179:367,1,75,6|0,1:3|0:0,0:0:0:0:
512,190,76965,1,0,1:0:0:0:
512,190,77042,1,0,1:0:0:0:
512,190,77118,5,10,0:0:0:0:
391,312,77271,1,10,0:0:0:0:
341,146,77424,1,8,0:0:0:0:
502,68,77577,6,0,P|448:69|294:64,1,179.999994506836,6|0,1:0|1:0,0:0:0:0:
161,146,78036,1,10,0:0:0:0:
211,38,78190,1,0,0:0:0:0:
89,201,78343,2,0,P|84:146|82:92,1,89.9999972534181,2|2,1:0|1:0,0:0:0:0:
279,177,78649,2,0,P|276:230|280:328,1,134.999995880127,8|0,0:0|0:0,0:0:0:0:
202,286,78955,5,0,1:0:0:0:
351,235,79108,1,0,1:0:0:0:
455,359,79261,2,0,P|458:315|463:258,1,89.9999972534181,10|2,0:0|0:0,0:0:0:0:
325,84,79567,1,0,1:0:0:0:
417,130,79720,1,0,1:0:0:0:
504,106,79873,1,8,0:0:0:0:
321,71,80026,6,0,B|234:94|234:94|146:45,1,179.999994506836,6|0,1:0|1:0,0:0:0:0:
48,205,80485,2,0,L|36:322,1,89.9999972534181,10|0,0:0|0:0,0:0:0:0:
101,138,80792,1,2,1:0:0:0:
51,66,80945,1,0,1:0:0:0:
106,151,81098,1,10,0:0:0:0:
257,117,81251,1,0,0:0:0:0:
177,280,81404,5,14,0:0:0:0:
178,257,81480,1,0,0:0:0:0:
180,235,81557,1,8,0:3:0:0:
182,212,81633,1,8,0:3:0:0:
184,190,81710,1,10,0:0:0:0:
341,281,81863,1,2,0:0:0:0:
409,225,82016,2,0,P|410:172|415:124,2,89.9999972534181,2|2|10,0:0|1:0|0:0,0:0:0:0:
226,22,82475,6,0,P|279:21|329:130,1,179.999994506836,6|0,1:0|1:0,0:0:0:0:
422,11,82934,2,0,L|521:15,1,89.9999972534181,10|0,0:0|0:0,0:0:0:0:
239,138,83241,2,0,L|140:142,1,89.9999972534181,2|2,1:0|1:0,0:0:0:0:
413,21,83547,2,0,L|512:25,1,89.9999972534181,8|0,0:0|0:0,0:0:0:0:
421,214,83853,5,0,1:0:0:0:
468,121,84006,1,0,1:0:0:0:
336,33,84159,1,10,0:0:0:0:
458,137,84312,2,0,P|411:139|363:137,2,89.9999972534181,2|0|0,0:0|1:0|1:0,0:0:0:0:
427,228,84771,1,8,0:0:0:0:
257,61,84924,6,0,P|206:68|153:182,1,179.999994506836,6|0,1:0|1:0,0:0:0:0:
208,229,85383,1,10,0:0:0:0:
208,229,85536,1,2,0:0:0:0:
299,258,85690,1,0,1:0:0:0:
103,280,85843,1,2,0:0:0:0:
203,371,85996,1,0,1:0:0:0:
239,300,86149,1,2,1:0:0:0:
32,187,86302,6,0,P|32:240|26:307,1,89.9999972534181,8|0,0:0|0:0,0:0:0:0:
267,169,86608,2,0,P|268:111|273:64,1,89.9999972534181,10|0,0:0|0:0,0:0:0:0:
118,22,86914,1,10,0:0:0:0:
172,98,87067,1,10,0:0:0:0:
108,255,87220,1,10,0:0:0:0:
166,331,87373,1,8,0:0:0:0:
295,166,87526,5,8,0:3:0:0:
295,166,87603,1,8,0:3:0:0:
295,166,87679,1,8,0:3:0:0:
366,214,87832,1,0,1:0:0:0:
331,284,87985,1,0,1:0:0:0:
479,368,88139,2,0,L|483:306,1,44.999998626709,10|0,0:0|0:0,0:0:0:0:
468,245,88292,1,6,1:3:0:0:
239,287,88598,6,0,P|228:234|353:66,1,269.999991760254,6|0,1:0|0:0,0:0:0:0:
