osu file format v14

[General]
AudioFilename: audio.mp3
AudioLeadIn: 0
PreviewTime: 52568
Countdown: 0
SampleSet: Soft
StackLeniency: 0.4
Mode: 0
LetterboxInBreaks: 0
WidescreenStoryboard: 1

[Editor]
Bookmarks: 18607,28397,38199,43091,50438,52893,62688,77229,87178,96968,106770,111668,119015,121464,131260,145801,155597,165546,170444,177791,185137,190035,199831,209627,214525,219423,224321,234117
DistanceSpacing: 0.6
BeatDivisor: 4
GridSize: 32
TimelineZoom: 1.6

[Metadata]
Title:Relive
TitleUnicode:Relive
Artist:nonoc
ArtistUnicode:nonoc
Creator:bite you death
Version:F4st's Extra
Source:Re:ゼロから始める異世界生活 Memory Snow
Tags:byd caren_sk gottagof4st gottagofast ggf osatia waku jenhideo rokkea sorciere hos hootowlstar Re:Zero kara Hajimeru Isekai Seikatsu OVA Movie Rem Ram Emilia subaru anime japanese
BeatmapID:1920886
BeatmapSetID:867350

[Difficulty]
HPDrainRate:5
CircleSize:3.8
OverallDifficulty:8.2
ApproachRate:9.2
SliderMultiplier:1.7
SliderTickRate:2

[Events]
//Background and Video events
0,0,"rezero.jpg",0,0
//Break Periods
2,77717,86896
2,146289,155315
//Storyboard Layer 0 (Background)
//Storyboard Layer 1 (Fail)
//Storyboard Layer 2 (Pass)
//Storyboard Layer 3 (Foreground)
//Storyboard Layer 4 (Overlay)
//Storyboard Sound Samples

[TimingPoints]
528,306.122448979592,4,2,2,60,1,0
1752,-142.857142857143,4,2,2,40,0,0
4048,-111.111111111111,4,2,2,60,0,0
6497,-90.9090909090908,4,2,2,70,0,0
9175,-90.9090909090908,4,2,2,5,0,0
9252,-90.9090909090908,4,2,2,70,0,0
16446,-90.9090909090908,4,2,2,50,0,0
18895,-142.857142857143,4,2,2,60,0,0
28691,-100,4,2,2,65,0,0
38487,-166.666666666667,4,2,2,65,0,0
43385,-125,4,2,2,65,0,0
45834,-100,4,2,2,65,0,0
48283,-100,4,2,2,45,0,0
50732,-100,4,2,2,40,0,0
51803,-100,4,2,2,55,0,0
52415,-71.4285714285714,4,2,2,55,0,0
52492,-100,4,2,2,55,0,0
53181,-83.3333333333333,4,2,2,70,0,1
53487,-83.3333333333333,4,2,3,70,0,1
61599,-83.3333333333333,4,2,3,70,0,0
62976,-83.3333333333333,4,2,2,70,0,1
63436,-83.3333333333333,4,2,3,70,0,1
66497,-83.3333333333333,4,2,2,70,0,1
66726,-83.3333333333333,4,2,2,5,0,1
66803,-83.3333333333333,4,2,3,70,0,1
67721,-83.3333333333333,4,2,2,75,0,1
68028,-83.3333333333333,4,2,3,75,0,1
72772,-83.3333333333333,4,2,2,80,0,1
76293,-83.3333333333333,4,2,2,80,0,0
77517,-83.3333333333333,4,2,2,70,0,0
87466,-125,4,2,2,60,0,0
97262,-100,4,2,2,65,0,0
107058,-166.666666666667,4,2,2,55,0,0
111344,-100,4,2,2,60,0,0
111956,-125,4,2,2,60,0,0
114405,-100,4,2,2,60,0,0
119303,-100,4,2,2,40,0,0
120374,-100,4,2,2,55,0,0
120987,-71.4285714285714,4,2,2,55,0,0
121064,-100,4,2,2,55,0,0
121752,-83.3333333333333,4,2,2,70,0,1
122058,-83.3333333333333,4,2,3,70,0,1
130170,-83.3333333333333,4,2,3,70,0,0
131548,-83.3333333333333,4,2,2,70,0,1
131854,-83.3333333333333,4,2,3,70,0,1
135068,-83.3333333333333,4,2,2,70,0,1
135298,-83.3333333333333,4,2,2,5,0,1
135374,-83.3333333333333,4,2,3,70,0,1
136446,-83.3333333333333,4,2,3,75,0,1
141344,-83.3333333333333,4,2,2,80,0,1
144864,-83.3333333333333,4,2,2,80,0,0
145630,-125,4,2,2,80,0,0
146089,-100,4,2,2,70,0,0
155885,-90.9090909090909,4,2,2,70,0,0
165834,-166.666666666667,4,2,2,55,0,0
170732,-125,4,2,2,60,0,0
173181,-100,4,2,2,60,0,0
178079,-100,4,2,2,40,0,0
179150,-100,4,2,2,55,0,0
179762,-71.4285714285714,4,2,2,55,0,0
179915,-100,4,2,2,55,0,0
189252,-83.3333333333333,4,2,2,55,0,0
190323,-76.9230769230769,4,2,2,70,0,1
190630,-76.9230769230769,4,2,3,70,0,1
193844,-76.9230769230769,4,2,2,70,0,1
194303,-76.9230769230769,4,2,3,70,0,1
195221,-76.9230769230769,4,2,3,75,0,1
199507,-76.9230769230769,4,2,2,75,0,1
200425,-76.9230769230769,4,2,3,75,0,1
209915,-100,4,2,2,65,0,0
214201,-100,4,2,2,75,0,0
214660,-76.9230769230769,4,2,2,75,0,1
214813,-76.9230769230769,4,2,2,85,0,1
223691,-111.111111111111,4,2,2,65,0,0
224456,-90.9090909090908,4,2,2,70,0,0
234405,-111.111111111111,4,2,2,70,0,0
234558,-111.111111111111,4,3,2,60,0,0
235630,-111.111111111111,4,2,0,60,0,0
235783,-111.111111111111,4,3,2,60,0,0
235936,-111.111111111111,4,2,2,30,0,0

[Colours]
Combo1 : 218,218,218
Combo2 : 255,194,166
Combo3 : 121,188,255
Combo4 : 255,147,255

[HitObjects]
79,57,528,5,2,3:2:0:0:
79,57,1752,6,0,L|11:61,2,59.4999981842042,2|2|2,0:0|0:0|0:0,0:0:0:0:
153,106,2211,2,0,L|221:110,1,59.4999981842042,2|0,0:0|0:0,0:0:0:0:
284,57,2517,1,2,0:0:0:0:
63,159,2823,1,2,0:0:0:0:
63,159,3130,6,0,P|76:197|77:223,1,59.4999981842042,2|2,0:0|0:0,0:0:0:0:
19,290,3436,2,0,P|59:264|131:276,1,118.999996368408,0|2,0:0|0:0,0:0:0:0:
175,346,3895,1,2,0:0:0:0:
235,211,4048,6,0,L|402:215,1,152.999995330811,6|0,3:2|0:0,0:0:0:0:
482,320,4507,2,0,P|466:284|462:237,1,76.4999976654053,8|0,0:0|0:0,0:0:0:0:
477,111,4813,1,8,0:0:0:0:
477,111,4890,2,0,L|482:64,1,38.2499988327027,8|8,0:0|0:0,0:0:0:0:
386,2,5043,1,8,0:0:0:0:
386,2,5120,2,0,L|391:49,1,38.2499988327027,8|0,0:3|0:0,0:0:0:0:
317,166,5272,1,8,0:3:0:0:
229,0,5425,5,8,0:0:0:0:
142,98,5579,1,8,0:0:0:0:
142,98,5655,1,8,0:0:0:0:
142,98,5732,2,0,L|57:94,1,76.4999976654053,8|0,0:0|0:0,0:0:0:0:
31,97,5961,1,0,0:0:0:0:
31,97,6038,2,0,L|22:141,1,38.2499988327027,8|0,0:0|0:0,0:0:0:0:
94,197,6191,2,0,L|103:241,1,38.2499988327027,8|0,0:0|0:0,0:0:0:0:
32,290,6344,2,0,L|23:334,1,38.2499988327027,8|0,0:0|0:0,0:0:0:0:
212,232,6497,6,0,B|281:217|281:217|399:225,1,187.000005706787,6|0,3:2|0:0,0:0:0:0:
511,368,6956,2,0,L|411:376,1,93.5000028533936,10|2,0:0|0:0,0:0:0:0:
284,300,7262,1,2,3:2:0:0:
407,107,7415,2,0,P|417:151|417:201,1,93.5000028533936,0|8,0:0|0:0,0:0:0:0:
265,321,7721,6,0,L|64:318,1,187.000005706787,2|0,3:2|3:0,0:0:0:0:
208,224,8181,1,10,0:0:0:0:
11,159,8334,2,0,L|117:157,1,93.5000028533936,0|2,0:0|3:2,0:0:0:0:
230,234,8640,1,2,0:0:0:0:
48,317,8793,1,8,0:0:0:0:
122,130,8946,6,0,B|187:103|187:103|304:90,1,187.000005706787,6|0,3:2|0:0,0:0:0:0:
471,150,9405,2,0,P|484:202|475:252,1,93.5000028533936,10|0,0:0|0:0,0:0:0:0:
411,70,9711,1,2,3:2:0:0:
307,214,9864,2,0,L|196:211,1,93.5000028533936,0|8,0:0|0:0,0:0:0:0:
104,94,10170,1,2,0:0:0:0:
28,288,10323,6,0,L|139:285,1,93.5000028533936,2|0,3:2|0:0,0:0:0:0:
296,183,10630,2,0,L|185:180,1,93.5000028533936,10|0,0:0|0:0,0:0:0:0:
40,263,10936,1,10,0:0:0:0:
213,211,11089,1,2,3:2:0:0:
0,151,11242,1,8,0:0:0:0:
286,62,11395,6,0,B|380:102|367:18|472:62,1,187.000005706787,6|0,3:2|0:0,0:0:0:0:
424,232,11854,2,0,P|411:187|416:132,1,93.5000028533936,10|0,0:0|0:0,0:0:0:0:
510,303,12160,1,2,3:2:0:0:
362,377,12313,2,0,L|257:370,1,93.5000028533936,0|8,0:0|0:0,0:0:0:0:
72,252,12619,6,0,P|159:267|160:370,1,187.000005706787,2|0,3:2|3:0,0:0:0:0:
13,368,13079,1,10,0:0:0:0:
58,167,13232,2,0,P|105:160|172:171,1,93.5000028533936,0|2,0:0|3:2,0:0:0:0:
104,321,13538,1,2,0:0:0:0:
36,147,13691,1,8,0:0:0:0:
253,219,13844,6,0,B|347:179|334:263|439:219,1,187.000005706787,6|0,3:2|0:0,0:0:0:0:
387,133,14303,1,10,0:0:0:0:
297,292,14456,2,0,P|290:351|294:387,1,93.5000028533936,0|2,0:0|3:2,0:0:0:0:
411,151,14762,2,0,P|404:92|408:56,1,93.5000028533936,8|0,0:0|0:0,0:0:0:0:
343,221,15068,1,2,0:0:0:0:
234,43,15221,5,14,0:2:0:0:
236,189,15374,1,0,3:0:0:0:
110,57,15528,5,10,0:0:0:0:
231,214,15681,1,0,3:0:0:0:
17,142,15834,5,8,0:0:0:0:
226,239,15987,1,8,0:0:0:0:
106,79,16140,1,8,0:0:0:0:
104,321,16293,5,2,3:0:0:0:
104,321,18895,6,0,L|171:323,1,59.4999981842042,2|0,3:2|0:0,0:0:0:0:
245,365,19201,2,0,L|369:360,2,118.999996368408,10|2|10,0:0|0:0|0:0,0:0:0:0:
146,304,19966,1,2,0:0:0:0:
271,245,20119,2,0,P|284:208|279:171,1,59.4999981842042,2|0,3:2|3:0,0:0:0:0:
283,188,20579,2,0,L|425:193,1,118.999996368408,2|2,0:0|3:2,0:0:0:0:
491,100,21038,2,0,L|420:102,1,59.4999981842042,8|0,0:0|0:0,0:0:0:0:
494,197,21344,5,0,3:0:0:0:
332,99,21497,1,0,3:0:0:0:
332,99,21650,2,0,B|306:40|306:40|329:-22,2,118.999996368408,10|2|10,0:0|0:0|0:0,0:0:0:0:
332,99,22568,1,0,0:0:0:0:
272,207,22721,2,0,P|234:215|188:203,1,59.4999981842042,2|8,3:2|0:0,0:0:0:0:
169,141,23028,2,0,P|131:133|85:145,1,59.4999981842042,2|0,0:0|3:0,0:0:0:0:
27,263,23334,1,0,0:0:0:0:
106,107,23487,1,10,0:0:0:0:
123,285,23640,1,0,0:0:0:0:
3,155,23793,5,0,3:0:0:0:
184,40,23946,1,0,3:0:0:0:
184,40,24099,2,0,L|319:30,2,118.999996368408,10|2|10,0:0|0:0|0:0,0:0:0:0:
106,107,24864,1,2,0:0:0:0:
197,195,25017,2,0,P|205:233|193:279,1,59.4999981842042,2|2,3:2|3:2,0:0:0:0:
29,367,25477,2,0,B|70:339|70:339|141:333,1,118.999996368408,2|0,2:0|3:0,0:0:0:0:
220,275,25936,2,0,L|289:280,1,59.4999981842042,8|0,0:0|0:0,0:0:0:0:
214,365,26242,5,0,3:0:0:0:
355,221,26395,1,0,0:0:0:0:
355,221,26548,2,0,B|328:160|377:156|352:103,2,118.999996368408,10|2|10,0:0|0:0|0:0,0:0:0:0:
432,301,27313,1,0,0:0:0:0:
427,189,27466,1,2,3:2:0:0:
292,294,27619,2,0,L|208:290,1,59.4999981842042,2|8,3:2|0:0,0:0:0:0:
161,359,27925,1,2,0:0:0:0:
47,194,28079,5,8,0:0:0:0:
71,314,28232,1,8,0:0:0:0:
177,121,28385,1,8,0:0:0:0:
153,241,28538,1,8,0:0:0:0:
0,99,28691,6,0,P|83:75|163:94,1,170,6|10,3:2|0:0,0:0:0:0:
237,216,29150,1,0,0:0:0:0:
362,84,29303,2,0,P|375:35|375:-7,1,85,2|0,3:2|0:0,0:0:0:0:
271,116,29609,1,10,0:0:0:0:
428,187,29762,6,0,B|441:236|441:278,1,85,2|0,0:0|3:0,0:0:0:0:
311,382,30068,1,2,0:0:0:0:
259,231,30221,1,10,0:0:0:0:
199,372,30374,1,2,0:0:0:0:
362,309,30528,1,2,3:2:0:0:
177,270,30681,1,0,0:0:0:0:
352,174,30834,2,0,P|400:162|448:162,1,85,10|0,0:0|0:0,0:0:0:0:
312,41,31140,6,0,P|242:61|138:60,1,170,6|10,3:2|0:0,0:0:0:0:
9,12,31599,1,2,0:0:0:0:
149,151,31752,2,0,P|156:198|152:242,1,85,2|0,3:2|0:0,0:0:0:0:
67,84,32058,1,10,0:0:0:0:
4,231,32211,6,0,P|-3:278|1:322,1,85,2|0,0:0|3:0,0:0:0:0:
151,352,32517,1,2,0:0:0:0:
80,177,32670,1,10,0:0:0:0:
0,315,32823,1,0,0:0:0:0:
222,295,32976,5,2,3:2:0:0:
31,236,33130,1,2,3:3:0:0:
174,137,33283,5,2,0:0:0:0:
80,305,33437,1,2,3:3:0:0:
243,270,33589,6,0,L|433:273,1,170,6|10,3:2|0:0,0:0:0:0:
458,178,34048,1,2,0:0:0:0:
324,100,34201,2,0,P|313:143|325:204,1,85,2|0,3:2|0:0,0:0:0:0:
397,293,34507,1,10,0:0:0:0:
512,109,34660,6,0,P|469:98|408:110,1,85,2|0,0:0|3:0,0:0:0:0:
322,208,34966,1,2,0:0:0:0:
242,83,35119,1,10,0:0:0:0:
238,235,35272,1,2,0:0:0:0:
357,132,35425,1,2,3:2:0:0:
170,179,35579,1,2,0:0:0:0:
309,39,35732,2,0,P|363:26|418:22,1,85,10|0,0:0|0:0,0:0:0:0:
216,90,36038,6,0,B|158:91|158:91|103:65|103:65|40:67,1,170,6|10,3:2|0:0,0:0:0:0:
180,0,36497,1,0,0:0:0:0:
82,150,36650,1,2,3:2:0:0:
235,73,36803,2,0,P|279:66|332:71,1,85,0|10,0:0|0:0,0:0:0:0:
0,0,37109,5,2,0:0:0:0:
256,192,37568,5,2,0:0:0:0:
256,192,37874,1,2,0:0:0:0:
256,192,38181,1,2,0:0:0:0:
512,0,38487,6,0,L|443:1,1,50.9999984436036,2|0,3:2|0:0,0:0:0:0:
408,71,38793,2,0,L|339:70,1,50.9999984436036,0|2,3:0|0:0,0:0:0:0:
288,0,39099,2,0,L|219:1,1,50.9999984436036,0|0,3:0|0:0,0:0:0:0:
184,71,39405,2,0,L|115:70,1,50.9999984436036,0|0,3:0|0:0,0:0:0:0:
38,139,39711,6,0,P|45:95|46:69,1,50.9999984436036,0|0,3:0|0:0,0:0:0:0:
105,198,40017,2,0,P|112:242|113:268,1,50.9999984436036,0|0,3:0|0:0,0:0:0:0:
244,227,40323,2,0,P|196:223|179:223,1,50.9999984436036,2|0,3:2|0:0,0:0:0:0:
134,336,40630,2,0,P|182:340|199:340,1,50.9999984436036,2|0,3:2|0:0,0:0:0:0:
310,271,40936,6,0,P|323:231|319:207,1,50.9999984436036,2|0,3:2|0:0,0:0:0:0:
208,191,41242,2,0,P|236:222|258:230,1,50.9999984436036,0|0,3:0|0:0,0:0:0:0:
328,142,41548,2,0,P|286:150|268:166,1,50.9999984436036,2|0,3:2|0:0,0:0:0:0:
310,271,41854,2,0,P|323:231|319:207,1,50.9999984436036,0|0,3:0|0:0,0:0:0:0:
208,191,42160,6,0,L|149:190,1,50.9999984436036,2|0,3:2|0:0,0:0:0:0:
81,140,42466,2,0,L|22:141,1,50.9999984436036,0|0,3:0|0:0,0:0:0:0:
38,282,42772,2,0,L|97:281,1,50.9999984436036,2|2,3:2|0:0,0:0:0:0:
180,341,43078,6,0,L|239:342,1,50.9999984436036,2|0,3:2|0:0,0:0:0:0:
115,281,43385,5,6,3:2:0:0:
189,229,43538,1,0,3:0:0:0:
47,188,43691,1,10,0:0:0:0:
47,188,43997,1,2,0:0:0:0:
216,241,44150,6,0,B|285:251|285:251|352:242,2,136,2|2|8,3:2|3:2|0:3,0:2:0:0:
290,163,44915,1,8,0:3:0:0:
290,163,44992,1,8,0:3:0:0:
290,163,45068,1,8,0:3:0:0:
363,268,45221,1,8,0:0:0:0:
216,241,45374,1,0,0:0:0:0:
408,174,45528,1,8,0:0:0:0:
408,174,45834,6,0,L|412:78,1,85,6|0,3:2|0:0,0:0:0:0:
367,289,46140,1,8,0:0:0:0:
281,137,46293,2,0,P|246:124|192:124,1,85,2|0,0:0|3:0,0:0:0:0:
165,281,46599,2,0,P|193:257|220:210,1,85,2|8,0:0|0:0,0:0:0:0:
79,166,46905,6,0,B|114:249|40:237|79:330,1,170,2|0,3:2|0:0,0:0:0:0:
270,315,47364,1,8,0:3:0:0:
270,315,47441,1,8,0:3:0:0:
270,315,47517,1,8,0:3:0:0:
56,184,47670,1,10,0:0:0:0:
260,149,47823,1,4,3:3:0:0:
161,301,47976,1,8,0:3:0:0:
113,95,48130,1,8,0:3:0:0:
261,306,48283,5,4,3:2:0:0:
256,192,48359,12,0,50579,0:0:0:0:
210,142,50732,5,2,3:2:0:0:
103,88,50885,1,2,0:0:0:0:
251,67,51038,1,2,0:0:0:0:
74,172,51191,1,2,0:0:0:0:
273,56,51497,5,2,0:0:0:0:
53,187,51803,6,0,L|40:287,1,85,8|0,0:0|0:0,0:0:0:0:
210,265,52109,2,0,L|223:365,1,85,8|0,0:0|0:0,0:0:0:0:
366,120,52415,2,0,L|360:186,1,59.4999981842042,8|0,1:2|0:0,0:0:0:0:
360,179,53181,6,0,B|282:177|282:177|243:149|243:149|164:146,1,203.999993774414,6|10,3:2|0:0,0:0:0:0:
196,287,53640,1,0,1:0:0:0:
318,88,53793,2,0,B|264:57|264:57|106:54,1,203.999993774414,2|8,3:2|0:0,0:0:0:0:
146,171,54252,1,0,1:0:0:0:
363,185,54405,6,0,P|410:141|385:3,1,203.999993774414,2|8,3:2|0:0,0:0:0:0:
242,149,54864,1,0,1:0:0:0:
410,269,55017,2,0,B|308:311|323:221|209:269,1,203.999993774414,2|8,3:2|0:0,0:0:0:0:
267,348,55476,1,0,1:0:0:0:
363,185,55630,5,2,3:2:0:0:
190,271,55783,2,0,P|133:281|78:284,1,101.999996887207,2|8,1:2|0:0,0:0:0:0:
128,102,56089,2,0,P|184:112|237:128,1,101.999996887207,2|0,1:2|3:0,0:0:0:0:
199,279,56395,2,0,P|142:289|87:292,1,101.999996887207,2|8,1:2|0:0,0:0:0:0:
120,88,56701,1,2,1:2:0:0:
283,189,56854,6,0,B|318:280|318:280|281:393,1,203.999993774414,0|8,3:0|0:0,0:0:0:0:
199,279,57313,1,0,1:0:0:0:
390,191,57466,1,2,3:2:0:0:
372,337,57619,1,0,1:0:0:0:
492,144,57772,1,10,0:0:0:0:
510,290,57925,1,2,1:2:0:0:
412,88,58079,6,0,B|334:96|334:96|298:128|298:128|219:137,1,203.999993774414,4|8,3:2|0:0,0:0:0:0:
250,39,58538,1,0,1:0:0:0:
385,175,58691,1,2,3:2:0:0:
194,139,58844,1,2,1:2:0:0:
335,98,58997,1,10,0:0:0:0:
289,286,59150,1,2,1:2:0:0:
174,122,59303,6,0,P|113:104|65:102,1,101.999996887207,0|0,3:0|1:0,0:0:0:0:
176,325,59609,2,0,P|237:310|280:287,1,101.999996887207,10|0,0:0|1:0,0:0:0:0:
185,111,59915,2,0,P|124:93|76:91,1,101.999996887207,2|0,3:2|1:0,0:0:0:0:
174,340,60221,2,0,P|235:325|278:302,1,101.999996887207,10|0,0:0|1:0,0:0:0:0:
165,136,60528,5,2,3:2:0:0:
72,336,60681,2,0,L|177:340,1,101.999996887207,2|8,1:2|0:0,0:0:0:0:
361,223,60987,2,0,L|256:227,1,101.999996887207,2|0,1:2|3:0,0:0:0:0:
63,132,61293,2,0,L|168:136,1,101.999996887207,2|8,1:2|0:0,0:0:0:0:
315,43,61599,5,2,3:2:0:0:
183,359,61905,5,2,3:2:0:0:
0,0,62211,5,2,3:2:0:0:
7,7,62517,5,10,0:0:0:0:
7,7,62594,1,8,0:0:0:0:
7,7,62670,1,2,3:2:0:0:
121,77,62823,1,2,0:0:0:0:
9,203,62976,6,0,B|54:243|54:243|136:242|136:242|195:283,1,203.999993774414,6|8,3:2|0:0,0:0:0:0:
99,366,63436,1,0,1:0:0:0:
84,161,63589,2,0,B|170:161|170:161|275:242,1,203.999993774414,2|8,3:2|0:0,0:0:0:0:
128,351,64048,1,0,1:0:0:0:
335,295,64201,6,0,P|358:235|271:139,1,203.999993774414,2|8,3:2|0:0,0:0:0:0:
187,277,64660,1,0,1:0:0:0:
384,366,64813,2,0,P|425:301|429:171,1,203.999993774414,2|8,3:2|0:0,0:0:0:0:
294,114,65272,1,0,1:0:0:0:
455,2,65425,5,2,3:2:0:0:
311,83,65579,2,0,P|250:95|207:90,1,101.999996887207,2|8,1:2|0:0,0:0:0:0:
38,3,65885,2,0,P|78:49|96:89,1,101.999996887207,2|0,1:2|3:0,0:0:0:0:
106,280,66191,2,0,P|126:221|151:186,1,101.999996887207,2|8,1:2|0:0,0:0:0:0:
331,287,66497,6,0,L|119:298,1,203.999993774414,6|0,3:2|3:0,0:0:0:0:
25,161,66956,2,0,L|140:166,1,101.999996887207,8|0,0:0|0:0,0:0:0:0:
329,122,67261,1,10,0:0:0:0:
303,124,67339,1,8,0:0:0:0:
278,116,67415,1,10,0:0:0:0:
260,97,67492,1,8,0:0:0:0:
246,75,67568,2,0,L|255:2,1,50.9999984436036,10|8,0:0|0:0,0:0:0:0:
442,54,67721,6,0,B|469:119|469:119|475:258,1,203.999993774414,6|2,3:2|3:2,0:0:0:0:
331,291,68181,1,10,1:2:0:0:
387,138,68334,1,2,3:2:0:0:
392,344,68487,5,10,1:2:0:0:
282,155,68640,1,0,3:0:0:0:
183,328,68793,5,10,1:2:0:0:
106,114,68946,2,0,B|56:196|152:225|102:311,1,203.999993774414,2|0,3:2|3:0,0:0:0:0:
181,166,69405,6,0,P|237:157|295:156,1,101.999996887207,8|0,1:2|3:0,0:0:0:0:
183,70,69711,1,10,1:2:0:0:
242,245,69864,1,2,3:2:0:0:
307,63,70017,1,10,1:2:0:0:
241,272,70170,1,2,3:2:0:0:
100,86,70323,6,0,P|44:77|-14:76,1,101.999996887207,14|2,3:2|3:2,0:0:0:0:
10,265,70630,1,8,1:2:0:0:
90,111,70783,1,2,3:2:0:0:
92,325,70936,5,8,1:2:0:0:
12,171,71089,1,0,3:0:0:0:
7,377,71242,5,10,1:2:0:0:
189,211,71395,2,0,B|256:198|256:198|327:214|327:214|391:204,1,203.999993774414,6|0,3:2|3:0,0:0:0:0:
178,241,71854,6,0,P|167:292|182:338,1,101.999996887207,10|0,0:0|0:0,0:0:0:0:
338,117,72160,2,0,P|349:66|334:20,1,101.999996887207,10|0,0:0|0:0,0:0:0:0:
306,6,72390,1,8,0:0:0:0:
306,6,72466,2,0,L|249:10,1,50.9999984436036,10|8,0:0|0:0,0:0:0:0:
159,124,72619,1,8,0:0:0:0:
159,124,72696,1,8,0:0:0:0:
159,124,72772,6,0,L|29:118,1,101.999996887207,6|0,3:2|0:0,0:0:0:0:
117,14,73079,1,8,1:2:0:0:
45,217,73232,1,2,3:2:0:0:
211,50,73385,5,8,1:2:0:0:
214,233,73538,1,0,3:0:0:0:
57,119,73691,5,8,1:2:0:0:
143,288,73844,1,0,3:0:0:0:
278,179,73997,6,0,P|336:169|410:171,1,101.999996887207,8|0,1:2|3:0,0:0:0:0:
230,255,74303,1,8,1:2:0:0:
455,168,74456,1,0,3:0:0:0:
202,136,74609,5,8,1:2:0:0:
405,248,74762,1,0,3:0:0:0:
302,67,74915,5,8,1:2:0:0:
332,303,75068,1,0,3:0:0:0:
144,204,75221,5,12,1:2:0:0:
144,204,75528,2,0,L|27:198,1,101.999996887207,10|0,1:2|3:0,0:0:0:0:
303,68,75834,2,0,L|420:62,1,101.999996887207,10|0,1:2|3:0,0:0:0:0:
270,230,76140,1,10,1:2:0:0:
170,12,76293,5,2,3:0:0:0:
170,12,76905,2,0,L|177:66,1,50.9999984436036,0|0,3:0|3:0,0:0:0:0:
161,183,77058,5,8,0:0:0:0:
248,23,77211,1,0,3:0:0:0:
260,265,77364,5,8,0:2:0:0:
176,62,77517,1,6,3:2:0:0:
104,321,87466,6,0,L|97:250,1,68,6|0,3:2|0:0,0:0:0:0:
9,209,87772,2,0,L|23:66,2,136,2|2|2,3:2|3:2|3:2,0:0:0:0:
84,339,88537,1,0,0:0:0:0:
179,249,88691,1,2,3:2:0:0:
286,368,88844,2,0,P|316:377|361:378,1,68,2|0,0:0|3:0,0:0:0:0:
461,351,89150,2,0,B|430:313|430:313|439:216,1,136,2|8,0:2|0:0,0:0:0:0:
491,100,89609,1,2,3:2:0:0:
387,163,89762,1,8,0:0:0:0:
512,175,89915,5,0,3:0:0:0:
332,99,90068,1,0,3:0:0:0:
332,99,90221,2,0,B|279:93|279:93|248:99|248:99|195:91,2,136,2|2|2,3:2|3:2|3:2,0:0:0:0:
288,177,90987,1,2,1:2:0:0:
240,19,91140,1,2,3:2:0:0:
144,165,91292,2,0,L|150:242,2,68,2|0|2,0:0|3:0|0:0,0:0:0:0:
36,53,91752,1,0,3:0:0:0:
11,166,91905,1,0,0:0:0:0:
118,26,92058,1,2,3:2:0:0:
148,145,92211,1,8,0:0:0:0:
148,145,92288,1,8,0:0:0:0:
148,145,92364,5,6,3:2:0:0:
265,60,92517,1,0,0:0:0:0:
265,60,92670,2,0,P|330:47|406:44,2,136,2|2|2,3:2|3:2|3:2,0:0:0:0:
174,146,93435,1,2,1:2:0:0:
297,193,93589,1,2,3:2:0:0:
153,240,93742,2,0,L|149:324,1,68,2|8,0:0|0:0,0:0:0:0:
0,384,94048,2,0,B|28:343|28:343|35:246,1,136,2|8,0:0|0:0,0:0:0:0:
28,98,94507,1,2,0:0:0:0:
5,183,94660,1,2,0:0:0:0:
126,31,94813,5,2,3:2:0:0:
156,146,94966,1,2,0:0:0:0:
156,146,95119,2,0,B|228:178|233:119|296:149,2,136,10|2|10,0:0|3:2|0:0,0:0:0:0:
259,228,95884,1,10,0:0:0:0:
191,72,96037,1,2,3:2:0:0:
148,287,96191,1,2,3:2:0:0:
148,287,96497,6,0,L|232:293,1,68,0|0,0:0|0:0,0:0:0:0:
281,360,96803,1,8,0:0:0:0:
383,241,96956,1,8,0:2:0:0:
418,356,97109,1,8,0:0:0:0:
290,215,97262,6,0,L|276:16,1,170,6|10,3:2|0:0,0:0:0:0:
375,140,97721,1,0,0:0:0:0:
198,64,97874,2,0,P|149:51|107:51,1,85,2|0,3:2|0:0,0:0:0:0:
275,14,98180,1,10,0:0:0:0:
185,198,98334,6,0,P|136:211|94:211,1,85,2|0,0:2|3:0,0:0:0:0:
17,146,98639,1,2,0:0:0:0:
63,297,98792,1,10,0:0:0:0:
128,130,98945,1,0,0:0:0:0:
0,229,99099,1,2,3:2:0:0:
187,281,99252,1,2,0:0:0:0:
0,379,99405,2,0,L|95:373,1,85,10|0,0:0|0:0,0:0:0:0:
255,252,99711,6,0,P|213:299|284:362,1,170,4|10,3:2|0:0,0:0:0:0:
382,318,100170,1,2,0:0:0:0:
319,193,100323,2,0,P|312:146|316:102,1,85,2|0,3:2|0:0,0:0:0:0:
392,295,100629,1,10,0:0:0:0:
472,167,100783,6,0,P|479:120|475:76,1,85,2|0,0:0|3:0,0:0:0:0:
400,276,101088,1,2,0:0:0:0:
394,137,101241,1,10,0:0:0:0:
491,256,101394,1,2,0:0:0:0:
319,193,101547,1,2,3:2:0:0:
476,82,101701,1,2,0:0:0:0:
306,10,101854,2,0,P|260:2|208:0,1,85,10|0,0:0|0:0,0:0:0:0:
95,21,102160,6,0,B|126:74|126:74|111:193,1,170,6|10,3:2|0:0,0:0:0:0:
35,271,102619,1,0,0:0:0:0:
190,205,102772,2,0,P|233:194|296:192,1,85,2|0,3:2|0:0,0:0:0:0:
133,288,103078,1,10,0:0:0:0:
267,370,103232,6,0,P|310:381|373:383,1,85,2|0,0:0|3:0,0:0:0:0:
292,206,103537,1,2,0:0:0:0:
234,355,103690,1,10,0:0:0:0:
385,235,103843,1,0,0:0:0:0:
236,274,103996,1,2,3:2:0:0:
412,325,104150,1,2,0:0:0:0:
352,148,104303,2,0,P|341:105|339:42,1,85,10|0,0:0|0:0,0:0:0:0:
512,62,104609,6,0,B|454:63|454:63|399:37|399:37|336:39,1,170,6|10,3:2|0:0,0:0:0:0:
263,142,105068,1,2,0:0:0:0:
176,28,105221,1,2,3:2:0:0:
100,179,105374,2,0,L|106:271,1,85,0|10,0:0|0:0,0:0:0:0:
0,0,105680,5,2,1:2:0:0:
0,0,106140,6,0,L|90:6,1,85,10|0,0:0|0:0,0:0:0:0:
204,66,106445,1,10,0:0:0:0:
128,81,106599,1,0,3:0:0:0:
286,138,106752,1,8,0:3:0:0:
210,153,106906,1,8,0:3:0:0:
364,191,107058,6,0,L|471:187,2,101.999996887207
364,191,108130,1,0,0:0:0:0:
299,253,108283,2,0,L|235:248,1,50.9999984436036
185,308,108589,2,0,L|121:313,1,50.9999984436036
48,274,108895,6,0,L|57:383,1,101.999996887207
56,375,109507,2,0,L|52:324,1,50.9999984436036
16,239,109813,2,0,L|20:188,1,50.9999984436036
96,134,110119,1,0,0:0:0:0:
96,134,110579,1,0,0:0:0:0:
178,117,110732,6,0,L|232:115,1,50.9999984436036
53,58,111038,6,0,L|-1:56,1,50.9999984436036
96,134,111344,5,10,0:0:0:0:
132,48,111497,1,2,3:2:0:0:
171,201,111650,1,10,0:0:0:0:
171,201,111956,6,0,P|212:188|259:187,1,68,6|0,3:2|0:0,0:0:0:0:
362,170,112262,1,10,0:0:0:0:
278,323,112415,2,0,P|246:293|221:253,1,68,2|0,0:0|3:0,0:0:0:0:
331,170,112721,2,0,P|321:212|299:253,1,68,2|8,0:0|0:0,0:0:0:0:
189,350,113028,6,0,B|140:347|140:347|102:360|102:360|42:358,1,136,2|0,3:2|3:0,0:0:0:0:
97,256,113487,1,8,0:3:0:0:
97,256,113563,1,8,0:3:0:0:
97,256,113640,1,8,0:3:0:0:
27,136,113793,1,10,0:0:0:0:
153,191,113946,1,2,3:2:0:0:
46,33,114099,1,10,0:0:0:0:
46,33,114405,6,0,L|149:26,1,85,6|0,3:2|0:0,0:0:0:0:
27,136,114711,1,10,0:0:0:0:
206,80,114864,2,0,L|309:87,1,85,2|0,0:0|3:0,0:0:0:0:
154,219,115170,2,0,L|51:226,1,85,2|8,0:0|0:0,0:0:0:0:
277,348,115476,6,0,P|331:320|443:347,1,170,2|0,3:2|3:2,0:0:0:0:
410,223,115936,2,0,P|403:173|412:128,1,85,8|8,0:3|0:3,0:0:0:0:
476,16,116242,1,10,0:0:0:0:
495,180,116395,1,4,3:0:0:0:
316,11,116548,1,0,3:0:0:0:
297,175,116701,1,8,0:3:0:0:
400,62,116854,5,6,3:2:0:0:
256,192,116931,12,0,119150,0:0:0:0:
324,123,119303,5,2,3:2:0:0:
306,238,119456,1,2,0:0:0:0:
213,53,119609,1,2,0:0:0:0:
231,168,119762,1,2,0:0:0:0:
207,26,120068,5,2,0:0:0:0:
405,253,120374,6,0,L|307:261,1,85,8|0,0:0|0:0,0:0:0:0:
127,141,120681,2,0,L|225:149,1,85,8|0,0:0|0:0,0:0:0:0:
426,16,120987,2,0,L|328:24,1,59.4999981842042,8|0,1:2|0:0,0:0:0:0:
366,20,121752,6,0,B|311:14|271:48|271:48|230:16|170:17,1,203.999993774414,6|8,3:2|0:0,0:0:0:0:
176,202,122211,1,0,1:0:0:0:
412,141,122364,2,0,P|363:99|327:209,1,203.999993774414,2|8,3:2|0:0,0:0:0:0:
448,216,122823,1,0,1:0:0:0:
222,112,122976,6,0,B|179:180|266:230|215:311,1,203.999993774414,2|8,3:2|0:0,0:0:0:0:
307,190,123436,1,0,1:0:0:0:
129,254,123589,2,0,B|61:274|4:261|4:261|6:212|43:172,1,203.999993774414,2|8,3:2|0:0,0:0:0:0:
166,62,124047,1,0,1:0:0:0:
129,254,124201,5,2,3:2:0:0:
235,319,124354,2,0,P|292:309|345:314,1,101.999996887207,2|8,1:2|0:0,0:0:0:0:
434,171,124660,2,0,P|377:161|324:166,1,101.999996887207,2|0,1:2|3:0,0:0:0:0:
239,330,124966,2,0,P|296:320|349:325,1,101.999996887207,2|8,1:2|0:0,0:0:0:0:
444,159,125272,1,2,1:2:0:0:
341,29,125425,6,0,B|261:22|261:22|223:43|223:43|130:37,1,203.999993774414,0|8,3:0|0:0,0:0:0:0:
285,111,125884,1,0,1:0:0:0:
72,231,126037,1,2,3:2:0:0:
229,260,126190,1,2,1:2:0:0:
6,152,126344,1,10,0:0:0:0:
163,123,126497,1,2,3:2:0:0:
33,312,126650,6,0,B|83:351|83:351|240:360,1,203.999993774414,4|8,3:2|0:0,0:0:0:0:
385,303,127109,1,0,1:0:0:0:
229,260,127262,1,2,3:2:0:0:
351,383,127415,1,2,1:2:0:0:
281,189,127568,1,10,0:0:0:0:
223,384,127721,1,2,1:2:0:0:
382,190,127874,6,0,P|400:129|402:81,1,101.999996887207,0|0,3:2|1:0,0:0:0:0:
206,8,128181,2,0,P|221:69|244:112,1,101.999996887207,10|0,0:0|1:0,0:0:0:0:
393,201,128486,2,0,P|411:140|413:92,1,101.999996887207,2|0,3:2|1:0,0:0:0:0:
191,6,128792,2,0,P|206:67|229:110,1,101.999996887207,10|0,0:0|1:0,0:0:0:0:
333,42,129099,5,2,3:2:0:0:
174,170,129252,2,0,P|228:184|283:170,1,101.999996887207,0|8,1:0|0:0,0:0:0:0:
128,272,129558,2,0,P|88:311|73:366,1,101.999996887207,2|0,1:2|3:0,0:0:0:0:
62,181,129864,2,0,P|47:127|7:86,1,101.999996887207,2|8,1:2|0:0,0:0:0:0:
191,6,130170,5,2,3:2:0:0:
478,151,130476,5,2,3:2:0:0:
166,355,130782,5,2,3:2:0:0:
176,364,131088,5,10,0:0:0:0:
176,364,131165,1,8,0:0:0:0:
176,364,131241,1,2,3:2:0:0:
273,279,131394,1,2,0:0:0:0:
389,340,131548,6,0,B|432:300|439:254|439:254|415:207|366:184,1,203.999993774414,6|8,3:2|0:0,0:0:0:0:
287,302,132007,1,0,1:0:0:0:
456,141,132160,2,0,B|384:102|384:102|249:104,1,203.999993774414,2|10,3:2|0:0,0:0:0:0:
296,276,132619,1,0,1:0:0:0:
200,34,132772,6,0,P|166:104|248:197,1,203.999993774414,2|8,3:2|0:0,0:0:0:0:
382,102,133231,1,0,1:0:0:0:
113,18,133384,2,0,P|86:113|120:210,1,203.999993774414,2|8,3:2|0:0,0:0:0:0:
261,103,133843,1,0,1:0:0:0:
113,18,133996,5,2,3:2:0:0:
12,183,134150,2,0,L|4:286,1,101.999996887207,2|8,1:2|0:0,0:0:0:0:
159,384,134456,2,0,L|151:281,1,101.999996887207,2|0,1:2|3:0,0:0:0:0:
261,103,134762,2,0,L|253:206,1,101.999996887207,2|8,1:2|0:0,0:0:0:0:
265,384,135068,6,0,P|327:318|441:319,1,203.999993774414,6|0,3:2|3:0,0:0:0:0:
512,212,135527,2,0,P|493:171|501:96,1,101.999996887207,8|0,0:0|0:0,0:0:0:0:
366,130,135834,1,10,0:0:0:0:
251,39,135986,1,10,0:0:0:0:
221,52,136063,1,8,0:0:0:0:
198,64,136139,2,0,L|200:137,1,50.9999984436036,10|8,0:0|0:0,0:0:0:0:
255,273,136293,6,0,P|238:214|113:244,1,203.999993774414,14|2,3:2|3:2,0:0:0:0:
95,360,136752,1,10,1:2:0:0:
68,160,136905,1,2,3:2:0:0:
5,323,137058,5,10,1:2:0:0:
67,127,137211,1,0,3:0:0:0:
171,311,137364,5,10,1:2:0:0:
199,114,137517,2,0,B|281:64|310:160|396:110,1,203.999993774414,2|0,3:2|3:0,0:0:0:0:
512,248,137976,6,0,P|467:233|413:248,1,101.999996887207,8|0,1:2|3:0,0:0:0:0:
396,368,138282,1,10,1:2:0:0:
512,223,138435,1,2,3:2:0:0:
503,380,138589,5,10,1:2:0:0:
345,203,138741,1,2,3:2:0:0:
263,374,138894,6,0,P|207:383|149:384,1,101.999996887207,12|0,3:2|3:2,0:0:0:0:
91,190,139201,1,10,1:2:0:0:
52,353,139354,1,0,0:0:0:0:
179,137,139507,5,10,1:2:0:0:
201,301,139660,1,0,3:0:0:0:
87,162,139813,5,10,1:2:0:0:
312,251,139966,2,0,B|379:238|379:238|450:254|450:254|514:244,1,203.999993774414,6|0,3:2|3:0,0:0:0:0:
463,66,140425,6,0,P|452:122|451:185,1,101.999996887207,10|0,1:2|3:0,0:0:0:0:
286,249,140731,2,0,P|297:193|298:130,1,101.999996887207,10|8,0:0|0:0,0:0:0:0:
220,117,140961,1,8,0:0:0:0:
220,117,141037,2,0,L|224:174,1,50.9999984436036,10|8,0:0|0:0,0:0:0:0:
116,251,141190,1,8,0:0:0:0:
116,251,141267,1,8,0:0:0:0:
116,251,141343,6,0,L|110:121,1,101.999996887207,6|0,3:2|0:0,0:0:0:0:
93,35,141650,1,8,1:2:0:0:
39,206,141803,1,2,3:2:0:0:
180,0,141956,5,8,1:2:0:0:
223,167,142109,1,0,3:0:0:0:
296,37,142262,5,8,1:2:0:0:
280,235,142415,1,0,3:0:0:0:
372,87,142568,6,0,P|430:77|504:79,1,101.999996887207,8|0,1:2|3:0,0:0:0:0:
296,37,142874,1,8,1:2:0:0:
365,237,143027,1,0,3:0:0:0:
387,62,143180,5,8,1:2:0:0:
281,261,143333,1,0,3:0:0:0:
437,141,143486,5,8,1:2:0:0:
221,191,143639,1,0,3:0:0:0:
481,251,143792,5,12,1:2:0:0:
481,251,144099,2,0,L|480:366,1,101.999996887207,10|0,1:2|3:0,0:0:0:0:
300,374,144405,2,0,L|299:259,1,101.999996887207,10|0,1:2|3:0,0:0:0:0:
386,384,144711,1,10,1:2:0:0:
221,191,144864,5,2,3:0:0:0:
221,191,145630,2,0,L|139:198,2,68,2|2|2,0:0|0:0|0:0,0:0:0:0:
322,88,146089,1,6,3:2:0:0:
128,168,155885,6,0,L|326:160,1,187.000005706787,6|0,3:2|0:0,0:0:0:0:
394,13,156344,2,0,P|380:66|382:125,1,93.5000028533936,8|0,1:2|0:0,0:0:0:0:
503,240,156650,1,2,3:0:0:0:
467,72,156803,1,0,3:0:0:0:
402,263,156956,1,8,1:2:0:0:
273,75,157109,6,0,P|225:132|274:250,1,187.000005706787,6|0,3:2|0:0,0:0:0:0:
387,111,157568,1,10,1:2:0:0:
387,111,157645,1,0,0:0:0:0:
387,111,157721,1,0,0:0:0:0:
196,25,157874,2,0,P|149:13|102:11,1,93.5000028533936,2|0,3:2|3:0,0:0:0:0:
300,76,158181,1,8,0:0:0:0:
130,98,158334,6,0,B|79:189|171:186|131:279,1,187.000005706787,6|0,3:2|0:0,0:0:0:0:
6,314,158793,2,0,P|-8:269|3:216,1,93.5000028533936,10|0,1:2|0:0,0:0:0:0:
212,134,159099,1,0,3:0:0:0:
123,297,159252,1,0,0:0:0:0:
36,146,159405,1,8,1:2:0:0:
221,312,159558,6,0,B|285:306|285:306|319:268|319:268|418:256,1,187.000005706787,6|0,3:2|3:0,0:0:0:0:
481,216,159941,1,0,0:0:0:0:
481,216,160017,2,0,L|477:114,1,93.5000028533936,10|0,0:0|0:0,0:0:0:0:
478,88,160247,1,0,0:0:0:0:
478,88,160323,5,10,0:0:0:0:
289,27,160476,1,8,0:0:0:0:
423,18,160630,1,10,0:0:0:0:
294,137,160783,6,0,B|244:142|208:111|208:111|171:140|117:139,1,187.000005706787,6|0,3:2|0:0,0:0:0:0:
26,0,161242,2,0,P|45:41|48:94,1,93.5000028533936,8|2,1:2|0:0,0:0:0:0:
51,226,161548,1,2,3:0:0:0:
141,53,161701,1,0,0:0:0:0:
197,225,161854,1,10,1:2:0:0:
277,49,162007,6,0,P|324:71|356:213,1,187.000005706787,6|8,3:2|0:0,0:0:0:0:
321,292,162390,1,0,0:0:0:0:
321,292,162466,2,0,L|327:346,2,46.7500014266968,8|0|0,0:0|0:0|0:0,0:0:0:0:
218,201,162772,1,8,0:3:0:0:
218,201,162849,1,8,0:3:0:0:
218,201,162925,2,0,L|224:147,1,46.7500014266968,8|0,0:3|0:0,0:0:0:0:
145,47,163079,1,8,0:0:0:0:
27,188,163232,6,0,B|4:279|4:279|30:368,1,187.000005706787,6|0,3:2|0:0,0:0:0:0:
202,297,163691,2,0,P|251:281|306:282,1,93.5000028533936,8|2,1:2|0:0,0:0:0:0:
126,232,163997,1,0,3:0:0:0:
261,365,164150,1,0,3:0:0:0:
225,128,164303,1,8,0:0:0:0:
20,384,164456,1,2,1:2:0:0:
38,48,164915,5,0,0:0:0:0:
38,48,165221,1,0,0:0:0:0:
38,48,165528,1,0,0:0:0:0:
38,48,165834,6,0,L|105:42,1,50.9999984436036,6|0,3:2|0:0,0:0:0:0:
149,98,166140,2,0,L|216:104,1,50.9999984436036,0|2,3:0|0:0,0:0:0:0:
254,35,166446,2,0,L|321:29,1,50.9999984436036,0|0,3:0|0:0,0:0:0:0:
365,85,166752,2,0,L|432:91,1,50.9999984436036,0|0,3:0|0:0,0:0:0:0:
462,211,167058,6,0,P|440:187|419:176,1,50.9999984436036,2|0,3:2|0:0,0:0:0:0:
332,179,167364,2,0,P|308:201|297:222,1,50.9999984436036,0|0,3:0|0:0,0:0:0:0:
304,307,167670,2,0,P|326:331|347:342,1,50.9999984436036,2|0,3:2|0:0,0:0:0:0:
434,339,167976,2,0,P|458:317|469:296,1,50.9999984436036,2|0,3:2|0:0,0:0:0:0:
332,179,168283,6,0,L|273:170,1,50.9999984436036,2|0,3:2|0:0,0:0:0:0:
202,216,168589,2,0,L|143:207,1,50.9999984436036,0|0,3:0|0:0,0:0:0:0:
51,291,168895,2,0,L|110:282,1,50.9999984436036,2|0,3:2|0:0,0:0:0:0:
181,328,169201,2,0,L|240:319,1,50.9999984436036,0|0,3:0|0:0,0:0:0:0:
332,179,169507,6,0,P|338:153|339:125,1,50.9999984436036,2|0,3:2|0:0,0:0:0:0:
253,44,169813,2,0,P|247:70|246:98,1,50.9999984436036,0|0,3:0|0:0,0:0:0:0:
202,215,170119,2,0,P|208:189|209:161,1,50.9999984436036,2|2,3:2|0:0,0:0:0:0:
123,81,170425,2,0,P|117:107|116:135,1,50.9999984436036,2|0,3:2|0:0,0:0:0:0:
72,19,170732,5,6,3:2:0:0:
215,91,170885,1,0,0:0:0:0:
13,151,171038,1,8,0:0:0:0:
13,151,171344,1,0,3:0:0:0:
94,249,171497,6,0,B|81:388,2,136,2|2|0,0:0|3:2|0:0,0:0:0:0:
203,216,172262,1,8,0:3:0:0:
203,216,172339,1,8,0:3:0:0:
203,216,172415,1,8,0:3:0:0:
188,332,172568,1,10,0:0:0:0:
73,244,172721,1,2,3:2:0:0:
261,149,172875,1,10,0:0:0:0:
261,149,173181,6,0,L|265:53,1,85,6|0,3:2|0:0,0:0:0:0:
319,246,173487,1,10,0:0:0:0:
372,53,173640,2,0,P|329:42|280:55,1,85,2|0,0:0|3:0,0:0:0:0:
178,146,173946,2,0,P|221:157|270:144,1,85,2|8,0:0|0:0,0:0:0:0:
98,33,174252,6,0,B|133:116|59:104|98:197,1,170,6|0,3:2|0:0,0:0:0:0:
188,311,174711,1,8,0:3:0:0:
188,311,174788,1,8,0:3:0:0:
188,311,174864,1,8,0:3:0:0:
332,191,175017,1,10,0:0:0:0:
388,362,175170,1,10,0:0:0:0:
429,189,175323,1,8,0:0:0:0:
299,384,175477,1,0,3:0:0:0:
186,92,175630,5,6,3:2:0:0:
256,192,175706,12,0,177772,0:0:0:0:
191,96,177925,5,2,0:0:0:0:
191,96,178002,1,2,0:0:0:0:
191,96,178079,1,2,3:2:0:0:
300,126,178232,1,2,0:0:0:0:
171,187,178385,1,2,0:0:0:0:
305,40,178538,1,2,0:0:0:0:
157,207,178844,5,2,0:0:0:0:
389,35,179150,6,0,L|301:40,1,85,8|0,0:0|0:0,0:0:0:0:
86,182,179456,2,0,L|174:187,1,85,8|0,0:0|0:0,0:0:0:0:
227,372,179762,2,0,P|237:340|228:313,1,59.4999981842042,8|0,1:2|0:0,0:0:0:0:
217,285,179915,5,2,0:0:0:0:
333,210,180068,1,2,0:0:0:0:
287,65,180221,1,2,0:0:0:0:
492,61,180528,5,2,0:0:0:0:
486,152,181140,1,2,0:0:0:0:
480,243,181752,1,2,0:0:0:0:
474,334,182364,1,2,0:0:0:0:
263,51,182976,5,2,0:0:0:0:
263,51,183130,1,2,0:0:0:0:
269,142,183436,1,2,0:0:0:0:
275,233,183742,1,2,0:0:0:0:
285,328,184048,1,2,0:0:0:0:
285,328,184201,1,0,0:0:0:0:
65,19,184813,5,2,0:0:0:0:
59,110,184966,1,2,0:0:0:0:
53,201,185119,1,2,0:0:0:0:
47,292,185272,1,2,0:0:0:0:
256,192,185425,5,2,3:2:0:0:
256,192,186497,1,2,3:2:0:0:
256,192,187874,1,2,3:2:0:0:
256,192,189252,6,0,P|186:167|111:191,1,152.999995330811,2|0,3:2|0:0,0:0:0:0:
114,286,189558,2,0,P|184:311|259:287,1,152.999995330811,2|0,3:2|0:0,0:0:0:0:
330,235,189864,1,10,0:0:0:0:
330,235,189941,1,8,0:0:0:0:
330,235,190017,1,2,3:2:0:0:
404,355,190170,1,2,3:2:0:0:
499,207,190323,6,0,B|517:154|490:95|490:95|433:85|375:125,1,220.999989883423,6|8,3:2|0:0,0:0:0:0:
427,262,190783,1,0,1:0:0:0:
455,12,190936,2,0,B|384:22|318:65|318:65|283:39|237:37,1,220.999989883423,2|8,3:2|0:0,0:0:0:0:
100,95,191395,1,0,1:0:0:0:
218,220,191548,6,0,P|286:172|200:122,1,220.999989883423,2|8,3:2|0:0,0:0:0:0:
73,201,192007,1,0,1:0:0:0:
258,301,192160,2,0,P|316:272|358:119,1,220.999989883423,2|8,3:2|0:0,0:0:0:0:
288,0,192619,1,0,1:0:0:0:
185,150,192772,5,2,3:2:0:0:
359,51,192925,2,0,P|425:38|475:37,1,110.499994941712,2|8,1:2|0:0,0:0:0:0:
198,123,193232,2,0,P|132:110|82:109,1,110.499994941712,2|0,1:2|3:0,0:0:0:0:
347,238,193538,2,0,P|413:225|463:224,1,110.499994941712,2|8,1:2|0:0,0:0:0:0:
223,331,193844,6,0,P|173:269|37:282,1,220.999989883423,6|0,3:2|3:0,0:0:0:0:
0,102,194303,2,0,P|49:131|109:133,1,110.499994941712,8|0,0:0|0:0,0:0:0:0:
229,198,194608,1,10,0:0:0:0:
344,98,194762,1,10,0:0:0:0:
336,73,194839,1,8,0:0:0:0:
324,50,194915,2,0,L|256:21,1,55.2499974708558,10|8,0:0|0:0,0:0:0:0:
126,114,195068,6,0,B|120:194|120:194|148:252|148:252|141:329,1,220.999989883423,6|2,3:2|3:2,0:0:0:0:
207,167,195528,1,10,1:2:0:0:
64,282,195681,1,2,3:2:0:0:
245,266,195834,5,10,1:2:0:0:
29,197,195987,1,0,3:0:0:0:
140,354,196140,5,10,1:2:0:0:
220,149,196293,2,0,B|310:94|341:199|436:144,1,220.999989883423,0|0,3:0|3:0,0:0:0:0:
274,233,196752,6,0,P|276:288|285:345,1,110.499994941712,8|0,1:2|3:0,0:0:0:0:
220,149,197058,1,10,1:2:0:0:
379,75,197211,1,2,3:2:0:0:
294,253,197364,5,10,1:2:0:0:
392,49,197517,1,2,3:2:0:0:
191,163,197670,6,0,P|135:172|77:173,1,110.499994941712,12|2,1:2|3:2,0:0:0:0:
117,270,197977,1,10,1:2:0:0:
64,78,198130,1,2,3:2:0:0:
18,295,198283,5,10,1:2:0:0:
103,142,198436,1,0,3:0:0:0:
81,353,198589,5,10,1:2:0:0:
190,212,198742,2,0,B|261:198|261:198|338:215|338:215|406:204,1,220.999989883423,6|0,3:2|3:0,0:0:0:0:
259,275,199201,6,0,P|248:331|247:394,1,110.499994941712,8|0,1:2|3:0,0:0:0:0:
420,178,199507,2,0,L|414:119,1,55.2499974708558,8|8,0:0|0:0,0:0:0:0:
286,54,199660,1,8,0:0:0:0:
286,54,199737,1,8,0:0:0:0:
286,54,199813,2,0,L|291:0,1,55.2499974708558,8|8,0:0|0:0,0:0:0:0:
108,75,199966,1,8,0:0:0:0:
108,75,200043,1,8,0:0:0:0:
108,75,200119,6,0,B|116:158|116:158|151:197|151:197|161:282,1,220.999989883423,6|8,3:2|0:0,0:0:0:0:
208,111,200578,1,0,1:0:0:0:
69,271,200732,2,0,P|99:351|244:320,1,220.999989883423,2|8,3:2|0:0,0:0:0:0:
220,136,201190,1,0,1:0:0:0:
325,302,201344,6,0,B|280:194|375:210|325:89,1,220.999989883423,2|8,3:2|0:0,0:0:0:0:
407,257,201802,1,0,1:0:0:0:
421,59,201956,2,0,B|354:3|354:3|216:14,1,220.999989883423,2|8,3:2|0:0,0:0:0:0:
171,171,202414,1,0,1:0:0:0:
325,89,202568,5,2,3:2:0:0:
203,29,202721,2,0,P|146:39|91:42,1,110.499994941712,2|8,1:2|0:0,0:0:0:0:
57,171,203027,2,0,P|113:181|166:197,1,110.499994941712,2|0,1:2|3:0,0:0:0:0:
217,39,203334,2,0,P|160:49|105:52,1,110.499994941712,2|8,1:2|0:0,0:0:0:0:
40,183,203639,1,2,1:2:0:0:
240,121,203793,6,0,B|348:76|332:171|453:121,1,220.999989883423,0|8,3:0|0:0,0:0:0:0:
394,33,204251,1,0,1:0:0:0:
292,202,204404,1,2,3:2:0:0:
361,18,204557,1,2,1:2:0:0:
402,220,204710,1,10,0:0:0:0:
474,29,204863,1,8,0:0:0:0:
502,235,205017,6,0,B|424:243|424:243|388:275|388:275|294:285,1,220.999989883423,6|8,3:2|0:0,0:0:0:0:
200,201,205476,1,0,1:0:0:0:
264,359,205629,1,2,3:2:0:0:
297,171,205782,1,2,1:2:0:0:
361,374,205935,1,10,0:0:0:0:
304,144,206088,1,2,1:2:0:0:
183,295,206241,6,0,P|122:313|74:315,1,110.499994941712,0|0,3:2|1:0,0:0:0:0:
33,102,206547,2,0,P|94:117|137:140,1,110.499994941712,10|0,0:0|1:0,0:0:0:0:
194,306,206853,2,0,P|133:324|85:326,1,110.499994941712,2|0,3:2|1:0,0:0:0:0:
31,87,207160,2,0,P|92:102|135:125,1,110.499994941712,10|0,0:0|1:0,0:0:0:0:
28,207,207466,5,2,3:2:0:0:
198,61,207619,2,0,P|214:117|205:169,1,110.499994941712,2|8,1:2|0:0,0:0:0:0:
94,326,207925,2,0,P|134:284|184:265,1,110.499994941712,2|0,1:2|3:0,0:0:0:0:
376,283,208232,2,0,P|319:268|278:235,1,110.499994941712,2|8,1:2|0:0,0:0:0:0:
198,61,208537,5,2,3:2:0:0:
401,2,208843,5,2,3:2:0:0:
480,261,209149,5,2,3:2:0:0:
488,269,209455,5,8,0:0:0:0:
488,269,209532,1,8,0:0:0:0:
488,269,209608,1,8,0:0:0:0:
392,173,209762,2,0,P|383:203|381:231,1,55.2499974708558,8|8,0:0|0:0,0:0:0:0:
375,341,209915,6,0,L|192:333,1,170,6|0,3:2|0:0,0:0:0:0:
62,379,210374,1,0,0:0:0:0:
271,245,210528,2,0,L|88:237,1,170,10|0,0:0|0:0,0:0:0:0:
84,362,210986,1,0,0:0:0:0:
128,159,211139,6,0,P|63:159|27:259,1,170,2|0,3:2|0:0,0:0:0:0:
104,341,211598,1,0,0:0:0:0:
227,152,211752,2,0,L|410:144,1,170,10|0,0:0|0:0,0:0:0:0:
469,219,212210,1,0,0:0:0:0:
489,9,212363,5,2,3:2:0:0:
377,47,212517,2,0,P|334:40|266:40,1,85,2|0,0:0|0:0,0:0:0:0:
206,129,212823,2,0,L|201:228,1,85,2|8,0:0|0:0,0:0:0:0:
32,101,213130,2,0,L|27:2,1,85,2|0,0:0|0:0,0:0:0:0:
179,108,213436,6,0,L|169:303,1,170,2|0,3:2|0:0,0:0:0:0:
33,358,213895,2,0,P|65:338|114:333,1,85,8|0,0:0|0:0,0:0:0:0:
214,384,214201,1,10,1:2:0:0:
323,354,214354,1,10,0:0:0:0:
348,369,214431,1,8,0:0:0:0:
376,384,214507,2,0,L|380:325,1,42.5,10|8,0:0|0:0,0:0:0:0:
441,156,214660,6,0,P|433:253|336:228,1,220.999989883423,6|2,3:2|0:0,0:0:0:0:
321,115,215119,1,8,1:2:0:0:
275,280,215272,1,2,3:2:0:0:
256,54,215425,5,8,1:2:0:0:
337,231,215578,1,2,3:2:0:0:
336,22,215731,5,8,1:2:0:0:
194,172,215884,2,0,B|89:218|94:125|-20:184,1,220.999989883423,2|0,3:2|3:0,0:0:0:0:
37,362,216343,2,0,P|46:306|47:248,1,110.499994941712,8|0,1:2|3:0,0:0:0:0:
145,101,216649,5,10,1:2:0:0:
174,273,216802,1,0,3:0:0:0:
142,74,216955,5,10,1:2:0:0:
47,252,217108,1,0,3:0:0:0:
249,211,217262,6,0,P|305:202|363:201,1,110.499994941712,12|2,1:2|3:2,0:0:0:0:
269,113,217568,1,10,1:2:0:0:
346,293,217721,1,2,3:2:0:0:
379,89,217874,5,10,1:2:0:0:
371,307,218027,1,0,3:2:0:0:
486,110,218180,5,10,1:2:0:0:
395,316,218333,2,0,B|321:330|321:330|244:312|244:312|174:323,1,220.999989883423,6|0,3:2|3:0,0:0:0:0:
25,264,218792,6,0,P|7:215|14:159,1,110.499994941712,10|0,1:2|3:0,0:0:0:0:
197,71,219099,2,0,P|163:111|111:133,1,110.499994941712,10|0,1:2|3:0,0:0:0:0:
51,86,219328,1,8,0:3:0:0:
51,86,219405,2,0,L|53:31,1,55.2499974708558,10|0,1:2|0:0,0:0:0:0:
232,95,219557,1,0,3:0:0:0:
232,95,219634,1,8,0:3:0:0:
232,95,219710,6,0,L|362:89,1,110.499994941712,6|0,3:2|0:0,0:0:0:0:
395,201,220017,1,8,1:2:0:0:
438,24,220170,1,2,3:2:0:0:
466,246,220323,5,8,1:2:0:0:
426,53,220476,1,0,3:0:0:0:
391,292,220629,5,8,1:2:0:0:
338,66,220782,1,0,3:0:0:0:
300,226,220935,6,0,P|242:236|168:234,1,110.499994941712,8|0,1:2|3:0,0:0:0:0:
282,144,221241,1,8,1:2:0:0:
177,325,221394,1,0,3:0:0:0:
209,106,221547,5,8,1:2:0:0:
252,344,221700,1,0,3:0:0:0:
296,118,221853,5,8,1:2:0:0:
342,343,222006,1,0,3:0:0:0:
184,214,222160,6,0,P|114:196|49:201,1,110.499994941712,12|0,1:2|3:0,0:0:0:0:
48,88,222466,1,10,1:2:0:0:
86,286,222619,1,0,3:0:0:0:
196,61,222772,5,10,1:2:0:0:
182,241,222925,1,0,3:0:0:0:
301,19,223079,5,10,1:2:0:0:
353,260,223232,1,2,3:0:0:0:
353,260,223691,6,0,P|406:248|446:247,1,76.4999976654053,0|8,3:0|0:0,0:0:0:0:
457,249,223920,1,8,0:0:0:0:
457,249,223997,1,8,0:0:0:0:
402,338,224150,1,8,0:0:0:0:
329,234,224303,1,8,0:0:0:0:
252,361,224456,6,0,L|59:366,1,187.000005706787,6|0,3:2|0:0,0:0:0:0:
144,185,224915,2,0,P|161:227|153:279,1,93.5000028533936,10|2,0:0|0:0,0:0:0:0:
35,281,225221,1,2,3:2:0:0:
158,153,225374,2,0,L|278:143,1,93.5000028533936,0|8,0:0|0:0,0:0:0:0:
416,97,225680,6,0,P|351:134|370:243,1,187.000005706787,2|0,0:0|0:0,0:0:0:0:
478,223,226140,1,10,0:0:0:0:
398,74,226293,2,0,L|292:72,1,93.5000028533936,0|0,0:0|3:0,0:0:0:0:
253,175,226599,1,0,0:0:0:0:
200,38,226752,1,8,0:0:0:0:
81,221,226905,6,0,B|45:171|45:171|55:39,1,187.000005706787,4|0,3:2|0:0,0:0:0:0:
162,167,227364,2,0,P|175:219|166:269,1,93.5000028533936,10|0,0:0|0:0,0:0:0:0:
65,360,227670,1,2,3:2:0:0:
238,299,227823,2,0,L|349:296,1,93.5000028533936,0|8,0:0|0:0,0:0:0:0:
415,364,228129,1,2,0:0:0:0:
491,214,228282,6,0,L|499:103,1,93.5000028533936,2|0,3:2|0:0,0:0:0:0:
321,174,228589,2,0,L|329:285,1,93.5000028533936,10|2,0:0|1:2,0:0:0:0:
491,214,228895,1,2,3:2:0:0:
321,174,229048,1,2,0:0:0:0:
512,100,229201,1,10,0:0:0:0:
312,51,229354,6,0,B|218:11|231:95|126:51,1,187.000005706787,6|0,3:2|0:0,0:0:0:0:
4,195,229813,2,0,P|-8:151|3:97,1,93.5000028533936,10|2,0:0|0:0,0:0:0:0:
72,0,230119,1,2,3:2:0:0:
189,156,230272,2,0,L|84:149,1,93.5000028533936,0|8,0:0|0:0,0:0:0:0:
0,308,230578,6,0,P|71:260|165:283,1,187.000005706787,2|0,3:2|3:0,0:0:0:0:
232,371,231038,1,10,0:0:0:0:
343,246,231191,2,0,P|355:202|344:148,1,93.5000028533936,0|0,0:0|3:0,0:0:0:0:
189,184,231497,1,0,0:0:0:0:
250,349,231650,1,8,0:0:0:0:
332,129,231803,6,0,B|276:93|276:93|152:84,1,187.000005706787,6|2,3:2|0:0,0:0:0:0:
32,179,232262,1,10,0:0:0:0:
185,276,232415,2,0,P|192:217|188:181,1,93.5000028533936,0|2,0:0|3:2,0:0:0:0:
13,62,232721,2,0,P|6:121|10:157,1,93.5000028533936,8|0,0:0|0:0,0:0:0:0:
178,166,233027,1,0,0:0:0:0:
96,32,233180,5,6,3:2:0:0:
82,215,233333,1,0,0:0:0:0:
220,46,233487,5,10,0:0:0:0:
87,240,233640,1,0,3:0:0:0:
313,131,233793,5,8,0:0:0:0:
92,265,233946,1,8,0:0:0:0:
224,68,234099,1,8,0:0:0:0:
236,283,234252,5,8,0:0:0:0:
236,283,234329,1,8,0:0:0:0:
236,283,234405,2,0,L|225:328,2,38.2499988327027,8|0|0,0:0|3:0|0:0,0:0:0:0:
281,204,234711,1,0,0:0:0:0:
330,294,234864,1,0,0:0:0:0:
398,121,235017,1,8,1:2:0:0:
489,192,235170,2,0,L|489:277,1,76.4999976654053,0|0,3:0|2:0,2:0:0:0:
402,331,235476,6,0,P|421:253|330:298,1,229.499992996216,2|0,3:0|0:0,2:0:0:0:
