osu file format v14

[General]
AudioFilename: audio.mp3
AudioLeadIn: 0
PreviewTime: 52568
Countdown: 0
SampleSet: Soft
StackLeniency: 0.7
Mode: 0
LetterboxInBreaks: 0
WidescreenStoryboard: 0

[Editor]
DistanceSpacing: 2
BeatDivisor: 4
GridSize: 32
TimelineZoom: 2.499999

[Metadata]
Title:Relive
TitleUnicode:Relive
Artist:nonoc
ArtistUnicode:nonoc
Creator:bite you death
Version:CRN's Extra
Source:Re:ゼロから始める異世界生活 Memory Snow
Tags:byd caren_sk gottagof4st gottagofast ggf osatia waku jenhideo rokkea sorciere hos hootowlstar Re:Zero kara Hajimeru Isekai Seikatsu OVA Movie Rem Ram Emilia subaru anime japanese
BeatmapID:1817304
BeatmapSetID:867350

[Difficulty]
HPDrainRate:7
CircleSize:4
OverallDifficulty:8.5
ApproachRate:9.5
SliderMultiplier:1.63
SliderTickRate:2

[Events]
//Background and Video events
0,0,"rezero.jpg",0,0
//Break Periods
2,16799,18370
2,107259,111432
//Storyboard Layer 0 (Background)
//Storyboard Layer 1 (Fail)
//Storyboard Layer 2 (Pass)
//Storyboard Layer 3 (Foreground)
//Storyboard Layer 4 (Overlay)
//Storyboard Sound Samples

[TimingPoints]
528,306.122448979592,4,2,2,60,1,0
681,-100,4,2,2,60,0,0
1752,-100,4,2,2,40,0,0
4048,-100,4,2,2,60,0,0
6038,-100,4,2,2,60,0,0
6497,-90.9090909090909,4,2,2,70,0,0
9175,-90.9090909090909,4,2,2,5,0,0
9252,-90.9090909090909,4,2,2,70,0,0
16446,-90.9090909090909,4,2,2,50,0,0
16599,-90.9090909090909,4,2,2,50,0,0
18895,-100,4,2,2,60,0,0
28079,-100,4,2,2,60,0,0
28691,-100,4,2,2,65,0,0
37186,-100,4,2,2,5,0,0
37262,-100,4,2,2,65,0,0
37568,-133.333333333333,4,2,2,45,0,0
38487,-133.333333333333,4,2,2,55,0,0
43385,-100,4,2,2,65,0,0
48283,-100,4,2,2,45,0,0
50579,-100,4,2,2,45,0,0
50732,-100,4,2,2,40,0,0
51803,-100,4,2,2,55,0,0
53181,-83.3333333333333,4,2,2,70,0,1
53487,-83.3333333333333,4,2,3,70,0,1
56701,-83.3333333333333,4,2,2,70,0,1
57007,-83.3333333333333,4,2,3,70,0,1
58308,-83.3333333333333,4,2,3,5,0,1
58385,-83.3333333333333,4,2,3,70,0,1
60681,-83.3333333333333,4,2,2,70,0,1
60910,-83.3333333333333,4,2,2,5,0,1
60987,-83.3333333333333,4,2,3,70,0,1
61599,-76.9230769230769,4,2,2,70,0,1
61829,-76.9230769230769,4,2,2,5,0,1
61905,-76.9230769230769,4,2,2,70,0,1
62135,-76.9230769230769,4,2,2,5,0,1
62211,-76.9230769230769,4,2,2,70,0,1
62441,-76.9230769230769,4,2,2,5,0,1
62517,-83.3333333333333,4,2,3,70,0,1
62976,-83.3333333333333,4,2,2,70,0,1
63436,-83.3333333333333,4,2,3,70,0,1
65043,-83.3333333333333,4,2,3,5,0,1
65119,-83.3333333333333,4,2,3,70,0,1
66497,-83.3333333333333,4,2,2,70,0,1
66726,-83.3333333333333,4,2,2,5,0,1
66803,-83.3333333333333,4,2,3,70,0,1
67721,-83.3333333333333,4,2,2,75,0,1
67874,-76.9230769230769,4,2,2,75,0,1
68028,-76.9230769230769,4,2,3,75,0,1
72772,-76.9230769230769,4,2,2,80,0,1
75757,-76.9230769230769,4,2,2,5,0,1
75834,-76.9230769230769,4,2,2,80,0,1
76293,-76.9230769230769,4,2,2,80,0,0
76905,-76.9230769230769,4,2,2,80,0,0
77517,-90.9090909090909,4,2,2,70,0,0
87466,-100,4,2,2,60,0,0
96497,-100,4,2,2,60,0,0
96726,-100,4,2,2,60,0,0
96803,-100,4,2,2,60,0,0
97262,-100,4,2,2,65,0,0
106140,-100,4,2,2,65,0,0
106446,-100,4,2,2,65,0,0
106752,-100,4,2,2,65,0,0
107058,-100,4,2,2,55,0,0
111344,-100,4,2,2,60,0,0
111956,-100,4,2,2,60,0,0
119150,-100,4,2,2,60,0,0
119303,-100,4,2,2,40,0,0
120374,-100,4,2,2,55,0,0
121752,-83.3333333333333,4,2,2,70,0,1
122058,-83.3333333333333,4,2,3,70,0,1
125272,-83.3333333333333,4,2,2,70,0,1
125502,-83.3333333333333,4,2,2,5,0,1
125579,-83.3333333333333,4,2,3,70,0,1
126880,-83.3333333333333,4,2,3,5,0,1
126956,-83.3333333333333,4,2,3,70,0,1
130170,-76.9230769230769,4,2,2,70,0,1
130400,-76.9230769230769,4,2,2,5,0,1
130476,-76.9230769230769,4,2,2,70,0,1
130706,-76.9230769230769,4,2,2,5,0,1
130783,-76.9230769230769,4,2,2,70,0,1
131012,-76.9230769230769,4,2,2,5,0,1
131089,-83.3333333333333,4,2,3,70,0,1
131548,-83.3333333333333,4,2,2,70,0,1
131854,-83.3333333333333,4,2,3,70,0,1
135068,-83.3333333333333,4,2,2,70,0,1
135298,-83.3333333333333,4,2,2,5,0,1
135374,-83.3333333333333,4,2,3,70,0,1
136446,-76.9230769230769,4,2,3,75,0,1
141344,-76.9230769230769,4,2,2,80,0,1
144864,-90.9090909090909,4,2,2,80,0,0
146089,-90.9090909090909,4,2,2,70,0,0
164533,-90.9090909090909,4,2,2,5,0,0
164915,-100,4,2,2,45,0,0
165834,-133.333333333333,4,2,2,55,0,0
170732,-100,4,2,2,60,0,0
175017,-100,4,2,2,60,0,0
177925,-100,4,2,2,60,0,0
178079,-100,4,2,2,40,0,0
179150,-100,4,2,2,55,0,0
179915,-100,4,2,2,55,0,0
180528,-133.333333333333,4,2,2,55,0,0
181140,-133.333333333333,4,2,2,55,0,0
181752,-133.333333333333,4,2,2,55,0,0
182364,-133.333333333333,4,2,2,55,0,0
184813,-133.333333333333,4,2,2,55,0,0
185119,-133.333333333333,4,2,2,55,0,0
185272,-133.333333333333,4,2,2,55,0,0
185425,-133.333333333333,4,2,2,55,0,0
186038,-133.333333333333,4,2,2,55,0,0
186344,-133.333333333333,4,2,2,55,0,0
186497,-133.333333333333,4,2,2,55,0,0
186726,-133.333333333333,4,2,2,55,0,0
186803,-133.333333333333,4,2,2,55,0,0
187874,-133.333333333333,4,2,2,55,0,0
188028,-133.333333333333,4,2,2,55,0,0
188334,-133.333333333333,4,2,2,55,0,0
189252,-133.333333333333,4,2,2,55,0,0
190323,-83.3333333333333,4,2,2,70,0,1
190630,-83.3333333333333,4,2,3,70,0,1
193844,-83.3333333333333,4,2,2,70,0,1
194073,-83.3333333333333,4,2,2,5,0,1
194150,-83.3333333333333,4,2,3,70,0,1
194303,-83.3333333333333,4,2,3,70,0,1
195221,-83.3333333333333,4,2,3,75,0,1
199507,-83.3333333333333,4,2,2,75,0,0
200119,-83.3333333333333,4,2,2,75,0,1
200425,-83.3333333333333,4,2,3,75,0,1
203640,-83.3333333333333,4,2,2,75,0,1
203869,-83.3333333333333,4,2,2,5,0,1
203946,-83.3333333333333,4,2,3,75,0,1
207390,-83.3333333333333,4,2,3,5,0,1
207466,-83.3333333333333,4,2,3,75,0,1
208538,-76.9230769230769,4,2,2,75,0,1
208767,-76.9230769230769,4,2,2,5,0,1
208844,-76.9230769230769,4,2,2,75,0,1
209073,-76.9230769230769,4,2,2,5,0,1
209150,-76.9230769230769,4,2,2,75,0,1
209380,-76.9230769230769,4,2,2,5,0,1
209456,-76.9230769230769,4,2,3,75,0,1
209915,-100,4,2,2,65,0,0
213436,-83.3333333333333,4,2,2,65,0,0
214201,-83.3333333333333,4,2,2,75,0,0
214813,-76.9230769230769,4,2,2,85,0,1
223232,-83.3333333333333,4,2,2,85,0,0
223691,-83.3333333333333,4,2,2,65,0,0
223844,-83.3333333333333,4,2,2,65,0,0
224456,-90.9090909090909,4,2,2,70,0,0
234405,-90.9090909090909,4,2,2,70,0,0
234558,-90.9090909090909,4,3,2,60,0,0
235170,-90.9090909090909,4,3,2,60,0,0
235476,-90.9090909090909,4,3,2,60,0,0
235783,-90.9090909090909,4,2,2,5,0,0
235936,-90.9090909090909,4,2,2,30,0,0

[Colours]
Combo1 : 218,218,218
Combo2 : 255,194,166
Combo3 : 121,188,255
Combo4 : 255,147,255

[HitObjects]
248,97,528,6,0,L|237:178,1,81.5,2|0,3:2|0:0,0:0:0:0:
237,178,1753,5,2,0:0:0:0:
165,269,1906,1,2,0:0:0:0:
290,283,2059,1,2,0:0:0:0:
165,269,2212,2,0,L|73:294,1,81.5,2|0,0:0|0:0,0:0:0:0:
290,283,2518,2,0,L|371:332,1,81.5,2|0,0:0|0:0,0:0:0:0:
237,178,2824,2,0,L|255:43,1,122.25,2|0,0:0|0:0,0:0:0:0:
263,0,3130,1,2,0:0:0:0:
373,122,3283,1,2,0:0:0:0:
133,161,3436,1,0,0:0:0:0:
133,161,3742,5,2,0:0:0:0:
346,268,3895,2,0,L|354:211,1,40.75,2|0,0:0|0:0,0:0:0:0:
463,187,4048,6,0,P|471:249|443:322,1,122.25,6|0,3:2|0:0,0:0:0:0:
407,364,4355,1,0,0:0:0:0:
278,234,4508,1,8,0:0:0:0:
499,109,4661,1,0,0:0:0:0:
409,43,4814,2,0,L|414:83,1,40.75,8|8,0:0|0:0,0:0:0:0:
242,143,4967,2,0,L|236:102,1,40.75,8|8,0:0|0:0,0:0:0:0:
312,24,5120,2,0,L|317:64,1,40.75,8|0,0:3|0:0,0:0:0:0:
334,157,5273,5,8,0:3:0:0:
224,2,5426,1,8,0:0:0:0:
115,202,5579,1,8,0:0:0:0:
115,202,5656,1,8,0:0:0:0:
115,202,5732,1,8,0:0:0:0:
31,23,5885,1,0,0:0:0:0:
31,23,5962,1,0,0:0:0:0:
31,23,6038,1,8,0:0:0:0:
158,79,6191,1,8,0:0:0:0:
0,204,6344,1,8,0:0:0:0:
196,293,6497,6,4,P|234:206|194:116,1,179.300005471802,6|0,3:2|0:0,0:0:0:0:
7,126,6957,2,0,L|111:121,1,89.650002735901,10|2,0:0|0:0,0:0:0:0:
421,47,7263,1,2,3:2:0:0:
319,196,7416,1,0,0:0:0:0:
512,250,7569,2,0,L|507:146,1,89.650002735901,8|2,0:0|0:0,0:0:0:0:
507,53,7875,5,2,3:2:0:0:
385,208,8028,1,0,0:0:0:0:
306,50,8181,1,10,0:0:0:0:
437,130,8334,1,0,0:0:0:0:
231,203,8487,2,0,L|226:99,1,89.650002735901,2|2,3:2|0:0,0:0:0:0:
224,3,8793,1,8,0:0:0:0:
146,166,8946,2,0,P|78:179|-4:166,1,134.475004103851,6|0,3:2|0:0,0:0:0:0:
13,171,9253,5,0,0:0:0:0:
160,274,9406,1,10,0:0:0:0:
57,375,9559,1,0,0:0:0:0:
0,267,9712,2,0,P|44:260|99:261,1,89.650002735901,2|0,3:2|0:0,0:0:0:0:
406,348,10018,2,0,P|362:355|307:354,1,89.650002735901,8|2,0:0|0:0,0:0:0:0:
160,274,10324,1,2,3:2:0:0:
240,384,10477,2,0,L|244:294,1,89.650002735901,0|10,0:0|0:0,0:0:0:0:
275,61,10783,5,0,0:0:0:0:
421,212,10936,1,10,0:0:0:0:
275,214,11089,1,2,3:2:0:0:
427,57,11242,1,8,0:0:0:0:
512,165,11395,2,0,P|517:233|500:321,1,134.475004103851,6|0,3:2|0:0,0:0:0:0:
484,363,11702,5,0,0:0:0:0:
357,243,11855,1,10,0:0:0:0:
286,383,12008,1,0,0:0:0:0:
410,320,12161,2,0,L|320:312,1,89.650002735901,2|0,3:2|0:0,0:0:0:0:
152,197,12467,1,8,0:0:0:0:
94,379,12620,1,2,0:0:0:0:
0,257,12773,6,0,L|104:266,1,89.650002735901,2|0,3:2|0:0,0:0:0:0:
254,109,13079,2,0,L|246:207,1,89.650002735901,10|0,0:0|0:0,0:0:0:0:
237,293,13385,1,2,3:2:0:0:
76,154,13538,1,2,0:0:0:0:
262,6,13691,1,8,0:0:0:0:
450,156,13844,2,0,P|392:166|311:155,1,134.475004103851,6|0,3:2|0:0,0:0:0:0:
254,109,14150,5,0,0:0:0:0:
176,241,14304,1,10,0:0:0:0:
32,205,14457,1,0,0:0:0:0:
32,205,14533,1,0,0:0:0:0:
32,205,14610,2,0,P|18:146|19:101,1,89.650002735901,2|8,3:2|0:0,0:0:0:0:
372,13,14916,2,0,P|386:72|385:117,1,89.650002735901,0|2,0:0|0:0,0:0:0:0:
366,338,15222,5,14,3:2:0:0:
511,167,15375,1,0,0:0:0:0:
337,188,15528,1,10,0:0:0:0:
512,317,15681,1,0,0:0:0:0:
288,375,15834,1,8,0:0:0:0:
268,97,15987,1,8,0:0:0:0:
430,254,16140,1,8,0:0:0:0:
126,324,16293,1,2,3:0:0:0:
256,192,16446,6,0,L|263:290,1,89.650002735901,2|2,0:0|0:0,0:0:0:0:
262,281,18895,6,0,L|256:192,1,81.5,2|0,3:2|0:0,0:0:0:0:
232,28,19202,1,10,0:0:0:0:
236,44,19508,1,2,0:0:0:0:
240,60,19814,1,10,0:0:0:0:
140,204,19967,1,2,0:0:0:0:
0,125,20120,2,0,L|81:119,1,81.5,2|0,3:2|3:0,0:0:0:0:
180,113,20426,1,8,0:0:0:0:
180,113,20732,5,0,0:0:0:0:
0,230,20885,1,2,3:2:0:0:
131,375,21038,2,0,P|150:329|141:231,1,122.25,8|0,0:0|0:0,0:0:0:0:
140,204,21344,1,0,3:0:0:0:
232,344,21497,1,0,3:0:0:0:
380,240,21650,1,10,0:0:0:0:
408,248,21957,1,2,0:0:0:0:
440,256,22263,1,8,0:0:0:0:
386,22,22569,5,0,0:0:0:0:
512,159,22722,1,2,3:2:0:0:
297,188,22875,1,8,0:0:0:0:
386,22,23028,1,2,0:0:0:0:
436,102,23181,2,0,L|425:204,1,81.5,0|0,3:0|0:0,0:0:0:0:
274,375,23487,2,0,L|282:293,1,81.5,10|0,0:0|0:0,0:0:0:0:
297,188,23793,5,0,3:0:0:0:
397,339,23946,1,0,3:0:0:0:
136,375,24099,1,10,0:0:0:0:
108,368,24406,1,2,0:0:0:0:
80,360,24712,1,10,0:0:0:0:
153,93,24865,1,2,0:0:0:0:
1,259,25018,1,2,3:2:0:0:
0,82,25171,1,2,3:2:0:0:
145,221,25324,1,8,0:0:0:0:
145,221,25630,5,0,0:0:0:0:
0,82,25783,1,0,3:0:0:0:
221,0,25936,2,0,L|226:122,1,122.25,8|0,0:0|0:0,0:0:0:0:
230,190,26242,1,0,3:0:0:0:
76,104,26395,1,0,0:0:0:0:
308,0,26548,1,10,0:0:0:0:
340,12,26855,1,2,0:0:0:0:
376,24,27161,1,10,0:0:0:0:
350,272,27314,5,0,0:0:0:0:
390,104,27467,1,2,3:2:0:0:
512,200,27620,2,0,L|417:210,1,81.5,2|8,3:2|0:0,0:0:0:0:
160,254,27926,1,2,0:0:0:0:
346,341,28079,1,8,0:0:0:0:
201,165,28232,1,8,0:0:0:0:
122,348,28385,1,8,0:0:0:0:
268,384,28538,5,8,0:0:0:0:
268,384,28615,1,8,0:0:0:0:
268,384,28691,2,0,L|262:289,1,81.5,6|0,3:2|0:0,0:0:0:0:
119,108,28997,2,0,L|125:203,1,81.5,10|0,0:0|0:0,0:0:0:0:
0,355,29304,2,0,L|122:348,1,122.25,2|0,3:2|0:0,0:0:0:0:
181,345,29610,1,10,0:0:0:0:
263,212,29763,1,2,0:0:0:0:
428,336,29916,6,0,L|333:342,1,81.5,0|2,0:0|0:0,0:0:0:0:
148,256,30222,1,10,0:0:0:0:
260,90,30375,1,2,0:0:0:0:
377,249,30528,1,2,3:2:0:0:
148,256,30681,1,0,0:0:0:0:
260,90,30834,2,0,L|264:245,1,122.25,10|0,0:0|0:0,0:0:0:0:
268,275,31140,5,6,3:2:0:0:
136,154,31293,1,0,0:0:0:0:
258,8,31446,1,10,0:0:0:0:
376,139,31599,1,2,0:0:0:0:
136,154,31753,2,0,P|92:160|37:156,1,81.5,2|0,3:2|0:0,0:0:0:0:
258,8,32059,1,10,0:0:0:0:
376,139,32212,6,0,P|419:135|470:124,2,81.5,2|0|2,0:0|3:0|0:0,0:0:0:0:
131,69,32671,1,10,0:0:0:0:
255,191,32824,1,0,0:0:0:0:
7,289,32977,2,0,L|-2:196,1,81.5,2|2,3:2|3:3,0:0:0:0:
248,110,33283,2,0,L|257:203,1,81.5,2|2,0:0|3:0,0:0:0:0:
342,372,33589,5,6,3:2:0:0:
361,224,33742,1,0,0:0:0:0:
512,289,33895,2,0,L|419:298,1,81.5,10|2,0:0|0:0,0:0:0:0:
174,198,34202,2,0,L|267:189,1,81.5,2|0,3:2|0:0,0:0:0:0:
422,17,34508,1,10,0:0:0:0:
328,152,34661,1,2,0:0:0:0:
512,204,34814,6,0,P|513:163|505:123,1,81.5,0|2,0:0|0:0,0:0:0:0:
255,190,35120,2,0,P|253:230|261:270,1,81.5,10|2,0:0|0:0,0:0:0:0:
303,373,35426,1,2,3:2:0:0:
442,334,35579,1,2,0:0:0:0:
303,373,35732,2,0,P|224:385|128:371,1,163,10|6,0:0|3:2,0:0:0:0:
5,268,36191,5,0,0:0:0:0:
181,138,36344,1,10,0:0:0:0:
159,300,36497,1,0,0:0:0:0:
40,174,36650,1,2,3:2:0:0:
195,45,36804,1,0,0:0:0:0:
322,208,36957,1,10,0:0:0:0:
159,300,37110,6,0,L|164:255,1,40.75,2|0,0:0|0:0,0:0:0:0:
195,45,37569,1,0,0:0:0:0:
195,45,37875,1,0,0:0:0:0:
195,45,38181,1,0,0:0:0:0:
195,45,38487,6,0,L|119:57,1,61.1250023317338,2|0,3:2|0:0,0:0:0:0:
0,164,38793,2,0,L|60:154,1,61.1250023317338,0|2,3:0|0:0,0:0:0:0:
195,162,39099,2,0,L|119:150,1,61.1250023317338,0|0,3:0|0:0,0:0:0:0:
0,43,39406,2,0,L|60:52,1,61.1250023317338,0|0,3:0|0:0,0:0:0:0:
317,162,39712,6,0,L|393:150,1,61.1250023317338,0|0,3:0|0:0,0:0:0:0:
512,43,40018,2,0,L|451:52,1,61.1250023317338,0|0,3:0|0:0,0:0:0:0:
317,45,40324,2,0,L|393:57,1,61.1250023317338,2|0,3:2|0:0,0:0:0:0:
512,164,40630,2,0,L|451:154,1,61.1250023317338,2|0,3:2|0:0,0:0:0:0:
210,22,40936,6,0,L|198:94,1,61.1250023317338,2|0,3:2|0:0,0:0:0:0:
86,238,41242,2,0,L|158:250,1,61.1250023317338,0|0,3:0|0:0,0:0:0:0:
302,362,41548,2,0,L|314:290,1,61.1250023317338,2|0,3:2|0:0,0:0:0:0:
426,146,41855,2,0,L|354:134,1,61.1250023317338,0|0,3:0|0:0,0:0:0:0:
302,22,42161,6,0,L|314:94,1,61.1250023317338,2|0,3:2|0:0,0:0:0:0:
502,213,42467,2,0,L|430:225,1,61.1250023317338,0|0,3:0|0:0,0:0:0:0:
210,362,42773,2,0,L|198:290,1,61.1250023317338,2|2,3:2|0:0,0:0:0:0:
10,171,43079,2,0,L|82:159,1,61.1250023317338,2|0,3:2|0:0,0:0:0:0:
256,96,43385,5,6,3:2:0:0:
186,231,43538,1,0,0:0:0:0:
325,230,43691,2,0,P|365:233|405:229,1,81.5,10|2,0:0|0:0,0:0:0:0:
359,74,43997,1,0,0:0:0:0:
256,192,44150,1,2,0:0:0:0:
256,192,44227,1,0,0:0:0:0:
256,192,44304,1,0,0:0:0:0:
184,45,44457,2,0,P|122:45|62:57,1,122.25,2|0,0:0|0:0,0:0:0:0:
0,78,44763,5,0,0:0:0:0:
27,252,44916,1,8,0:3:0:0:
27,252,44992,1,8,0:3:0:0:
27,252,45069,1,8,0:3:0:0:
174,150,45222,1,8,0:0:0:0:
297,290,45375,1,0,0:0:0:0:
149,384,45528,2,0,P|140:342|142:300,1,81.5,8|8,0:0|0:0,0:0:0:0:
211,252,45758,5,8,0:0:0:0:
211,252,45834,2,0,P|220:294|218:336,1,81.5,6|0,3:2|0:0,0:0:0:0:
444,328,46140,1,8,0:0:0:0:
305,371,46293,2,0,P|296:329|298:287,1,81.5,2|0,0:0|3:0,0:0:0:0:
329,119,46599,1,2,0:0:0:0:
141,303,46753,1,8,0:0:0:0:
444,328,46906,1,2,3:2:0:0:
444,328,46982,1,0,0:0:0:0:
444,328,47059,2,0,P|455:282|455:219,1,81.5,0|0,0:0|0:0,0:0:0:0:
331,56,47365,5,8,0:3:0:0:
324,88,47441,1,8,0:3:0:0:
329,119,47518,1,8,0:3:0:0:
497,99,47671,1,10,0:0:0:0:
341,222,47824,1,4,3:3:0:0:
200,68,47977,1,0,0:0:0:0:
379,2,48130,1,8,0:3:0:0:
330,294,48283,1,4,3:2:0:0:
256,192,48360,12,0,50580,0:0:0:0:
256,192,50732,5,0,3:0:0:0:
352,256,50885,1,0,0:0:0:0:
160,256,51038,1,0,0:0:0:0:
256,96,51191,1,0,0:0:0:0:
256,384,51497,5,0,0:0:0:0:
500,203,51804,1,8,0:0:0:0:
256,0,52110,1,8,0:0:0:0:
12,203,52416,1,8,1:2:0:0:
0,58,52569,1,2,0:0:0:0:
133,125,52722,1,2,0:0:0:0:
12,203,52875,1,2,0:0:0:0:
12,203,53181,5,6,3:2:0:0:
175,259,53334,1,0,0:0:0:0:
28,370,53487,2,0,L|20:257,1,97.799997015381,10|0,0:0|1:0,0:0:0:0:
5,126,53793,1,2,3:2:0:0:
175,259,53946,1,0,1:0:0:0:
97,315,54099,2,0,L|89:202,1,97.799997015381,8|0,0:0|1:0,0:0:0:0:
326,4,54406,6,0,L|334:117,1,97.799997015381,2|0,3:2|1:0,0:0:0:0:
330,321,54712,1,8,0:0:0:0:
417,195,54865,1,0,1:0:0:0:
512,299,55018,2,0,P|426:340|304:303,1,195.599994030762,2|8,3:2|0:0,0:0:0:0:
160,206,55477,1,0,1:0:0:0:
87,372,55630,5,2,3:2:0:0:
10,291,55783,2,0,L|130:285,1,97.799997015381,2|8,1:2|0:0,0:0:0:0:
416,84,56089,2,0,P|420:134|416:192,1,97.799997015381,2|0,1:2|3:0,0:0:0:0:
54,193,56395,2,0,P|50:143|54:85,1,97.799997015381,2|8,1:2|0:0,0:0:0:0:
241,0,56702,2,0,L|251:219,1,195.599994030762,2|0,1:2|1:0,0:0:0:0:
299,362,57161,1,8,0:0:0:0:
345,205,57314,1,0,1:0:0:0:
468,297,57467,6,0,L|340:310,1,97.799997015381,2|2,3:2|1:2,0:0:0:0:
93,249,57773,2,0,L|220:262,1,97.799997015381,10|2,0:0|3:2,0:0:0:0:
0,346,58079,2,0,P|-20:274|7:195,1,146.699995523071,4|0,3:2|0:0,0:0:0:0:
29,145,58385,1,8,0:0:0:0:
268,267,58538,1,0,1:0:0:0:
100,330,58691,1,2,3:2:0:0:
117,171,58844,1,2,1:2:0:0:
347,275,58997,1,10,0:0:0:0:
193,305,59150,6,0,P|188:263|207:196,1,97.799997015381,2|0,1:2|3:0,0:0:0:0:
258,31,59457,1,0,1:0:0:0:
486,149,59610,2,0,L|358:135,1,97.799997015381,10|0,0:0|1:0,0:0:0:0:
101,16,59916,2,0,L|87:143,1,97.799997015381,2|0,3:2|1:0,0:0:0:0:
0,331,60222,2,0,L|127:344,1,97.799997015381,10|0,0:0|1:0,0:0:0:0:
417,275,60528,5,2,3:2:0:0:
257,384,60681,2,0,L|274:224,1,146.699995523071,2|0,1:2|0:0,0:0:0:0:
282,171,60987,1,2,1:2:0:0:
178,288,61140,1,0,3:0:0:0:
215,25,61293,1,2,1:2:0:0:
480,228,61446,1,8,0:0:0:0:
178,288,61599,6,0,L|203:115,1,158.924992724991,2|0,3:2|0:0,0:0:0:0:
141,82,61906,6,0,L|278:190,1,158.924992724991,2|0,3:2|0:0,0:0:0:0:
337,153,62212,6,0,L|174:217,1,158.924992724991,2|0,3:2|0:0,0:0:0:0:
99,229,62518,1,10,0:0:0:0:
138,260,62594,1,8,0:0:0:0:
178,288,62671,1,2,3:2:0:0:
59,339,62824,1,2,0:0:0:0:
284,356,62977,6,0,P|291:302|285:245,1,97.799997015381,6|0,3:2|0:0,0:0:0:0:
270,13,63283,1,8,0:0:0:0:
189,211,63436,1,0,1:0:0:0:
373,83,63589,1,2,3:2:0:0:
173,105,63742,1,0,1:0:0:0:
370,196,63895,1,8,0:0:0:0:
8,281,64048,5,0,1:0:0:0:
8,281,64125,1,0,1:0:0:0:
8,281,64202,2,0,L|1:172,1,97.799997015381,2|0,3:2|1:0,0:0:0:0:
212,24,64508,2,0,L|219:133,1,97.799997015381,8|0,0:0|1:0,0:0:0:0:
481,326,64814,2,0,L|499:158,1,146.699995523071,2|0,3:2|0:0,0:0:0:0:
505,118,65120,1,8,0:0:0:0:
318,280,65273,1,0,1:0:0:0:
212,24,65426,5,2,3:2:0:0:
410,180,65579,1,2,1:2:0:0:
188,331,65732,1,8,0:0:0:0:
8,109,65885,2,0,L|113:115,1,97.799997015381,2|0,1:2|3:0,0:0:0:0:
300,109,66191,1,2,1:2:0:0:
50,273,66344,1,8,0:0:0:0:
261,369,66497,6,0,P|297:259|275:166,1,195.599994030762,6|0,3:2|3:0,0:0:0:0:
177,11,66957,2,0,P|175:62|186:108,1,97.799997015381,8|0,0:0|0:0,0:0:0:0:
368,243,67263,1,10,0:0:0:0:
403,253,67339,1,8,0:0:0:0:
439,255,67416,1,10,0:0:0:0:
476,252,67492,1,8,0:0:0:0:
509,237,67569,1,10,0:0:0:0:
432,65,67722,5,2,3:2:0:0:
432,65,67798,1,0,3:0:0:0:
432,65,67875,1,4,3:2:0:0:
282,182,68028,1,2,3:2:0:0:
201,15,68181,1,10,1:2:0:0:
97,223,68334,1,2,3:2:0:0:
287,112,68487,1,10,1:2:0:0:
118,0,68640,1,0,3:0:0:0:
97,223,68793,1,10,1:2:0:0:
0,97,68946,6,0,L|220:107,1,211.899990299988,2|0,3:2|3:0,0:0:0:0:
498,110,69406,1,8,1:2:0:0:
322,176,69559,1,0,3:0:0:0:
401,40,69712,2,0,L|403:154,1,105.949995149994,10|2,1:2|3:2,0:0:0:0:
409,349,70018,1,10,1:2:0:0:
512,228,70171,6,0,L|398:230,1,105.949995149994,2|14,3:2|3:2,0:0:0:0:
99,262,70477,1,2,3:2:0:0:
229,315,70630,1,8,1:2:0:0:
212,164,70783,1,2,3:2:0:0:
24,275,70936,1,8,1:2:0:0:
238,95,71089,1,0,3:0:0:0:
281,367,71242,1,10,1:2:0:0:
53,375,71395,6,0,P|22:280|51:164,1,211.899990299988,6|0,3:2|3:0,0:0:0:0:
0,73,71855,2,0,L|108:83,1,105.949995149994,10|0,1:2|0:0,0:0:0:0:
413,43,72161,1,10,0:0:0:0:
444,71,72237,1,8,0:0:0:0:
453,111,72314,1,8,0:0:0:0:
440,151,72390,1,8,0:0:0:0:
403,173,72467,1,10,0:0:0:0:
371,209,72543,1,8,0:0:0:0:
361,255,72620,1,8,0:0:0:0:
379,299,72696,1,8,0:0:0:0:
407,329,72773,6,0,L|529:316,1,105.949995149994,6|0,3:2|0:0,0:0:0:0:
224,384,73079,2,0,L|211:263,1,105.949995149994,8|2,1:2|3:2,0:0:0:0:
125,96,73385,1,8,1:2:0:0:
32,246,73538,1,0,3:0:0:0:
17,34,73691,1,8,1:2:0:0:
227,166,73844,1,0,3:0:0:0:
32,246,73997,6,0,L|20:140,1,105.949995149994,8|0,1:2|3:0,0:0:0:0:
326,17,74304,2,0,L|337:122,1,105.949995149994,8|0,1:2|3:0,0:0:0:0:
360,312,74610,1,8,1:2:0:0:
474,82,74763,1,0,3:0:0:0:
227,166,74916,1,8,1:2:0:0:
512,220,75069,1,0,3:0:0:0:
337,122,75222,5,12,1:2:0:0:
276,321,75375,1,0,3:0:0:0:
428,384,75528,2,0,P|456:308|432:224,1,158.924992724991,10|0,1:2|0:0,0:0:0:0:
414,191,75834,2,0,L|285:199,1,105.949995149994,10|0,1:2|3:0,0:0:0:0:
83,210,76140,1,10,1:2:0:0:
83,210,76293,1,2,3:0:0:0:
83,210,76906,6,0,L|94:307,1,52.9749975749971,0|0,3:0|3:0,0:0:0:0:
99,334,77059,1,8,0:0:0:0:
15,247,77212,1,0,0:0:0:0:
161,211,77365,1,8,0:0:0:0:
15,247,77518,6,0,P|0:200|6:140,1,89.650002735901,6|0,3:2|0:0,0:0:0:0:
89,12,77824,1,0,0:0:0:0:
143,100,77977,2,0,L|48:107,1,89.650002735901,10|2,0:0|0:0,0:0:0:0:
174,285,78283,2,0,L|269:278,1,89.650002735901,2|0,3:2|0:0,0:0:0:0:
485,206,78589,1,8,0:0:0:0:
369,307,78742,1,2,0:0:0:0:
487,365,78895,6,0,P|496:319|491:262,1,89.650002735901,2|0,3:2|0:0,0:0:0:0:
264,116,79202,2,0,P|255:162|260:219,1,89.650002735901,10|0,0:0|0:0,0:0:0:0:
206,367,79508,1,0,3:0:0:0:
132,264,79661,1,0,3:0:0:0:
206,367,79814,1,8,0:0:0:0:
22,383,79967,6,0,L|18:233,1,134.475004103851,6|0,3:2|0:0,0:0:0:0:
16,175,80273,1,0,0:0:0:0:
122,84,80426,1,10,0:0:0:0:
0,28,80579,1,0,0:0:0:0:
16,175,80732,2,0,L|130:171,1,89.650002735901,2|0,3:2|0:0,0:0:0:0:
325,175,81038,1,8,0:0:0:0:
188,232,81191,5,2,0:0:0:0:
188,232,81268,1,0,0:0:0:0:
188,232,81344,2,0,P|182:186|185:136,1,89.650002735901,2|0,3:2|0:0,0:0:0:0:
476,34,81650,2,0,P|482:80|479:130,1,89.650002735901,10|0,0:0|0:0,0:0:0:0:
345,292,81957,1,10,0:0:0:0:
325,175,82110,1,2,3:2:0:0:
230,333,82263,1,8,0:0:0:0:
482,359,82416,6,0,L|486:209,1,134.475004103851,6|0,3:2|0:0,0:0:0:0:
488,169,82722,1,0,0:0:0:0:
345,292,82875,1,10,0:0:0:0:
231,181,83028,1,2,0:0:0:0:
413,104,83181,2,0,L|409:202,1,89.650002735901,2|0,3:2|0:0,0:0:0:0:
119,300,83487,2,0,L|115:202,1,89.650002735901,8|2,0:0|0:0,0:0:0:0:
67,61,83793,5,0,3:0:0:0:
163,149,83946,1,0,0:0:0:0:
197,15,84099,1,10,0:0:0:0:
8,183,84253,1,0,0:0:0:0:
231,233,84406,2,0,P|253:191|260:131,1,89.650002735901,0|0,3:0|0:0,0:0:0:0:
289,10,84712,1,10,0:0:0:0:
459,121,84865,6,0,P|371:137|310:120,1,134.475004103851,6|0,3:2|0:0,0:0:0:0:
274,82,85171,1,2,0:0:0:0:
348,295,85324,1,10,0:0:0:0:
459,121,85477,1,2,0:0:0:0:
314,201,85630,1,2,3:2:0:0:
453,263,85783,2,0,L|457:204,1,44.8250013679505,8|0,0:0|0:0,0:0:0:0:
459,121,85936,5,0,0:0:0:0:
314,201,86089,1,0,0:0:0:0:
248,1,86242,1,10,3:2:0:0:
65,187,86395,1,0,0:0:0:0:
18,33,86548,1,10,3:2:0:0:
251,132,86702,1,0,0:0:0:0:
97,329,86855,1,8,0:0:0:0:
97,329,86931,1,8,0:0:0:0:
97,329,87008,1,8,0:0:0:0:
97,329,87084,1,8,0:0:0:0:
97,329,87161,1,8,0:0:0:0:
97,329,87237,1,8,0:0:0:0:
97,329,87314,1,8,0:0:0:0:
97,329,87390,1,8,0:0:0:0:
97,329,87467,6,0,L|8:324,1,81.5,6|0,3:2|0:0,0:0:0:0:
185,232,87773,1,2,3:2:0:0:
312,341,87926,1,0,0:0:0:0:
166,377,88079,2,0,P|164:336|172:283,1,81.5,2|2,3:2|0:3,0:0:0:0:
386,303,88385,2,0,P|388:344|380:397,1,81.5,2|2,3:2|0:0,0:0:0:0:
237,336,88691,5,2,3:2:0:0:
463,384,88844,2,0,P|468:343|466:303,1,81.5,2|0,0:0|3:0,0:0:0:0:
512,214,89150,2,0,P|431:198|378:204,1,122.25,2|0,0:2|0:0,0:0:0:0:
340,209,89457,1,8,0:0:0:0:
298,79,89610,1,2,3:2:0:0:
212,167,89763,1,8,0:0:0:0:
340,209,89916,6,0,P|349:165|341:117,1,81.5,0|0,3:0|3:0,0:0:0:0:
81,124,90222,2,0,P|72:168|80:216,1,81.5,2|0,3:2|0:0,0:0:0:0:
201,339,90528,2,0,L|210:195,1,122.25,2|0,3:2|0:0,0:0:0:0:
212,167,90834,1,2,3:2:0:0:
101,276,90987,1,2,1:2:0:0:
298,376,91140,6,0,L|303:279,1,81.5,2|2,3:2|0:0,0:0:0:0:
316,63,91446,1,0,3:0:0:0:
472,189,91599,2,0,P|396:218|291:213,1,163,2|0,0:0|0:0,0:0:0:0:
0,173,92059,1,2,3:2:0:0:
132,280,92212,1,8,0:0:0:0:
132,280,92288,1,8,0:0:0:0:
132,280,92365,2,0,P|143:237|144:184,1,81.5,6|0,3:2|0:0,0:0:0:0:
153,21,92671,5,2,3:2:0:0:
75,142,92824,1,0,0:0:0:0:
0,54,92977,2,0,L|101:62,1,81.5,2|0,3:2|0:0,0:0:0:0:
280,118,93283,2,0,L|179:126,1,81.5,2|2,3:2|1:2,0:0:0:0:
0,173,93589,1,2,3:2:0:0:
158,267,93742,1,2,0:0:0:0:
15,355,93895,1,8,0:0:0:0:
0,173,94048,1,2,0:0:0:0:
158,267,94202,6,0,L|57:275,1,81.5,0|8,0:0|0:0,0:0:0:0:
340,342,94508,2,0,L|441:334,1,81.5,2|2,0:0|0:0,0:0:0:0:
253,384,94814,2,0,P|237:328|246:262,1,122.25,2|0,3:2|0:0,0:0:0:0:
260,200,95120,1,10,0:0:0:0:
393,254,95273,1,0,0:0:0:0:
331,44,95426,1,2,3:2:0:0:
185,219,95579,1,8,0:0:0:0:
440,292,95732,1,10,0:0:0:0:
440,292,95809,1,8,0:0:0:0:
440,292,95885,1,10,0:0:0:0:
440,292,95962,1,8,0:0:0:0:
440,292,96038,5,2,3:2:0:0:
260,200,96191,1,2,3:2:0:0:
260,200,96497,2,0,P|246:138|257:77,1,122.25,0|0,0:0|0:0,0:0:0:0:
370,36,96804,2,0,L|309:54,1,40.75,8|0,0:0|0:0,0:0:0:0:
130,87,96957,2,0,L|191:105,1,40.75,8|0,0:2|0:0,0:0:0:0:
336,148,97110,1,8,0:0:0:0:
157,235,97263,5,6,3:2:0:0:
282,373,97416,1,0,0:0:0:0:
346,229,97569,1,10,0:0:0:0:
490,346,97722,1,0,0:0:0:0:
268,281,97875,1,2,3:2:0:0:
439,109,98028,1,0,0:0:0:0:
350,316,98181,1,10,0:0:0:0:
368,71,98334,1,2,0:2:0:0:
512,248,98487,5,0,3:0:0:0:
268,281,98640,1,2,0:0:0:0:
420,369,98793,2,0,L|428:279,1,81.5,10|0,0:0|0:0,0:0:0:0:
368,71,99099,2,0,L|360:161,1,81.5,2|2,3:2|0:0,0:0:0:0:
91,261,99406,2,0,L|215:274,1,122.25,10|0,0:0|0:0,0:0:0:0:
268,281,99712,1,4,3:2:0:0:
174,20,99865,5,0,0:0:0:0:
147,187,100018,1,10,0:0:0:0:
35,92,100171,1,2,0:0:0:0:
244,77,100324,2,0,P|244:118|233:179,1,81.5,2|0,3:2|0:0,0:0:0:0:
110,381,100630,1,10,0:0:0:0:
9,255,100783,2,0,P|50:255|111:266,1,81.5,2|0,0:0|3:0,0:0:0:0:
353,353,101089,5,2,0:0:0:0:
198,375,101242,2,0,P|198:334|209:273,1,81.5,10|2,0:0|0:0,0:0:0:0:
244,77,101548,1,2,3:2:0:0:
430,253,101702,1,2,0:0:0:0:
430,253,101778,1,0,0:0:0:0:
430,253,101855,2,0,P|351:271|261:257,1,163,10|6,0:0|3:2,0:0:0:0:
72,125,102314,5,0,0:0:0:0:
152,233,102467,1,10,0:0:0:0:
22,241,102620,1,0,0:0:0:0:
0,88,102773,2,0,L|77:128,1,81.5,2|0,3:2|0:0,0:0:0:0:
220,189,103079,1,10,0:0:0:0:
25,322,103232,2,0,L|21:235,1,81.5,2|0,0:0|3:0,0:0:0:0:
0,88,103538,5,2,0:0:0:0:
220,189,103691,2,0,L|146:235,1,81.5,10|0,0:0|0:0,0:0:0:0:
25,322,103997,1,2,3:2:0:0:
0,88,104150,1,2,0:0:0:0:
220,189,104304,6,0,P|238:130|227:57,1,122.25,10|0,0:0|0:0,0:0:0:0:
229,14,104610,1,6,3:2:0:0:
314,157,104763,1,0,0:0:0:0:
435,37,104916,2,0,L|339:39,1,81.5,10|2,0:0|0:0,0:0:0:0:
68,125,105222,2,0,L|164:127,1,81.5,2|0,3:2|0:0,0:0:0:0:
440,183,105528,1,10,0:0:0:0:
314,157,105681,6,0,P|296:246|313:332,1,163,2|0,1:2|0:0,0:0:0:0:
382,379,106140,2,0,P|425:384|477:371,1,81.5,10|0,0:0|0:0,0:0:0:0:
307,316,106446,2,0,P|264:311|212:324,1,81.5,10|0,0:0|0:0,0:0:0:0:
122,341,106753,1,8,0:3:0:0:
81,347,106906,1,8,0:3:0:0:
42,334,107059,1,6,3:2:0:0:
138,105,111957,5,6,3:2:0:0:
256,161,112110,1,0,0:0:0:0:
295,0,112263,1,10,0:0:0:0:
353,70,112416,2,0,L|444:80,1,81.5,2|0,0:0|3:0,0:0:0:0:
166,185,112722,2,0,L|75:175,1,81.5,2|8,0:0|0:0,0:0:0:0:
256,161,113028,6,0,L|263:286,1,122.25,2|0,3:2|0:0,0:0:0:0:
267,362,113334,1,0,0:0:0:0:
484,257,113487,1,8,0:3:0:0:
484,257,113564,1,8,0:3:0:0:
484,257,113640,1,8,0:3:0:0:
382,172,113793,1,10,0:0:0:0:
389,339,113946,1,2,3:2:0:0:
484,257,114099,2,0,L|393:261,1,81.5,10|8,0:0|0:0,0:0:0:0:
307,342,114329,5,8,0:0:0:0:
307,342,114406,2,0,L|398:338,1,81.5,6|0,3:2|0:0,0:0:0:0:
259,218,114712,1,10,0:0:0:0:
137,263,114865,2,0,P|130:221|136:171,1,81.5,2|0,0:0|3:0,0:0:0:0:
361,23,115171,1,2,0:0:0:0:
361,23,115247,1,0,0:0:0:0:
361,23,115324,1,8,0:0:0:0:
444,182,115477,2,0,P|402:189|352:183,1,81.5,2|0,3:2|0:0,0:0:0:0:
96,69,115783,1,0,0:0:0:0:
12,193,115936,1,8,0:3:0:0:
12,193,116013,1,8,0:3:0:0:
12,193,116089,1,8,0:3:0:0:
194,367,116242,5,10,0:0:0:0:
225,120,116395,1,4,3:0:0:0:
338,341,116548,1,0,3:0:0:0:
109,245,116702,1,8,0:3:0:0:
378,175,116855,1,6,3:2:0:0:
256,192,116931,12,0,119150,0:0:0:0:
256,192,119304,5,0,3:0:0:0:
256,288,119457,1,0,0:0:0:0:
160,128,119610,1,0,0:0:0:0:
352,128,119763,1,0,0:0:0:0:
256,368,120069,5,0,0:0:0:0:
0,192,120375,1,8,0:0:0:0:
256,0,120681,1,8,0:0:0:0:
512,192,120987,1,8,1:2:0:0:
384,256,121140,1,2,0:0:0:0:
384,128,121293,1,2,0:0:0:0:
512,192,121446,1,2,0:0:0:0:
512,192,121753,6,0,L|384:192,1,97.799997015381,6|0,3:2|0:0,0:0:0:0:
64,192,122059,2,0,L|192:192,1,97.799997015381,8|0,0:0|1:0,0:0:0:0:
384,128,122365,1,2,3:2:0:0:
192,320,122518,1,0,1:0:0:0:
192,128,122671,1,8,0:0:0:0:
384,320,122824,1,0,1:0:0:0:
99,384,122977,6,0,P|76:340|68:292,1,97.799997015381,2|0,3:2|1:0,0:0:0:0:
353,228,123283,2,0,P|376:272|384:320,1,97.799997015381,8|0,0:0|1:0,0:0:0:0:
237,363,123589,1,2,3:2:0:0:
254,86,123742,1,0,1:0:0:0:
495,225,123895,1,8,0:0:0:0:
324,370,124048,1,0,1:0:0:0:
254,86,124202,6,0,L|368:100,1,97.799997015381,2|2,3:2|1:2,0:0:0:0:
483,36,124508,1,8,0:0:0:0:
495,225,124661,2,0,L|397:213,1,97.799997015381,2|0,1:2|3:0,0:0:0:0:
105,175,124967,1,2,1:2:0:0:
337,331,125120,1,8,0:0:0:0:
227,384,125273,6,0,L|250:222,1,146.699995523071,2|0,1:2|0:0,0:0:0:0:
260,182,125579,1,0,1:0:0:0:
129,306,125732,1,8,0:0:0:0:
337,331,125885,1,0,1:0:0:0:
129,306,126038,2,0,L|26:326,1,97.799997015381,2|2,3:2|1:2,0:0:0:0:
337,331,126344,2,0,L|440:351,1,97.799997015381,10|2,0:0|3:2,0:0:0:0:
280,36,126650,6,0,L|259:181,1,146.699995523071,4|0,3:2|0:0,0:0:0:0:
247,238,126957,1,8,0:0:0:0:
118,61,127110,1,0,1:0:0:0:
0,216,127263,2,0,P|46:229|95:233,1,97.799997015381,2|2,3:2|1:2,0:0:0:0:
433,90,127569,1,10,0:0:0:0:
495,257,127722,5,2,1:2:0:0:
495,257,127798,1,0,1:0:0:0:
495,257,127875,2,0,P|450:266|398:260,1,97.799997015381,0|0,3:2|1:0,0:0:0:0:
160,202,128181,1,10,0:0:0:0:
342,371,128334,1,0,1:0:0:0:
170,371,128487,2,0,P|160:321|159:262,1,97.799997015381,2|0,3:2|1:0,0:0:0:0:
433,90,128793,2,0,P|443:140|444:199,1,97.799997015381,10|0,0:0|1:0,0:0:0:0:
342,371,129099,5,2,3:2:0:0:
262,225,129253,1,0,1:0:0:0:
160,324,129406,1,8,0:0:0:0:
342,371,129559,2,0,P|352:321|353:262,1,97.799997015381,2|0,1:2|3:0,0:0:0:0:
79,90,129865,2,0,P|69:140|68:199,1,97.799997015381,2|8,1:2|0:0,0:0:0:0:
9,321,130171,6,0,P|89:344|170:319,1,158.924992724991,2|0,3:2|0:0,0:0:0:0:
262,225,130477,2,0,L|253:392,1,158.924992724991,2|0,3:2|0:0,0:0:0:0:
351,325,130783,2,0,P|427:343|503:321,1,158.924992724991,2|0,3:2|0:0,0:0:0:0:
506,229,131089,2,0,P|485:239|455:247,1,48.8999985076905,10|8,0:0|0:0,0:0:0:0:
382,252,131242,1,2,3:2:0:0:
404,49,131395,1,2,0:0:0:0:
486,154,131548,6,0,P|440:171|373:174,1,97.799997015381,6|0,3:2|0:0,0:0:0:0:
212,86,131855,1,8,0:0:0:0:
104,256,132008,1,0,1:0:0:0:
16,98,132161,2,0,P|62:81|129:78,1,97.799997015381,2|0,3:2|1:0,0:0:0:0:
375,79,132467,1,10,0:0:0:0:
104,256,132620,5,0,1:0:0:0:
104,256,132696,1,0,1:0:0:0:
104,256,132773,2,0,P|91:212|88:154,1,97.799997015381,2|0,3:2|1:0,0:0:0:0:
375,79,133079,2,0,P|388:123|391:181,1,97.799997015381,8|0,0:0|1:0,0:0:0:0:
370,371,133385,1,2,3:2:0:0:
510,190,133538,1,0,1:0:0:0:
326,232,133691,1,8,0:0:0:0:
512,340,133844,1,0,1:0:0:0:
370,371,133997,6,0,L|262:366,1,97.799997015381,2|2,3:2|1:2,0:0:0:0:
49,311,134304,1,8,0:0:0:0:
191,384,134457,2,0,P|204:337|208:283,1,97.799997015381,2|0,1:2|3:0,0:0:0:0:
201,74,134763,1,2,1:2:0:0:
417,156,134916,1,8,0:0:0:0:
204,219,135069,6,0,P|191:145|204:66,1,146.699995523071,6|0,3:2|0:0,0:0:0:0:
287,21,135375,2,0,P|291:81|282:128,1,97.799997015381,0|8,3:0|0:0,0:0:0:0:
111,262,135681,1,0,0:0:0:0:
215,7,135834,1,10,0:0:0:0:
485,170,135987,1,10,0:0:0:0:
485,170,136064,1,8,0:0:0:0:
485,170,136140,1,10,0:0:0:0:
485,170,136217,1,8,0:0:0:0:
485,170,136293,1,10,0:0:0:0:
485,170,136370,1,8,0:0:0:0:
485,170,136446,6,0,L|480:278,1,105.949995149994,6|2,3:2|3:2,0:0:0:0:
259,384,136753,1,10,1:2:0:0:
254,149,136906,1,2,3:2:0:0:
393,283,137059,1,10,1:2:0:0:
106,299,137212,1,0,3:0:0:0:
249,43,137365,1,10,1:2:0:0:
306,266,137518,6,0,L|198:271,1,105.949995149994,2|8,3:2|1:2,0:0:0:0:
0,224,137824,1,0,3:0:0:0:
249,43,137977,2,0,L|253:148,1,105.949995149994,8|0,1:2|3:0,0:0:0:0:
265,384,138283,5,10,1:2:0:0:
447,232,138436,1,2,3:2:0:0:
249,43,138589,1,10,1:2:0:0:
69,252,138742,1,2,3:2:0:0:
265,384,138895,2,0,L|260:278,1,105.949995149994,12|0,3:2|3:2,0:0:0:0:
58,148,139202,2,0,P|55:196|77:268,1,105.949995149994,10|0,1:2|3:2,0:0:0:0:
447,232,139508,2,0,P|454:179|447:127,1,105.949995149994,10|0,1:2|3:0,0:0:0:0:
250,0,139814,5,10,1:2:0:0:
260,278,139967,1,6,3:2:0:0:
58,148,140120,1,0,0:0:0:0:
447,127,140273,1,0,3:0:0:0:
250,0,140426,6,0,L|254:105,1,105.949995149994,10|0,1:2|3:0,0:0:0:0:
283,286,140732,1,10,0:0:0:0:
283,286,140809,1,8,0:0:0:0:
283,286,140885,1,8,0:0:0:0:
283,286,140962,1,8,0:0:0:0:
283,286,141038,1,10,0:0:0:0:
283,286,141115,1,8,0:0:0:0:
283,286,141191,1,8,0:0:0:0:
283,286,141268,1,8,0:0:0:0:
283,286,141344,6,0,P|229:298|169:298,1,105.949995149994,6|0,3:2|0:0,0:0:0:0:
254,105,141650,2,0,P|308:93|368:93,1,105.949995149994,8|2,1:2|3:2,0:0:0:0:
102,225,141957,2,0,P|90:171|90:111,1,105.949995149994,8|0,1:2|3:0,0:0:0:0:
410,159,142263,2,0,P|422:213|422:273,1,105.949995149994,8|0,1:2|3:0,0:0:0:0:
265,383,142569,5,8,1:2:0:0:
101,224,142722,1,0,3:0:0:0:
254,105,142875,1,8,1:2:0:0:
422,263,143028,1,0,3:0:0:0:
265,383,143181,2,0,L|259:277,1,105.949995149994,8|0,1:2|3:0,0:0:0:0:
107,119,143487,2,0,L|101:225,1,105.949995149994,8|0,1:2|3:0,0:0:0:0:
7,340,143793,6,0,P|60:351|132:340,1,105.949995149994,12|0,1:2|3:0,0:0:0:0:
363,270,144099,2,0,P|310:266|259:277,1,105.949995149994,10|0,1:2|3:0,0:0:0:0:
492,333,144406,2,0,L|498:227,1,105.949995149994,10|0,1:2|3:0,0:0:0:0:
512,25,144712,1,10,1:2:0:0:
306,170,144865,1,2,3:0:0:0:
305,6,146089,6,4,P|268:94|315:171,1,179.300005471802,6|0,3:2|0:0,0:0:0:0:
505,258,146548,2,0,L|401:263,1,89.650002735901,2|2,3:2|0:0,0:0:0:0:
91,337,146855,1,2,3:2:0:0:
193,188,147008,1,0,0:0:0:0:
0,134,147161,2,0,L|5:238,1,89.650002735901,0|2,3:0|0:0,0:0:0:0:
5,331,147467,5,2,3:2:0:0:
138,152,147620,1,0,0:0:0:0:
206,334,147773,1,2,3:2:0:0:
75,254,147926,1,0,0:0:0:0:
281,181,148079,2,0,L|286:285,1,89.650002735901,8|0,0:0|0:0,0:0:0:0:
288,381,148385,1,8,0:0:0:0:
366,218,148538,2,0,P|434:205|516:218,1,134.475004103851,6|0,3:2|0:0,0:0:0:0:
499,213,148844,5,2,0:0:0:0:
352,110,148997,1,2,3:2:0:0:
455,9,149150,1,0,0:0:0:0:
512,117,149304,2,0,P|468:124|413:123,1,89.650002735901,2|0,3:2|0:0,0:0:0:0:
106,36,149610,2,0,P|150:29|205:30,1,89.650002735901,0|2,3:0|0:0,0:0:0:0:
352,110,149916,1,2,3:2:0:0:
272,0,150069,2,0,L|268:90,1,89.650002735901,0|2,0:0|3:2,0:0:0:0:
237,323,150375,5,0,0:0:0:0:
91,172,150528,1,10,0:0:0:0:
237,170,150681,1,2,0:0:0:0:
85,327,150834,1,10,0:0:0:0:
0,219,150987,2,0,P|-5:151|12:63,1,134.475004103851,6|0,3:2|0:0,0:0:0:0:
28,21,151293,5,0,0:0:0:0:
155,141,151446,1,2,3:2:0:0:
226,1,151599,1,0,0:0:0:0:
102,64,151753,2,0,L|192:72,1,89.650002735901,2|0,3:2|0:0,0:0:0:0:
360,187,152059,1,0,3:0:0:0:
418,5,152212,1,2,0:0:0:0:
512,127,152365,6,0,L|408:118,1,89.650002735901,2|0,3:2|0:0,0:0:0:0:
258,275,152671,2,0,L|266:177,1,89.650002735901,2|0,3:2|0:0,0:0:0:0:
275,91,152977,1,8,0:0:0:0:
436,230,153130,1,0,0:0:0:0:
250,378,153283,1,8,0:0:0:0:
62,228,153436,2,0,P|120:218|201:229,1,134.475004103851,6|0,3:2|0:0,0:0:0:0:
258,275,153742,5,0,0:0:0:0:
336,143,153895,1,2,3:2:0:0:
480,179,154048,1,0,0:0:0:0:
480,179,154125,1,0,0:0:0:0:
480,179,154202,2,0,P|494:238|493:283,1,89.650002735901,2|0,3:2|0:0,0:0:0:0:
140,371,154508,2,0,P|126:312|127:267,1,89.650002735901,0|2,3:0|0:0,0:0:0:0:
146,46,154814,5,2,3:2:0:0:
1,217,154967,1,0,0:0:0:0:
175,196,155120,1,8,0:0:0:0:
0,67,155273,1,0,3:0:0:0:
224,9,155426,1,8,0:0:0:0:
244,287,155579,1,8,0:3:0:0:
82,130,155732,1,8,0:3:0:0:
386,60,155885,5,6,3:2:0:0:
386,60,155962,1,0,0:0:0:0:
386,60,156038,2,0,L|491:67,1,89.650002735901,0|0,0:0|0:0,0:0:0:0:
265,190,156344,2,0,L|160:183,1,89.650002735901,8|0,1:2|0:0,0:0:0:0:
405,267,156650,1,2,3:0:0:0:
413,127,156804,1,0,3:0:0:0:
512,208,156957,1,8,1:2:0:0:
280,350,157110,6,0,P|241:285|275:178,1,179.300005471802,6|0,3:2|0:0,0:0:0:0:
405,267,157492,1,0,0:0:0:0:
405,267,157569,2,0,L|277:260,1,89.650002735901,10|0,0:0|0:0,0:0:0:0:
22,271,157875,1,2,3:2:0:0:
102,54,158028,1,0,3:0:0:0:
265,190,158181,1,8,0:0:0:0:
22,271,158334,6,0,P|5:227|8:166,1,89.650002735901,6|0,3:2|0:0,0:0:0:0:
102,54,158640,1,0,0:0:0:0:
265,190,158793,2,0,L|157:202,1,89.650002735901,10|0,1:2|0:0,0:0:0:0:
423,309,159099,2,0,L|531:297,1,89.650002735901,0|0,3:0|0:0,0:0:0:0:
215,302,159406,1,8,1:2:0:0:
313,381,159559,6,0,P|350:306|309:207,1,179.300005471802,6|0,3:2|3:0,0:0:0:0:
265,190,159941,1,0,0:0:0:0:
265,190,160018,1,10,0:0:0:0:
280,79,160171,1,0,0:0:0:0:
431,256,160324,1,10,0:0:0:0:
183,221,160477,1,8,0:0:0:0:
256,4,160630,1,10,0:0:0:0:
500,35,160783,6,0,L|489:223,1,179.300005471802,6|0,3:2|0:0,0:0:0:0:
479,342,161242,1,8,1:2:0:0:
364,215,161395,1,2,0:0:0:0:
479,342,161548,1,2,3:0:0:0:
310,366,161702,1,0,0:0:0:0:
364,215,161855,1,10,1:2:0:0:
310,366,162008,6,0,P|219:380|131:356,1,179.300005471802,6|8,3:2|0:0,0:0:0:0:
94,344,162390,1,0,0:0:0:0:
94,344,162467,1,8,0:0:0:0:
131,146,162620,1,0,0:0:0:0:
231,270,162773,1,8,0:3:0:0:
14,244,162926,1,8,0:3:0:0:
148,22,163079,1,8,0:0:0:0:
131,146,163232,6,0,P|86:149|26:131,1,89.650002735901,6|0,3:2|0:0,0:0:0:0:
255,88,163538,1,0,0:0:0:0:
308,254,163691,1,8,1:2:0:0:
394,137,163844,1,2,0:0:0:0:
173,221,163997,1,0,3:0:0:0:
289,19,164150,1,0,3:0:0:0:
449,261,164304,1,8,0:0:0:0:
512,106,164457,2,0,L|448:119,1,44.8250013679505,2|0,1:2|0:0,0:0:0:0:
256,240,164916,5,2,0:0:0:0:
256,256,165222,1,2,0:0:0:0:
256,272,165528,1,2,0:0:0:0:
256,288,165834,6,0,L|194:322,1,61.1250023317338,2|0,3:2|0:0,0:0:0:0:
128,384,166140,2,0,L|98:330,1,61.1250023317338,0|2,3:0|0:0,0:0:0:0:
24,269,166446,2,0,L|86:235,1,61.1250023317338,0|0,3:0|0:0,0:0:0:0:
152,173,166753,2,0,L|181:226,1,61.1250023317338,0|0,3:0|0:0,0:0:0:0:
384,384,167059,6,0,L|413:330,1,61.1250023317338,0|0,3:0|0:0,0:0:0:0:
488,269,167365,2,0,L|426:235,1,61.1250023317338,0|0,3:0|0:0,0:0:0:0:
360,173,167671,2,0,L|330:226,1,61.1250023317338,2|0,3:2|0:0,0:0:0:0:
256,288,167977,2,0,L|318:322,1,61.1250023317338,2|0,3:2|0:0,0:0:0:0:
384,384,168283,6,0,L|413:330,1,61.1250023317338,2|0,3:2|0:0,0:0:0:0:
360,173,168589,2,0,L|330:226,1,61.1250023317338,0|0,3:0|0:0,0:0:0:0:
128,384,168895,2,0,L|98:330,1,61.1250023317338,2|0,3:2|0:0,0:0:0:0:
152,173,169202,2,0,L|181:226,1,61.1250023317338,0|0,3:0|0:0,0:0:0:0:
384,384,169508,6,0,L|413:330,1,61.1250023317338,2|0,3:2|0:0,0:0:0:0:
389,119,169814,2,0,L|359:172,1,61.1250023317338,0|0,3:0|0:0,0:0:0:0:
128,384,170120,2,0,L|98:330,1,61.1250023317338,2|2,3:2|0:0,0:0:0:0:
123,119,170426,2,0,L|152:172,1,61.1250023317338,2|0,3:2|0:0,0:0:0:0:
256,256,170732,5,6,3:2:0:0:
256,128,170885,1,0,0:0:0:0:
352,320,171038,1,8,0:0:0:0:
160,320,171191,2,0,P|147:273|145:233,1,81.5,2|0,0:0|3:0,0:0:0:0:
43,134,171497,2,0,P|90:121|130:119,1,81.5,2|8,0:0|0:0,0:0:0:0:
358,172,171804,2,0,P|370:93|351:10,1,163,2|0,3:2|0:0,0:0:0:0:
193,38,172263,5,8,0:3:0:0:
193,38,172339,1,8,0:3:0:0:
193,38,172416,2,0,P|240:51|280:53,1,81.5,8|10,0:3|0:0,0:0:0:0:
512,23,172722,1,2,3:2:0:0:
358,172,172875,1,10,0:0:0:0:
511,229,173028,6,0,L|514:174,1,40.75,8|8,0:0|0:0,0:0:0:0:
440,118,173181,2,0,L|434:217,1,81.5,6|0,3:2|0:0,0:0:0:0:
418,363,173487,1,10,0:0:0:0:
292,244,173640,2,0,L|391:250,1,81.5,2|0,0:0|3:0,0:0:0:0:
227,362,173946,2,0,L|128:356,1,81.5,2|8,0:0|0:0,0:0:0:0:
34,383,174253,6,0,P|11:328|11:247,1,122.25,6|0,3:2|0:0,0:0:0:0:
12,198,174559,1,0,0:0:0:0:
208,278,174712,1,8,0:3:0:0:
208,278,174788,1,8,0:3:0:0:
208,278,174865,1,8,0:3:0:0:
236,26,175018,5,10,0:0:0:0:
359,233,175171,1,10,0:0:0:0:
127,161,175324,1,8,0:0:0:0:
378,92,175477,1,0,3:0:0:0:
343,359,175630,1,6,3:2:0:0:
256,192,175707,12,0,177926,0:0:0:0:
256,96,178079,5,2,3:2:0:0:
256,288,178232,1,0,0:0:0:0:
128,192,178385,1,0,0:0:0:0:
384,192,178538,1,0,0:0:0:0:
256,0,178844,5,0,0:0:0:0:
0,192,179150,1,8,0:0:0:0:
256,384,179457,1,8,0:0:0:0:
507,193,179763,1,8,1:2:0:0:
341,232,179916,2,0,P|334:190|340:136,1,81.5,2|2,0:0|0:0,0:0:0:0:
507,193,180222,2,0,P|514:235|508:289,1,81.5,2|0,0:0|0:0,0:0:0:0:
428,353,180528,6,0,B|368:348|368:348|328:382|328:382|194:378,1,244.500009326935,2|2,0:0|0:0,0:0:0:0:
0,192,181753,6,0,B|60:197|60:197|100:163|100:163|234:167,1,244.500009326935,2|2,0:0|0:0,0:0:0:0:
231,166,182977,5,2,0:0:0:0:
231,166,183130,2,0,P|219:106|227:34,1,122.250004663468,2|2,0:0|0:0,0:0:0:0:
317,206,183589,1,0,0:0:0:0:
317,206,183742,2,0,P|271:246|204:275,1,122.250004663468,2|2,0:0|0:0,0:0:0:0:
322,100,184202,2,0,P|379:119|438:162,1,122.250004663468
512,220,184661,1,0,0:0:0:0:
403,296,184814,6,0,L|396:221,1,61.1250023317338,2|2,0:0|0:0,0:0:0:0:
377,0,185120,1,2,0:0:0:0:
267,129,185273,1,2,0:0:0:0:
429,154,185426,1,2,3:2:0:0:
429,154,186038,5,2,0:0:0:0:
512,78,186191,1,2,0:0:0:0:
512,238,186344,1,2,0:0:0:0:
429,154,186497,2,0,L|330:139,1,91.6875034976007,2|0,3:2|0:0,0:0:0:0:
267,129,186804,1,0,0:0:0:0:
211,206,186957,1,2,0:0:0:0:
118,216,187110,1,0,0:0:0:0:
18,189,187263,6,0,P|6:147|2:116,1,61.1250023317338,2|0,0:0|0:0,0:0:0:0:
252,69,187569,2,0,P|264:111|268:142,1,61.1250023317338,2|0,0:0|0:0,0:0:0:0:
323,352,187875,1,2,3:2:0:0:
323,352,188028,1,2,0:0:0:0:
512,192,188334,5,2,0:0:0:0:
298,229,188640,1,2,0:0:0:0:
502,303,188946,1,2,0:0:0:0:
416,64,189253,1,2,3:2:0:0:
256,352,189559,1,2,3:2:0:0:
96,64,189865,1,10,0:0:0:0:
0,191,190018,1,2,3:2:0:0:
0,191,190094,1,0,3:0:0:0:
0,191,190171,1,2,3:2:0:0:
0,191,190247,1,0,3:0:0:0:
0,191,190324,6,0,L|6:301,1,97.799997015381,6|0,3:2|0:0,0:0:0:0:
81,376,190630,1,8,0:0:0:0:
251,138,190783,1,0,1:0:0:0:
305,279,190936,2,0,L|195:285,1,97.799997015381,2|0,3:2|1:0,0:0:0:0:
492,340,191242,2,0,L|497:242,1,97.799997015381,8|0,0:0|1:0,0:0:0:0:
512,63,191548,5,2,3:2:0:0:
362,224,191702,1,0,1:0:0:0:
375,26,191855,1,8,0:0:0:0:
512,160,192008,1,0,1:0:0:0:
512,160,192084,1,0,1:0:0:0:
512,160,192161,2,0,P|461:166|411:160,1,97.799997015381,2|0,3:2|1:0,0:0:0:0:
248,55,192467,1,8,0:0:0:0:
133,293,192620,1,0,1:0:0:0:
0,143,192773,6,0,P|51:137|101:143,1,97.799997015381,2|2,3:2|1:2,0:0:0:0:
363,232,193079,1,8,0:0:0:0:
212,364,193232,2,0,L|207:257,1,97.799997015381,2|0,1:2|3:0,0:0:0:0:
401,39,193538,2,0,L|406:146,1,97.799997015381,2|8,1:2|0:0,0:0:0:0:
512,325,193844,2,0,P|448:346|357:334,1,146.699995523071,6|0,3:2|0:0,0:0:0:0:
307,318,194150,5,0,3:0:0:0:
211,196,194304,1,8,1:2:0:0:
82,383,194457,1,0,0:0:0:0:
1,268,194610,1,10,0:0:0:0:
36,241,194686,1,8,0:0:0:0:
78,231,194763,1,10,0:0:0:0:
122,234,194839,1,8,0:0:0:0:
158,257,194916,1,10,0:0:0:0:
256,96,195069,5,10,0:0:0:0:
256,96,195145,1,8,0:0:0:0:
256,96,195222,1,4,3:2:0:0:
349,249,195375,1,2,3:2:0:0:
131,152,195528,1,10,1:2:0:0:
311,0,195681,1,2,3:2:0:0:
279,238,195834,5,10,1:2:0:0:
107,84,195987,1,0,3:0:0:0:
376,28,196140,1,10,1:2:0:0:
279,238,196293,2,0,P|269:187|264:136,1,97.799997015381,0|8,3:0|1:2,0:0:0:0:
247,15,196599,1,0,3:0:0:0:
482,152,196753,2,0,P|431:162|380:167,1,97.799997015381,8|0,1:2|3:0,0:0:0:0:
1,219,197059,5,10,1:2:0:0:
107,376,197212,1,2,3:2:0:0:
190,102,197365,1,10,1:2:0:0:
291,298,197518,1,2,3:2:0:0:
305,329,197594,1,0,3:0:0:0:
326,355,197671,2,0,P|374:349|422:340,1,97.799997015381,12|2,1:2|3:2,0:0:0:0:
414,40,197977,1,10,1:2:0:0:
434,255,198130,1,2,3:2:0:0:
101,297,198283,6,0,P|91:246|86:195,1,97.799997015381,10|0,1:2|3:0,0:0:0:0:
414,40,198589,2,0,P|424:91|429:142,1,97.799997015381,10|0,1:2|3:0,0:0:0:0:
255,373,198895,5,12,1:2:0:0:
2,225,199048,1,0,3:0:0:0:
242,8,199202,1,8,1:2:0:0:
494,194,199355,1,0,3:0:0:0:
255,373,199508,5,8,0:0:0:0:
231,347,199584,1,8,0:0:0:0:
223,313,199661,1,8,0:0:0:0:
223,278,199737,1,8,0:0:0:0:
235,246,199814,1,8,0:0:0:0:
270,219,199890,1,8,0:0:0:0:
299,174,199967,1,8,0:0:0:0:
305,115,200043,1,8,0:0:0:0:
257,73,200120,5,6,3:2:0:0:
105,184,200273,1,0,0:0:0:0:
58,18,200426,1,8,0:0:0:0:
211,149,200579,1,0,1:0:0:0:
11,316,200732,2,0,L|0:218,1,97.799997015381,2|0,3:2|1:0,0:0:0:0:
201,52,201038,2,0,L|211:149,1,97.799997015381,8|0,0:0|1:0,0:0:0:0:
308,375,201344,5,2,3:2:0:0:
367,112,201497,1,0,1:0:0:0:
512,253,201650,2,0,L|397:274,1,97.799997015381,8|0,0:0|1:0,0:0:0:0:
73,340,201957,1,2,3:2:0:0:
308,375,202110,1,0,1:0:0:0:
211,149,202263,1,8,0:0:0:0:
73,340,202416,1,0,1:0:0:0:
308,375,202569,6,0,P|315:327|313:273,1,97.799997015381,2|2,3:2|1:2,0:0:0:0:
260,27,202875,1,8,0:0:0:0:
4,212,203028,2,0,L|119:233,1,97.799997015381,2|0,1:2|3:0,0:0:0:0:
415,270,203334,1,2,1:2:0:0:
301,149,203487,1,8,0:0:0:0:
195,329,203640,6,0,L|40:307,1,146.699995523071,2|0,1:2|0:0,0:0:0:0:
0,298,203946,1,0,1:0:0:0:
123,42,204099,1,8,0:0:0:0:
184,245,204253,1,0,1:0:0:0:
301,149,204406,6,0,L|204:162,1,97.799997015381,2|2,3:2|1:2,0:0:0:0:
415,270,204712,2,0,L|512:257,1,97.799997015381,10|8,0:0|0:0,0:0:0:0:
294,329,205018,2,0,P|278:280|281:222,1,97.799997015381,6|0,3:2|1:0,0:0:0:0:
378,0,205324,1,8,0:0:0:0:
435,196,205477,1,0,1:0:0:0:
511,86,205630,6,0,L|414:99,1,97.799997015381,2|2,3:2|1:2,0:0:0:0:
67,137,205936,1,10,0:0:0:0:
285,54,206089,2,0,P|301:103|298:161,1,97.799997015381,2|0,1:2|3:2,0:0:0:0:
290,378,206395,1,0,1:0:0:0:
486,291,206548,2,0,L|389:278,1,97.799997015381,10|0,0:0|1:0,0:0:0:0:
123,309,206855,2,0,L|220:322,1,97.799997015381,2|0,3:2|1:0,0:0:0:0:
24,373,207161,2,0,P|0:311|16:225,1,146.699995523071,10|0,0:0|0:0,0:0:0:0:
40,164,207467,5,2,3:2:0:0:
186,239,207620,1,2,1:2:0:0:
189,47,207773,1,8,0:0:0:0:
40,164,207926,2,0,P|90:170|142:169,1,97.799997015381,2|0,1:2|3:0,0:0:0:0:
512,132,208232,1,2,1:2:0:0:
360,283,208385,1,8,0:0:0:0:
491,368,208538,6,0,L|509:196,1,158.924992724991,2|0,3:2|0:0,0:0:0:0:
512,132,208844,6,0,L|354:202,1,158.924992724991,2|0,3:2|0:0,0:0:0:0:
296,235,209150,6,0,L|435:336,1,158.924992724991,2|0,3:2|0:0,0:0:0:0:
372,384,209457,6,0,L|321:346,1,52.9749975749971,8|8,0:0|0:0,0:0:0:0:
268,308,209610,1,8,0:0:0:0:
148,384,209763,1,8,0:0:0:0:
63,264,209916,6,0,P|140:240|239:251,1,163,6|0,3:2|0:0,0:0:0:0:
221,245,210375,1,0,0:0:0:0:
18,352,210528,2,0,P|-6:275|5:176,1,163,10|0,0:0|0:0,0:0:0:0:
89,52,210987,1,0,0:0:0:0:
143,140,211140,6,0,P|84:149|56:148,1,81.5,2|8,3:2|0:0,0:0:0:0:
192,32,211446,2,0,P|278:19|323:23,1,122.25,0|0,0:0|0:0,0:0:0:0:
375,45,211753,1,10,0:0:0:0:
376,178,211906,1,0,0:0:0:0:
507,102,212059,2,0,P|517:160|505:250,1,122.25,0|0,0:0|0:0,0:0:0:0:
498,286,212365,5,2,3:2:0:0:
376,178,212518,1,2,0:0:0:0:
369,363,212671,1,0,0:0:0:0:
325,274,212824,2,0,L|423:278,1,81.5,2|8,0:0|0:0,0:0:0:0:
130,361,213130,2,0,L|32:357,1,81.5,2|0,0:0|0:0,0:0:0:0:
226,384,213436,2,0,L|237:213,1,146.699995523071,2|0,3:2|0:0,0:0:0:0:
241,171,213742,5,0,0:0:0:0:
103,239,213895,1,8,0:0:0:0:
225,20,214048,1,0,0:0:0:0:
371,240,214202,1,10,1:2:0:0:
103,239,214355,5,10,0:0:0:0:
53,236,214431,1,8,0:0:0:0:
11,210,214508,1,10,0:0:0:0:
2,161,214584,1,8,0:0:0:0:
12,113,214661,1,10,0:0:0:0:
50,82,214737,1,8,0:0:0:0:
98,79,214814,1,4,3:2:0:0:
165,169,214967,5,2,0:0:0:0:
317,22,215120,1,8,1:2:0:0:
368,239,215273,1,2,3:2:0:0:
286,135,215426,1,8,1:2:0:0:
209,344,215579,1,2,3:2:0:0:
79,160,215732,1,8,1:2:0:0:
286,135,215885,6,0,L|295:255,1,105.949995149994,2|8,3:2|1:2,0:0:0:0:
302,372,216191,1,0,3:0:0:0:
512,283,216344,2,0,L|387:293,1,105.949995149994,8|0,1:2|3:0,0:0:0:0:
101,306,216650,1,10,1:2:0:0:
204,109,216804,1,0,3:0:0:0:
336,298,216957,1,10,1:2:0:0:
23,364,217110,6,0,L|17:243,1,105.949995149994,0|12,3:0|1:2,0:0:0:0:
0,94,217416,1,2,3:2:0:0:
108,213,217569,2,0,L|213:207,1,105.949995149994,10|2,1:2|3:2,0:0:0:0:
492,44,217875,1,10,1:2:0:0:
295,258,218028,1,0,3:2:0:0:
280,47,218181,1,10,1:2:0:0:
475,245,218334,6,0,L|365:253,1,105.949995149994,6|0,3:2|0:0,0:0:0:0:
108,213,218640,1,0,3:0:0:0:
261,356,218793,2,0,P|273:303|271:251,1,105.949995149994,10|0,1:2|3:0,0:0:0:0:
48,127,219099,1,10,1:2:0:0:
11,158,219176,1,8,0:0:0:0:
0,206,219253,1,8,0:0:0:0:
10,254,219329,1,8,0:0:0:0:
47,284,219406,1,10,1:2:0:0:
195,207,219559,1,0,3:0:0:0:
332,361,219712,5,6,3:2:0:0:
497,235,219865,1,0,0:0:0:0:
415,372,220018,1,8,1:2:0:0:
286,214,220171,1,2,3:2:0:0:
478,130,220324,2,0,L|498:244,1,105.949995149994,8|0,1:2|3:0,0:0:0:0:
112,299,220630,2,0,L|89:185,1,105.949995149994,8|0,1:2|3:0,0:0:0:0:
37,20,220936,5,8,1:2:0:0:
182,141,221089,1,0,3:0:0:0:
0,216,221242,1,8,1:2:0:0:
164,27,221395,1,0,3:0:0:0:
200,257,221548,1,8,1:2:0:0:
18,118,221702,1,0,3:0:0:0:
334,63,221855,5,8,1:2:0:0:
371,326,222008,1,0,3:0:0:0:
132,382,222161,2,0,P|118:329|122:272,1,105.949995149994,12|0,1:2|3:0,0:0:0:0:
448,263,222467,2,0,P|458:314|455:368,1,105.949995149994,10|0,1:2|3:0,0:0:0:0:
291,314,222773,2,0,L|283:185,1,105.949995149994,10|0,1:2|3:0,0:0:0:0:
278,21,223079,1,10,1:2:0:0:
480,192,223232,1,2,3:0:0:0:
480,192,223844,6,0,L|421:199,1,48.8999985076905,8|8,0:0|0:0,0:0:0:0:
356,205,223997,1,8,0:0:0:0:
465,95,224150,1,8,0:0:0:0:
477,299,224304,1,8,0:0:0:0:
291,314,224457,6,0,L|284:211,1,89.650002735901,6|0,3:2|0:0,0:0:0:0:
269,30,224763,1,0,0:0:0:0:
113,173,224916,2,0,L|202:166,1,89.650002735901,10|2,0:0|0:0,0:0:0:0:
365,89,225222,1,2,3:2:0:0:
168,281,225375,1,0,0:0:0:0:
150,94,225528,1,8,0:0:0:0:
374,272,225681,1,2,0:0:0:0:
174,370,225834,6,0,L|167:267,1,89.650002735901,2|0,3:2|0:0,0:0:0:0:
359,0,226140,2,0,L|366:103,1,89.650002735901,10|0,0:0|0:0,0:0:0:0:
374,272,226446,1,0,3:0:0:0:
479,166,226599,1,0,0:0:0:0:
512,310,226753,1,8,0:0:0:0:
272,371,226906,6,0,P|242:285|265:192,1,179.300005471802,4|0,3:2|0:0,0:0:0:0:
479,166,227365,2,0,P|433:182|369:186,1,89.650002735901,10|0,0:0|0:0,0:0:0:0:
0,114,227671,1,2,3:2:0:0:
168,209,227824,1,0,0:0:0:0:
11,287,227977,2,0,P|0:243|2:179,1,89.650002735901,8|2,0:0|0:0,0:0:0:0:
264,0,228283,5,2,3:2:0:0:
287,32,228360,1,0,0:0:0:0:
301,69,228436,1,0,0:0:0:0:
301,109,228513,1,0,0:0:0:0:
285,146,228589,1,10,0:0:0:0:
126,90,228742,1,2,1:2:0:0:
257,190,228895,2,0,L|353:183,1,89.650002735901,2|2,3:2|0:0,0:0:0:0:
512,166,229202,1,10,0:0:0:0:
346,183,229355,6,0,P|340:259|361:328,1,134.475004103851,6|0,3:2|0:0,0:0:0:0:
436,358,229661,2,0,P|438:311|421:260,1,89.650002735901,0|10,0:0|0:0,0:0:0:0:
257,190,229967,1,2,0:0:0:0:
117,285,230120,2,0,P|105:328|107:372,1,89.650002735901,2|0,3:2|0:0,0:0:0:0:
267,375,230426,2,0,L|263:277,1,89.650002735901,8|2,0:0|0:0,0:0:0:0:
256,38,230732,5,2,3:2:0:0:
357,140,230885,1,0,0:0:0:0:
151,154,231038,2,0,P|139:110|141:66,1,89.650002735901,10|0,0:0|0:0,0:0:0:0:
357,140,231344,2,0,L|255:149,1,89.650002735901,0|0,3:0|0:0,0:0:0:0:
0,174,231650,1,8,0:0:0:0:
106,276,231804,2,0,L|253:265,1,134.475004103851,6|0,3:2|0:0,0:0:0:0:
310,260,232110,5,2,0:0:0:0:
320,380,232263,1,10,0:0:0:0:
491,371,232416,1,0,0:0:0:0:
491,371,232492,1,0,0:0:0:0:
491,371,232569,2,0,P|505:312|504:267,1,89.650002735901,2|8,3:2|0:0,0:0:0:0:
224,100,232875,2,0,P|210:159|211:204,1,89.650002735901,0|0,0:0|0:0,0:0:0:0:
172,362,233181,5,6,3:2:0:0:
2,225,233334,1,0,0:0:0:0:
171,46,233487,1,10,0:0:0:0:
350,228,233640,1,0,3:0:0:0:
172,362,233793,6,0,L|79:360,1,89.650002735901,8|8,0:0|0:0,0:0:0:0:
260,226,234099,2,0,L|353:228,1,89.650002735901,8|8,0:0|0:0,0:0:0:0:
512,234,234406,5,0,0:0:0:0:
512,234,234482,1,0,3:0:0:0:
512,234,234559,1,0,0:0:0:0:
346,67,234712,1,0,0:0:0:0:
343,334,234865,1,0,0:0:0:0:
512,145,235018,1,8,1:2:0:0:
260,226,235171,1,0,3:0:0:0:
259,225,235477,6,0,L|444:231,1,179.300005471802,2|0,3:0|2:0,0:0:0:0:
