osu file format v14

[General]
AudioFilename: audio.mp3
AudioLeadIn: 0
PreviewTime: 179877
Countdown: 0
SampleSet: Soft
StackLeniency: 0.7
Mode: 0
LetterboxInBreaks: 0
WidescreenStoryboard: 1

[Editor]
Bookmarks: 1829,1981,2133,2209,2361,2513,2741,2893,3045,3197,3348,3500,3652,3804,16524,16677,16830,17060,17136,17289,17442,17595,17748,17978,18131,18284,18437,18590,38641,38794,38947,39100,39254,39407,39560,39713,39866,40019,40172,40325,40478,40631,40784,40937,41090,41243,41396,41549,41703,41856,42009,42162,42315,42468,42621,42774,42927,43080,43233,77672,77825,77978,78124,78270,78417,78563,78720,78956,79114,79269,79422,79575,79728,79958,80111,80264,80418,80572,80726,80880,81034,81187,81341,81495,81649,81803,81957,82111,82264,82418,82572,82726,82880,83034,83187,83341,83495,83645,83795,83947,84100,84253,84405,84558,84711,84863,85016,85169,85321,85474,85627,85779,85932,86085,86237,86390,86544,86698,86852,87006,87160,107212,107366,107519,107672,107825,107978,108131,108284,108436,108588,108740,108893,109045,109197,109349,109502,109655,109808,109962,110115,110269,110422,110576,110729,110883,111036,111183,111330,111487,111644,111801,165989,166142,166295,166448,166601,166754,166907,167060,167213,167366,167519,167672,167825,167978,168131,168284,168438,168591,168744,168897,169050,169203,169356,169509,169662,169815,169968,170121,170274,170427,170580,180691,180844,180997,181150,181303,181456,181609,181762,181915,182068,182221,182374,182527,182680,182833,182986,183140,183293,183446,183599,183752,183905,184058,184211,184364,184517,184670,184823,184976,185129,185282
DistanceSpacing: 1
BeatDivisor: 4
GridSize: 4
TimelineZoom: 2.899999

[Metadata]
Title:Relive
TitleUnicode:Relive
Artist:nonoc
ArtistUnicode:nonoc
Creator:SkyFlame
Version:Normal
Source:Re:ゼロから始める異世界生活 Memory Snow
Tags:re:zero kara hajimeru isekai seikatsu rezero starting life in another world different from zero anime ova original video animation japanese rock jrock j-rock full ver. version female vocal movie byd bite you death caren_sk crn gottagof4st gottagofast ggf stack nyantiaz intiaz no dap moeka momoka shioi
BeatmapID:3386363
BeatmapSetID:1658910

[Difficulty]
HPDrainRate:3
CircleSize:3.2
OverallDifficulty:4
ApproachRate:5.5
SliderMultiplier:1
SliderTickRate:1

[Events]
//Background and Video events
0,0,"bg new.png",0,0
//Break Periods
2,1754,2925
2,16494,17771
2,38688,42261
2,77719,86342
2,107259,110833
2,166036,169608
2,180538,184310
//Storyboard Layer 0 (Background)
//Storyboard Layer 1 (Fail)
//Storyboard Layer 2 (Pass)
//Storyboard Layer 3 (Foreground)
//Storyboard Layer 4 (Overlay)
//Storyboard Sound Samples

[TimingPoints]
530,306.122448979592,4,2,17,60,1,0
1754,303.79746835443,4,2,17,60,1,0
3880,340.909090909091,4,2,17,60,1,0
4050,306.122448979592,4,2,17,64,1,0
4203,306.122448979592,4,2,17,64,1,0
4891,-100,4,2,18,64,0,0
5427,-100,4,2,17,64,0,0
6498,-100,4,2,19,70,0,0
6957,-100,4,2,17,70,0,0
18896,-100,4,2,17,60,0,0
28692,-100,4,2,17,70,0,0
38488,-100,4,2,20,55,0,0
43386,-100,4,2,17,65,0,0
44917,-100,4,2,18,65,0,0
45223,-100,4,2,17,65,0,0
47366,-100,4,2,18,65,0,0
47672,-100,4,2,17,65,0,0
47825,-100,4,2,18,65,0,0
48284,-100,4,2,17,55,0,0
50733,-100,4,2,17,62,0,0
53182,-95.2380952380952,4,2,19,80,0,1
53335,-95.2380952380952,4,2,21,80,0,1
53794,-95.2380952380952,4,2,17,80,0,1
53947,-95.2380952380952,4,2,21,80,0,1
54407,-95.2380952380952,4,2,17,80,0,1
54560,-95.2380952380952,4,2,21,80,0,1
55019,-95.2380952380952,4,2,17,80,0,1
55172,-95.2380952380952,4,2,21,80,0,1
55631,-95.2380952380952,4,2,17,80,0,1
55784,-95.2380952380952,4,2,22,80,0,1
57009,-95.2380952380952,4,2,21,80,0,1
57468,-95.2380952380952,4,2,17,80,0,1
57621,-95.2380952380952,4,2,22,80,0,1
57774,-95.2380952380952,4,2,17,80,0,1
57927,-95.2380952380952,4,2,22,80,0,1
58080,-95.2380952380952,4,2,21,80,0,1
58692,-95.2380952380952,4,2,17,80,0,1
58845,-95.2380952380952,4,2,22,80,0,1
58998,-95.2380952380952,4,2,17,80,0,1
59151,-95.2380952380952,4,2,22,80,0,1
59611,-95.2380952380952,4,2,17,80,0,1
60070,-95.2380952380952,4,2,21,80,0,1
60223,-95.2380952380952,4,2,17,80,0,1
60682,-95.2380952380952,4,2,22,80,0,1
61906,-95.2380952380952,4,2,21,80,0,1
62519,-95.2380952380952,4,2,17,80,0,1
62901,-95.2380952380952,4,2,17,80,0,0
62978,-95.2380952380952,4,2,19,80,0,1
63131,-95.2380952380952,4,2,21,80,0,1
63590,-95.2380952380952,4,2,17,80,0,1
63743,-95.2380952380952,4,2,21,80,0,1
64203,-95.2380952380952,4,2,17,80,0,1
64356,-95.2380952380952,4,2,21,80,0,1
64815,-95.2380952380952,4,2,17,80,0,1
64968,-95.2380952380952,4,2,21,80,0,1
65427,-95.2380952380952,4,2,17,80,0,1
65580,-95.2380952380952,4,2,22,80,0,1
66498,-95.2380952380952,4,2,17,80,0,1
66958,-95.2380952380952,4,2,21,80,0,1
67264,-95.2380952380952,4,2,17,80,0,1
67799,-95.2380952380952,4,2,17,80,0,0
67876,-95.2380952380952,4,2,21,80,0,1
68029,-95.2380952380952,4,2,17,80,0,1
68182,-95.2380952380952,4,2,22,80,0,1
68947,-95.2380952380952,4,2,17,80,0,1
69100,-95.2380952380952,4,2,21,80,0,1
69713,-95.2380952380952,4,2,22,80,0,1
69866,-95.2380952380952,4,2,17,80,0,1
70019,-95.2380952380952,4,2,22,80,0,1
70172,-95.2380952380952,4,2,17,80,0,1
70325,-95.2380952380952,4,2,21,80,0,1
70478,-95.2380952380952,4,2,17,80,0,1
70631,-95.2380952380952,4,2,22,80,0,1
70784,-95.2380952380952,4,2,17,80,0,1
70937,-95.2380952380952,4,2,22,80,0,1
71396,-95.2380952380952,4,2,17,80,0,1
71549,-95.2380952380952,4,2,21,80,0,1
71856,-95.2380952380952,4,2,22,80,0,1
72774,-95.2380952380952,4,2,17,82,0,1
73080,-95.2380952380952,4,2,21,82,0,1
75529,-95.2380952380952,4,2,22,82,0,1
76294,-95.2380952380952,4,2,20,80,0,0
77519,-95.2380952380952,4,2,19,70,0,0
77978,292.682926829268,4,2,19,70,1,0
78563,315.789473684211,4,2,19,70,1,0
78878,315.789473684211,4,2,19,70,1,0
79193,306.122448979592,4,2,19,70,1,0
80111,307.692307692308,4,2,19,70,1,0
83495,300,4,2,19,70,1,0
83795,305.343511450382,4,2,19,70,1,0
86237,307.692307692308,4,2,19,70,1,0
87467,306.122448979592,4,2,17,62,1,0
88079,303.030303030303,4,2,17,62,1,0
88685,312.5,4,2,17,62,1,0
89310,303.79746835443,4,2,17,62,1,0
89917,306.122448979592,4,2,17,62,1,0
95121,304.182509505703,4,2,17,62,1,0
96033,303.030303030303,4,2,17,62,1,0
96487,315.789473684211,4,2,17,62,1,0
96802,308.483290488432,4,2,17,62,1,0
96956,308.483290488432,4,2,17,62,1,0
97264,306.122448979592,4,2,17,65,1,0
106600,-100,4,2,18,65,0,0
107059,-100,4,2,20,55,0,0
108284,304.568527918782,4,2,20,55,1,0
109502,306.90537084399,4,2,20,55,1,0
111036,294.117647058824,4,2,20,55,1,0
111330,314.13612565445,4,2,20,55,1,0
111958,306.122448979592,4,2,17,65,1,0
113488,-100,4,2,18,65,0,0
113794,-100,4,2,17,65,0,0
115937,-100,4,2,18,65,0,0
116243,-100,4,2,17,65,0,0
116396,-100,4,2,18,65,0,0
116855,-100,4,2,17,50,0,0
119304,-100,4,2,17,60,0,0
121141,294.117647058824,4,2,17,70,1,0
121435,319.148936170213,4,2,17,70,1,0
121754,306.122448979592,4,2,19,80,1,1
121754,-95.2380952380952,4,2,19,80,0,1
121907,-95.2380952380952,4,2,21,80,0,1
122366,-95.2380952380952,4,2,17,80,0,1
122519,-95.2380952380952,4,2,21,80,0,1
122978,-95.2380952380952,4,2,17,80,0,1
123131,-95.2380952380952,4,2,21,80,0,1
123590,-95.2380952380952,4,2,17,80,0,1
123743,-95.2380952380952,4,2,21,80,0,1
124202,-95.2380952380952,4,2,17,80,0,1
124356,-95.2380952380952,4,2,22,80,0,1
125580,-95.2380952380952,4,2,21,80,0,1
126039,-95.2380952380952,4,2,17,80,0,1
126192,-95.2380952380952,4,2,22,80,0,1
126345,-95.2380952380952,4,2,17,80,0,1
126498,-95.2380952380952,4,2,22,80,0,1
126651,-95.2380952380952,4,2,21,80,0,1
127264,-95.2380952380952,4,2,17,80,0,1
127417,-95.2380952380952,4,2,22,80,0,1
127570,-95.2380952380952,4,2,17,80,0,1
127723,-95.2380952380952,4,2,22,80,0,1
128182,-95.2380952380952,4,2,17,80,0,1
128641,-95.2380952380952,4,2,21,80,0,1
128794,-95.2380952380952,4,2,17,80,0,1
129254,-95.2380952380952,4,2,22,80,0,1
130478,-95.2380952380952,4,2,21,80,0,1
131090,-95.2380952380952,4,2,17,80,0,1
131473,-95.2380952380952,4,2,17,80,0,0
131549,-95.2380952380952,4,2,19,80,0,1
131702,-95.2380952380952,4,2,21,80,0,1
132162,-95.2380952380952,4,2,17,80,0,1
132315,-95.2380952380952,4,2,21,80,0,1
132774,-95.2380952380952,4,2,17,80,0,1
132927,-95.2380952380952,4,2,21,80,0,1
133386,-95.2380952380952,4,2,17,80,0,1
133539,-95.2380952380952,4,2,21,80,0,1
133998,-95.2380952380952,4,2,17,80,0,1
134151,-95.2380952380952,4,2,22,80,0,1
135070,-95.2380952380952,4,2,17,80,0,1
135529,-95.2380952380952,4,2,21,80,0,1
135835,-95.2380952380952,4,2,17,80,0,1
136371,-95.2380952380952,4,2,17,80,0,0
136447,-95.2380952380952,4,2,21,80,0,1
136600,-95.2380952380952,4,2,17,80,0,1
136754,-95.2380952380952,4,2,22,80,0,1
137519,-95.2380952380952,4,2,17,80,0,1
137672,-95.2380952380952,4,2,21,80,0,1
138284,300,4,2,22,80,1,1
138284,-95.2380952380952,4,2,22,80,0,1
138434,-95.2380952380952,4,2,17,80,0,1
138584,-95.2380952380952,4,2,22,80,0,1
138734,-95.2380952380952,4,2,17,80,0,1
138884,306.122448979592,4,2,21,80,1,1
139037,-100,4,2,17,80,0,1
139190,-95.2380952380952,4,2,22,80,0,1
139343,-95.2380952380952,4,2,17,80,0,1
139496,-95.2380952380952,4,2,22,80,0,1
139955,-95.2380952380952,4,2,17,80,0,1
140108,-95.2380952380952,4,2,21,80,0,1
140414,-95.2380952380952,4,2,22,80,0,1
140720,313.31592689295,4,2,22,80,1,1
141346,306.122448979592,4,2,17,82,1,1
141346,-95.2380952380952,4,2,17,82,0,1
141652,-95.2380952380952,4,2,21,82,0,1
144101,-95.2380952380952,4,2,22,82,0,1
144866,-95.2380952380952,4,2,20,80,0,0
146090,-100,4,2,19,70,0,0
146856,-100,4,2,17,70,0,0
155580,-100,4,2,18,70,0,0
155886,-100,4,2,17,70,0,0
157570,-100,4,2,18,80,0,0
157876,-100,4,2,17,80,0,0
159866,-100,4,2,18,80,0,0
160325,-100,4,2,17,80,0,0
162774,-100,4,2,18,80,0,0
163080,-100,4,2,17,80,0,0
163692,309.278350515464,4,2,17,80,1,0
164310,295.566502463054,4,2,17,80,1,0
164605,295.566502463054,4,2,17,80,1,0
164900,333.333333333333,4,2,17,80,1,0
165233,279.06976744186,4,2,17,80,1,0
165512,324.324324324324,4,2,17,80,1,0
165836,306.122448979592,4,2,20,60,1,0
170733,-100,4,2,17,65,0,0
172264,-100,4,2,18,65,0,0
172570,-100,4,2,17,65,0,0
174713,-100,4,2,18,65,0,0
175019,-100,4,2,17,65,0,0
175631,-100,4,2,17,50,0,0
178080,-100,4,2,17,60,0,0
179917,309.278350515464,4,2,17,60,1,0
180226,312.5,4,2,17,60,1,0
180538,306.122448979592,4,2,17,60,1,0
186507,304.375396322131,4,2,17,60,1,0
186659,304.375396322131,4,2,17,60,1,0
187876,375,4,2,17,60,1,0
188063,306.90537084399,4,2,17,60,1,0
188676,289.156626506024,4,2,17,60,1,0
189254,306.122448979592,4,2,17,70,1,0
189407,306.122448979592,4,2,17,70,1,0
190325,306.122448979592,4,2,19,82,1,1
190325,-95.2380952380952,4,2,19,82,0,1
190478,-95.2380952380952,4,2,21,82,0,1
190937,-95.2380952380952,4,2,17,82,0,1
191090,-95.2380952380952,4,2,21,82,0,1
191549,-95.2380952380952,4,2,17,82,0,1
191702,-95.2380952380952,4,2,21,82,0,1
192161,-95.2380952380952,4,2,17,82,0,1
192314,-95.2380952380952,4,2,21,82,0,1
192773,-95.2380952380952,4,2,17,82,0,1
192927,-95.2380952380952,4,2,22,82,0,1
193845,-95.2380952380952,4,2,17,82,0,1
194304,-95.2380952380952,4,2,21,82,0,1
194610,-95.2380952380952,4,2,18,82,0,1
194763,-95.2380952380952,4,2,17,82,0,1
195222,-95.2380952380952,4,2,21,82,0,1
195375,-95.2380952380952,4,2,17,82,0,1
195529,-95.2380952380952,4,2,22,82,0,1
196294,-95.2380952380952,4,2,17,82,0,1
196447,-95.2380952380952,4,2,21,82,0,1
197059,-95.2380952380952,4,2,22,82,0,1
197212,-95.2380952380952,4,2,17,82,0,1
197365,-95.2380952380952,4,2,22,82,0,1
197518,-95.2380952380952,4,2,17,82,0,1
197671,-95.2380952380952,4,2,21,82,0,1
197824,-95.2380952380952,4,2,17,82,0,1
197978,-95.2380952380952,4,2,22,82,0,1
198131,-95.2380952380952,4,2,17,82,0,1
198284,-95.2380952380952,4,2,21,82,0,1
198590,-95.2380952380952,4,2,22,82,0,1
198743,-95.2380952380952,4,2,17,82,0,1
198896,-95.2380952380952,4,2,21,82,0,1
200044,-95.2380952380952,4,2,21,82,0,0
200120,-95.2380952380952,4,2,19,84,0,1
200273,-95.2380952380952,4,2,21,84,0,1
200733,-95.2380952380952,4,2,17,84,0,1
200886,-95.2380952380952,4,2,21,84,0,1
201345,-95.2380952380952,4,2,17,84,0,1
201498,-95.2380952380952,4,2,21,84,0,1
201957,-95.2380952380952,4,2,17,84,0,1
202110,-95.2380952380952,4,2,21,84,0,1
202569,-95.2380952380952,4,2,17,84,0,1
202722,-95.2380952380952,4,2,22,84,0,1
203947,-95.2380952380952,4,2,21,84,0,1
204406,-95.2380952380952,4,2,17,84,0,1
204559,-95.2380952380952,4,2,22,84,0,1
204712,-95.2380952380952,4,2,17,84,0,1
204865,-95.2380952380952,4,2,22,84,0,1
205018,-95.2380952380952,4,2,17,84,0,1
205171,-95.2380952380952,4,2,21,84,0,1
205631,-95.2380952380952,4,2,17,84,0,1
205784,-95.2380952380952,4,2,22,84,0,1
205937,-95.2380952380952,4,2,17,84,0,1
206090,-95.2380952380952,4,2,22,84,0,1
206549,-95.2380952380952,4,2,17,84,0,1
207008,-95.2380952380952,4,2,21,84,0,1
207161,-95.2380952380952,4,2,17,84,0,1
207620,-95.2380952380952,4,2,22,84,0,1
209457,-95.2380952380952,4,2,18,84,0,1
209840,-95.2380952380952,4,2,18,84,0,0
209916,311.688311688312,4,2,19,82,1,1
209916,-95.2380952380952,4,2,19,82,0,1
210071,-95.2380952380952,4,2,21,82,0,1
210539,305.732484076433,4,2,17,82,1,1
210539,-95.2380952380952,4,2,17,82,0,1
211150,303.030303030303,4,2,17,82,1,1
211150,-95.2380952380952,4,2,17,82,0,1
211301,-95.2380952380952,4,2,21,82,0,1
211453,-95.2380952380952,4,2,17,82,0,1
211756,-95.2380952380952,4,2,17,82,0,1
211907,-95.2380952380952,4,2,21,82,0,1
212059,-95.2380952380952,4,2,17,82,0,1
212362,315.789473684211,4,2,17,82,1,1
212519,-95.2380952380952,4,2,22,82,0,1
212677,306.122448979592,4,2,22,82,1,1
213442,-95.2380952380952,4,2,17,82,0,1
213595,306.122448979592,4,2,17,82,1,1
213901,-100,4,2,21,82,0,1
214207,304.182509505703,4,2,17,82,1,1
214207,-95.2380952380952,4,2,17,82,0,1
214739,-95.2380952380952,4,2,17,82,0,0
214815,306.122448979592,4,2,21,82,1,1
214815,-95.2380952380952,4,2,21,82,0,1
214968,-95.2380952380952,4,2,17,82,0,1
215121,-95.2380952380952,4,2,22,82,0,1
215886,-95.2380952380952,4,2,17,82,0,1
216039,-95.2380952380952,4,2,21,82,0,1
216651,-95.2380952380952,4,2,22,82,0,1
216804,-95.2380952380952,4,2,17,82,0,1
216957,-95.2380952380952,4,2,22,82,0,1
217110,-95.2380952380952,4,2,17,82,0,1
217263,-95.2380952380952,4,2,21,82,0,1
217417,-95.2380952380952,4,2,17,82,0,1
217569,-95.2380952380952,4,2,22,82,0,1
218335,-95.2380952380952,4,2,17,82,0,1
218488,-95.2380952380952,4,2,21,82,0,1
218794,-95.2380952380952,4,2,22,82,0,1
219712,-95.2380952380952,4,2,17,90,0,1
220018,-95.2380952380952,4,2,21,90,0,1
222468,-95.2380952380952,4,2,22,90,0,1
223233,-95.2380952380952,4,2,20,80,0,0
224457,-100,4,2,19,72,0,0
224916,-100,4,2,17,72,0,0
228437,-100,4,2,18,72,0,0
229202,-100,4,2,17,72,0,0
234406,308.08729139923,4,2,17,60,1,0

[Colours]
Combo1 : 173,5,27
Combo2 : 50,152,96
Combo3 : 122,101,224
Combo4 : 226,158,84
SliderBorder : 206,43,72

[HitObjects]
52,40,530,5,6,1:2:0:0:
52,40,4050,6,0,B|113:27|164:62|164:62|195:42|200:8,1,150,6|8,1:2|2:0,2:0:0:0:
286,56,4815,2,0,P|342:92|402:94,1,100,8|4,2:0|2:3,2:0:0:0:
473,110,5427,2,0,L|460:175,1,50,8|8,2:0|2:0,2:0:0:0:
417,179,5733,1,8,2:0:0:0:
442,275,6039,2,0,L|475:343,2,50,8|8|8,2:0|2:0|2:0,2:0:0:0:
392,283,6498,6,0,P|306:298|239:346,1,150,6|10,1:2|2:0,2:0:0:0:
156,354,7264,2,0,P|95:342|73:299,1,100,2|8,1:2|2:0,2:0:0:0:
99,216,7876,1,0,1:0:0:0:
26,147,8182,1,8,2:0:0:0:
96,74,8488,2,0,L|169:94,1,50,0|2,1:0|1:2,2:0:0:0:
192,101,8794,1,10,2:0:0:0:
235,120,8947,6,0,P|304:100|395:83,1,150,6|10,1:2|2:0,2:0:0:0:
466,137,9713,1,2,1:2:0:0:
407,217,10019,1,10,2:0:0:0:
435,312,10325,2,0,P|361:339|331:351,1,100,2|10,1:2|2:0,2:0:0:0:
250,303,10937,2,0,L|200:328,2,50,10|2|10,2:0|1:2|2:0,2:0:0:0:
276,260,11396,6,0,L|299:73,1,150,6|10,1:2|2:0,2:0:0:0:
231,33,12162,1,2,1:2:0:0:
156,99,12468,1,8,2:0:0:0:
67,52,12774,2,0,P|40:99|50:171,1,100,2|8,1:2|2:0,2:0:0:0:
87,231,13386,2,0,L|65:286,2,50,0|2|8,1:0|1:2|2:0,2:0:0:0:
133,212,13845,6,0,P|200:203|277:253,1,150,6|10,1:2|2:0,2:0:0:0:
348,303,14611,1,0,1:0:0:0:
438,260,14917,2,0,L|448:192,1,50,0|2,1:0|1:2,2:0:0:0:
453,161,15223,1,8,2:0:0:0:
377,95,15529,1,8,2:0:0:0:
285,135,15835,2,0,L|225:108,2,50,10|2|2,2:0|1:2|1:2,2:0:0:0:
310,178,16294,5,8,2:0:0:0:
294,173,18896,5,4,1:2:0:0:
198,144,19203,1,10,2:0:0:0:
130,218,19509,2,0,P|141:267|161:344,1,100,2|10,2:0|2:0,2:0:0:0:
188,350,19968,1,2,2:0:0:0:
188,350,20121,2,0,L|241:341,1,50,2|2,1:2|1:2,2:0:0:0:
286,331,20427,1,8,2:0:0:0:
381,362,20733,2,0,P|392:298|395:245,1,100,2|10,2:0|2:0,2:0:0:0:
444,179,21345,5,0,1:0:0:0:
355,133,21651,1,10,2:0:0:0:
272,189,21958,2,0,P|227:215|151:191,1,100,2|10,2:0|2:0,2:0:0:0:
108,143,22570,2,0,L|49:164,2,50,2|2|8,2:0|1:2|2:0,2:0:0:0:
150,52,23182,2,0,L|190:80,1,50,0|0,1:0|1:0,2:0:0:0:
234,105,23488,2,0,L|307:80,1,50,10|0,2:0|1:0,2:0:0:0:
318,122,23794,5,0,1:0:0:0:
417,117,24100,1,10,2:0:0:0:
476,195,24407,2,0,P|459:274|444:321,1,100,2|10,2:0|2:0,2:0:0:0:
435,339,24866,1,2,2:0:0:0:
435,339,25019,2,0,L|371:321,1,50,2|2,1:2|1:2,2:0:0:0:
338,316,25325,1,8,2:0:0:0:
245,355,25631,2,0,B|174:373|174:373|137:350,1,100,2|10,2:0|2:0,2:0:0:0:
68,303,26243,5,0,1:0:0:0:
46,205,26549,1,10,2:0:0:0:
121,139,26856,2,0,L|142:236,1,100,2|10,2:0|2:0,2:0:0:0:
175,274,27315,1,2,2:0:0:0:
175,274,27468,2,0,P|211:258|234:238,1,50,2|2,2:0|1:2,2:0:0:0:
254,216,27774,1,8,2:0:0:0:
332,154,28080,2,0,P|368:170|391:190,1,50,8|10,2:0|2:0,2:0:0:0:
417,204,28386,2,0,P|453:188|476:168,1,50,10|8,2:0|2:0,2:0:0:0:
470,132,28692,6,0,L|480:23,1,100,4|10,1:2|2:0,2:0:0:0:
381,8,29305,2,0,P|333:38|263:67,1,100,2|10,1:2|2:0,2:0:0:0:
255,86,29764,2,0,P|203:62|146:58,1,100,2|2,2:0|1:2,2:0:0:0:
116,79,30223,1,10,2:0:0:0:
79,172,30529,2,0,L|91:226,1,50,2|2,1:2|1:2,2:0:0:0:
103,268,30835,1,10,2:0:0:0:
178,330,31141,6,0,P|246:307|316:303,1,100,0|10,1:0|2:0,2:0:0:0:
321,317,31600,1,2,2:0:0:0:
368,331,31754,2,0,P|404:297|414:249,1,100,2|10,1:2|2:0,2:0:0:0:
403,200,32213,2,0,L|382:72,1,100,2|2,2:0|1:2,2:0:0:0:
372,53,32672,1,10,2:0:0:0:
280,93,32978,2,0,L|231:75,1,50,2|10,1:2|2:0,2:0:0:0:
184,61,33284,2,0,L|125:83,1,50,2|8,1:2|2:0,2:0:0:0:
101,113,33590,5,4,1:2:0:0:
49,198,33896,1,10,2:0:0:0:
106,279,34203,2,0,L|245:315,1,100,2|10,1:2|2:0,2:0:0:0:
251,314,34662,2,0,B|279:243|279:243|269:221,1,100,2|2,2:0|1:2,2:0:0:0:
240,180,35121,1,10,2:0:0:0:
291,94,35427,2,0,L|241:67,1,50,2|2,1:2|1:2,2:0:0:0:
212,32,35733,1,10,2:0:0:0:
309,11,36039,6,0,L|432:45,1,100,0|10,1:0|2:0,2:0:0:0:
466,116,36651,2,0,P|446:170|439:246,1,100,2|0,1:2|1:0,2:0:0:0:
453,259,37111,1,6,2:0:0:0:
453,259,38488,5,6,1:2:0:0:
15,175,43386,6,0,L|43:302,1,100,6|14,1:2|2:0,2:0:0:0:
53,319,43845,1,2,2:0:0:0:
146,284,44151,1,2,1:2:0:0:
224,346,44458,2,0,P|286:314|298:250,1,100,2|0,1:2|1:0,2:0:0:0:
299,243,44917,1,8,2:0:0:0:
254,153,45223,2,0,P|275:124|291:108,1,50,10|2,2:0|1:2,2:0:0:0:
323,81,45529,1,10,2:0:0:0:
414,128,45835,6,0,P|394:228|390:272,1,100,6|14,1:2|2:0,2:0:0:0:
429,260,46294,1,2,2:0:0:0:
410,358,46600,1,2,1:2:0:0:
314,368,46907,2,0,P|255:342|201:340,1,100,2|0,1:2|1:0,2:0:0:0:
173,356,47366,1,10,2:0:0:0:
85,307,47672,2,0,L|70:227,1,50,10|10,2:0|2:0,2:0:0:0:
53,213,47978,1,4,2:3:0:0:
106,128,48284,1,4,1:2:0:0:
256,192,48437,12,10,50733,2:0:0:0:
496,131,52570,6,0,L|520:198,2,50,2|2|2,2:0|2:0|2:0,2:0:0:0:
432,46,53182,6,0,P|353:33|305:66,1,105,6|8,1:2|2:0,2:0:0:0:
268,124,53794,2,0,L|302:246,1,105,2|8,1:2|2:0,2:0:0:0:
261,324,54407,2,0,L|117:306,1,105,2|8,1:2|2:0,2:0:0:0:
66,363,55019,2,0,B|32:325|32:325|42:224,1,105,2|8,1:2|2:0,2:0:0:0:
17,167,55631,5,2,1:2:0:0:
69,165,55784,2,0,P|97:175|130:192,1,52.5,2|8,2:0|2:0,2:0:0:0:
156,220,56090,1,2,2:0:0:0:
256,187,56396,1,2,2:0:0:0:
334,257,56703,2,0,P|380:213|390:162,1,105,2|2,1:2|2:0,2:0:0:0:
391,122,57162,1,8,2:0:0:0:
306,60,57468,2,0,L|242:85,1,52.5,2|2,1:2|2:0,2:0:0:0:
212,106,57774,2,0,L|149:88,1,52.5,10|2,2:0|1:2,2:0:0:0:
110,105,58080,6,0,L|141:254,1,105,4|8,1:2|2:0,2:0:0:0:
164,307,58692,2,0,L|228:282,1,52.5,2|2,1:2|2:0,2:0:0:0:
258,261,58998,2,0,L|321:279,1,52.5,10|2,2:0|2:0,2:0:0:0:
347,309,59305,1,0,1:0:0:0:
451,307,59611,1,10,2:0:0:0:
482,206,59917,2,0,L|467:87,1,105,2|10,1:2|2:0,2:0:0:0:
397,29,60529,5,2,1:2:0:0:
355,61,60682,2,0,L|289:49,1,52.5,2|8,2:0|2:0,2:0:0:0:
257,26,60988,1,2,2:0:0:0:
164,72,61294,1,2,2:0:0:0:
60,70,61600,2,0,L|83:172,1,105,2|2,1:2|1:2,2:0:0:0:
27,261,62213,1,2,1:2:0:0:
106,328,62519,2,0,L|95:394,2,52.5,2|10|2,1:2|2:0|1:2,2:0:0:0:
156,314,62978,6,0,P|232:303|299:340,1,105,6|8,1:2|2:0,2:0:0:0:
360,333,63590,2,0,B|391:289|391:289|358:208,1,105,2|8,1:2|2:0,2:0:0:0:
305,159,64203,2,0,L|193:149,1,105,2|8,1:2|2:0,2:0:0:0:
100,181,64815,2,0,P|66:122|107:67,1,105,2|8,1:2|2:0,2:0:0:0:
158,20,65427,5,2,1:2:0:0:
199,52,65580,2,0,L|273:32,1,52.5,2|8,2:0|2:0,2:0:0:0:
300,23,65886,2,0,L|361:55,1,52.5,2|0,2:0|1:0,2:0:0:0:
391,74,66192,2,0,L|455:49,1,52.5,2|8,2:0|2:0,2:0:0:0:
492,56,66498,2,0,L|473:207,1,105,6|0,1:2|1:0,2:0:0:0:
498,209,66958,1,10,2:0:0:0:
445,299,67264,2,0,L|382:283,1,52.5,10|10,2:0|2:0,2:0:0:0:
348,312,67570,1,10,2:0:0:0:
306,343,67723,6,0,L|163:316,1,105,10|2,2:0|2:0,2:0:0:0:
153,342,68182,1,10,2:0:0:0:
82,264,68488,2,0,L|63:140,1,105,10|10,1:2|2:0,2:0:0:0:
86,111,68947,2,0,P|142:90|216:135,1,105,2|0,1:2|1:0,2:0:0:0:
227,130,69407,1,10,2:0:0:0:
298,52,69713,2,0,L|368:87,1,52.5,2|2,2:0|1:2,2:0:0:0:
391,100,70019,1,10,2:0:0:0:
436,126,70172,6,0,L|425:257,1,105,2|2,1:2|2:0,2:0:0:0:
404,278,70631,2,0,L|429:351,1,52.5,10|2,2:0|2:0,2:0:0:0:
400,375,70937,1,10,1:2:0:0:
296,357,71243,1,10,2:0:0:0:
257,322,71396,2,0,L|138:348,1,105,2|0,1:2|1:0,2:0:0:0:
103,356,71856,1,10,2:0:0:0:
37,274,72162,1,10,2:0:0:0:
84,180,72468,1,10,2:0:0:0:
38,85,72774,6,0,P|107:26|156:47,1,105,6|10,1:2|2:0,2:0:0:0:
190,97,73386,2,0,L|258:80,1,52.5,10|0,2:0|1:0,2:0:0:0:
283,52,73692,1,10,2:0:0:0:
335,143,73998,2,0,L|323:259,1,105,10|10,2:0|2:0,2:0:0:0:
404,314,74611,2,0,L|466:295,1,52.5,10|0,2:0|1:0,2:0:0:0:
485,256,74917,2,0,L|468:152,1,105,10|10,2:0|2:0,2:0:0:0:
428,54,75529,5,10,2:0:0:0:
322,26,75835,2,0,P|275:46|196:57,1,105,10|10,2:0|2:0,2:0:0:0:
171,67,76294,1,6,1:2:0:0:
171,67,77519,5,6,1:2:0:0:
103,95,87467,5,4,1:2:0:0:
39,172,87773,1,2,1:2:0:0:
94,256,88079,2,0,B|161:239|161:239|207:273,1,100,2|2,1:2|1:2,2:0:0:0:
218,295,88533,1,2,2:0:0:0:
218,295,88685,2,0,P|269:281|328:270,1,100,2|0,1:2|1:0,2:0:0:0:
405,315,89310,2,0,P|431:258|416:193,1,100,0|2,1:0|1:2,2:0:0:0:
373,138,89917,6,0,L|396:16,1,100,0|2,1:0|1:2,2:0:0:0:
294,64,90529,1,2,1:2:0:0:
204,18,90835,2,0,L|144:40,1,50,2|2,1:2|2:0,2:0:0:0:
118,66,91141,2,0,L|148:195,1,100,2|0,1:2|1:0,2:0:0:0:
72,236,91753,2,0,P|106:271|124:318,1,100,0|2,1:0|1:2,2:0:0:0:
214,363,92365,5,4,1:2:0:0:
312,347,92672,1,2,1:2:0:0:
327,248,92978,2,0,L|296:133,1,100,2|2,1:2|1:2,2:0:0:0:
289,107,93437,1,2,2:0:0:0:
289,107,93590,2,0,P|329:68|392:67,1,100,2|8,1:2|2:0,2:0:0:0:
469,80,94202,2,0,B|488:120|488:120|457:184,1,100,0|2,1:0|1:2,2:0:0:0:
421,260,94814,5,0,1:0:0:0:
445,357,95121,1,2,1:2:0:0:
345,338,95425,2,0,P|297:326|248:320,1,100,2|10,1:2|2:0,2:0:0:0:
197,331,95881,1,10,2:0:0:0:
150,348,96033,2,0,P|125:353|100:354,1,50,2|2,1:2|1:2,2:0:0:0:
57,162,96802,2,0,L|19:108,2,50.0025,10|10|8,2:0|2:0|2:0,2:0:0:0:
96,192,97264,6,0,L|235:171,1,100,4|10,1:2|2:0,2:0:0:0:
227,82,97876,2,0,P|269:98|336:116,1,100,2|10,1:2|2:0,2:0:0:0:
362,142,98335,2,0,P|334:217|340:268,1,100,2|2,2:0|1:2,2:0:0:0:
365,274,98794,1,10,2:0:0:0:
299,349,99100,2,0,L|226:323,1,50,2|2,1:2|1:2,2:0:0:0:
209,305,99406,1,10,2:0:0:0:
117,345,99712,6,0,P|60:302|48:242,1,100,0|10,1:0|2:0,2:0:0:0:
48,227,100172,1,2,2:0:0:0:
53,177,100325,2,0,P|55:119|63:46,1,100,2|8,1:2|2:0,2:0:0:0:
96,43,100784,1,2,2:0:0:0:
173,91,101090,1,2,1:2:0:0:
166,138,101243,2,0,L|191:206,1,50,10|2,2:0|2:0,2:0:0:0:
209,228,101549,2,0,L|190:285,1,50,2|2,1:2|1:2,2:0:0:0:
173,320,101855,1,10,2:0:0:0:
267,352,102161,5,0,1:0:0:0:
341,285,102468,1,10,2:0:0:0:
443,274,102774,2,0,P|450:221|464:155,1,100,2|10,1:2|2:0,2:0:0:0:
469,126,103233,2,0,B|427:85|427:85|365:101,1,100,2|2,2:0|1:2,2:0:0:0:
344,119,103692,1,10,2:0:0:0:
264,58,103998,2,0,L|185:86,1,50,2|2,1:2|1:2,2:0:0:0:
175,102,104304,2,0,L|215:224,1,100,10|0,2:0|1:0,2:0:0:0:
265,277,104917,6,0,L|247:336,1,50,10|2,2:0|2:0,2:0:0:0:
221,365,105223,2,0,L|97:344,1,100,2|10,1:2|2:0,2:0:0:0:
74,362,105682,2,0,P|58:306|49:226,1,100,6|0,1:2|1:0,2:0:0:0:
60,215,106141,1,10,2:0:0:0:
136,150,106447,2,0,P|159:159|184:171,1,50,10|8,2:0|2:0,2:0:0:0:
224,195,106753,2,0,P|247:186|272:174,1,50,6|8,2:3|2:0,2:0:0:0:
319,180,107059,5,6,1:2:0:0:
406,45,111958,6,0,B|374:99|374:99|411:166,1,100,6|14,1:2|2:0,2:0:0:0:
439,146,112417,1,2,2:0:0:0:
395,235,112723,1,2,1:2:0:0:
407,334,113029,2,0,P|341:317|280:316,1,100,2|0,1:2|1:0,2:0:0:0:
260,323,113488,1,8,2:0:0:0:
193,255,113794,2,0,L|168:172,1,50,10|2,2:0|1:2,2:0:0:0:
150,165,114100,1,10,2:0:0:0:
215,89,114406,6,0,L|355:111,1,100,6|14,1:2|2:0,2:0:0:0:
342,145,114866,1,2,1:2:0:0:
361,243,115172,1,2,1:2:0:0:
310,329,115478,2,0,P|365:351|417:362,1,100,2|0,1:2|1:0,2:0:0:0:
453,349,115937,2,0,L|477:287,1,50,10|4,2:0|2:3,2:0:0:0:
470,252,116243,2,0,L|443:122,1,100,10|4,2:0|2:3,2:0:0:0:
440,110,116702,1,2,1:2:0:0:
440,110,116855,1,4,1:2:0:0:
256,192,117009,12,10,119304,2:0:0:0:
16,253,121141,6,0,L|-8:186,2,50.08,2|2|2,2:0|2:0|2:0,2:0:0:0:
80,338,121754,6,0,P|159:351|207:318,1,105,6|8,1:2|2:0,2:0:0:0:
241,257,122366,2,0,L|223:124,1,105,2|8,1:2|2:0,2:0:0:0:
265,55,122978,2,0,P|322:29|390:61,1,105,2|8,1:2|2:0,2:0:0:0:
447,97,123590,2,0,L|461:201,1,105,2|8,1:2|2:0,2:0:0:0:
497,299,124202,5,2,1:2:0:0:
463,339,124356,2,0,P|435:329|402:312,1,52.5,2|8,2:0|2:0,2:0:0:0:
376,284,124662,1,2,2:0:0:0:
279,243,124968,1,2,2:0:0:0:
227,332,125274,2,0,B|183:365|183:365|123:345,1,105,2|2,1:2|2:0,2:0:0:0:
85,332,125733,1,8,2:0:0:0:
35,239,126039,2,0,L|60:175,1,52.5,2|2,1:2|2:0,2:0:0:0:
81,145,126345,2,0,L|63:82,1,52.5,10|2,2:0|1:2,2:0:0:0:
80,43,126651,6,0,L|229:74,1,105,4|8,1:2|2:0,2:0:0:0:
277,109,127264,2,0,L|302:173,1,52.5,2|2,1:2|2:0,2:0:0:0:
323,203,127570,2,0,L|305:266,1,52.5,10|2,2:0|2:0,2:0:0:0:
335,298,127876,1,0,1:0:0:0:
439,307,128182,1,10,2:0:0:0:
482,210,128488,2,0,L|459:63,1,105,2|10,1:2|2:0,2:0:0:0:
391,32,129100,5,2,1:2:0:0:
349,64,129254,2,0,L|283:52,1,52.5,2|8,2:0|2:0,2:0:0:0:
251,29,129560,1,2,2:0:0:0:
155,70,129866,1,2,2:0:0:0:
106,157,130172,2,0,L|129:259,1,105,2|2,1:2|1:2,2:0:0:0:
214,321,130784,1,2,1:2:0:0:
294,253,131090,2,0,L|283:187,2,52.5,2|10|2,1:2|2:0|1:2,2:0:0:0:
339,279,131549,6,0,P|415:290|482:253,1,105,6|8,1:2|2:0,2:0:0:0:
487,188,132162,2,0,L|457:43,1,105,2|8,1:2|2:0,2:0:0:0:
378,24,132774,2,0,P|327:15|288:47,1,105,2|8,1:2|2:0,2:0:0:0:
251,146,133386,2,0,P|252:198|260:250,1,105,2|8,1:2|2:0,2:0:0:0:
215,345,133998,5,2,1:2:0:0:
174,313,134151,2,0,L|100:333,1,52.5,2|8,2:0|2:0,2:0:0:0:
89,366,134458,2,0,L|28:334,1,52.5,2|0,2:0|1:0,2:0:0:0:
13,297,134764,2,0,L|38:233,1,52.5,2|8,2:0|2:0,2:0:0:0:
56,201,135070,2,0,L|37:50,1,105,6|0,1:2|1:0,2:0:0:0:
62,48,135529,1,10,2:0:0:0:
149,106,135835,2,0,L|212:122,1,52.5,2|10,1:2|2:0,2:0:0:0:
246,93,136141,1,10,2:0:0:0:
288,62,136294,6,0,L|431:89,1,105,10|2,2:0|2:0,2:0:0:0:
441,63,136754,1,10,2:0:0:0:
450,167,137060,2,0,L|469:291,1,105,10|10,1:2|2:0,2:0:0:0:
444,318,137519,2,0,P|388:297|314:342,1,105,2|0,1:2|1:0,2:0:0:0:
298,329,137978,1,10,2:0:0:0:
203,283,138284,2,0,L|133:318,1,52.5,2|2,2:0|1:2,2:0:0:0:
109,329,138584,1,10,2:0:0:0:
66,297,138734,6,0,L|77:166,1,106.071,2|2,1:2|2:0,2:0:0:0:
96,144,139190,2,0,L|71:71,1,52.5,10|2,2:0|2:0,2:0:0:0:
91,43,139496,1,10,1:2:0:0:
185,79,139802,1,10,2:0:0:0:
235,93,139955,2,0,P|297:58|373:70,1,105,2|0,1:2|1:0,2:0:0:0:
376,80,140414,1,10,2:0:0:0:
440,153,140720,1,2,2:0:0:0:
387,238,141033,1,10,2:0:0:0:
452,323,141346,6,0,P|383:382|334:361,1,105,6|10,1:2|2:0,2:0:0:0:
314,297,141958,2,0,L|252:318,1,52.5,10|0,2:0|1:0,2:0:0:0:
216,336,142264,1,10,2:0:0:0:
168,242,142570,2,0,L|180:126,1,105,10|10,2:0|2:0,2:0:0:0:
227,44,143182,2,0,L|284:83,1,52.5,10|0,2:0|1:0,2:0:0:0:
309,109,143488,2,0,P|359:104|392:64,1,105,10|10,2:0|2:0,2:0:0:0:
494,91,144101,5,10,2:0:0:0:
451,190,144407,2,0,P|431:237|420:316,1,105,10|10,2:0|2:0,2:0:0:0:
425,342,144866,1,6,1:2:0:0:
425,342,146090,6,0,B|365:343|319:363|319:363|347:326|352:294,1,150,6|2,1:2|1:2,2:0:0:0:
283,247,146856,2,0,P|222:259|200:302,1,100,10|0,2:0|2:0,2:0:0:0:
122,347,147468,1,0,1:0:0:0:
54,272,147774,1,0,1:0:0:0:
104,185,148080,2,0,L|85:99,1,50,8|2,2:0|1:2,2:0:0:0:
80,87,148386,1,10,2:0:0:0:
73,37,148539,6,0,P|142:57|233:74,1,150,6|2,1:2|1:2,2:0:0:0:
297,132,149305,1,10,2:0:0:0:
385,85,149611,1,2,1:2:0:0:
458,152,149917,2,0,P|460:226|419:256,1,100,2|2,2:0|2:0,2:0:0:0:
391,326,150529,2,0,L|397:381,2,50,10|2|10,2:0|1:2|2:0,2:0:0:0:
354,291,150988,6,0,B|289:250|289:250|190:269,1,150,6|2,1:2|1:2,2:0:0:0:
142,197,151754,1,10,2:0:0:0:
198,114,152060,1,0,1:0:0:0:
126,44,152366,2,0,P|76:45|34:71,1,100,2|0,2:0|2:0,2:0:0:0:
18,170,152978,2,0,L|40:232,1,50,8|2,2:0|1:2,2:0:0:0:
53,263,153284,1,8,2:0:0:0:
71,309,153437,6,0,L|204:345,1,100,6|2,1:2|2:0,2:0:0:0:
214,351,153897,1,2,1:2:0:0:
294,291,154203,1,8,2:0:0:0:
365,361,154509,2,0,L|433:370,1,50,0|2,1:0|1:2,2:0:0:0:
462,353,154815,2,0,L|481:221,1,100,0|8,2:0|2:0,2:0:0:0:
423,169,155427,2,0,L|355:195,2,50,10|10|6,2:0|2:0|2:3,2:0:0:0:
456,131,155886,6,0,P|438:63|413:43,1,100,4|0,1:2|1:0,2:0:0:0:
369,31,156346,1,8,2:0:0:0:
292,88,156652,2,0,P|291:118|279:147,2,50,8|0|8,2:0|1:0|2:0,2:0:0:0:
252,57,157111,2,0,L|121:94,1,100,6|0,1:2|1:0,2:0:0:0:
109,103,157570,1,10,2:0:0:0:
161,188,157876,2,0,L|146:265,1,50,10|0,2:0|1:0,2:0:0:0:
142,286,158182,1,10,2:0:0:0:
132,335,158335,6,0,L|265:316,1,100,6|0,1:2|1:0,2:0:0:0:
273,293,158794,2,0,L|329:316,1,50,8|2,2:0|1:2,2:0:0:0:
363,335,159101,2,0,L|348:393,2,50,8|0|8,2:0|1:0|2:0,2:0:0:0:
410,322,159560,2,0,L|435:193,1,100,6|8,1:2|2:0,2:0:0:0:
411,177,160019,1,6,2:3:0:0:
440,81,160325,2,0,L|380:54,1,50,10|8,2:0|2:0,2:0:0:0:
349,37,160631,1,10,2:0:0:0:
305,60,160784,6,0,P|264:77|186:102,1,100,6|0,1:2|1:0,2:0:0:0:
167,119,161243,2,0,L|189:182,1,50,8|2,2:0|1:2,2:0:0:0:
215,204,161550,2,0,L|281:185,2,50,8|0|8,2:0|1:0|2:0,2:0:0:0:
185,244,162009,2,0,B|155:296|155:296|191:358,1,100,6|8,1:2|1:2,2:0:0:0:
206,369,162468,1,10,2:0:0:0:
288,312,162774,2,0,L|345:337,1,50,10|4,2:0|2:3,2:0:0:0:
380,351,163080,1,10,2:0:0:0:
424,371,163233,6,0,P|443:300|415:254,1,100,6|0,1:2|1:0,2:0:0:0:
408,234,163692,2,0,L|383:160,1,50,8|2,2:0|1:2,2:0:0:0:
413,141,164001,2,0,L|489:174,2,50.005,8|0|8,2:0|1:0|2:0,2:0:0:0:
383,100,164457,1,6,1:2:0:0:
383,100,165836,5,6,1:2:0:0:
385,157,170733,6,0,P|391:204|363:254,1,100,6|14,1:2|2:0,2:0:0:0:
333,286,171193,1,2,2:0:0:0:
236,259,171499,1,2,1:2:0:0:
169,335,171805,2,0,P|107:303|95:239,1,100,2|0,1:2|1:0,2:0:0:0:
82,229,172264,1,8,2:0:0:0:
163,171,172570,2,0,P|134:147|119:128,1,50,10|2,2:0|1:2,2:0:0:0:
94,98,172876,1,10,2:0:0:0:
183,49,173182,6,0,P|283:69|327:73,1,100,6|14,1:2|2:0,2:0:0:0:
315,33,173642,1,2,2:0:0:0:
413,47,173948,1,2,2:0:0:0:
468,127,174254,2,0,P|442:186|440:240,1,100,2|0,1:2|1:0,2:0:0:0:
459,266,174713,1,10,2:0:0:0:
392,340,175019,2,0,L|334:328,1,50,10|10,2:0|2:0,2:0:0:0:
297,310,175325,2,0,L|239:322,1,50,8|2,2:0|1:2,2:0:0:0:
200,335,175631,1,4,1:2:0:0:
256,192,175784,12,10,178080,2:0:0:0:
203,243,185435,5,4,1:2:0:0:
203,128,186507,5,6,1:2:0:0:
302,185,187876,5,6,1:2:0:0:
302,185,189254,5,6,1:2:0:0:
338,91,189560,1,6,1:2:0:0:
258,39,189866,1,6,1:2:0:0:
258,39,190019,2,0,L|211:57,1,50,10|2,2:0|2:0,2:0:0:0:
165,73,190325,6,0,L|151:182,1,105,6|8,1:2|2:0,2:0:0:0:
112,275,190937,2,0,B|156:306|156:306|237:273,1,105,2|8,1:2|2:0,2:0:0:0:
283,217,191549,2,0,P|334:211|398:262,1,105,2|8,1:2|2:0,2:0:0:0:
460,303,192161,2,0,P|494:244|453:189,1,105,2|8,1:2|2:0,2:0:0:0:
450,113,192773,5,2,1:2:0:0:
409,145,192927,2,0,L|335:125,1,52.5,2|8,2:0|2:0,2:0:0:0:
312,105,193233,2,0,L|251:137,1,52.5,2|0,2:0|1:0,2:0:0:0:
213,129,193539,2,0,L|188:193,1,52.5,2|8,2:0|2:0,2:0:0:0:
161,219,193845,2,0,L|184:348,1,105,6|0,1:2|1:0,2:0:0:0:
214,361,194304,1,10,2:0:0:0:
292,291,194610,2,0,L|361:312,1,52.5,10|10,2:0|2:0,2:0:0:0:
391,325,194916,1,10,2:0:0:0:
439,344,195069,6,0,P|462:285|443:215,1,105,10|2,2:0|2:0,2:0:0:0:
434,197,195529,1,10,2:0:0:0:
362,119,195835,2,0,L|238:138,1,105,10|10,1:2|2:0,2:0:0:0:
218,169,196294,2,0,P|236:222|252:298,1,105,2|0,1:2|1:0,2:0:0:0:
241,321,196753,1,10,2:0:0:0:
142,356,197059,2,0,L|72:321,1,52.5,2|2,2:0|1:2,2:0:0:0:
49,308,197365,1,10,2:0:0:0:
4,282,197518,6,0,L|15:151,1,105,2|2,1:2|2:0,2:0:0:0:
48,139,197978,2,0,L|116:165,1,52.5,10|2,2:0|2:0,2:0:0:0:
144,181,198284,1,10,1:2:0:0:
247,163,198590,1,10,2:0:0:0:
297,178,198743,2,0,P|307:237|323:297,1,105,2|0,1:2|1:0,2:0:0:0:
355,317,199202,1,14,2:0:0:0:
443,260,199508,2,0,L|454:195,1,52.5,10|8,2:0|2:0,2:0:0:0:
429,160,199814,2,0,L|408:104,1,52.5,10|8,2:0|2:0,2:0:0:0:
416,58,200120,6,0,L|268:37,1,105,6|8,1:2|2:0,2:0:0:0:
227,105,200733,2,0,L|111:142,1,105,2|8,1:2|2:0,2:0:0:0:
60,217,201345,2,0,L|101:363,1,105,2|8,1:2|2:0,2:0:0:0:
180,367,201957,2,0,P|222:336|273:328,1,105,2|8,1:2|2:0,2:0:0:0:
374,356,202569,5,2,1:2:0:0:
380,303,202722,2,0,P|370:275|353:242,1,52.5,2|8,2:0|2:0,2:0:0:0:
325,216,203029,1,2,2:0:0:0:
358,125,203335,2,0,L|377:64,1,52.5,2|8,2:0|2:0,2:0:0:0:
392,25,203641,2,0,P|333:37|279:60,1,105,2|2,1:2|2:0,2:0:0:0:
244,76,204100,1,8,2:0:0:0:
143,44,204406,2,0,L|99:79,1,52.5,2|2,1:2|2:0,2:0:0:0:
65,114,204712,2,0,L|91:177,1,52.5,10|2,2:0|1:2,2:0:0:0:
123,197,205018,6,0,P|106:244|100:341,1,105,6|8,1:2|2:0,2:0:0:0:
192,346,205631,2,0,L|255:322,1,52.5,2|2,1:2|2:0,2:0:0:0:
291,311,205937,2,0,L|359:338,1,52.5,10|2,2:0|2:0,2:0:0:0:
388,349,206243,1,0,1:2:0:0:
383,244,206549,1,10,2:0:0:0:
466,180,206855,2,0,P|467:120|439:65,1,105,2|10,1:2|2:0,2:0:0:0:
366,3,207467,5,2,1:2:0:0:
325,36,207620,2,0,L|262:18,1,52.5,2|8,2:0|2:0,2:0:0:0:
222,25,207927,1,2,2:0:0:0:
184,122,208233,1,2,2:0:0:0:
243,203,208539,2,0,P|223:257|206:313,1,105,2|2,1:2|1:2,2:0:0:0:
126,237,209151,1,2,1:2:0:0:
55,315,209457,2,0,L|69:375,2,52.5,2|10|6,1:2|2:0|2:3,2:0:0:0:
23,272,209916,6,0,L|40:146,1,105,6|0,1:2|1:0,2:0:0:0:
108,90,210539,2,0,L|233:139,1,105,14|0,2:0|2:0,2:0:0:0:
278,204,211150,2,0,P|342:171|416:139,1,105,2|0,1:2|1:2,2:0:0:0:
469,117,211756,2,0,P|498:179|492:242,1,105,14|0,2:0|2:0,2:0:0:0:
457,311,212362,5,2,1:2:0:0:
414,341,212519,2,0,L|297:326,1,103.7225,2|2,2:0|2:0,2:0:0:0:
212,341,213136,1,2,2:0:0:0:
168,251,213442,2,0,L|191:134,1,105,2|0,1:2|1:0,2:0:0:0:
220,109,213901,1,2,2:0:0:0:
154,28,214207,2,0,L|100:53,1,52.5,14|10,2:0|2:0,2:0:0:0:
57,70,214511,2,0,L|25:137,1,52.5,10|10,2:0|2:0,2:0:0:0:
8,162,214815,6,0,P|27:211|39:277,1,105,6|10,1:2|2:0,2:0:0:0:
121,324,215427,2,0,L|106:382,2,52.5,10|0|10,1:2|2:0|2:0,2:0:0:0:
169,302,215886,2,0,B|225:284|225:284|293:317,1,105,2|0,1:2|1:0,2:0:0:0:
306,337,216345,1,10,2:0:0:0:
406,306,216651,2,0,L|414:239,1,52.5,2|2,2:0|1:2,2:0:0:0:
395,204,216957,2,0,L|369:148,1,52.5,10|2,2:0|1:2,2:0:0:0:
333,121,217263,6,0,L|225:159,1,105,6|10,1:2|2:0,2:0:0:0:
193,252,217876,2,0,L|133:247,1,52.5,10|0,1:2|2:0,2:0:0:0:
102,211,218182,1,10,2:0:0:0:
115,160,218335,2,0,P|110:100|97:34,1,105,2|0,1:2|1:0,2:0:0:0:
140,19,218794,1,10,2:0:0:0:
232,68,219100,1,2,2:0:0:0:
328,26,219406,1,10,2:0:0:0:
422,71,219712,6,0,L|411:200,1,105,6|10,1:2|2:0,2:0:0:0:
458,270,220325,2,0,P|432:283|404:300,1,52.5,10|0,2:0|1:0,2:0:0:0:
368,326,220631,1,10,2:0:0:0:
278,271,220937,2,0,P|224:282|152:314,1,105,14|10,2:0|2:0,2:0:0:0:
82,345,221549,2,0,P|66:312|52:288,1,52.5,10|0,2:0|1:0,2:0:0:0:
41,248,221855,2,0,P|53:195|61:145,1,105,10|14,2:0|2:0,2:0:0:0:
109,52,222468,5,10,2:0:0:0:
213,25,222774,2,0,P|258:39|309:93,1,105,10|10,2:0|2:0,2:0:0:0:
330,120,223233,1,6,1:2:0:0:
330,120,224457,6,0,B|336:222|291:180|296:293,1,150,6|10,1:2|2:0,2:0:0:0:
288,363,225223,2,0,P|225:344|172:343,1,100,2|8,1:2|2:0,2:0:0:0:
93,364,225835,1,0,1:0:0:0:
14,301,226141,1,8,2:0:0:0:
71,219,226447,2,0,L|51:152,2,50,0|2|10,1:0|1:2|2:0,2:0:0:0:
110,249,226906,6,0,B|160:256|180:222|180:222|211:255|281:233,1,150,6|10,1:2|2:0,2:0:0:0:
310,166,227672,1,2,1:2:0:0:
391,223,227978,1,10,2:0:0:0:
466,158,228284,2,0,P|478:116|455:55,1,100,14|2,2:0|1:2,2:0:0:0:
364,75,228896,2,0,P|340:66|312:51,1,50,10|2,2:0|1:2,2:0:0:0:
273,32,229202,1,10,2:0:0:0:
229,7,229355,6,0,B|209:20|188:34|188:34|204:86|218:138,1,150,6|10,1:2|2:0,2:0:0:0:
215,230,230121,1,2,1:2:0:0:
116,213,230427,1,8,2:0:0:0:
45,283,230733,2,0,L|12:153,1,100,2|8,1:2|2:0,2:0:0:0:
52,91,231345,2,0,L|22:33,2,50,0|2|8,1:0|1:2|2:0,2:0:0:0:
99,105,231804,6,0,L|279:60,1,150,6|10,1:2|2:0,2:0:0:0:
334,25,232570,1,0,1:0:0:0:
420,75,232876,2,0,L|436:145,1,50,0|2,1:0|1:2,2:0:0:0:
410,169,233182,1,8,2:0:0:0:
472,247,233488,1,8,2:0:0:0:
412,327,233794,2,0,L|348:310,1,50,10|10,1:2|1:2,2:0:0:0:
314,305,234100,2,0,L|256:322,1,50,10|8,1:2|1:2,2:0:0:0:
216,325,234406,5,2,1:2:0:0:
160,243,234714,2,0,L|181:177,1,50,2|2,1:2|2:0,2:0:0:0:
194,149,235022,1,10,1:2:0:0:
194,149,235176,1,2,1:2:0:0:
147,60,235484,1,6,1:2:0:0:
