osu file format v14

[General]
AudioFilename: audio.mp3
AudioLeadIn: 0
PreviewTime: 179877
Countdown: 0
SampleSet: Soft
StackLeniency: 0.7
Mode: 0
LetterboxInBreaks: 0
WidescreenStoryboard: 1

[Editor]
Bookmarks: 180538,180614,180691,180767,180844,180920,180997,181073,181150,181226,181303,181379,181456,181532,181609,181685,181762,181839,181915,181992,182068,182145,182221,182298,182374,182451,182527,182604,182680,182757,182833,182910,182986,183063,183140,183216,183293,183369,183446,183522,183599,183675,183752,183828,183905,183981,184058,184134,184211,184288,184364,184441,184517,184594,184670,184747,184823,184900,184976,185053,185129,185206,185282,185359,185435,235946
DistanceSpacing: 1.2
BeatDivisor: 4
GridSize: 4
TimelineZoom: 2.2

[Metadata]
Title:Relive
TitleUnicode:Relive
Artist:nonoc
ArtistUnicode:nonoc
Creator:SkyFlame
Version:No Dap's Extra
Source:Re:ゼロから始める異世界生活 Memory Snow
Tags:re:zero kara hajimeru isekai seikatsu rezero starting life in another world different from zero anime ova original video animation japanese rock jrock j-rock full ver. version female vocal movie byd bite you death caren_sk crn gottagof4st gottagofast ggf stack nyantiaz intiaz no dap moeka momoka shioi
BeatmapID:3386362
BeatmapSetID:1658910

[Difficulty]
HPDrainRate:6
CircleSize:4
OverallDifficulty:9
ApproachRate:9.3
SliderMultiplier:1.8
SliderTickRate:1

[Events]
//Background and Video events
0,0,"bg new.png",0,0
//Break Periods
2,180538,184881
//Storyboard Layer 0 (Background)
//Storyboard Layer 1 (Fail)
//Storyboard Layer 2 (Pass)
//Storyboard Layer 3 (Foreground)
//Storyboard Layer 4 (Overlay)
//Storyboard Sound Samples

[TimingPoints]
530,306.122448979592,4,2,17,60,1,0
1754,303.79746835443,4,2,17,60,1,0
1905,-166.666666666667,4,2,17,60,0,0
3880,340.909090909091,4,2,17,60,1,0
4050,306.122448979592,4,2,17,64,1,0
4050,-125,4,2,17,64,0,0
4203,306.122448979592,4,2,17,64,1,0
4509,-125,4,2,17,64,0,0
4891,-125,4,2,18,64,0,0
5427,-125,4,2,17,64,0,0
6039,-90.9090909090909,4,2,17,64,0,0
6498,-100,4,2,19,70,0,0
6958,-100,4,2,17,70,0,0
16447,-142.857142857143,4,2,17,50,0,0
18284,-142.857142857143,4,2,17,45,0,0
18590,-142.857142857143,4,2,17,40,0,0
18896,-125,4,2,17,60,0,0
28692,-111.111111111111,4,2,17,70,0,0
38488,-133.333333333333,4,2,20,55,0,0
43386,-111.111111111111,4,2,17,65,0,0
44917,-111.111111111111,4,2,18,65,0,0
45223,-111.111111111111,4,2,17,65,0,0
47366,-111.111111111111,4,2,18,65,0,0
47672,-111.111111111111,4,2,17,65,0,0
47825,-111.111111111111,4,2,18,65,0,0
48284,-111.111111111111,4,2,17,55,0,0
50733,-111.111111111111,4,2,17,62,0,0
53182,-90.9090909090909,4,2,19,80,0,1
53335,-90.9090909090909,4,2,21,80,0,1
53794,-90.9090909090909,4,2,17,80,0,1
53947,-90.9090909090909,4,2,21,80,0,1
54407,-90.9090909090909,4,2,17,80,0,1
54560,-90.9090909090909,4,2,21,80,0,1
55019,-90.9090909090909,4,2,17,80,0,1
55172,-90.9090909090909,4,2,21,80,0,1
55631,-90.9090909090909,4,2,17,80,0,1
55784,-90.9090909090909,4,2,22,80,0,1
57009,-90.9090909090909,4,2,21,80,0,1
57468,-90.9090909090909,4,2,17,80,0,1
57621,-90.9090909090909,4,2,22,80,0,1
57774,-90.9090909090909,4,2,17,80,0,1
57927,-90.9090909090909,4,2,22,80,0,1
58080,-90.9090909090909,4,2,21,80,0,1
58692,-90.9090909090909,4,2,17,80,0,1
58845,-90.9090909090909,4,2,22,80,0,1
58998,-90.9090909090909,4,2,17,80,0,1
59151,-90.9090909090909,4,2,22,80,0,1
59458,-90.9090909090909,4,2,21,80,0,1
59611,-90.9090909090909,4,2,17,80,0,1
59764,-90.9090909090909,4,2,21,80,0,1
59917,-90.9090909090909,4,2,17,80,0,1
60070,-90.9090909090909,4,2,21,80,0,1
60223,-90.9090909090909,4,2,17,80,0,1
60376,-90.9090909090909,4,2,21,80,0,1
60529,-90.9090909090909,4,2,17,80,0,1
60682,-90.9090909090909,4,2,22,80,0,1
61906,-90.9090909090909,4,2,21,80,0,1
62519,-90.9090909090909,4,2,17,80,0,1
62901,-90.9090909090909,4,2,17,80,0,0
62978,-90.9090909090909,4,2,19,80,0,1
63131,-90.9090909090909,4,2,21,80,0,1
63590,-90.9090909090909,4,2,17,80,0,1
63743,-90.9090909090909,4,2,21,80,0,1
64203,-90.9090909090909,4,2,17,80,0,1
64356,-90.9090909090909,4,2,21,80,0,1
64815,-90.9090909090909,4,2,17,80,0,1
64968,-90.9090909090909,4,2,21,80,0,1
65427,-90.9090909090909,4,2,17,80,0,1
65580,-90.9090909090909,4,2,22,80,0,1
66498,-90.9090909090909,4,2,17,80,0,1
66958,-90.9090909090909,4,2,21,80,0,1
67264,-90.9090909090909,4,2,17,80,0,1
67799,-90.9090909090909,4,2,17,80,0,0
67876,-90.9090909090909,4,2,21,80,0,1
68029,-90.9090909090909,4,2,17,80,0,1
68182,-90.9090909090909,4,2,22,80,0,1
68335,-90.9090909090909,4,2,17,80,0,1
68488,-90.9090909090909,4,2,22,80,0,1
68947,-90.9090909090909,4,2,17,80,0,1
69100,-90.9090909090909,4,2,21,80,0,1
69713,-90.9090909090909,4,2,22,80,0,1
69866,-90.9090909090909,4,2,17,80,0,1
70019,-90.9090909090909,4,2,22,80,0,1
70172,-90.9090909090909,4,2,17,80,0,1
70325,-90.9090909090909,4,2,21,80,0,1
70478,-90.9090909090909,4,2,17,80,0,1
70631,-90.9090909090909,4,2,22,80,0,1
70784,-90.9090909090909,4,2,17,80,0,1
70937,-90.9090909090909,4,2,22,80,0,1
71396,-90.9090909090909,4,2,17,80,0,1
71549,-90.9090909090909,4,2,21,80,0,1
71856,-90.9090909090909,4,2,22,80,0,1
72774,-90.9090909090909,4,2,17,82,0,1
73080,-90.9090909090909,4,2,21,82,0,1
73233,-90.9090909090909,4,2,17,82,0,1
73386,-90.9090909090909,4,2,21,82,0,1
75529,-90.9090909090909,4,2,22,82,0,1
76294,-90.9090909090909,4,2,20,80,0,0
76907,-90.9090909090909,4,2,20,75,0,0
77060,-90.9090909090909,4,2,17,75,0,0
77519,-100,4,2,19,70,0,0
77978,292.682926829268,4,2,17,70,1,0
78563,315.789473684211,4,2,17,70,1,0
78878,315.789473684211,4,2,17,70,1,0
79193,306.122448979592,4,2,17,70,1,0
80111,307.692307692308,4,2,17,70,1,0
83495,300,4,2,17,70,1,0
83795,305.343511450382,4,2,17,70,1,0
86237,307.692307692308,4,2,17,70,1,0
87467,306.122448979592,4,2,17,62,1,0
87467,-125,4,2,17,62,0,0
88079,303.030303030303,4,2,17,62,1,0
88685,312.5,4,2,17,62,1,0
88685,-125,4,2,17,62,0,0
89310,303.79746835443,4,2,17,62,1,0
89917,306.122448979592,4,2,17,62,1,0
90223,-125,4,2,17,62,0,0
95121,304.182509505703,4,2,17,62,1,0
96033,303.030303030303,4,2,17,62,1,0
96487,315.789473684211,4,2,17,62,1,0
96802,308.483290488432,4,2,17,62,1,0
96956,308.483290488432,4,2,17,62,1,0
97264,306.122448979592,4,2,17,65,1,0
97264,-111.111111111111,4,2,17,65,0,0
106600,-111.111111111111,4,2,18,65,0,0
107059,-133.333333333333,4,2,20,55,0,0
107671,-133.333333333333,4,2,17,55,0,0
108284,304.568527918782,4,2,17,55,1,0
108284,-133.333333333333,4,2,17,55,0,0
109502,306.90537084399,4,2,17,55,1,0
109502,-133.333333333333,4,2,17,55,0,0
111036,294.117647058824,4,2,17,55,1,0
111330,314.13612565445,4,2,17,55,1,0
111958,306.122448979592,4,2,17,65,1,0
111958,-111.111111111111,4,2,17,65,0,0
113488,-111.111111111111,4,2,18,65,0,0
113794,-111.111111111111,4,2,17,65,0,0
115937,-111.111111111111,4,2,18,65,0,0
116243,-111.111111111111,4,2,17,65,0,0
116396,-111.111111111111,4,2,18,65,0,0
116855,-111.111111111111,4,2,17,50,0,0
119304,-111.111111111111,4,2,17,60,0,0
120376,-83.3333333333333,4,2,17,60,0,0
121141,294.117647058824,4,2,17,60,1,0
121435,319.148936170213,4,2,17,60,1,0
121754,306.122448979592,4,2,19,80,1,1
121754,-90.9090909090909,4,2,19,80,0,1
121907,-90.9090909090909,4,2,21,80,0,1
122366,-90.9090909090909,4,2,17,80,0,1
122519,-90.9090909090909,4,2,21,80,0,1
122978,-90.9090909090909,4,2,17,80,0,1
123131,-90.9090909090909,4,2,21,80,0,1
123590,-90.9090909090909,4,2,17,80,0,1
123743,-90.9090909090909,4,2,21,80,0,1
124202,-90.9090909090909,4,2,17,80,0,1
124356,-90.9090909090909,4,2,22,80,0,1
125580,-90.9090909090909,4,2,21,80,0,1
126039,-90.9090909090909,4,2,17,80,0,1
126192,-90.9090909090909,4,2,22,80,0,1
126345,-90.9090909090909,4,2,17,80,0,1
126498,-90.9090909090909,4,2,22,80,0,1
126651,-90.9090909090909,4,2,21,80,0,1
127264,-90.9090909090909,4,2,17,80,0,1
127417,-90.9090909090909,4,2,22,80,0,1
127570,-90.9090909090909,4,2,17,80,0,1
127723,-90.9090909090909,4,2,22,80,0,1
128029,-90.9090909090909,4,2,21,80,0,1
128182,-90.9090909090909,4,2,17,80,0,1
128335,-90.9090909090909,4,2,21,80,0,1
128488,-90.9090909090909,4,2,17,80,0,1
128641,-90.9090909090909,4,2,21,80,0,1
128794,-90.9090909090909,4,2,17,80,0,1
128947,-90.9090909090909,4,2,21,80,0,1
129100,-90.9090909090909,4,2,17,80,0,1
129254,-90.9090909090909,4,2,22,80,0,1
130478,-90.9090909090909,4,2,21,80,0,1
131090,-90.9090909090909,4,2,17,80,0,1
131473,-90.9090909090909,4,2,17,80,0,0
131549,-90.9090909090909,4,2,19,80,0,1
131702,-90.9090909090909,4,2,21,80,0,1
132162,-90.9090909090909,4,2,17,80,0,1
132315,-90.9090909090909,4,2,21,80,0,1
132774,-90.9090909090909,4,2,17,80,0,1
132927,-90.9090909090909,4,2,21,80,0,1
133386,-90.9090909090909,4,2,17,80,0,1
133539,-90.9090909090909,4,2,21,80,0,1
133998,-90.9090909090909,4,2,17,80,0,1
134151,-90.9090909090909,4,2,22,80,0,1
135070,-90.9090909090909,4,2,17,80,0,1
135529,-90.9090909090909,4,2,21,80,0,1
135835,-90.9090909090909,4,2,17,80,0,1
136371,-90.9090909090909,4,2,17,80,0,0
136447,-90.9090909090909,4,2,21,80,0,1
136600,-90.9090909090909,4,2,17,80,0,1
136754,-90.9090909090909,4,2,22,80,0,1
136907,-90.9090909090909,4,2,17,80,0,1
137060,-90.9090909090909,4,2,22,80,0,1
137519,-90.9090909090909,4,2,17,80,0,1
137672,-90.9090909090909,4,2,21,80,0,1
138284,300,4,2,22,80,1,1
138434,-100,4,2,17,80,0,1
138584,-100,4,2,22,80,0,1
138734,-100,4,2,17,80,0,1
138884,306.122448979592,4,2,21,80,1,1
138884,-90.9090909090909,4,2,21,80,0,1
139037,-90.9090909090909,4,2,17,80,0,1
139190,-90.9090909090909,4,2,22,80,0,1
139343,-90.9090909090909,4,2,17,80,0,1
139496,-90.9090909090909,4,2,22,80,0,1
139955,-90.9090909090909,4,2,17,80,0,1
140108,-90.9090909090909,4,2,21,80,0,1
140414,-90.9090909090909,4,2,22,80,0,1
140720,313.31592689295,4,2,22,80,1,1
140720,-90.9090909090909,4,2,22,80,0,1
141346,306.122448979592,4,2,17,82,1,1
141346,-90.9090909090909,4,2,17,82,0,1
141652,-90.9090909090909,4,2,21,82,0,1
141805,-90.9090909090909,4,2,17,82,0,1
141958,-90.9090909090909,4,2,21,82,0,1
144100,-90.9090909090909,4,2,22,82,0,1
144866,-90.9090909090909,4,2,20,80,0,0
146090,-100,4,2,19,70,0,0
146856,-100,4,2,17,70,0,0
155580,-100,4,2,18,70,0,0
155886,-100,4,2,17,70,0,0
157570,-100,4,2,18,80,0,0
157876,-100,4,2,17,80,0,0
159866,-100,4,2,18,80,0,0
160325,-100,4,2,17,80,0,0
162774,-100,4,2,18,80,0,0
163080,-100,4,2,17,80,0,0
163692,309.278350515464,4,2,17,80,1,0
164310,295.566502463054,4,2,17,80,1,0
164605,295.566502463054,4,2,17,80,1,0
164900,333.333333333333,4,2,17,80,1,0
165233,279.06976744186,4,2,17,80,1,0
165512,324.324324324324,4,2,17,80,1,0
165836,306.122448979592,4,2,20,60,1,0
165836,-133.333333333333,4,2,20,60,0,0
170733,-111.111111111111,4,2,17,65,0,0
172264,-111.111111111111,4,2,18,65,0,0
172570,-111.111111111111,4,2,17,65,0,0
174713,-111.111111111111,4,2,18,65,0,0
175019,-111.111111111111,4,2,17,65,0,0
175631,-111.111111111111,4,2,17,50,0,0
178080,-111.111111111111,4,2,17,60,0,0
179917,309.278350515464,4,2,17,60,1,0
180226,312.5,4,2,17,60,1,0
180538,306.122448979592,4,2,17,60,1,0
186507,304.375396322131,4,2,17,60,1,0
186659,304.375396322131,4,2,17,60,1,0
186963,-133.333333333333,4,2,17,60,0,0
187876,375,4,2,17,60,1,0
188063,306.90537084399,4,2,17,60,1,0
188676,289.156626506024,4,2,17,60,1,0
189254,306.122448979592,4,2,17,70,1,0
189407,306.122448979592,4,2,17,70,1,0
190325,306.122448979592,4,2,19,82,1,1
190325,-90.9090909090909,4,2,19,82,0,1
190478,-90.9090909090909,4,2,21,82,0,1
190937,-90.9090909090909,4,2,17,82,0,1
191090,-90.9090909090909,4,2,21,82,0,1
191549,-90.9090909090909,4,2,17,82,0,1
191702,-90.9090909090909,4,2,21,82,0,1
192161,-90.9090909090909,4,2,17,82,0,1
192314,-90.9090909090909,4,2,21,82,0,1
192773,-90.9090909090909,4,2,17,82,0,1
192927,-90.9090909090909,4,2,22,82,0,1
193845,-90.9090909090909,4,2,17,82,0,1
194304,-90.9090909090909,4,2,21,82,0,1
194610,-90.9090909090909,4,2,18,82,0,1
194763,-90.9090909090909,4,2,17,82,0,1
195222,-90.9090909090909,4,2,21,82,0,1
195375,-90.9090909090909,4,2,17,82,0,1
195529,-90.9090909090909,4,2,22,82,0,1
195682,-90.9090909090909,4,2,17,82,0,1
195835,-90.9090909090909,4,2,22,82,0,1
196294,-90.9090909090909,4,2,17,82,0,1
196447,-90.9090909090909,4,2,21,82,0,1
197059,-90.9090909090909,4,2,22,82,0,1
197212,-90.9090909090909,4,2,17,82,0,1
197365,-90.9090909090909,4,2,22,82,0,1
197518,-90.9090909090909,4,2,17,82,0,1
197671,-90.9090909090909,4,2,21,82,0,1
197824,-90.9090909090909,4,2,17,82,0,1
197978,-90.9090909090909,4,2,22,82,0,1
198131,-90.9090909090909,4,2,17,82,0,1
198284,-90.9090909090909,4,2,21,82,0,1
198590,-90.9090909090909,4,2,22,82,0,1
198743,-90.9090909090909,4,2,17,82,0,1
198896,-90.9090909090909,4,2,21,82,0,1
200044,-90.9090909090909,4,2,21,82,0,0
200120,-90.9090909090909,4,2,19,84,0,1
200273,-90.9090909090909,4,2,21,84,0,1
200733,-90.9090909090909,4,2,17,84,0,1
200886,-90.9090909090909,4,2,21,84,0,1
201345,-90.9090909090909,4,2,17,84,0,1
201498,-90.9090909090909,4,2,21,84,0,1
201957,-90.9090909090909,4,2,17,84,0,1
202110,-90.9090909090909,4,2,21,84,0,1
202569,-90.9090909090909,4,2,17,84,0,1
202722,-90.9090909090909,4,2,22,84,0,1
203947,-90.9090909090909,4,2,21,84,0,1
204406,-90.9090909090909,4,2,17,84,0,1
204559,-90.9090909090909,4,2,22,84,0,1
204712,-90.9090909090909,4,2,17,84,0,1
204865,-90.9090909090909,4,2,22,84,0,1
205018,-90.9090909090909,4,2,17,84,0,1
205171,-90.9090909090909,4,2,21,84,0,1
205631,-90.9090909090909,4,2,17,84,0,1
205784,-90.9090909090909,4,2,22,84,0,1
205937,-90.9090909090909,4,2,17,84,0,1
206090,-90.9090909090909,4,2,22,84,0,1
206396,-90.9090909090909,4,2,21,84,0,1
206549,-90.9090909090909,4,2,17,84,0,1
206702,-90.9090909090909,4,2,21,84,0,1
206855,-90.9090909090909,4,2,17,84,0,1
207008,-90.9090909090909,4,2,21,84,0,1
207161,-90.9090909090909,4,2,17,84,0,1
207314,-90.9090909090909,4,2,21,84,0,1
207467,-90.9090909090909,4,2,17,84,0,1
207620,-90.9090909090909,4,2,22,84,0,1
209457,-90.9090909090909,4,2,18,84,0,1
209840,-90.9090909090909,4,2,18,84,0,0
209916,311.688311688312,4,2,19,82,1,1
209916,-125,4,2,19,82,0,1
210071,-125,4,2,21,82,0,1
210383,-125,4,2,19,82,0,1
210539,305.732484076433,4,2,17,82,1,1
210539,-125,4,2,17,82,0,1
211150,303.030303030303,4,2,17,82,1,1
211150,-125,4,2,17,82,0,1
211301,-125,4,2,21,82,0,1
211604,-125,4,2,17,82,0,1
211756,-125,4,2,17,82,0,1
211907,-125,4,2,21,82,0,1
212362,315.789473684211,4,2,17,82,1,1
212519,-125,4,2,22,82,0,1
212677,306.122448979592,4,2,22,82,1,1
212983,-100,4,2,17,82,0,1
213136,-100,4,2,22,82,0,1
213442,-125,4,2,17,82,0,1
213595,306.122448979592,4,2,17,82,1,1
213901,-100,4,2,21,82,0,1
214207,304.182509505703,4,2,17,82,1,1
214207,-90.9090909090909,4,2,17,82,0,1
214739,-90.9090909090909,4,2,17,82,0,0
214815,306.122448979592,4,2,21,82,1,1
214815,-90.9090909090909,4,2,21,82,0,1
214968,-90.9090909090909,4,2,17,82,0,1
215121,-90.9090909090909,4,2,22,82,0,1
215274,-90.9090909090909,4,2,17,82,0,1
215427,-90.9090909090909,4,2,22,82,0,1
215886,-90.9090909090909,4,2,17,82,0,1
216039,-90.9090909090909,4,2,21,82,0,1
216651,-90.9090909090909,4,2,22,82,0,1
216804,-90.9090909090909,4,2,17,82,0,1
216957,-90.9090909090909,4,2,22,82,0,1
217110,-90.9090909090909,4,2,17,82,0,1
217263,-90.9090909090909,4,2,21,82,0,1
217417,-90.9090909090909,4,2,17,82,0,1
217570,-90.9090909090909,4,2,22,82,0,1
217723,-90.9090909090909,4,2,17,82,0,1
217876,-90.9090909090909,4,2,22,82,0,1
218335,-90.9090909090909,4,2,17,82,0,1
218488,-90.9090909090909,4,2,21,82,0,1
218794,-90.9090909090909,4,2,22,82,0,1
219712,-90.9090909090909,4,2,17,90,0,1
220019,-90.9090909090909,4,2,21,90,0,1
220172,-90.9090909090909,4,2,17,90,0,1
220325,-90.9090909090909,4,2,21,90,0,1
222467,-90.9090909090909,4,2,22,90,0,1
223233,-90.9090909090909,4,2,20,80,0,0
223845,-90.9090909090909,4,2,20,75,0,0
223998,-90.9090909090909,4,2,17,75,0,0
224457,-100,4,2,19,72,0,0
224917,-100,4,2,17,72,0,0
228437,-100,4,2,18,72,0,0
228743,-100,4,2,17,72,0,0
228896,-100,4,2,18,72,0,0
229202,-100,4,2,17,72,0,0
234406,308.08729139923,4,2,17,60,1,0
234714,-125,4,2,17,60,0,0

[Colours]
Combo1 : 255,0,0
Combo2 : 46,200,4
Combo3 : 0,200,255
Combo4 : 255,200,98

[HitObjects]
342,245,530,5,6,1:2:0:0:
91,92,1754,5,2,2:0:0:0:
91,92,1905,2,0,L|82:168,1,53.9999999999999,2|2,2:0|2:0,2:0:0:0:
69,248,2209,1,2,2:0:0:0:
375,343,2513,1,2,2:0:0:0:
301,55,2817,6,0,P|282:111|264:176,1,108,2|2,2:0|2:0,2:0:0:0:
235,254,3272,1,2,2:0:0:0:
175,177,3424,2,0,P|139:223|156:291,1,108,2|2,2:0|2:0,2:0:0:0:
224,344,3880,1,2,2:0:0:0:
319,220,4050,6,0,P|305:152|276:47,1,144,6|0,1:2|1:0,2:0:0:0:
404,148,4509,2,0,P|449:149|492:134,1,72,8|0,2:0|1:0,2:0:0:0:
373,65,4815,2,0,P|412:43|442:8,1,72,8|4,2:0|2:3,2:0:0:0:
431,24,5044,1,4,2:3:0:0:
431,24,5121,1,4,2:3:0:0:
291,46,5274,1,0,1:0:0:0:
296,226,5427,5,8,2:0:0:0:
179,76,5580,1,8,2:0:0:0:
181,58,5657,1,8,2:0:0:0:
184,40,5733,1,8,2:0:0:0:
69,206,5886,1,0,1:0:0:0:
71,223,5963,1,0,1:0:0:0:
74,241,6039,6,0,L|62:310,1,49.5,8|8,2:0|2:0,2:0:0:0:
178,227,6192,2,0,L|185:174,1,49.5,8|8,2:0|2:0,2:0:0:0:
174,334,6345,2,0,L|227:343,1,49.5,8|8,2:0|2:0,2:0:0:0:
348,329,6498,6,0,P|409:282|369:168,1,180,6|2,1:2|1:2,2:0:0:0:
311,120,6881,1,0,1:2:0:0:
311,120,6958,2,0,P|320:70|339:11,1,90,10|2,2:0|2:0,2:0:0:0:
408,101,7264,1,2,1:2:0:0:
295,226,7417,2,0,P|240:202|214:164,1,90,2|8,1:2|2:0,2:0:0:0:
222,44,7723,1,2,2:0:0:0:
408,101,7876,6,0,P|444:178|398:251,1,180,0|8,1:0|2:0,2:0:0:0:
176,324,8335,1,2,2:0:0:0:
314,186,8488,1,0,1:0:0:0:
294,372,8641,1,2,1:2:0:0:
314,186,8794,1,10,2:0:0:0:
127,241,8947,6,0,P|69:189|110:77,1,180,6|2,1:2|1:2,2:0:0:0:
286,22,9407,2,0,L|266:128,1,90,10|0,2:0|1:0,2:0:0:0:
269,110,9636,1,0,1:0:0:0:
269,110,9713,1,2,1:2:0:0:
405,53,9866,1,2,1:2:0:0:
330,212,10019,1,10,2:0:0:0:
487,128,10172,1,0,2:0:0:0:
482,282,10325,6,0,P|439:274|392:272,1,90,2|0,1:2|1:0,2:0:0:0:
242,355,10631,2,0,P|286:353|331:345,1,90,10|0,2:0|1:0,2:0:0:0:
212,140,10937,1,10,2:0:0:0:
140,337,11090,1,2,1:2:0:0:
29,172,11243,1,10,2:0:0:0:
261,254,11396,6,0,B|293:251|323:233|323:233|364:247|364:247|392:231|443:228,1,180,6|2,1:2|1:2,2:0:0:0:
442,26,11856,1,10,2:0:0:0:
341,130,12009,1,2,1:2:0:0:
341,130,12085,1,0,1:2:0:0:
341,130,12162,2,0,P|292:129|244:113,1,90,2|2,1:2|1:2,2:0:0:0:
33,264,12468,1,8,2:0:0:0:
137,117,12621,1,2,2:0:0:0:
251,238,12774,6,0,L|238:327,1,90,2|2,1:2|1:2,2:0:0:0:
137,117,13080,2,0,L|149:27,1,90,8|2,2:0|2:0,2:0:0:0:
112,230,13386,1,0,1:0:0:0:
313,176,13539,1,2,1:2:0:0:
229,38,13692,1,8,2:0:0:0:
203,266,13845,6,0,P|252:336|338:328,1,180,6|2,1:2|1:2,2:0:0:0:
427,235,14305,1,10,2:0:0:0:
274,71,14458,1,10,2:0:0:0:
274,71,14534,1,8,2:0:0:0:
274,71,14611,1,0,1:0:0:0:
293,237,14764,1,10,2:0:0:0:
420,48,14917,1,0,1:0:0:0:
365,144,15070,1,2,1:2:0:0:
137,97,15223,5,8,2:0:0:0:
177,306,15376,1,2,1:2:0:0:
254,18,15529,5,8,2:0:0:0:
253,230,15682,1,2,1:2:0:0:
375,97,15835,5,10,2:0:0:0:
335,306,15988,1,2,1:2:0:0:
335,306,16141,1,2,1:2:0:0:
486,198,16294,1,8,2:0:0:0:
304,148,16447,6,0,P|293:118|287:87,1,62.9999999999999,2|2,2:0|1:2,2:0:0:0:
212,141,16754,2,0,P|180:153|134:159,1,62.9999999999999,2|0,2:0|2:0,2:0:0:0:
106,240,17060,2,0,P|136:245|166:257,1,62.9999999999999,2|0,2:0|2:0,2:0:0:0:
251,321,17366,1,2,2:0:0:0:
251,321,17519,1,2,2:0:0:0:
329,179,17672,5,2,2:0:0:0:
218,210,17825,1,2,2:0:0:0:
251,321,17978,1,2,2:0:0:0:
361,289,18131,1,2,2:0:0:0:
329,179,18284,5,2,2:0:0:0:
353,93,18437,1,2,2:0:0:0:
439,117,18590,1,2,3:2:0:0:
414,203,18743,1,2,3:2:0:0:
271,99,18896,6,0,P|229:125|183:128,1,72,4|0,1:2|1:0,2:0:0:0:
107,80,19203,2,0,L|134:244,1,144,10|2,2:0|2:0,2:0:0:0:
156,330,19662,1,0,2:0:0:0:
223,232,19815,2,0,P|278:200|306:199,1,72,10|2,2:0|2:0,2:0:0:0:
342,283,20121,5,2,1:2:0:0:
342,283,20274,2,0,L|329:363,1,72,2|8,1:2|2:0,2:0:0:0:
460,307,20580,2,0,P|488:240|445:171,1,144,2|0,2:0|1:0,2:0:0:0:
371,201,21039,1,10,2:0:0:0:
339,100,21192,1,0,2:0:0:0:
470,32,21345,5,0,1:0:0:0:
420,123,21498,1,0,1:0:0:0:
253,40,21651,2,0,P|195:83|206:170,2,144,10|2|10,2:0|2:0|2:0,2:0:0:0:
361,73,22417,1,0,2:0:0:0:
294,204,22570,5,2,2:0:0:0:
294,204,22723,2,0,P|279:167|270:117,1,72,2|8,1:2|2:0,2:0:0:0:
377,263,23029,1,2,2:0:0:0:
383,163,23182,1,0,1:0:0:0:
302,310,23335,1,0,1:0:0:0:
173,225,23488,1,10,2:0:0:0:
126,344,23641,1,0,1:0:0:0:
41,190,23794,5,0,1:0:0:0:
173,225,23947,1,0,1:0:0:0:
209,90,24100,2,0,P|132:79|65:73,1,144,10|2,2:0|2:0,2:0:0:0:
260,194,24560,1,0,2:0:0:0:
323,99,24713,2,0,P|318:67|303:24,1,72,10|2,2:0|2:0,2:0:0:0:
352,195,25019,5,2,1:2:0:0:
448,103,25172,2,0,P|439:139|436:181,1,72,2|8,1:2|2:0,2:0:0:0:
491,272,25478,2,0,P|422:281|344:304,1,144,2|0,2:0|1:0,2:0:0:0:
247,368,25937,2,0,P|199:333|143:322,1,108,10|0,2:0|2:0,2:0:0:0:
120,347,26243,5,0,1:0:0:0:
41,189,26396,1,0,1:0:0:0:
124,105,26549,2,0,P|168:141|158:236,1,144,10|2,2:0|2:0,2:0:0:0:
92,262,27009,1,0,2:0:0:0:
205,152,27162,2,0,P|242:174|282:185,1,72,10|2,2:0|2:0,2:0:0:0:
303,281,27468,5,2,2:0:0:0:
381,192,27621,2,0,L|361:96,1,72,2|8,1:2|2:0,2:0:0:0:
303,281,27927,1,2,1:2:0:0:
253,53,28080,5,8,2:0:0:0:
24,201,28233,1,10,2:0:0:0:
88,19,28386,1,10,2:0:0:0:
199,254,28539,1,8,2:0:0:0:
143,129,28692,6,0,L|249:151,1,81.0000000000001,4|0,1:2|2:0,2:0:0:0:
318,245,28998,2,0,P|367:167|344:85,1,162,10|2,2:0|1:2,2:0:0:0:
222,26,29458,1,0,1:0:0:0:
355,102,29611,1,10,2:0:0:0:
231,204,29764,2,0,P|232:159|239:108,1,81.0000000000001,2|0,2:0|1:0,2:0:0:0:
329,267,30070,5,2,1:2:0:0:
245,350,30223,1,10,2:0:0:0:
152,260,30376,1,2,2:0:0:0:
315,166,30529,1,2,1:2:0:0:
353,364,30682,1,2,1:2:0:0:
130,281,30835,2,0,L|152:135,1,121.5,10|0,2:0|2:0,2:0:0:0:
165,70,31141,5,0,1:0:0:0:
62,149,31294,1,0,2:0:0:0:
253,132,31447,2,0,L|236:231,1,81.0000000000001,10|2,2:0|2:0,2:0:0:0:
289,315,31754,2,0,P|202:335|110:367,1,162,2|10,1:2|2:0,2:0:0:0:
31,340,32213,1,2,2:0:0:0:
105,225,32366,6,0,P|98:186|80:129,1,81.0000000000001,0|2,1:0|1:2,2:0:0:0:
245,252,32672,2,0,P|233:290|226:330,1,81.0000000000001,10|2,2:0|1:2,2:0:0:0:
235,62,32978,5,2,1:2:0:0:
105,225,33131,1,10,2:0:0:0:
358,258,33284,1,2,1:2:0:0:
196,149,33437,1,8,2:0:0:0:
243,350,33590,6,0,L|271:167,1,162,4|10,1:2|2:0,2:0:0:0:
350,142,34049,1,2,2:0:0:0:
176,228,34203,2,0,P|135:221|97:206,1,81.0000000000001,2|0,1:2|1:0,2:0:0:0:
42,34,34509,1,10,2:0:0:0:
42,34,34662,6,0,P|125:56|129:157,1,162,2|2,2:0|1:2,2:0:0:0:
70,249,35121,1,10,2:0:0:0:
37,132,35274,1,2,2:0:0:0:
34,350,35427,1,2,1:2:0:0:
232,198,35580,1,2,1:2:0:0:
339,326,35733,2,0,P|278:330|219:343,1,121.5,10|0,2:0|2:0,2:0:0:0:
142,381,36039,6,0,P|135:339|122:290,1,81.0000000000001,0|0,1:0|1:0,2:0:0:0:
40,108,36345,2,0,P|96:162|173:142,1,162,10|2,2:0|1:2,2:0:0:0:
374,34,36805,1,8,2:0:0:0:
279,226,36958,1,0,1:0:0:0:
124,68,37111,1,6,2:0:0:0:
387,61,38488,6,0,P|430:109|429:189,1,135,6|0,1:2|1:0,2:0:0:0:
407,266,38947,1,2,3:2:0:0:
325,295,39100,2,0,P|282:247|283:167,1,135,0|0,1:0|1:0,2:0:0:0:
142,53,39560,1,0,3:0:0:0:
142,53,39713,2,0,P|158:123|172:214,1,135,0|0,1:0|1:0,2:0:0:0:
98,278,40172,1,0,3:0:0:0:
50,200,40325,2,0,P|66:165|96:112,1,67.5000000000002,2|0,1:2|3:0,2:0:0:0:
98,278,40631,2,0,P|59:281|-1:282,1,67.5000000000002,2|0,1:2|3:0,2:0:0:0:
141,202,40937,6,0,P|182:258|222:338,1,135,2|0,1:2|1:0,2:0:0:0:
305,247,41396,1,0,3:0:0:0:
303,345,41549,2,0,P|345:334|383:329,1,67.5000000000002,0|0,1:0|3:0,2:0:0:0:
467,271,41856,2,0,P|434:261|401:256,1,67.5000000000002,0|0,1:0|3:0,2:0:0:0:
304,247,42162,2,0,P|337:189|324:125,1,135,0|0,1:0|1:0,2:0:0:0:
281,41,42621,1,0,3:0:0:0:
426,131,42774,2,0,P|432:97|435:64,1,67.5000000000002,2|2,1:2|2:0,2:0:0:0:
347,216,43080,2,0,P|398:202|450:231,1,101.25,2|0,1:2|2:0,2:0:0:0:
466,258,43386,6,0,L|451:348,1,81.0000000000001,6|0,1:2|1:0,2:0:0:0:
260,352,43692,2,0,L|273:272,1,81.0000000000001,14|2,2:0|2:0,2:0:0:0:
260,125,43998,1,12,1:2:0:0:
359,315,44151,1,2,1:2:0:0:
466,102,44305,1,12,2:0:0:0:
347,223,44458,1,2,1:2:0:0:
347,223,44764,5,0,1:0:0:0:
189,137,44917,1,8,2:0:0:0:
189,137,44993,1,8,2:0:0:0:
189,137,45070,1,0,1:0:0:0:
133,239,45223,1,10,2:0:0:0:
296,144,45376,1,2,1:2:0:0:
133,51,45529,1,10,2:0:0:0:
236,238,45682,1,8,2:0:0:0:
236,238,45759,1,8,2:0:0:0:
236,238,45835,6,0,L|324:230,1,81.0000000000001,6|0,1:2|2:0,2:0:0:0:
439,102,46141,1,14,2:0:0:0:
404,281,46294,1,2,2:0:0:0:
408,307,46371,1,2,2:0:0:0:
412,334,46447,1,12,1:2:0:0:
481,180,46600,1,2,1:2:0:0:
289,328,46754,1,12,2:0:0:0:
383,155,46907,6,0,P|381:92|274:55,1,162,2|0,1:2|1:0,2:0:0:0:
165,144,47366,1,10,2:0:0:0:
165,144,47442,1,8,2:0:0:0:
165,144,47519,1,4,2:3:0:0:
104,282,47672,1,10,2:0:0:0:
225,9,47825,1,10,2:0:0:0:
28,83,47978,1,4,2:3:0:0:
104,282,48131,1,2,1:2:0:0:
301,205,48284,1,4,1:2:0:0:
256,192,48361,12,0,50580,1:0:0:0:
253,95,50733,5,10,2:0:0:0:
151,255,50886,1,2,2:0:0:0:
350,147,51039,1,2,2:0:0:0:
390,344,51192,1,2,2:0:0:0:
253,95,51498,1,2,2:0:0:0:
134,347,51805,5,10,1:2:0:0:
467,286,52111,1,10,1:2:0:0:
253,95,52417,1,10,1:2:0:0:
149,249,53182,6,0,P|239:280|306:215,1,198,6|8,1:2|2:0,2:0:0:0:
230,60,53641,1,2,1:2:0:0:
230,60,53718,1,0,1:2:0:0:
230,60,53794,2,0,P|182:64|123:88,1,99,2|2,1:2|2:0,2:0:0:0:
432,149,54100,1,8,2:0:0:0:
314,2,54254,1,2,2:0:0:0:
222,156,54407,6,0,L|255:367,1,198,2|8,1:2|2:0,2:0:0:0:
63,310,54866,1,2,1:2:0:0:
63,310,54942,1,0,1:2:0:0:
63,310,55019,1,2,1:2:0:0:
154,137,55172,1,2,2:0:0:0:
169,350,55325,1,8,2:0:0:0:
11,193,55478,1,2,2:0:0:0:
222,51,55631,5,2,1:2:0:0:
281,197,55784,2,0,L|263:324,1,99,2|8,2:0|2:0,2:0:0:0:
397,119,56090,2,0,L|410:20,1,99,2|0,2:0|1:0,2:0:0:0:
362,254,56396,2,0,P|409:239|458:233,1,99,2|8,2:0|2:0,2:0:0:0:
189,351,56703,1,2,1:2:0:0:
189,351,56779,1,0,1:2:0:0:
189,351,56856,6,0,P|178:297|161:232,1,99,0|2,1:0|2:0,2:0:0:0:
314,84,57162,2,0,P|302:132|292:180,1,99,8|2,2:0|2:0,2:0:0:0:
204,63,57468,1,2,1:2:0:0:
395,194,57621,1,2,2:0:0:0:
204,63,57774,1,10,2:0:0:0:
141,271,57927,1,2,1:2:0:0:
141,271,58004,1,0,1:2:0:0:
141,271,58080,6,0,P|212:262|270:377,1,198,4|8,1:2|2:0,2:0:0:0:
72,327,58539,1,2,2:0:0:0:
175,175,58692,1,2,1:2:0:0:
33,223,58845,1,2,2:0:0:0:
188,355,58998,1,10,2:0:0:0:
297,210,59151,1,2,1:2:0:0:
297,210,59228,1,0,1:2:0:0:
297,210,59305,6,0,P|279:154|280:104,1,99,0|2,1:0|2:0,2:0:0:0:
464,247,59611,2,0,P|462:296|445:342,1,99,10|2,2:0|2:0,2:0:0:0:
407,86,59917,1,2,1:2:0:0:
464,247,60070,1,2,2:0:0:0:
327,332,60223,2,0,P|278:321|232:304,1,99,10|2,2:0|2:0,2:0:0:0:
168,39,60529,5,2,1:2:0:0:
25,202,60682,2,0,P|73:191|119:174,1,99,2|8,2:0|2:0,2:0:0:0:
384,155,60988,2,0,P|350:118|312:86,1,99,2|0,2:0|1:0,2:0:0:0:
212,275,61294,2,0,P|197:322|188:370,1,99,2|8,2:0|2:0,2:0:0:0:
458,245,61600,6,0,P|423:161|396:24,2,198,2|2|2,1:2|1:2|1:2,2:0:0:0:
159,129,62519,2,0,L|144:220,1,49.5,2|0,1:2|1:0,2:0:0:0:
134,274,62672,1,10,2:0:0:0:
280,208,62825,1,2,1:2:0:0:
68,90,62978,6,0,P|146:35|235:70,1,198,6|8,1:2|2:0,2:0:0:0:
367,40,63437,1,2,1:2:0:0:
367,40,63514,1,0,1:2:0:0:
367,40,63590,1,2,1:2:0:0:
159,129,63743,1,2,2:0:0:0:
270,244,63896,2,0,P|323:237|388:207,1,99,8|2,2:0|2:0,2:0:0:0:
199,323,64203,6,0,P|145:245|52:256,1,198,2|8,1:2|2:0,2:0:0:0:
296,357,64662,1,2,1:2:0:0:
296,357,64738,1,0,1:2:0:0:
296,357,64815,1,2,1:2:0:0:
106,328,64968,1,2,2:0:0:0:
228,109,65121,1,8,2:0:0:0:
199,323,65274,1,2,2:0:0:0:
56,84,65427,5,2,1:2:0:0:
173,230,65580,2,0,P|227:218|293:209,1,99,2|8,2:0|2:0,2:0:0:0:
410,109,65886,2,0,P|356:97|290:88,1,99,2|0,2:0|1:0,2:0:0:0:
272,355,66192,1,2,2:0:0:0:
376,209,66345,1,8,2:0:0:0:
98,98,66498,6,0,P|19:160|60:280,1,198,6|0,1:2|1:0,2:0:0:0:
277,121,66958,2,0,P|273:71|262:23,1,99,10|0,2:0|2:0,2:0:0:0:
118,212,67264,1,10,2:0:0:0:
146,185,67340,1,8,2:0:0:0:
184,178,67417,1,10,2:0:0:0:
217,189,67493,1,8,2:0:0:0:
235,213,67570,2,0,L|225:266,1,49.5,10|0,2:0|2:0,2:0:0:0:
318,335,67723,2,0,L|327:286,1,49.5,10|8,2:0|2:0,2:0:0:0:
371,168,67876,6,0,P|411:196|485:207,1,99,6|2,1:2|2:0,2:0:0:0:
365,52,68182,2,0,P|325:79|251:90,1,99,10|2,2:0|2:0,2:0:0:0:
207,345,68488,1,10,1:2:0:0:
155,107,68641,1,0,2:0:0:0:
26,224,68794,1,10,2:0:0:0:
192,186,68947,6,0,P|243:91|172:22,1,198,2|0,1:2|1:0,2:0:0:0:
56,95,69407,2,0,P|105:99|154:106,1,99,10|0,2:0|1:0,2:0:0:0:
76,290,69713,1,2,2:0:0:0:
288,227,69866,1,2,1:2:0:0:
154,106,70019,1,10,2:0:0:0:
207,334,70172,1,2,1:2:0:0:
207,334,70248,1,0,1:0:0:0:
207,334,70325,5,6,1:2:0:0:
154,106,70478,1,2,2:0:0:0:
329,55,70631,2,0,L|311:153,1,99,10|2,2:0|2:0,2:0:0:0:
257,11,70937,1,10,1:2:0:0:
428,111,71090,1,0,2:0:0:0:
257,11,71243,1,10,2:0:0:0:
281,243,71396,6,0,B|331:244|373:221|373:221|386:227|386:227|421:206|483:208,1,198,2|0,1:2|1:0,2:0:0:0:
202,162,71856,2,0,P|167:232|195:305,1,148.5,10|0,2:0|2:0,2:0:0:0:
290,326,72162,2,0,L|281:375,1,49.5,10|0,2:0|2:0,2:0:0:0:
402,313,72315,2,0,L|392:361,1,49.5,8|8,2:0|2:0,2:0:0:0:
479,244,72468,1,10,2:0:0:0:
469,202,72544,1,8,2:0:0:0:
461,164,72621,1,8,2:0:0:0:
456,125,72697,1,8,2:0:0:0:
449,88,72774,6,0,B|388:83|352:107|352:107|313:139|239:147,1,198,6|10,1:2|2:0,2:0:0:0:
69,319,73233,1,2,1:2:0:0:
151,220,73386,2,0,P|161:171|166:122,1,99,10|0,2:0|1:0,2:0:0:0:
13,26,73692,1,10,2:0:0:0:
56,201,73845,1,0,1:0:0:0:
286,10,73998,5,10,2:0:0:0:
165,122,74151,1,0,1:0:0:0:
364,108,74305,1,10,2:0:0:0:
207,277,74458,1,0,1:0:0:0:
404,333,74611,2,0,P|396:284|383:236,1,99,10|0,2:0|1:0,2:0:0:0:
236,52,74917,2,0,P|222:99|215:148,1,99,10|0,2:0|1:0,2:0:0:0:
485,73,75223,6,0,B|446:114|395:98|395:98|344:83|293:131,2,198,10|10|10,2:0|2:0|2:0,2:0:0:0:
373,189,75988,1,0,1:0:0:0:
416,18,76141,1,10,2:0:0:0:
76,182,76294,1,6,1:2:0:0:
443,349,76907,6,0,L|418:272,1,49.5,0|0,1:0|1:0,2:0:0:0:
370,127,77060,1,10,2:0:0:0:
326,309,77213,1,2,1:2:0:0:
479,124,77366,1,8,2:0:0:0:
253,48,77519,6,0,P|275:129|294:232,1,180,6|2,1:2|1:2,2:0:0:0:
354,295,77901,1,2,2:0:0:0:
354,295,77978,2,0,P|362:244|385:194,1,90,10|2,2:0|2:0,2:0:0:0:
453,161,78270,1,2,1:2:0:0:
276,101,78417,1,2,1:2:0:0:
453,161,78563,2,0,P|444:115|434:44,1,90,8|2,2:0|2:0,2:0:0:0:
214,174,78878,5,0,1:0:0:0:
362,79,79035,1,2,1:2:0:0:
371,292,79193,2,0,P|320:282|253:273,1,90,8|2,2:0|2:0,2:0:0:0:
67,341,79499,1,0,1:0:0:0:
197,255,79652,1,2,1:2:0:0:
30,124,79805,1,10,2:0:0:0:
157,20,79958,6,0,P|141:108|131:198,1,180,6|2,1:2|1:2,2:0:0:0:
272,177,80418,1,10,2:0:0:0:
283,334,80572,1,0,1:2:0:0:
283,334,80649,1,0,1:2:0:0:
283,334,80726,2,0,L|402:322,1,90,2|2,1:2|1:2,2:0:0:0:
446,216,81034,2,0,P|477:248|498:287,1,90,10|0,2:0|2:0,2:0:0:0:
403,80,81341,5,2,1:2:0:0:
329,251,81495,1,0,1:0:0:0:
214,184,81649,1,10,2:0:0:0:
350,143,81803,1,0,1:0:0:0:
107,180,81957,1,10,2:0:0:0:
273,53,82111,1,2,1:2:0:0:
226,282,82264,1,10,2:0:0:0:
136,83,82418,6,0,P|63:82|15:204,1,180,6|2,1:2|1:2,2:0:0:0:
126,352,82880,1,10,2:0:0:0:
226,282,83034,1,2,1:2:0:0:
226,282,83111,1,0,1:2:0:0:
226,282,83187,2,0,P|219:237|215:192,1,90,2|2,1:2|1:2,2:0:0:0:
39,253,83495,2,0,P|83:259|128:263,1,90,8|2,2:0|2:0,2:0:0:0:
270,72,83795,5,2,1:2:0:0:
96,171,83947,1,2,1:2:0:0:
35,42,84100,2,0,P|79:35|124:31,1,90,8|2,2:0|2:0,2:0:0:0:
192,227,84405,1,0,1:0:0:0:
270,72,84558,1,2,1:2:0:0:
192,227,84711,1,8,2:0:0:0:
385,115,84863,6,0,P|449:142|430:256,1,180,6|2,1:2|1:2,2:0:0:0:
273,337,85321,1,10,2:0:0:0:
282,149,85474,1,10,2:0:0:0:
115,330,85627,1,0,1:0:0:0:
152,150,85779,2,0,P|162:200|179:246,1,90,10|0,2:0|1:0,2:0:0:0:
185,33,86085,1,2,1:2:0:0:
50,153,86237,6,0,P|33:194|25:239,1,90,8|2,2:0|1:2,2:0:0:0:
235,119,86544,2,0,P|276:135|321:143,1,90,8|2,2:0|1:2,2:0:0:0:
114,54,86852,1,10,2:0:0:0:
166,202,87006,1,10,2:0:0:0:
197,223,87083,1,8,2:0:0:0:
232,237,87160,1,10,2:0:0:0:
269,241,87237,1,8,2:0:0:0:
306,236,87313,1,8,2:0:0:0:
340,222,87390,1,8,2:0:0:0:
371,200,87467,6,0,P|376:131|391:24,2,144,4|2|2,1:2|1:2|1:2,2:0:0:0:
309,266,88230,1,0,2:0:0:0:
332,354,88382,1,2,1:2:0:0:
215,357,88533,1,2,2:0:0:0:
215,357,88685,2,0,L|225:285,1,72,2|2,1:2|2:0,2:0:0:0:
141,161,88997,2,0,L|127:242,1,72,0|2,1:0|2:0,2:0:0:0:
83,353,89310,5,0,1:0:0:0:
46,206,89461,1,8,2:0:0:0:
150,272,89613,5,2,1:2:0:0:
113,125,89765,1,8,2:0:0:0:
238,36,89917,5,0,1:0:0:0:
202,182,90070,1,0,2:0:0:0:
299,108,90223,2,0,P|368:129|387:200,1,144,2|2,1:2|1:2,2:0:0:0:
456,272,90682,1,0,2:0:0:0:
456,272,90835,2,0,P|381:288|295:315,1,144,2|2,1:2|1:2,2:0:0:0:
169,253,91294,1,2,2:0:0:0:
143,334,91447,1,0,1:0:0:0:
225,360,91600,1,2,2:0:0:0:
250,277,91753,2,0,P|240:216|221:115,1,144,0|2,1:0|1:2,2:0:0:0:
54,70,92212,1,8,2:0:0:0:
54,70,92289,1,8,2:0:0:0:
54,70,92365,6,0,P|126:23|195:50,2,144,4|2|2,1:2|1:2|1:2,2:0:0:0:
135,133,93131,1,0,2:0:0:0:
56,199,93284,2,0,P|50:248|63:297,1,72,2|2,1:2|2:0,2:0:0:0:
144,321,93590,2,0,P|150:285|146:249,1,72,2|2,1:2|2:0,2:0:0:0:
71,352,93896,1,8,2:0:0:0:
226,285,94049,1,2,2:0:0:0:
185,178,94202,1,0,1:0:0:0:
40,235,94355,1,8,2:0:0:0:
92,126,94508,2,0,P|88:90|80:54,1,72,2|8,1:2|2:0,2:0:0:0:
185,81,94814,5,0,1:0:0:0:
135,243,94968,1,0,1:0:0:0:
262,154,95121,1,2,1:2:0:0:
224,349,95273,1,8,2:0:0:0:
135,243,95425,1,2,1:2:0:0:
373,342,95577,1,8,2:0:0:0:
366,300,95653,1,8,2:0:0:0:
361,260,95729,1,10,2:0:0:0:
355,220,95805,1,8,2:0:0:0:
351,180,95881,1,10,2:0:0:0:
347,141,95957,1,8,2:0:0:0:
340,104,96033,5,2,1:2:0:0:
155,242,96184,1,2,1:2:0:0:
448,30,96802,1,10,2:0:0:0:
264,90,96956,1,10,2:0:0:0:
453,217,97110,1,8,2:0:0:0:
453,217,97187,1,8,2:0:0:0:
453,217,97264,6,0,L|438:314,1,81.0000000000001,4|0,1:2|2:0,2:0:0:0:
311,350,97570,2,0,P|285:286|345:206,1,162,10|2,2:0|1:2,2:0:0:0:
264,90,98029,1,0,1:0:0:0:
176,204,98182,1,10,2:0:0:0:
80,112,98335,6,0,P|82:72|87:32,1,81.0000000000001,2|0,2:0|1:0,2:0:0:0:
176,204,98641,1,2,1:2:0:0:
29,199,98794,1,10,2:0:0:0:
139,343,98947,1,2,2:0:0:0:
169,112,99100,1,2,1:2:0:0:
10,277,99253,1,2,1:2:0:0:
246,358,99406,2,0,P|235:306|246:232,1,121.5,10|0,2:0|2:0,2:0:0:0:
272,146,99712,6,0,P|229:160|173:164,1,81.0000000000001,0|0,1:0|2:0,2:0:0:0:
386,243,100019,1,10,2:0:0:0:
307,62,100172,1,2,2:0:0:0:
462,164,100325,2,0,P|483:203|446:331,1,162,2|8,1:2|2:0,2:0:0:0:
282,261,100784,6,0,B|300:235|353:230|395:245|395:245|373:298,1,162,2|2,2:0|1:2,2:0:0:0:
216,357,101243,1,10,2:0:0:0:
117,225,101396,1,2,2:0:0:0:
342,100,101549,1,2,1:2:0:0:
237,209,101702,1,2,1:2:0:0:
135,91,101855,2,0,P|139:45|152:4,1,81.0000000000001,10|0,2:0|2:0,2:0:0:0:
42,213,102161,6,0,P|111:204|152:306,2,162,0|10|2,1:0|2:0|1:2,2:0:0:0:
225,360,102927,1,0,1:0:0:0:
48,320,103080,1,10,2:0:0:0:
230,212,103233,6,0,P|218:172|211:115,1,81.0000000000001,2|0,2:0|1:0,2:0:0:0:
374,16,103539,1,2,1:2:0:0:
318,147,103692,1,10,2:0:0:0:
245,32,103845,1,0,2:0:0:0:
334,172,103998,1,2,1:2:0:0:
469,58,104151,1,2,1:2:0:0:
495,269,104304,2,0,P|434:262|374:258,1,121.5,10|0,2:0|2:0,2:0:0:0:
292,262,104610,6,0,P|303:308|311:349,1,81.0000000000001,0|0,1:0|2:0,2:0:0:0:
144,278,104917,2,0,P|152:238|161:198,1,81.0000000000001,10|2,2:0|2:0,2:0:0:0:
243,142,105223,1,2,1:2:0:0:
145,277,105376,1,8,2:0:0:0:
66,106,105529,1,10,2:0:0:0:
38,334,105682,6,0,P|118:324|199:320,1,162,6|0,1:2|1:0,2:0:0:0:
390,323,106141,1,10,2:0:0:0:
295,166,106294,1,8,2:0:0:0:
289,125,106371,1,8,2:0:0:0:
284,85,106447,1,10,2:0:0:0:
198,260,106600,1,8,2:0:0:0:
399,200,106753,1,6,2:3:0:0:
281,353,106906,1,8,2:0:0:0:
165,164,107059,6,0,P|89:172|51:229,2,135,6|0|8,1:2|1:0|2:0,2:0:0:0:
207,330,107978,2,0,P|242:329|285:315,1,67.5000000000002,0|0,1:2|1:2,2:0:0:0:
338,246,108284,2,0,P|305:237|271:236,1,67.5000000000002,0|8,1:2|2:0,2:0:0:0:
365,335,108588,2,0,P|411:311|417:221,1,135,0|10,1:0|2:0,2:0:0:0:
356,57,109197,5,2,1:2:0:0:
454,26,109349,1,8,2:0:0:0:
356,57,109502,2,0,P|338:115|326:196,2,135,2|0|8,1:2|1:0|2:0,2:0:0:0:
238,166,110422,2,0,P|204:167|153:145,1,67.5000000000002,0|8,1:0|2:0,2:0:0:0:
121,86,110729,2,0,P|153:76|186:77,1,67.5000000000002,0|8,1:0|2:0,2:0:0:0:
133,252,111036,1,0,1:0:0:0:
296,375,111330,5,10,2:0:0:0:
261,200,111487,1,2,1:2:0:0:
162,336,111644,1,10,2:0:0:0:
392,271,111801,1,8,2:0:0:0:
392,271,111879,1,8,2:0:0:0:
392,271,111958,6,0,L|406:167,1,81.0000000000001,6|0,1:2|1:0,2:0:0:0:
271,30,112264,2,0,P|226:82|250:152,1,121.5,14|0,2:0|2:0,2:0:0:0:
261,200,112570,1,12,1:2:0:0:
342,113,112723,1,2,1:2:0:0:
133,175,112876,1,12,2:0:0:0:
392,271,113029,1,2,1:2:0:0:
392,271,113335,5,0,1:0:0:0:
132,331,113488,1,8,2:0:0:0:
132,331,113565,1,8,2:0:0:0:
132,331,113641,1,0,1:0:0:0:
255,166,113794,1,10,2:0:0:0:
273,354,113947,1,2,1:2:0:0:
126,212,114100,1,10,2:0:0:0:
372,101,114253,1,8,2:0:0:0:
372,101,114330,1,8,2:0:0:0:
372,101,114406,6,0,L|354:205,1,81.0000000000001,6|0,1:2|1:0,2:0:0:0:
212,100,114713,2,0,L|225:20,1,81.0000000000001,14|2,2:0|1:2,2:0:0:0:
126,212,115019,1,12,2:0:0:0:
45,26,115172,1,2,1:2:0:0:
212,100,115325,1,12,2:0:0:0:
26,211,115478,2,0,P|8:288|49:355,1,162,2|0,1:2|1:0,2:0:0:0:
241,186,115937,1,10,2:0:0:0:
241,186,116014,1,8,2:0:0:0:
241,186,116090,1,4,2:3:0:0:
301,68,116243,5,10,2:0:0:0:
252,327,116396,1,10,2:0:0:0:
139,88,116549,1,4,2:3:0:0:
371,215,116702,1,2,1:2:0:0:
108,248,116855,1,4,1:2:0:0:
256,192,116932,12,0,119151,1:0:0:0:
156,293,119304,5,10,2:0:0:0:
358,193,119458,1,2,2:0:0:0:
102,108,119611,1,2,2:0:0:0:
327,26,119764,1,2,2:0:0:0:
48,207,120070,1,2,2:0:0:0:
276,321,120376,6,0,B|269:275|249:242|249:242|261:192|261:192|242:153|239:114,2,216,10|10|10,1:2|1:2|1:2,2:0:0:0:
361,140,121754,6,0,P|311:204|200:178,1,198,6|8,1:2|2:0,2:0:0:0:
91,77,122213,1,2,1:2:0:0:
91,77,122289,1,0,1:2:0:0:
91,77,122366,2,0,P|42:93|17:157,1,99,2|2,1:2|2:0,2:0:0:0:
109,206,122672,1,8,2:0:0:0:
190,38,122825,1,2,2:0:0:0:
24,207,122978,6,0,P|47:266|168:267,1,198,2|8,1:2|2:0,2:0:0:0:
320,111,123437,1,2,1:2:0:0:
320,111,123514,1,0,1:2:0:0:
320,111,123590,1,2,1:2:0:0:
262,313,123743,1,2,2:0:0:0:
152,172,123896,2,0,P|201:173|248:188,1,99,8|2,2:0|2:0,2:0:0:0:
376,291,124202,5,2,1:2:0:0:
194,267,124356,2,0,P|211:313|224:360,1,99,2|8,2:0|2:0,2:0:0:0:
253,54,124662,2,0,P|204:46|156:33,1,99,2|0,2:0|1:0,2:0:0:0:
405,205,124968,2,0,P|436:166|470:131,1,99,2|8,2:0|2:0,2:0:0:0:
154,167,125274,1,2,1:2:0:0:
154,167,125350,1,0,1:2:0:0:
154,167,125427,6,0,B|95:187|95:187|53:143|65:45,1,198,0|8,1:0|2:0,2:0:0:0:
229,84,125886,1,2,2:0:0:0:
234,307,126039,1,2,1:2:0:0:
154,167,126192,1,2,2:0:0:0:
343,85,126345,1,10,2:0:0:0:
442,237,126498,1,2,1:2:0:0:
442,237,126575,1,0,1:2:0:0:
442,237,126651,6,0,P|370:217|296:217,1,148.5,4|0,1:2|2:0,2:0:0:0:
230,272,126958,2,0,P|247:323|262:396,1,99,8|2,2:0|2:0,2:0:0:0:
77,320,127264,1,2,1:2:0:0:
232,175,127417,1,2,2:0:0:0:
75,40,127570,1,10,2:0:0:0:
10,224,127723,6,0,P|88:212|218:204,1,198,2|2,2:0|2:0,2:0:0:0:
397,270,128182,1,10,2:0:0:0:
298,96,128335,1,2,2:0:0:0:
203,279,128488,2,0,P|185:346|183:379,1,99,2|2,1:2|2:0,2:0:0:0:
285,223,128794,1,10,2:0:0:0:
100,114,128947,1,2,2:0:0:0:
100,114,129024,1,0,1:2:0:0:
100,114,129100,5,2,1:2:0:0:
249,21,129254,2,0,P|225:64|212:112,1,99,2|8,2:0|2:0,2:0:0:0:
450,133,129560,2,0,P|400:134|352:146,1,99,2|0,2:0|1:0,2:0:0:0:
419,354,129866,2,0,P|392:312|358:276,1,99,2|8,2:0|2:0,2:0:0:0:
107,261,130172,5,2,1:2:0:0:
427,153,130478,1,2,1:2:0:0:
70,42,130784,1,2,1:2:0:0:
208,341,131090,5,2,1:2:0:0:
208,341,131167,1,0,1:0:0:0:
208,341,131243,1,10,2:0:0:0:
131,105,131396,1,2,1:2:0:0:
336,252,131549,6,0,B|399:239|456:258|456:258|475:217|458:170,1,198,6|8,1:2|2:0,2:0:0:0:
273,81,132009,1,2,1:2:0:0:
273,81,132085,1,0,1:2:0:0:
273,81,132162,2,0,P|324:76|379:55,1,99,2|2,1:2|2:0,2:0:0:0:
161,32,132468,1,8,2:0:0:0:
178,276,132621,1,2,2:0:0:0:
348,181,132774,6,0,P|298:133|175:176,1,198,2|8,1:2|2:0,2:0:0:0:
260,370,133233,1,2,1:2:0:0:
260,370,133310,1,0,1:2:0:0:
260,370,133386,1,2,1:2:0:0:
258,216,133539,1,2,2:0:0:0:
143,343,133692,1,8,2:0:0:0:
372,284,133845,1,2,2:0:0:0:
234,103,133998,5,2,1:2:0:0:
118,244,134151,2,0,P|63:235|14:213,1,99,2|8,2:0|2:0,2:0:0:0:
127,15,134458,2,0,P|146:67|152:120,1,99,2|0,2:0|1:0,2:0:0:0:
229,338,134764,2,0,P|264:294|307:263,1,99,2|8,2:0|2:0,2:0:0:0:
480,113,135070,6,0,P|389:135|280:44,1,198,6|0,1:2|1:0,2:0:0:0:
451,315,135529,1,10,2:0:0:0:
451,315,135606,1,8,2:0:0:0:
451,315,135682,1,0,2:0:0:0:
231,347,135835,1,2,1:2:0:0:
233,308,135912,1,8,2:0:0:0:
237,270,135988,1,10,2:0:0:0:
240,232,136065,1,8,2:0:0:0:
243,194,136141,1,10,2:0:0:0:
246,156,136218,1,8,2:0:0:0:
250,119,136294,1,10,2:0:0:0:
253,81,136371,1,8,2:0:0:0:
256,43,136447,6,0,P|193:70|120:84,1,99,6|2,1:2|2:0,2:0:0:0:
4,237,136754,2,0,P|51:250|97:269,1,99,10|2,2:0|2:0,2:0:0:0:
93,68,137060,1,10,1:2:0:0:
237,270,137213,1,0,2:0:0:0:
45,159,137366,1,10,2:0:0:0:
243,17,137519,6,0,P|321:41|321:172,1,198,2|0,1:2|1:0,2:0:0:0:
153,214,137978,2,0,P|158:164|167:116,1,99,10|0,2:0|1:0,2:0:0:0:
210,300,138284,1,2,2:0:0:0:
255,93,138434,1,2,1:2:0:0:
98,300,138584,1,10,2:0:0:0:
326,207,138734,1,2,1:2:0:0:
145,50,138884,6,0,P|136:105|126:160,1,99,6|2,1:2|2:0,2:0:0:0:
381,70,139190,1,10,2:0:0:0:
208,187,139343,1,2,2:0:0:0:
347,336,139496,2,0,P|338:287|330:238,1,99,10|0,1:2|2:0,2:0:0:0:
417,164,139802,1,10,2:0:0:0:
230,290,139955,6,0,B|165:265|165:265|93:265|49:338,1,198,2|0,1:2|1:0,2:0:0:0:
38,107,140414,2,0,P|92:177|153:180,1,148.5,10|0,2:0|2:0,2:0:0:0:
197,98,140720,2,0,L|185:25,1,49.5,10|8,2:0|2:0,2:0:0:0:
304,91,140876,2,0,L|312:42,1,49.5,8|8,2:0|2:0,2:0:0:0:
413,135,141033,1,10,2:0:0:0:
436,163,141111,1,8,2:0:0:0:
449,198,141189,1,8,2:0:0:0:
451,234,141268,1,8,2:0:0:0:
441,269,141346,6,0,P|386:279|336:296,1,99,6|0,1:2|1:0,2:0:0:0:
156,345,141652,1,10,2:0:0:0:
295,137,141805,1,2,1:2:0:0:
119,39,141958,1,10,2:0:0:0:
193,254,142111,1,0,1:0:0:0:
239,57,142264,1,10,2:0:0:0:
51,193,142417,1,0,1:0:0:0:
187,348,142570,6,0,P|235:340|270:306,1,99,10|0,2:0|1:0,2:0:0:0:
141,72,142876,1,10,2:0:0:0:
193,254,143029,1,0,1:0:0:0:
359,25,143182,1,10,2:0:0:0:
223,167,143335,1,0,1:0:0:0:
388,296,143488,1,10,2:0:0:0:
317,122,143641,1,0,1:0:0:0:
99,237,143794,6,0,P|196:251|294:270,2,198,10|10|10,2:0|2:0|2:0,2:0:0:0:
255,363,144560,1,0,1:0:0:0:
255,363,144636,1,0,1:0:0:0:
255,363,144713,1,10,2:0:0:0:
195,23,144866,1,6,1:2:0:0:
406,88,146090,6,0,P|391:158|376:288,1,180,6|2,1:2|2:0,2:0:0:0:
194,212,146550,2,0,P|236:196|280:193,1,90,2|2,1:2|2:0,2:0:0:0:
123,320,146856,2,0,P|75:245|85:157,1,180,10|0,2:0|2:0,2:0:0:0:
275,79,147315,2,0,B|205:61|205:61|163:73|163:73|96:53,1,180,2|2,1:2|1:2,2:0:0:0:
333,172,147774,2,0,P|358:135|378:94,1,90,0|2,2:0|1:2,2:0:0:0:
153,176,148080,1,8,2:0:0:0:
260,343,148233,1,2,1:2:0:0:
333,172,148386,1,10,2:0:0:0:
116,284,148539,6,0,P|69:255|60:134,1,180,6|2,1:2|2:0,2:0:0:0:
116,284,148999,2,0,P|101:328|92:379,1,90,2|0,1:2|2:0,2:0:0:0:
268,194,149305,2,0,P|241:99|219:4,1,180,10|2,2:0|1:2,2:0:0:0:
265,313,149764,2,0,P|308:298|372:281,1,90,0|2,1:0|2:0,2:0:0:0:
476,325,150070,1,0,1:0:0:0:
440,148,150223,2,0,P|428:191|421:235,1,90,2|0,2:0|1:0,2:0:0:0:
348,47,150529,1,10,2:0:0:0:
121,192,150682,1,2,1:2:0:0:
216,8,150835,1,10,2:0:0:0:
304,205,150988,6,0,P|343:293|264:368,1,180,6|2,1:2|2:0,2:0:0:0:
132,332,151448,1,2,1:2:0:0:
304,205,151601,1,2,2:0:0:0:
132,332,151754,2,0,P|73:320|40:206,1,180,10|0,2:0|2:0,2:0:0:0:
107,16,152213,2,0,P|127:69|142:136,1,90,2|2,1:2|2:0,2:0:0:0:
136,231,152519,1,2,1:2:0:0:
268,129,152672,2,0,P|311:140|355:147,1,90,0|2,2:0|1:2,2:0:0:0:
403,53,152978,1,8,2:0:0:0:
321,270,153131,1,2,1:2:0:0:
403,53,153284,1,8,2:0:0:0:
169,11,153437,6,0,P|186:101|201:190,1,180,6|2,1:2|2:0,2:0:0:0:
321,270,153897,2,0,P|291:305|269:344,1,90,2|2,1:2|2:0,2:0:0:0:
45,250,154203,2,0,P|111:257|155:360,1,180,8|0,2:0|1:0,2:0:0:0:
30,153,154662,2,0,P|37:87|140:43,1,180,2|2,1:2|1:2,2:0:0:0:
285,226,155121,1,8,2:0:0:0:
117,132,155274,1,2,1:2:0:0:
117,132,155351,1,0,1:0:0:0:
117,132,155427,1,10,2:0:0:0:
172,331,155580,1,10,2:0:0:0:
172,331,155657,1,8,2:0:0:0:
172,331,155733,1,6,2:3:0:0:
355,163,155886,6,0,P|382:257|303:319,1,180,4|0,1:2|1:0,2:0:0:0:
259,95,156346,1,8,2:0:0:0:
430,57,156499,1,2,1:2:0:0:
430,57,156575,1,0,1:0:0:0:
430,57,156652,1,8,2:0:0:0:
285,226,156805,1,0,1:0:0:0:
343,27,156958,1,8,2:0:0:0:
112,70,157111,6,0,B|146:82|183:78|183:78|221:111|293:124,1,180,6|0,1:2|1:0,2:0:0:0:
120,320,157570,1,10,2:0:0:0:
114,284,157647,1,8,2:0:0:0:
109,248,157723,1,0,1:0:0:0:
104,213,157800,1,0,1:0:0:0:
98,177,157876,5,10,2:0:0:0:
125,355,158029,1,0,1:0:0:0:
6,152,158182,5,10,2:0:0:0:
237,279,158335,2,0,B|301:260|301:260|340:268|340:268|410:248,1,180,6|0,1:2|1:0,2:0:0:0:
346,153,158794,1,8,2:0:0:0:
295,371,158948,1,2,1:2:0:0:
162,90,159101,1,8,2:0:0:0:
237,279,159254,1,0,1:0:0:0:
312,54,159407,1,8,2:0:0:0:
94,194,159560,6,0,P|39:258|66:356,1,180,6|8,1:2|2:0,2:0:0:0:
91,361,159942,1,8,2:0:0:0:
126,354,160019,1,6,2:3:0:0:
161,347,160096,1,4,2:3:0:0:
197,340,160172,1,0,1:0:0:0:
232,334,160249,1,0,1:0:0:0:
267,327,160325,5,10,2:0:0:0:
152,92,160478,1,8,2:0:0:0:
417,55,160631,1,10,2:0:0:0:
206,235,160784,6,0,P|126:213|18:192,1,180,6|0,1:2|1:0,2:0:0:0:
328,355,161243,1,8,2:0:0:0:
328,355,161320,1,0,1:0:0:0:
328,355,161397,1,2,1:2:0:0:
292,131,161550,1,8,2:0:0:0:
93,328,161703,1,0,1:0:0:0:
153,70,161856,1,8,2:0:0:0:
316,237,162009,6,0,P|378:203|388:99,1,180,6|8,1:2|1:2,2:0:0:0:
373,66,162391,1,8,2:0:0:0:
337,62,162468,1,10,2:0:0:0:
301,59,162544,1,8,2:0:0:0:
265,55,162621,1,0,1:0:0:0:
229,52,162698,1,0,1:0:0:0:
192,48,162774,5,10,2:0:0:0:
153,70,162851,1,8,2:0:0:0:
130,108,162927,1,4,2:3:0:0:
129,152,163004,1,4,2:3:0:0:
150,192,163080,1,10,2:0:0:0:
24,39,163233,6,0,P|113:48|202:58,1,180,6|0,1:2|1:0,2:0:0:0:
38,211,163692,1,8,2:0:0:0:
31,166,163769,1,0,1:0:0:0:
24,121,163846,1,2,1:2:0:0:
177,377,164001,1,8,2:0:0:0:
290,94,164155,1,0,1:0:0:0:
38,211,164310,1,8,2:0:0:0:
369,321,164457,1,6,1:2:0:0:
118,225,165836,6,0,B|188:191|188:242|262:201,1,135,6|0,1:2|1:0,2:0:0:0:
324,138,166295,1,2,2:0:0:0:
324,138,166448,2,0,P|330:94|319:42,1,67.5000000000002,0|0,1:0|3:0,2:0:0:0:
367,235,166754,2,0,P|399:205|424:158,1,67.5000000000002,0|0,1:0|3:0,2:0:0:0:
248,207,167060,2,0,P|266:274|287:370,2,135,0|0|2,1:0|1:0|1:2,2:0:0:0:
168,137,167825,1,0,3:0:0:0:
120,260,167978,2,0,P|152:249|181:232,1,67.5000000000002,2|0,1:2|3:0,2:0:0:0:
50,105,168284,6,0,P|61:170|17:236,1,135,2|0,1:2|1:0,2:0:0:0:
26,331,168744,1,0,3:0:0:0:
136,297,168897,2,0,L|124:372,1,67.5000000000002,0|0,1:0|3:0,2:0:0:0:
240,269,169203,2,0,L|229:202,1,67.5000000000002,0|0,1:0|3:0,2:0:0:0:
228,365,169509,2,0,B|267:337|292:337|292:337|322:361|378:351,1,135,0|0,1:0|1:0,2:0:0:0:
449,295,169968,1,0,3:0:0:0:
390,150,170121,1,2,1:2:0:0:
344,268,170274,1,2,2:0:0:0:
500,209,170427,2,0,P|487:160|473:84,1,101.25,2|0,1:2|2:0,2:0:0:0:
486,22,170733,6,0,P|424:45|373:46,1,81.0000000000001,6|0,1:2|1:0,2:0:0:0:
237,47,171040,1,14,2:0:0:0:
237,47,171116,1,2,2:0:0:0:
237,47,171193,1,2,2:0:0:0:
312,217,171346,1,12,2:0:0:0:
376,123,171499,1,2,1:2:0:0:
146,159,171652,1,12,2:0:0:0:
246,343,171805,1,2,1:2:0:0:
246,343,172111,5,0,1:0:0:0:
431,225,172264,1,8,2:0:0:0:
431,225,172341,1,8,2:0:0:0:
431,225,172417,1,0,1:0:0:0:
241,120,172570,1,10,2:0:0:0:
318,304,172723,1,2,1:2:0:0:
385,80,172876,1,10,2:0:0:0:
190,237,173029,1,8,2:0:0:0:
190,237,173106,1,8,2:0:0:0:
190,237,173182,6,0,P|145:239|112:118,1,162,6|14,1:2|2:0,2:0:0:0:
326,136,173642,1,2,2:0:0:0:
315,174,173718,1,2,2:0:0:0:
304,212,173795,1,12,1:2:0:0:
242,65,173948,1,2,2:0:0:0:
293,308,174101,1,12,2:0:0:0:
435,207,174254,6,0,P|468:158|397:68,1,162,2|0,1:2|1:0,2:0:0:0:
241,158,174713,1,10,2:0:0:0:
201,168,174790,1,8,2:0:0:0:
162,178,174866,1,4,2:3:0:0:
283,30,175019,1,10,2:0:0:0:
63,83,175172,1,10,2:0:0:0:
116,303,175325,1,8,2:0:0:0:
336,250,175478,1,2,1:2:0:0:
283,30,175631,1,4,1:2:0:0:
256,192,175708,12,0,177927,1:0:0:0:
323,63,178080,5,10,2:0:0:0:
139,155,178233,1,2,2:0:0:0:
367,232,178387,1,2,2:0:0:0:
134,317,178540,1,2,2:0:0:0:
233,40,178846,1,2,2:0:0:0:
33,274,179152,5,10,1:2:0:0:
414,324,179458,1,10,1:2:0:0:
233,40,179764,1,10,1:2:0:0:
374,95,185435,5,4,1:2:0:0:
133,262,186507,5,6,1:2:0:0:
329,177,186811,5,0,2:0:0:0:
329,177,186963,2,0,L|311:275,1,67.5000000000002,2|0,2:0|2:0,2:0:0:0:
394,314,187267,2,0,L|406:247,1,67.5000000000002,2|0,2:0|2:0,2:0:0:0:
304,324,187572,1,2,2:0:0:0:
236,251,187724,1,0,2:0:0:0:
17,357,187876,5,6,1:2:0:0:
415,70,189254,5,6,1:2:0:0:
39,222,189560,1,6,1:2:0:0:
314,348,189866,5,6,1:2:0:0:
314,348,189942,1,0,1:0:0:0:
314,348,190019,1,10,2:0:0:0:
270,75,190172,1,2,2:0:0:0:
419,244,190325,6,0,P|326:224|218:209,1,198,6|8,1:2|2:0,2:0:0:0:
101,38,190784,1,2,1:2:0:0:
101,38,190860,1,0,1:2:0:0:
101,38,190937,2,0,P|73:82|59:134,1,99,2|2,1:2|2:0,2:0:0:0:
234,294,191243,1,8,2:0:0:0:
180,64,191396,1,2,2:0:0:0:
33,240,191549,6,0,P|51:331|142:350,1,198,2|8,1:2|2:0,2:0:0:0:
395,246,192008,1,2,1:2:0:0:
395,246,192085,1,0,1:2:0:0:
395,246,192161,2,0,P|376:198|304:190,1,99,2|2,1:2|2:0,2:0:0:0:
116,182,192467,2,0,P|132:227|176:246,1,99,8|2,2:0|2:0,2:0:0:0:
151,64,192773,5,2,1:2:0:0:
255,310,192927,2,0,P|270:243|260:198,1,99,2|8,2:0|2:0,2:0:0:0:
25,259,193233,2,0,P|40:305|54:361,1,99,2|0,2:0|1:0,2:0:0:0:
151,64,193539,2,0,P|103:51|55:36,1,99,2|8,2:0|2:0,2:0:0:0:
409,59,193845,1,6,1:2:0:0:
409,59,194151,5,0,1:0:0:0:
268,185,194304,1,10,2:0:0:0:
220,171,194381,1,0,1:0:0:0:
172,157,194457,1,0,1:0:0:0:
409,59,194610,1,10,2:0:0:0:
446,80,194687,1,8,2:0:0:0:
472,115,194763,1,10,2:0:0:0:
483,156,194840,1,8,2:0:0:0:
478,199,194916,1,10,2:0:0:0:
457,237,194993,1,8,2:0:0:0:
424,264,195069,1,10,2:0:0:0:
383,276,195146,1,8,2:0:0:0:
340,273,195222,6,0,P|356:326|367:377,1,99,6|2,1:2|2:0,2:0:0:0:
192,69,195529,1,10,2:0:0:0:
257,304,195682,1,2,2:0:0:0:
394,148,195835,2,0,P|350:171|302:180,1,99,10|0,1:2|2:0,2:0:0:0:
125,324,196141,1,10,2:0:0:0:
192,69,196294,6,0,P|221:164|245:258,1,198,2|0,1:2|1:0,2:0:0:0:
107,83,196753,1,10,2:0:0:0:
107,83,196830,1,0,1:0:0:0:
107,83,196906,1,0,1:0:0:0:
326,47,197059,1,2,2:0:0:0:
107,83,197212,1,2,1:2:0:0:
326,47,197365,1,10,2:0:0:0:
204,283,197518,1,2,1:2:0:0:
224,108,197671,6,0,P|216:59|206:10,1,99,6|2,1:2|2:0,2:0:0:0:
204,283,197978,1,10,2:0:0:0:
36,127,198131,1,2,2:0:0:0:
272,207,198284,2,0,B|315:209|344:184|344:184|405:213|481:170,1,198,10|10,1:2|2:0,2:0:0:0:
178,20,198743,6,0,P|140:92|175:240,1,198,2|0,1:2|1:0,2:0:0:0:
317,343,199202,2,0,P|304:292|279:229,1,99,14|0,2:0|1:0,2:0:0:0:
34,289,199508,1,10,2:0:0:0:
62,320,199585,1,8,2:0:0:0:
103,334,199661,1,8,2:0:0:0:
145,326,199738,1,8,2:0:0:0:
178,298,199814,1,10,2:0:0:0:
192,258,199891,1,8,2:0:0:0:
185,215,199967,1,8,2:0:0:0:
159,182,200044,1,8,2:0:0:0:
119,166,200120,6,0,P|96:108|85:43,1,99,6|2,1:2|2:0,2:0:0:0:
263,37,200427,1,8,2:0:0:0:
298,241,200580,1,2,2:0:0:0:
298,241,200656,1,0,1:2:0:0:
298,241,200733,2,0,P|345:226|406:215,1,99,2|2,1:2|2:0,2:0:0:0:
162,307,201039,1,8,2:0:0:0:
243,125,201192,1,2,2:0:0:0:
25,122,201345,6,0,P|89:203|194:189,1,198,2|8,1:2|2:0,2:0:0:0:
336,46,201804,1,2,2:0:0:0:
336,46,201881,1,0,1:2:0:0:
336,46,201957,2,0,P|258:49|225:58,1,99,2|2,1:2|2:0,2:0:0:0:
319,251,202263,1,8,2:0:0:0:
459,87,202416,1,2,2:0:0:0:
481,269,202569,5,2,1:2:0:0:
297,154,202722,2,0,P|310:201|318:250,1,99,2|8,2:0|2:0,2:0:0:0:
57,112,203029,2,0,P|64:63|78:15,1,99,2|0,2:0|1:0,2:0:0:0:
161,328,203335,2,0,P|113:341|64:349,1,99,2|8,2:0|2:0,2:0:0:0:
237,96,203641,1,2,1:2:0:0:
237,96,203717,1,0,1:2:0:0:
237,96,203794,6,0,P|311:136|398:54,1,198,0|8,1:2|2:0,2:0:0:0:
157,41,204253,1,2,2:0:0:0:
253,220,204406,1,2,1:2:0:0:
308,44,204559,1,2,2:0:0:0:
156,196,204712,1,10,2:0:0:0:
21,102,204865,1,2,1:2:0:0:
148,325,205018,6,0,P|245:306|343:291,1,198,6|8,1:2|2:0,2:0:0:0:
70,268,205478,1,2,2:0:0:0:
126,102,205631,2,0,P|149:153|156:209,1,99,2|2,1:2|2:0,2:0:0:0:
326,239,205937,1,10,2:0:0:0:
382,42,206090,6,0,P|288:27|222:128,1,198,2|2,2:0|2:0,2:0:0:0:
250,337,206549,2,0,P|242:288|229:240,1,99,10|2,2:0|2:0,2:0:0:0:
452,89,206855,1,2,1:2:0:0:
375,214,207008,1,2,2:0:0:0:
165,91,207161,2,0,P|213:83|261:70,1,99,10|2,2:0|2:0,2:0:0:0:
375,214,207467,5,2,1:2:0:0:
184,350,207620,2,0,P|194:301|202:252,1,99,2|8,2:0|2:0,2:0:0:0:
73,33,207927,2,0,P|62:81|54:130,1,99,2|0,2:0|1:0,2:0:0:0:
190,32,208233,1,2,2:0:0:0:
56,257,208386,1,8,2:0:0:0:
311,331,208539,6,0,P|294:235|273:130,2,198,2|2|2,1:2|1:2|1:2,2:0:0:0:
69,114,209457,2,0,L|136:94,1,49.5,2|0,1:2|1:0,2:0:0:0:
217,62,209610,1,10,2:0:0:0:
349,225,209763,1,6,2:3:0:0:
149,353,209916,6,0,P|103:269|164:165,1,216,6|0,1:2|2:0,2:0:0:0:
487,20,210539,2,0,P|471:84|451:259,1,216,14|0,2:0|2:0,2:0:0:0:
57,177,211150,2,0,B|71:118|49:65|49:65|90:25|169:38,1,216,2|0,1:2|1:2,2:0:0:0:
408,317,211756,2,0,P|276:327|164:345,1,216,14|2,2:0|2:0,2:0:0:0:
388,49,212362,5,2,1:2:0:0:
289,160,212519,2,0,P|250:151|191:141,1,72.072,2|0,2:0|1:0,2:0:0:0:
348,250,212830,1,2,2:0:0:0:
188,26,212983,1,12,2:0:0:0:
132,212,213136,1,2,2:0:0:0:
306,48,213289,1,0,2:0:0:0:
33,149,213442,6,0,P|18:192|48:296,1,144,2|0,1:2|1:0,2:0:0:0:
267,263,213901,1,2,2:0:0:0:
175,349,214054,1,0,1:0:0:0:
129,238,214207,2,0,P|132:189|142:140,1,99,14|10,2:0|2:0,2:0:0:0:
182,131,214435,1,8,2:0:0:0:
223,122,214511,1,10,2:0:0:0:
263,115,214587,1,8,2:0:0:0:
304,106,214663,1,10,2:0:0:0:
344,98,214739,1,8,2:0:0:0:
385,89,214815,6,0,P|372:142|363:212,1,99,6|2,1:2|2:0,2:0:0:0:
457,321,215121,1,10,2:0:0:0:
365,185,215274,1,2,2:0:0:0:
217,322,215427,2,0,B|161:341|109:338|109:338|76:305|92:256,1,198,10|10,1:2|2:0,2:0:0:0:
174,17,215886,6,0,P|184:115|200:213,1,198,2|0,1:2|1:0,2:0:0:0:
83,55,216345,1,10,2:0:0:0:
277,152,216498,1,0,1:0:0:0:
92,257,216651,2,0,P|44:244|-1:224,1,99,2|2,2:0|1:2,2:0:0:0:
229,60,216957,1,10,2:0:0:0:
179,314,217110,1,2,1:2:0:0:
179,314,217187,1,0,1:0:0:0:
179,314,217263,5,6,1:2:0:0:
229,60,217417,1,2,2:0:0:0:
330,289,217570,1,10,2:0:0:0:
110,157,217723,1,2,2:0:0:0:
367,130,217876,2,0,P|390:86|408:40,1,99,10|0,1:2|2:0,2:0:0:0:
132,41,218182,1,10,2:0:0:0:
68,270,218335,6,0,P|167:251|263:236,1,198,2|0,1:2|1:0,2:0:0:0:
68,122,218794,2,0,P|31:66|21:28,1,99,10|0,2:0|1:0,2:0:0:0:
197,201,219100,2,0,P|183:246|169:305,1,99,2|8,2:0|2:0,2:0:0:0:
166,263,219330,1,8,2:0:0:0:
161,231,219406,1,10,2:0:0:0:
157,198,219483,1,8,2:0:0:0:
152,165,219559,1,8,2:0:0:0:
147,132,219636,1,8,2:0:0:0:
143,100,219712,6,0,P|197:92|260:73,1,99,6|0,1:2|1:0,2:0:0:0:
436,284,220019,1,10,2:0:0:0:
335,63,220172,1,2,1:2:0:0:
239,346,220325,1,10,2:0:0:0:
398,139,220478,1,0,1:0:0:0:
189,26,220631,1,10,2:0:0:0:
254,253,220784,1,0,1:0:0:0:
115,175,220937,6,0,P|44:201|-7:199,1,99,14|0,2:0|1:0,2:0:0:0:
298,32,221243,2,0,P|285:79|275:128,1,99,10|0,2:0|1:0,2:0:0:0:
362,344,221549,1,10,2:0:0:0:
117,301,221702,1,0,1:0:0:0:
353,128,221855,1,10,2:0:0:0:
257,346,222008,1,0,1:0:0:0:
84,211,222161,6,0,B|67:130|67:130|84:89|84:89|63:-18,2,198,14|10|10,2:0|2:0|2:0,2:0:0:0:
235,52,222927,2,0,L|219:140,1,49.5,0|0,1:0|2:0,2:0:0:0:
185,308,223080,1,10,2:0:0:0:
465,189,223233,1,6,1:2:0:0:
41,103,223845,6,0,L|102:86,1,49.5,0|0,1:0|1:0,2:0:0:0:
235,52,223998,1,10,2:0:0:0:
185,308,224151,1,10,1:2:0:0:
41,103,224304,1,8,2:0:0:0:
265,195,224457,6,0,P|351:179|443:170,1,180,6|2,1:2|1:2,2:0:0:0:
484,246,224840,1,2,2:0:0:0:
484,246,224917,2,0,P|500:321|503:348,1,90,10|2,2:0|2:0,2:0:0:0:
283,356,225223,1,2,1:2:0:0:
355,216,225376,1,2,1:2:0:0:
181,183,225529,2,0,P|168:228|184:269,1,90,8|2,2:0|2:0,2:0:0:0:
284,104,225835,6,0,P|214:45|109:70,1,180,0|8,1:0|2:0,2:0:0:0:
61,251,226294,1,2,2:0:0:0:
310,198,226447,1,0,1:0:0:0:
137,350,226600,1,2,1:2:0:0:
183,148,226753,1,10,2:0:0:0:
310,331,226906,6,0,P|394:311|434:233,1,180,6|2,1:2|1:2,2:0:0:0:
327,74,227366,1,10,2:0:0:0:
245,236,227519,1,0,1:0:0:0:
245,236,227595,1,0,1:0:0:0:
245,236,227672,2,0,P|197:228|136:226,1,90,2|2,1:2|1:2,2:0:0:0:
379,160,227978,2,0,P|427:152|488:150,1,90,10|0,2:0|1:0,2:0:0:0:
239,83,228284,5,14,2:0:0:0:
286,311,228437,1,8,2:0:0:0:
286,311,228513,1,8,2:0:0:0:
286,311,228590,1,2,1:2:0:0:
394,212,228743,1,12,2:0:0:0:
193,211,228896,1,10,2:0:0:0:
356,89,229049,1,2,1:2:0:0:
286,311,229202,1,10,2:0:0:0:
114,197,229355,6,0,P|125:107|146:20,1,180,6|2,1:2|1:2,2:0:0:0:
201,275,229815,1,10,2:0:0:0:
34,348,229968,1,2,1:2:0:0:
34,348,230044,1,0,1:2:0:0:
34,348,230121,2,0,P|22:304|22:259,1,90,2|2,1:2|1:2,2:0:0:0:
144,75,230427,1,8,2:0:0:0:
111,243,230580,1,2,2:0:0:0:
306,172,230733,6,0,P|237:147|186:151,1,90,2|2,1:2|1:2,2:0:0:0:
376,324,231039,2,0,P|420:317|460:298,1,90,8|2,2:0|2:0,2:0:0:0:
256,271,231345,1,0,1:0:0:0:
366,44,231498,1,2,1:2:0:0:
389,225,231651,1,8,2:0:0:0:
136,119,231804,6,0,P|203:63|287:87,1,180,6|2,1:2|1:2,2:0:0:0:
152,256,232263,1,10,2:0:0:0:
338,345,232417,1,2,1:2:0:0:
338,345,232493,1,0,1:0:0:0:
338,345,232570,1,0,1:0:0:0:
502,160,232723,2,0,P|489:203|484:247,1,90,10|0,2:0|1:0,2:0:0:0:
256,212,233029,1,2,1:2:0:0:
372,29,233182,5,8,2:0:0:0:
111,107,233335,1,2,1:2:0:0:
407,164,233488,1,8,2:0:0:0:
117,261,233641,1,2,1:2:0:0:
175,53,233794,5,10,1:2:0:0:
208,317,233947,1,10,1:2:0:0:
472,284,234100,1,10,1:2:0:0:
439,20,234253,1,8,1:2:0:0:
331,199,234406,6,0,L|331:131,1,45,2|0,1:2|1:0,2:0:0:0:
333,60,234560,1,2,1:2:0:0:
222,258,234714,2,0,P|173:242|124:233,1,72,2|2,1:2|2:0,2:0:0:0:
421,133,235022,1,10,1:2:0:0:
322,347,235176,1,2,1:2:0:0:
125,210,235484,6,0,B|172:224|200:187|247:191|247:191|225:147|236:92,1,216,6|0,1:2|2:0,2:0:0:0:
