osu file format v14

[General]
AudioFilename: audio.mp3
AudioLeadIn: 0
PreviewTime: 52628
Countdown: 0
SampleSet: Soft
StackLeniency: 0.7
Mode: 3
LetterboxInBreaks: 0
SpecialStyle: 0
WidescreenStoryboard: 1

[Editor]
Bookmarks: 28751
DistanceSpacing: 0.9
BeatDivisor: 4
GridSize: 32
TimelineZoom: 2.1

[Metadata]
Title:Relive (Cut Ver.)
TitleUnicode:Relive (Cut Ver.)
Artist:nonoc
ArtistUnicode:nonoc
Creator:secXcscX
Version:Normal
Source:Re:ゼロから始める異世界生活 Memory Snow
Tags:re:zero kara hajimeru isekai seikatsu rezero starting life in another world different from zero anime ova original animation japanese rock short イメージソング Image Song J-rock anime
BeatmapID:2473676
BeatmapSetID:1178490

[Difficulty]
HPDrainRate:7
CircleSize:4
OverallDifficulty:7
ApproachRate:5
SliderMultiplier:1.4
SliderTickRate:1

[Events]
//Background and Video events
0,0,"babo.jpg",0,0
//Break Periods
//Storyboard Layer 0 (Background)
//Storyboard Layer 1 (Fail)
//Storyboard Layer 2 (Pass)
//Storyboard Layer 3 (Foreground)
//Storyboard Layer 4 (Overlay)
//Storyboard Sound Samples
Sample,4100,0,"LR_CymbalQST.wav",70
Sample,4559,0,"LR_CymbalQST.wav",70
Sample,38539,0,"LR_CymbalCCR.wav",70
Sample,43437,0,"LR_CymbalQST.wav",70
Sample,46804,0,"LR_CymbalQST.wav",70
Sample,47875,0,"LR_Tom Drop.wav",90
Sample,48335,0,"LR_CymbalQST.wav",70
Sample,53233,0,"LR_CymbalQST.wav",70
Sample,67008,0,"LR_CymbalCCR.wav",70
Sample,67314,0,"LR_Tom Hit 2.wav",90
Sample,81855,0,"LR_Tom Hit 2.wav",70

[TimingPoints]
580,306.122448979592,4,2,1,100,1,0
37620,-100,4,2,1,30,0,0
37926,-100,4,2,1,50,0,0
38233,-100,4,2,1,70,0,0
38539,-100,4,2,1,100,0,1
42824,-100,4,2,1,100,0,0
53233,-100,4,2,1,100,0,1
61651,-100,4,2,1,100,0,0
63028,-100,4,2,1,100,0,1
66549,-100,4,2,1,100,0,0
77722,-100,4,2,1,100,0,1
87518,-100,4,2,1,100,0,0

[HitObjects]
64,192,580,5,4,0:0:0:0:
448,192,580,128,8,886:0:0:0:0:
448,192,1804,1,0,0:0:0:0:
320,192,1957,1,0,0:0:0:0:
192,192,2110,1,0,0:0:0:0:
64,192,2263,128,0,2569:0:0:0:0:
320,192,2569,128,0,2875:0:0:0:0:
448,192,2875,128,0,3182:0:0:0:0:
64,192,3182,128,0,3335:0:0:0:0:
320,192,3335,128,0,3488:0:0:0:0:
448,192,3488,128,0,3794:0:0:0:0:
192,192,3794,128,0,3947:0:0:0:0:
320,192,3947,128,0,4100:0:0:0:0:
64,192,4100,128,8,4406:0:0:0:0:
448,192,4100,1,0,0:0:0:70:LR_CymbalCCR.wav
320,192,4406,1,8,0:0:0:0:
192,192,4559,128,2,4865:0:0:0:0:
448,192,4865,1,2,0:0:0:0:
64,192,5018,1,0,0:0:0:70:LR_Tom Hit 2.wav
192,192,5095,1,0,0:0:0:70:LR_Tom Hit 2.wav
320,192,5171,1,0,0:0:0:70:LR_Tom Hit 3.wav
64,192,5324,1,8,0:0:0:0:
448,192,5477,1,2,0:0:0:0:
320,192,5631,1,2,0:0:0:0:
64,192,5784,1,2,0:0:0:0:
448,192,5937,1,8,0:0:0:0:
64,192,6090,1,2,0:0:0:0:
192,192,6243,1,2,0:0:0:0:
320,192,6396,1,2,0:0:0:0:
64,192,6549,128,8,6855:0:0:0:0:
448,192,6549,1,0,0:0:0:70:LR_CymbalCCR.wav
320,192,6855,1,8,0:0:0:0:
192,192,7008,1,2,0:0:0:0:
448,192,7008,1,4,0:0:0:0:
64,192,7161,1,0,0:0:0:0:
448,192,7314,1,12,0:0:0:0:
320,192,7467,1,8,0:0:0:0:
192,192,7620,1,2,0:0:0:0:
448,192,7620,1,4,0:0:0:0:
64,192,7773,1,0,0:0:0:0:
192,192,7926,1,12,0:0:0:0:
320,192,8080,1,8,0:0:0:0:
64,192,8233,1,2,0:0:0:0:
448,192,8233,1,4,0:0:0:0:
192,192,8386,1,0,0:0:0:0:
320,192,8539,1,12,0:0:0:0:
448,192,8692,1,8,0:0:0:0:
64,192,8845,1,2,0:0:0:0:
192,192,8845,1,0,0:0:0:0:
320,192,8998,128,8,9304:0:0:0:0:
448,192,8998,1,0,0:0:0:70:LR_CymbalQST.wav
192,192,9304,1,8,0:0:0:0:
64,192,9457,1,2,0:0:0:0:
448,192,9457,1,4,0:0:0:0:
320,192,9610,1,0,0:0:0:0:
192,192,9763,1,12,0:0:0:0:
448,192,9916,1,8,0:0:0:0:
64,192,10069,1,2,0:0:0:0:
320,192,10069,1,4,0:0:0:0:
192,192,10222,1,0,0:0:0:0:
64,192,10375,1,8,0:0:0:0:
448,192,10375,1,4,0:0:0:0:
320,192,10528,1,8,0:0:0:0:
192,192,10682,1,2,0:0:0:0:
448,192,10682,1,4,0:0:0:0:
320,192,10835,1,0,0:0:0:0:
64,192,10988,1,12,0:0:0:0:
192,192,10988,1,2,0:0:0:0:
448,192,11141,1,12,0:0:0:0:
64,192,11294,1,2,0:0:0:0:
192,192,11294,1,0,0:0:0:0:
320,192,11447,128,8,11753:0:0:0:0:
448,192,11447,1,0,0:0:0:70:LR_CymbalQST.wav
192,192,11753,1,8,0:0:0:0:
64,192,11906,1,2,0:0:0:0:
448,192,11906,1,4,0:0:0:0:
192,192,12059,1,0,0:0:0:0:
320,192,12212,1,12,0:0:0:0:
192,192,12365,1,8,0:0:0:0:
64,192,12518,1,2,0:0:0:0:
448,192,12518,1,4,0:0:0:0:
320,192,12671,1,0,0:0:0:0:
192,192,12824,1,12,0:0:0:0:
64,192,12977,1,8,0:0:0:0:
320,192,13131,1,2,0:0:0:0:
448,192,13131,1,4,0:0:0:0:
192,192,13284,1,0,0:0:0:0:
320,192,13437,1,12,0:0:0:0:
64,192,13590,1,8,0:0:0:0:
320,192,13743,1,2,0:0:0:0:
448,192,13743,1,0,0:0:0:0:
64,192,13896,128,8,14202:0:0:0:0:
192,192,13896,1,0,0:0:0:70:LR_CymbalCCR.wav
320,192,14202,1,8,0:0:0:0:
192,192,14355,1,2,0:0:0:0:
448,192,14355,1,4,0:0:0:0:
320,192,14508,1,2,0:0:0:0:
64,192,14661,1,12,0:0:0:0:
192,192,14814,1,2,0:0:0:0:
320,192,14814,1,0,0:0:0:0:
448,192,14967,1,12,0:0:0:0:
448,192,15120,1,8,0:0:0:0:
64,192,15273,1,2,0:0:0:0:
320,192,15273,1,4,0:0:0:0:
192,192,15426,1,8,0:0:0:0:
64,192,15580,1,2,0:0:0:0:
448,192,15580,1,4,0:0:0:0:
320,192,15733,1,8,0:0:0:0:
192,192,15886,1,2,0:0:0:0:
448,192,15886,1,4,0:0:0:0:
64,192,16039,1,8,0:0:0:0:
320,192,16192,1,8,0:0:0:0:
64,192,16345,1,2,0:0:0:0:
192,192,16345,1,4,0:0:0:0:
448,192,16498,128,0,17722:0:0:0:0:
192,192,17722,128,0,18947:0:0:0:0:
64,192,18947,1,8,0:0:0:0:
448,192,18947,1,0,0:0:0:70:LR_CymbalQST.wav
192,192,19100,1,0,0:0:0:0:
64,192,19253,1,4,0:0:0:0:
320,192,19253,1,2,0:0:0:0:
192,192,19559,1,4,0:0:0:0:
64,192,19865,1,2,0:0:0:0:
448,192,19865,1,4,0:0:0:0:
192,192,20171,1,12,0:0:0:0:
320,192,20324,1,8,0:0:0:0:
192,192,20477,1,2,0:0:0:0:
448,192,20477,1,4,0:0:0:0:
320,192,20784,1,4,0:0:0:0:
192,192,20937,1,8,0:0:0:0:
64,192,21090,1,4,0:0:0:0:
448,192,21090,1,2,0:0:0:0:
320,192,21243,1,0,0:0:0:0:
192,192,21396,1,12,0:0:0:0:
320,192,21549,1,8,0:0:0:0:
64,192,21702,1,2,0:0:0:0:
448,192,21702,1,4,0:0:0:0:
192,192,22008,1,4,0:0:0:0:
64,192,22314,1,2,0:0:0:0:
448,192,22314,1,4,0:0:0:0:
192,192,22620,1,4,0:0:0:0:
320,192,22773,1,8,0:0:0:0:
64,192,22926,1,2,0:0:0:0:
448,192,22926,1,4,0:0:0:0:
192,192,23233,1,12,0:0:0:0:
320,192,23386,1,8,0:0:0:0:
64,192,23539,1,2,0:0:0:0:
448,192,23539,1,4,0:0:0:0:
320,192,23692,1,8,0:0:0:0:
192,192,23845,1,12,0:0:0:0:
320,192,23998,1,0,0:0:0:0:
64,192,24151,1,4,0:0:0:0:
448,192,24151,1,2,0:0:0:0:
192,192,24457,1,4,0:0:0:0:
64,192,24763,1,4,0:0:0:0:
320,192,24763,1,2,0:0:0:0:
192,192,24916,1,0,0:0:0:0:
448,192,25069,1,12,0:0:0:0:
320,192,25222,1,8,0:0:0:0:
192,192,25375,1,4,0:0:0:0:
448,192,25375,1,2,0:0:0:0:
320,192,25682,1,4,0:0:0:0:
192,192,25835,1,8,0:0:0:0:
64,192,25988,1,2,0:0:0:0:
448,192,25988,1,4,0:0:0:0:
192,192,26141,1,0,0:0:0:0:
320,192,26294,1,12,0:0:0:0:
192,192,26447,1,8,0:0:0:0:
64,192,26600,1,2,0:0:0:0:
448,192,26600,1,4,0:0:0:0:
192,192,26906,1,4,0:0:0:0:
320,192,27059,1,0,0:0:0:0:
64,192,27212,1,2,0:0:0:0:
448,192,27212,1,4,0:0:0:0:
320,192,27518,1,4,0:0:0:0:
192,192,27671,1,8,0:0:0:0:
64,192,27824,1,2,0:0:0:0:
320,192,27824,1,4,0:0:0:0:
448,192,28131,1,10,0:0:0:0:
64,192,28284,1,2,0:0:0:0:
320,192,28284,1,0,0:0:0:0:
192,192,28437,1,2,0:0:0:0:
320,192,28590,1,2,0:0:0:0:
448,192,28590,1,0,0:0:0:0:
64,192,28743,1,8,0:0:0:0:
192,192,28743,1,0,0:0:0:70:LR_CymbalQST.wav
192,192,29049,1,2,0:0:0:0:
448,192,29049,1,4,0:0:0:0:
320,192,29202,1,0,0:0:0:0:
64,192,29355,1,12,0:0:0:0:
192,192,29508,1,8,0:0:0:0:
64,192,29661,1,2,0:0:0:0:
320,192,29661,1,4,0:0:0:0:
320,192,29967,1,4,0:0:0:0:
448,192,29967,1,8,0:0:0:0:
192,192,30120,1,8,0:0:0:0:
64,192,30273,1,2,0:0:0:0:
448,192,30273,1,4,0:0:0:0:
320,192,30426,1,0,0:0:0:0:
64,192,30580,1,8,0:0:0:0:
448,192,30580,1,4,0:0:0:0:
192,192,30733,1,8,0:0:0:0:
64,192,30886,1,2,0:0:0:0:
320,192,30886,1,4,0:0:0:0:
64,192,31192,1,8,0:0:0:0:
448,192,31192,1,4,0:0:0:0:
64,192,31498,1,2,0:0:0:0:
448,192,31498,1,4,0:0:0:0:
192,192,31651,1,0,0:0:0:0:
320,192,31804,1,12,0:0:0:0:
448,192,31957,1,8,0:0:0:0:
64,192,32110,1,2,0:0:0:0:
320,192,32110,1,4,0:0:0:0:
192,192,32416,1,8,0:0:0:0:
448,192,32416,1,4,0:0:0:0:
320,192,32569,1,0,0:0:0:0:
64,192,32722,1,2,0:0:0:0:
448,192,32722,1,4,0:0:0:0:
192,192,32875,1,0,0:0:0:0:
64,192,33028,1,8,0:0:0:0:
448,192,33028,1,0,0:0:0:0:
320,192,33182,1,6,0:0:0:0:
64,192,33335,1,8,0:0:0:0:
192,192,33335,1,0,0:0:0:0:
448,192,33488,1,6,0:0:0:0:
192,192,33641,1,8,0:0:0:0:
320,192,33641,1,0,0:0:0:70:LR_CymbalCCR.wav
64,192,33947,1,2,0:0:0:0:
320,192,33947,1,4,0:0:0:0:
192,192,34100,1,0,0:0:0:0:
64,192,34253,1,12,0:0:0:0:
320,192,34406,1,8,0:0:0:0:
192,192,34559,1,2,0:0:0:0:
448,192,34559,1,4,0:0:0:0:
64,192,34865,1,4,0:0:0:0:
448,192,34865,1,8,0:0:0:0:
320,192,35018,1,8,0:0:0:0:
64,192,35171,1,2,0:0:0:0:
192,192,35171,1,4,0:0:0:0:
320,192,35324,1,0,0:0:0:0:
192,192,35477,1,8,0:0:0:0:
448,192,35477,1,4,0:0:0:0:
320,192,35631,1,8,0:0:0:0:
64,192,35784,1,4,0:0:0:0:
448,192,35784,1,2,0:0:0:0:
192,192,36090,1,4,0:0:0:0:
320,192,36090,128,8,36396:0:0:0:0:
64,192,36396,128,2,36702:0:0:0:0:
448,192,36396,1,4,0:0:0:0:
192,192,36702,128,4,37008:0:0:0:0:
320,192,36702,1,8,0:0:0:0:
320,192,37008,128,0,37161:0:0:0:0:
64,192,37161,128,8,37314:0:0:0:0:
448,192,37161,128,0,37314:0:0:0:70:LR_CymbalCCR.wav
320,192,37620,128,0,37926:0:0:0:70:C5H_s.wav
192,192,37926,128,0,38233:0:0:0:70:B4H_s.wav
64,192,38233,128,0,38539:0:0:0:70:C5H_s.wav
320,192,38539,1,8,0:0:0:0:
448,192,38539,128,0,38845:0:0:0:70:B4H_s.wav
64,192,38845,128,8,39151:0:0:0:0:
320,192,39151,1,8,0:0:0:0:
448,192,39151,128,0,39457:0:0:0:70:C5H_s.wav
192,192,39457,128,8,39763:0:0:0:0:
320,192,39763,128,8,40375:0:0:0:0:
448,192,39763,1,0,0:0:0:70:G5H_s.wav
192,192,40069,1,8,0:0:0:0:
64,192,40375,128,8,40682:0:0:0:0:
448,192,40375,128,0,40682:0:0:0:70:G5H_s.wav
192,192,40682,1,8,0:0:0:0:
320,192,40682,128,0,40988:0:0:0:70:F5H_s.wav
64,192,40988,1,8,0:0:0:0:
192,192,40988,128,0,41600:0:0:0:70:E5H_s.wav
448,192,41294,1,8,0:0:0:0:
64,192,41600,128,8,41906:0:0:0:0:
320,192,41600,1,0,0:0:0:70:F5H_s.wav
448,192,41906,128,8,42212:0:0:0:0:
192,192,42212,128,8,42824:0:0:0:0:
320,192,42212,1,0,0:0:0:70:E5H_s.wav
448,192,42518,128,8,42824:0:0:0:0:
64,192,42824,1,8,0:0:0:0:
320,192,42824,1,0,0:0:0:0:
192,192,42977,1,0,0:0:0:0:
64,192,43131,1,8,0:0:0:0:
448,192,43131,1,0,0:0:0:0:
192,192,43437,1,8,0:0:0:0:
448,192,43437,1,0,0:0:0:70:LR_CymbalCCR.wav
320,192,43590,1,8,0:0:0:0:
64,192,43743,1,2,0:0:0:0:
192,192,43743,1,0,0:0:0:70:LR_CymbalCCR.wav
64,192,44049,1,2,0:0:0:0:
448,192,44049,1,0,0:0:0:70:LR_CymbalCCR.wav
192,192,44202,1,8,0:0:0:0:
320,192,44202,1,0,0:0:0:0:
64,192,44508,128,8,44661:0:0:0:0:
192,192,44814,128,8,44967:0:0:0:0:
448,192,44967,1,0,0:0:0:70:LR_Tom Hit 2.wav
64,192,45120,128,0,45273:0:0:0:90:LR_Tom Hit 3.wav
320,192,45273,1,2,0:0:0:0:
192,192,45426,1,8,0:0:0:0:
320,192,45580,1,2,0:0:0:0:
192,192,45733,1,2,0:0:0:0:
64,192,45886,1,8,0:0:0:0:
448,192,45886,1,0,0:0:0:70:LR_CymbalCCR.wav
320,192,46192,1,2,0:0:0:0:
448,192,46192,1,0,0:0:0:70:LR_CymbalQST.wav
192,192,46345,1,8,0:0:0:0:
64,192,46498,1,2,0:0:0:0:
448,192,46498,1,0,0:0:0:70:LR_CymbalCCR.wav
320,192,46651,1,8,0:0:0:0:
192,192,46804,1,2,0:0:0:0:
64,192,46957,128,12,47110:0:0:0:0:
448,192,47263,128,8,47416:0:0:0:0:
64,192,47416,1,0,0:0:0:90:LR_Tom Drop.wav
320,192,47569,128,8,47722:0:0:0:0:
64,192,47722,128,2,47875:0:0:0:0:
448,192,47722,1,0,0:0:0:70:LR_CymbalCCR.wav
192,192,47875,128,4,48028:0:0:0:0:
320,192,48028,128,0,48182:0:0:0:70:LR_Tom Hit 2.wav
448,192,48182,128,0,48335:0:0:0:70:LR_Tom Hit 2.wav
64,192,48335,1,8,0:0:0:0:
192,192,48335,128,0,49559:0:0:0:70:LR_CymbalCCR.wav
448,192,49559,128,0,50631:0:0:0:70:LR_Drum Soft.wav
320,192,50631,1,8,0:0:0:0:
64,192,50784,1,2,0:0:0:0:
192,192,50784,1,0,0:0:0:70:LR_Tom Hit 2.wav
448,192,50937,1,0,0:0:0:0:
64,192,51090,1,0,0:0:0:0:
192,192,51243,128,0,51549:0:0:0:0:
320,192,51549,1,0,0:0:0:0:
64,192,51855,1,10,0:0:0:0:
448,192,51855,1,0,0:0:0:70:LR_Tom Hit 2.wav
64,192,52161,1,10,0:0:0:0:
448,192,52161,1,0,0:0:0:70:LR_Tom Hit 2.wav
64,192,52467,1,10,0:0:0:0:
448,192,52467,1,0,0:0:0:90:LR_CymbalCCR.wav
320,192,52620,128,0,52773:0:0:0:0:
192,192,52773,128,0,52926:0:0:0:0:
320,192,52926,128,0,53080:0:0:0:0:
64,192,53233,128,8,53539:0:0:0:0:
192,192,53233,1,0,0:0:0:70:LR_CymbalCCR.wav
448,192,53539,1,2,0:0:0:0:
320,192,53692,1,4,0:0:0:0:
64,192,53845,1,8,0:0:0:0:
448,192,53845,128,0,54151:0:0:0:0:
192,192,54151,1,2,0:0:0:0:
320,192,54151,1,0,0:0:0:0:
64,192,54457,128,8,54763:0:0:0:0:
448,192,54457,1,0,0:0:0:0:
192,192,54763,1,2,0:0:0:0:
320,192,54916,1,4,0:0:0:0:
64,192,55069,1,8,0:0:0:0:
448,192,55069,128,0,55375:0:0:0:0:
192,192,55375,1,2,0:0:0:0:
320,192,55375,1,0,0:0:0:0:
64,192,55682,1,8,0:0:0:0:
192,192,55682,1,0,0:0:0:0:
320,192,55835,1,4,0:0:0:0:
64,192,55988,1,2,0:0:0:0:
448,192,55988,1,0,0:0:0:0:
192,192,56141,1,4,0:0:0:0:
320,192,56294,1,8,0:0:0:0:
448,192,56294,1,0,0:0:0:0:
192,192,56447,1,4,0:0:0:0:
64,192,56600,1,2,0:0:0:0:
448,192,56600,1,0,0:0:0:0:
320,192,56753,1,4,0:0:0:0:
64,192,56906,128,8,57212:0:0:0:0:
192,192,56906,128,0,57212:0:0:0:0:
320,192,57212,128,2,57518:0:0:0:0:
448,192,57212,128,0,57518:0:0:0:0:
192,192,57518,1,8,0:0:0:0:
320,192,57671,1,4,0:0:0:0:
64,192,57824,1,2,0:0:0:0:
192,192,57977,1,4,0:0:0:0:
320,192,58131,1,8,0:0:0:0:
448,192,58131,128,0,58437:0:0:0:70:LR_CymbalCCR.wav
64,192,58437,1,2,0:0:0:0:
192,192,58590,1,4,0:0:0:0:
320,192,58743,128,8,59049:0:0:0:0:
448,192,58743,1,0,0:0:0:0:
64,192,59049,1,2,0:0:0:0:
192,192,59049,1,0,0:0:0:0:
64,192,59355,128,8,59661:0:0:0:0:
192,192,59355,1,0,0:0:0:0:
448,192,59661,1,2,0:0:0:0:
320,192,59814,1,4,0:0:0:0:
64,192,59967,1,8,0:0:0:0:
192,192,59967,128,0,60273:0:0:0:0:
320,192,60273,1,2,0:0:0:0:
448,192,60273,1,0,0:0:0:0:
192,192,60580,1,8,0:0:0:0:
448,192,60580,1,0,0:0:0:0:
320,192,60733,1,4,0:0:0:0:
64,192,60886,1,2,0:0:0:0:
192,192,60886,1,0,0:0:0:0:
320,192,61039,1,4,0:0:0:0:
64,192,61192,1,8,0:0:0:0:
448,192,61192,1,0,0:0:0:0:
192,192,61345,1,4,0:0:0:0:
320,192,61498,1,2,0:0:0:0:
448,192,61498,1,4,0:0:0:0:
64,192,61651,128,8,61957:0:0:0:0:
192,192,61651,128,0,61957:0:0:0:0:
320,192,61957,128,4,62263:0:0:0:0:
448,192,61957,128,8,62263:0:0:0:0:
64,192,62263,128,4,62569:0:0:0:0:
192,192,62263,128,8,62569:0:0:0:0:
448,192,62569,1,12,0:0:0:0:
64,192,62722,1,2,0:0:0:0:
320,192,62722,1,0,0:0:0:70:LR_CymbalCCR.wav
192,192,62875,1,0,0:0:0:0:
64,192,63028,128,0,63335:0:0:0:70:LR_CymbalQST.wav
448,192,63028,1,0,0:0:0:0:
192,192,63335,1,2,0:0:0:0:
320,192,63488,1,12,0:0:0:0:
448,192,63641,128,0,63947:0:0:0:0:
192,192,63641,1,0,0:0:0:0:
64,192,63947,1,8,0:0:0:0:
320,192,63947,1,2,0:0:0:0:
64,192,64253,128,8,64559:0:0:0:0:
192,192,64253,1,2,0:0:0:0:
320,192,64559,1,2,0:0:0:0:
448,192,64559,1,8,0:0:0:0:
192,192,64712,1,12,0:0:0:0:
64,192,64865,1,8,0:0:0:0:
448,192,64865,128,2,65171:0:0:0:0:
192,192,65171,1,2,0:0:0:0:
320,192,65171,1,0,0:0:0:0:
448,192,65477,1,0,0:0:0:0:
320,192,65631,1,12,0:0:0:0:
64,192,65784,1,2,0:0:0:0:
192,192,65784,1,0,0:0:0:0:
320,192,65937,1,8,0:0:0:0:
448,192,65937,1,4,0:0:0:0:
64,192,66090,1,4,0:0:0:0:
192,192,66243,1,12,0:0:0:0:
320,192,66396,1,6,0:0:0:0:
64,192,66549,1,8,0:0:0:0:
448,192,66549,128,0,66855:0:0:0:70:LR_CymbalQST.wav
64,192,66855,128,8,67008:0:0:0:0:
192,192,67008,128,2,67161:0:0:0:0:
320,192,67161,128,0,67314:0:0:0:0:
64,192,67314,1,8,0:0:0:0:
192,192,67467,1,2,0:0:0:0:
320,192,67620,1,8,0:0:0:0:
448,192,67773,1,2,0:0:0:0:
64,192,67926,128,8,68233:0:0:0:0:
192,192,67926,1,0,0:0:0:70:LR_CymbalCCR.wav
320,192,68233,1,2,0:0:0:0:
448,192,68233,128,4,68539:0:0:0:0:
64,192,68539,128,6,68845:0:0:0:0:
320,192,68692,1,8,0:0:0:0:
448,192,68845,128,6,69151:0:0:0:0:
192,192,68998,1,8,0:0:0:0:
320,192,69151,128,4,69304:0:0:0:0:
192,192,69304,1,0,0:0:0:0:
64,192,69457,1,2,0:0:0:0:
448,192,69457,1,4,0:0:0:0:
192,192,69610,1,8,0:0:0:0:
448,192,69763,1,4,0:0:0:0:
320,192,69916,1,8,0:0:0:0:
64,192,70069,1,2,0:0:0:0:
192,192,70069,1,4,0:0:0:0:
448,192,70222,1,0,0:0:0:0:
64,192,70375,1,8,0:0:0:0:
192,192,70375,128,0,70682:0:0:0:70:LR_CymbalQST.wav
320,192,70682,1,2,0:0:0:0:
448,192,70682,128,4,70988:0:0:0:0:
192,192,70988,128,6,71294:0:0:0:0:
320,192,71141,1,8,0:0:0:0:
448,192,71294,128,6,71600:0:0:0:0:
64,192,71447,1,8,0:0:0:0:
320,192,71600,128,4,71753:0:0:0:0:
192,192,71753,1,8,0:0:0:0:
64,192,71906,1,2,0:0:0:0:
448,192,71906,1,4,0:0:0:0:
192,192,72059,1,0,0:0:0:0:
320,192,72212,1,2,0:0:0:0:
448,192,72212,1,8,0:0:0:0:
64,192,72365,1,2,0:0:0:0:
192,192,72365,1,0,0:0:0:0:
320,192,72518,1,8,0:0:0:0:
448,192,72518,1,0,0:0:0:0:
64,192,72671,1,2,0:0:0:0:
192,192,72671,1,0,0:0:0:0:
320,192,72824,1,8,0:0:0:0:
448,192,72824,1,0,0:0:0:70:LR_CymbalCCR.wav
192,192,72977,1,0,0:0:0:0:
64,192,73131,1,2,0:0:0:0:
448,192,73131,1,4,0:0:0:0:
192,192,73284,1,0,0:0:0:0:
320,192,73437,1,2,0:0:0:0:
448,192,73437,1,4,0:0:0:0:
64,192,73590,1,8,0:0:0:0:
192,192,73743,1,2,0:0:0:0:
320,192,73743,1,4,0:0:0:0:
448,192,73896,1,8,0:0:0:0:
64,192,74049,1,2,0:0:0:0:
320,192,74049,1,4,0:0:0:0:
192,192,74202,1,0,0:0:0:0:
64,192,74355,1,2,0:0:0:0:
448,192,74355,1,4,0:0:0:0:
320,192,74508,1,8,0:0:0:0:
64,192,74661,1,2,0:0:0:0:
192,192,74661,1,4,0:0:0:0:
320,192,74814,1,8,0:0:0:0:
64,192,74967,1,2,0:0:0:0:
448,192,74967,1,4,0:0:0:0:
192,192,75120,1,8,0:0:0:0:
320,192,75273,1,2,0:0:0:0:
448,192,75273,1,4,0:0:0:0:
64,192,75426,1,0,0:0:0:0:
192,192,75580,1,2,0:0:0:0:
448,192,75580,1,4,0:0:0:0:
320,192,75733,1,8,0:0:0:0:
64,192,75886,1,2,0:0:0:0:
192,192,75886,1,4,0:0:0:0:
448,192,76039,1,8,0:0:0:0:
320,192,76192,1,2,0:0:0:0:
64,192,76345,1,8,0:0:0:0:
448,192,76345,1,0,0:0:0:70:LR_CymbalQST.wav
64,192,76957,1,8,0:0:0:0:
192,192,77034,1,8,0:0:0:0:
320,192,77110,1,2,0:0:0:0:
448,192,77263,1,2,0:0:0:0:
448,192,77416,1,2,0:0:0:0:
64,192,77569,128,8,77875:0:0:0:0:
192,192,77569,128,0,77875:0:0:0:70:LR_CymbalQST.wav
64,192,78028,1,2,0:0:0:0:
448,192,78028,1,4,0:0:0:0:
64,192,78335,1,4,0:0:0:0:
448,192,78335,1,8,0:0:0:0:
320,192,78488,1,8,0:0:0:0:
192,192,78641,1,2,0:0:0:0:
448,192,78641,1,4,0:0:0:0:
64,192,78947,1,4,0:0:0:0:
320,192,78947,1,8,0:0:0:0:
192,192,79100,1,8,0:0:0:0:
64,192,79253,1,2,0:0:0:0:
448,192,79253,1,4,0:0:0:0:
192,192,79406,1,0,0:0:0:0:
320,192,79559,1,4,0:0:0:0:
448,192,79559,1,8,0:0:0:0:
64,192,79712,1,8,0:0:0:0:
192,192,79865,1,2,0:0:0:0:
320,192,80018,128,8,80324:0:0:0:0:
448,192,80018,128,0,80324:0:0:0:70:LR_CymbalQST.wav
64,192,80477,1,4,0:0:0:0:
320,192,80477,1,2,0:0:0:0:
64,192,80784,1,4,0:0:0:0:
320,192,80784,1,8,0:0:0:0:
448,192,80937,1,8,0:0:0:0:
192,192,81090,1,2,0:0:0:0:
320,192,81090,1,4,0:0:0:0:
64,192,81396,1,2,0:0:0:0:
448,192,81396,1,0,0:0:0:70:LR_CymbalQST.wav
192,192,81549,1,0,0:0:0:70:LR_Tom Hit 2.wav
64,192,81702,1,4,0:0:0:0:
320,192,81702,1,8,0:0:0:0:
448,192,81855,1,2,0:0:0:0:
192,192,82008,1,0,0:0:0:70:LR_Tom Hit 2.wav
64,192,82008,1,0,0:0:0:0:
320,192,82161,1,0,0:0:0:70:LR_Tom Hit 2.wav
448,192,82314,1,2,0:0:0:0:
64,192,82467,128,8,82773:0:0:0:0:
192,192,82467,128,0,82773:0:0:0:70:LR_CymbalQST.wav
64,192,82926,1,2,0:0:0:0:
448,192,82926,1,4,0:0:0:0:
64,192,83233,1,4,0:0:0:0:
448,192,83233,1,8,0:0:0:0:
320,192,83386,1,8,0:0:0:0:
192,192,83539,1,2,0:0:0:0:
448,192,83539,1,4,0:0:0:0:
64,192,83845,1,4,0:0:0:0:
320,192,83845,1,8,0:0:0:0:
192,192,83998,1,8,0:0:0:0:
320,192,84151,1,2,0:0:0:0:
448,192,84151,1,4,0:0:0:0:
192,192,84304,1,0,0:0:0:0:
64,192,84457,1,8,0:0:0:0:
448,192,84457,1,4,0:0:0:0:
320,192,84610,1,8,0:0:0:0:
192,192,84763,1,2,0:0:0:0:
320,192,84916,128,8,85222:0:0:0:0:
448,192,84916,128,0,85222:0:0:0:70:LR_CymbalQST.wav
64,192,85222,1,8,0:0:0:0:
320,192,85375,1,2,0:0:0:0:
448,192,85375,1,4,0:0:0:0:
192,192,85528,1,2,0:0:0:0:
320,192,85682,1,12,0:0:0:0:
64,192,85835,1,2,0:0:0:0:
448,192,85835,1,0,0:0:0:0:
192,192,85988,1,12,0:0:0:0:
192,192,86141,1,8,0:0:0:0:
320,192,86294,1,2,0:0:0:0:
448,192,86294,1,0,0:0:0:0:
192,192,86447,1,12,0:0:0:0:
64,192,86600,1,2,0:0:0:0:
448,192,86600,1,8,0:0:0:0:
320,192,86753,1,12,0:0:0:0:
64,192,86906,1,2,0:0:0:0:
192,192,86906,1,0,0:0:0:70:LR_Tom Hit 2.wav
320,192,87059,1,2,0:0:0:0:
448,192,87059,1,0,0:0:0:70:LR_Tom Hit 2.wav
64,192,87212,1,2,0:0:0:0:
192,192,87212,1,0,0:0:0:70:LR_Tom Hit 2.wav
320,192,87365,1,2,0:0:0:0:
448,192,87365,1,0,0:0:0:70:LR_Tom Hit 2.wav
64,192,87518,128,0,87671:0:0:0:0:
448,192,87671,128,0,87824:0:0:0:0:
192,192,87824,128,8,87977:0:0:0:0:
320,192,87977,128,8,88131:0:0:0:0:
64,192,88131,128,2,88284:0:0:0:0:
192,192,88131,128,0,88284:0:0:0:70:LR_CymbalCCR.wav
448,192,88284,128,8,88590:0:0:0:0:
320,192,88590,128,4,89049:0:0:0:0:
64,192,88590,128,8,88743:0:0:0:0:
