osu file format v14

[General]
AudioFilename: audio.mp3
AudioLeadIn: 0
PreviewTime: 52628
Countdown: 0
SampleSet: Soft
StackLeniency: 0.7
Mode: 3
LetterboxInBreaks: 0
SpecialStyle: 0
WidescreenStoryboard: 0

[Editor]
Bookmarks: 28751
DistanceSpacing: 0.9
BeatDivisor: 4
GridSize: 32
TimelineZoom: 2

[Metadata]
Title:Relive (Cut Ver.)
TitleUnicode:Relive (Cut Ver.)
Artist:nonoc
ArtistUnicode:nonoc
Creator:secXcscX
Version:Easy
Source:Re:ゼロから始める異世界生活 Memory Snow
Tags:re:zero kara hajimeru isekai seikatsu rezero starting life in another world different from zero anime ova original animation japanese rock short イメージソング Image Song J-rock anime
BeatmapID:2457704
BeatmapSetID:1178490

[Difficulty]
HPDrainRate:6
CircleSize:4
OverallDifficulty:6
ApproachRate:5
SliderMultiplier:1.4
SliderTickRate:1

[Events]
//Background and Video events
0,0,"babo.jpg",0,0
//Break Periods
//Storyboard Layer 0 (Background)
//Storyboard Layer 1 (Fail)
//Storyboard Layer 2 (Pass)
//Storyboard Layer 3 (Foreground)
//Storyboard Layer 4 (Overlay)
//Storyboard Sound Samples
Sample,4100,0,"LR_CymbalQST.wav",70
Sample,4559,0,"LR_CymbalQST.wav",70
Sample,38539,0,"B4H_s.wav",70
Sample,38539,0,"LR_CymbalCCR.wav",70
Sample,41600,0,"F5H_s.wav",70
Sample,43437,0,"LR_CymbalQST.wav",70
Sample,43437,0,"LR_CymbalCCR.wav",70
Sample,46192,0,"LR_CymbalQST.wav",70
Sample,46498,0,"LR_CymbalCCR.wav",70
Sample,46804,0,"LR_CymbalQST.wav",70
Sample,47722,0,"LR_CymbalCCR.wav",70
Sample,47875,0,"LR_Tom Drop.wav",90
Sample,48335,0,"LR_CymbalQST.wav",70
Sample,50784,0,"LR_Tom Hit 2.wav",70
Sample,53233,0,"LR_CymbalQST.wav",70
Sample,62722,0,"LR_CymbalCCR.wav",70
Sample,67008,0,"LR_CymbalCCR.wav",70
Sample,67314,0,"LR_Tom Hit 2.wav",90
Sample,67926,0,"LR_CymbalCCR.wav",70
Sample,70375,0,"LR_CymbalQST.wav",70
Sample,86906,0,"LR_Tom Hit 2.wav",70
Sample,87059,0,"LR_Tom Hit 2.wav",70
Sample,87212,0,"LR_Tom Hit 2.wav",70
Sample,87365,0,"LR_Tom Hit 2.wav",70

[TimingPoints]
580,306.122448979592,4,2,1,100,1,0
37620,-100,4,2,1,30,0,0
37926,-100,4,2,1,50,0,0
38233,-100,4,2,1,70,0,0
38539,-100,4,2,1,100,0,1
42824,-100,4,2,1,100,0,0
53233,-100,4,2,1,100,0,1
61651,-100,4,2,1,100,0,0
63028,-100,4,2,1,100,0,1
67161,-100,4,2,1,100,0,0
77722,-100,4,2,1,100,0,1
87518,-100,4,2,1,100,0,0

[HitObjects]
64,192,580,5,4,0:0:0:0:
448,192,580,1,8,0:0:0:0:
320,192,1804,1,0,0:0:0:0:
192,192,2263,1,0,0:0:0:0:
320,192,2569,1,0,0:0:0:0:
448,192,2875,1,0,0:0:0:0:
64,192,3182,1,0,0:0:0:0:
192,192,3335,1,0,0:0:0:0:
320,192,3488,1,0,0:0:0:0:
192,192,3794,1,0,0:0:0:0:
320,192,3947,1,0,0:0:0:0:
64,192,4100,1,8,0:0:0:0:
448,192,4100,1,0,0:0:0:70:LR_CymbalCCR.wav
192,192,4559,128,2,4865:0:0:0:0:
448,192,4865,128,2,5477:0:0:0:0:
320,192,5477,128,2,5784:0:0:0:0:
64,192,5784,128,2,6090:0:0:0:0:
192,192,6090,128,2,6549:0:0:0:0:
64,192,6549,1,8,0:0:0:0:
448,192,6549,1,0,0:0:0:70:LR_CymbalCCR.wav
192,192,7008,1,2,0:0:0:0:
448,192,7008,1,4,0:0:0:0:
320,192,7314,1,12,0:0:0:0:
64,192,7620,1,2,0:0:0:0:
448,192,7620,1,4,0:0:0:0:
320,192,7926,1,12,0:0:0:0:
64,192,8233,1,2,0:0:0:0:
192,192,8233,1,4,0:0:0:0:
320,192,8539,1,12,0:0:0:0:
192,192,8845,1,2,0:0:0:0:
64,192,8998,1,8,0:0:0:0:
448,192,8998,1,0,0:0:0:70:LR_CymbalQST.wav
64,192,9457,1,2,0:0:0:0:
320,192,9457,1,4,0:0:0:0:
192,192,9763,1,12,0:0:0:0:
64,192,10069,1,2,0:0:0:0:
448,192,10069,1,4,0:0:0:0:
192,192,10375,1,12,0:0:0:0:
320,192,10682,1,2,0:0:0:0:
448,192,10682,1,4,0:0:0:0:
64,192,10988,1,14,0:0:0:0:
320,192,11141,1,12,0:0:0:0:
192,192,11294,1,2,0:0:0:0:
320,192,11447,1,8,0:0:0:0:
448,192,11447,1,0,0:0:0:70:LR_CymbalQST.wav
64,192,11906,1,2,0:0:0:0:
320,192,11906,1,4,0:0:0:0:
192,192,12212,1,12,0:0:0:0:
64,192,12518,1,2,0:0:0:0:
448,192,12518,1,4,0:0:0:0:
320,192,12824,1,12,0:0:0:0:
64,192,13131,1,2,0:0:0:0:
192,192,13131,1,4,0:0:0:0:
320,192,13437,1,12,0:0:0:0:
192,192,13743,1,2,0:0:0:0:
64,192,13896,1,8,0:0:0:0:
448,192,13896,1,0,0:0:0:70:LR_CymbalCCR.wav
64,192,14355,1,2,0:0:0:0:
192,192,14355,1,4,0:0:0:0:
448,192,14661,1,12,0:0:0:0:
320,192,14814,1,2,0:0:0:0:
192,192,14967,1,12,0:0:0:0:
64,192,15273,1,6,0:0:0:0:
192,192,15426,1,8,0:0:0:0:
320,192,15580,1,6,0:0:0:0:
448,192,15886,1,6,0:0:0:0:
320,192,16039,1,8,0:0:0:0:
192,192,16192,1,8,0:0:0:0:
64,192,16345,1,2,0:0:0:0:
448,192,16345,1,4,0:0:0:0:
64,192,18947,1,8,0:0:0:0:
320,192,18947,1,0,0:0:0:70:LR_CymbalQST.wav
192,192,19253,1,6,0:0:0:0:
320,192,19559,1,4,0:0:0:0:
448,192,19865,1,6,0:0:0:0:
64,192,20171,1,12,0:0:0:0:
192,192,20477,1,6,0:0:0:0:
448,192,20784,1,4,0:0:0:0:
64,192,21090,1,4,0:0:0:0:
320,192,21090,1,2,0:0:0:0:
192,192,21396,1,8,0:0:0:0:
448,192,21396,1,4,0:0:0:0:
64,192,21702,1,6,0:0:0:0:
192,192,22008,1,4,0:0:0:0:
320,192,22314,1,6,0:0:0:0:
64,192,22620,1,4,0:0:0:0:
192,192,22926,1,6,0:0:0:0:
64,192,23233,1,4,0:0:0:0:
448,192,23233,1,8,0:0:0:0:
192,192,23539,1,2,0:0:0:0:
320,192,23539,1,4,0:0:0:0:
64,192,23845,1,4,0:0:0:0:
448,192,23845,1,8,0:0:0:0:
320,192,24151,1,6,0:0:0:0:
192,192,24457,1,4,0:0:0:0:
64,192,24763,1,6,0:0:0:0:
448,192,25069,1,12,0:0:0:0:
320,192,25375,1,6,0:0:0:0:
64,192,25682,1,4,0:0:0:0:
192,192,25988,1,2,0:0:0:0:
448,192,25988,1,4,0:0:0:0:
64,192,26294,1,8,0:0:0:0:
320,192,26294,1,4,0:0:0:0:
192,192,26600,1,6,0:0:0:0:
448,192,26906,1,4,0:0:0:0:
320,192,27212,1,6,0:0:0:0:
64,192,27518,1,4,0:0:0:0:
320,192,27824,1,6,0:0:0:0:
192,192,28131,1,10,0:0:0:0:
448,192,28284,1,2,0:0:0:0:
320,192,28437,1,2,0:0:0:0:
192,192,28590,1,2,0:0:0:0:
64,192,28743,1,8,0:0:0:0:
448,192,28743,1,0,0:0:0:70:LR_CymbalQST.wav
192,192,29049,1,2,0:0:0:0:
320,192,29049,1,4,0:0:0:0:
448,192,29355,1,12,0:0:0:0:
64,192,29661,1,2,0:0:0:0:
192,192,29661,1,4,0:0:0:0:
320,192,29967,1,12,0:0:0:0:
64,192,30273,1,2,0:0:0:0:
448,192,30273,1,4,0:0:0:0:
320,192,30580,1,12,0:0:0:0:
64,192,30886,1,2,0:0:0:0:
192,192,30886,1,4,0:0:0:0:
448,192,31192,1,12,0:0:0:0:
192,192,31498,1,2,0:0:0:0:
320,192,31498,1,4,0:0:0:0:
64,192,31804,1,12,0:0:0:0:
192,192,32110,1,2,0:0:0:0:
448,192,32110,1,4,0:0:0:0:
64,192,32416,1,12,0:0:0:0:
192,192,32722,1,2,0:0:0:0:
320,192,32722,1,4,0:0:0:0:
448,192,33028,1,8,0:0:0:0:
320,192,33182,1,6,0:0:0:0:
192,192,33335,1,8,0:0:0:0:
64,192,33488,1,6,0:0:0:0:
192,192,33641,1,8,0:0:0:0:
448,192,33641,1,0,0:0:0:70:LR_CymbalCCR.wav
64,192,33947,1,2,0:0:0:0:
320,192,33947,1,4,0:0:0:0:
192,192,34253,1,12,0:0:0:0:
320,192,34559,1,2,0:0:0:0:
448,192,34559,1,4,0:0:0:0:
64,192,34865,1,12,0:0:0:0:
192,192,35171,1,2,0:0:0:0:
448,192,35171,1,4,0:0:0:0:
320,192,35477,1,12,0:0:0:0:
64,192,35784,1,4,0:0:0:0:
448,192,35784,1,2,0:0:0:0:
192,192,36090,1,12,0:0:0:0:
64,192,36396,1,2,0:0:0:0:
320,192,36396,1,4,0:0:0:0:
192,192,36702,1,12,0:0:0:0:
320,192,37008,1,0,0:0:0:0:
64,192,37161,1,8,0:0:0:0:
448,192,37161,1,0,0:0:0:70:LR_CymbalCCR.wav
64,192,37620,1,0,0:0:0:70:C5H_s.wav
192,192,37926,1,0,0:0:0:70:B4H_s.wav
320,192,38233,1,0,0:0:0:70:C5H_s.wav
64,192,38539,1,8,0:0:0:0:
192,192,38845,1,8,0:0:0:0:
64,192,39151,1,8,0:0:0:0:
448,192,39151,1,0,0:0:0:70:C5H_s.wav
320,192,39457,1,8,0:0:0:0:
64,192,39763,128,8,40375:0:0:0:0:
192,192,39763,128,0,40375:0:0:0:70:G5H_s.wav
320,192,40375,1,8,0:0:0:0:
448,192,40375,1,0,0:0:0:70:G5H_s.wav
64,192,40682,1,8,0:0:0:0:
192,192,40682,1,0,0:0:0:70:F5H_s.wav
320,192,40988,128,8,41600:0:0:0:0:
448,192,40988,128,0,41600:0:0:0:70:E5H_s.wav
192,192,41600,1,8,0:0:0:0:
320,192,41906,1,8,0:0:0:0:
64,192,42212,1,8,0:0:0:0:
448,192,42212,1,0,0:0:0:70:E5H_s.wav
192,192,42518,1,8,0:0:0:0:
64,192,42824,128,8,43131:0:0:0:0:
448,192,43131,128,8,43437:0:0:0:0:
320,192,43437,128,8,43743:0:0:0:0:
64,192,43743,1,2,0:0:0:0:
192,192,43743,1,0,0:0:0:70:LR_CymbalCCR.wav
320,192,44049,1,2,0:0:0:0:
448,192,44049,1,0,0:0:0:70:LR_CymbalCCR.wav
64,192,44202,128,8,44508:0:0:0:0:
448,192,44508,128,8,44967:0:0:0:0:
320,192,44967,1,0,0:0:0:70:LR_Tom Hit 2.wav
64,192,45273,1,2,0:0:0:0:
320,192,45426,1,8,0:0:0:0:
192,192,45580,1,2,0:0:0:0:
320,192,45886,1,8,0:0:0:0:
448,192,45886,128,0,46192:0:0:0:70:LR_CymbalCCR.wav
64,192,46192,1,2,0:0:0:0:
192,192,46498,1,2,0:0:0:0:
320,192,46651,1,8,0:0:0:0:
64,192,46804,1,2,0:0:0:0:
448,192,46957,128,12,47416:0:0:0:0:
64,192,47416,128,0,47722:0:0:0:90:LR_Tom Drop.wav
448,192,47722,1,2,0:0:0:0:
320,192,47875,1,4,0:0:0:0:
192,192,48028,1,0,0:0:0:70:LR_Tom Hit 2.wav
64,192,48182,1,0,0:0:0:70:LR_Tom Hit 2.wav
320,192,48335,128,8,49559:0:0:0:0:
448,192,48335,1,0,0:0:0:70:LR_CymbalCCR.wav
192,192,49559,128,0,50784:0:0:0:70:LR_Drum Soft.wav
448,192,50784,1,2,0:0:0:0:
64,192,51090,1,0,0:0:0:0:
320,192,51243,1,0,0:0:0:0:
192,192,51549,1,0,0:0:0:0:
320,192,51855,1,10,0:0:0:0:
448,192,51855,1,0,0:0:0:70:LR_Tom Hit 2.wav
64,192,52161,1,10,0:0:0:0:
192,192,52161,1,0,0:0:0:70:LR_Tom Hit 2.wav
320,192,52467,1,10,0:0:0:0:
448,192,52467,1,0,0:0:0:90:LR_CymbalCCR.wav
64,192,52620,128,0,53233:0:0:0:0:
320,192,53233,1,8,0:0:0:0:
448,192,53233,1,0,0:0:0:70:LR_CymbalCCR.wav
64,192,53539,1,2,0:0:0:0:
192,192,53539,1,0,0:0:0:0:
320,192,53845,1,8,0:0:0:0:
64,192,54151,1,2,0:0:0:0:
448,192,54151,1,0,0:0:0:0:
192,192,54457,1,8,0:0:0:0:
320,192,54763,1,2,0:0:0:0:
448,192,54763,1,0,0:0:0:0:
192,192,55069,1,8,0:0:0:0:
64,192,55375,1,2,0:0:0:0:
448,192,55375,1,0,0:0:0:0:
320,192,55682,1,8,0:0:0:0:
64,192,55988,1,2,0:0:0:0:
192,192,55988,1,0,0:0:0:0:
448,192,56294,1,8,0:0:0:0:
192,192,56600,1,2,0:0:0:0:
320,192,56600,1,0,0:0:0:0:
64,192,56906,1,8,0:0:0:0:
192,192,57212,1,2,0:0:0:0:
320,192,57365,1,4,0:0:0:0:
448,192,57518,1,8,0:0:0:0:
192,192,57824,1,2,0:0:0:0:
320,192,57824,1,0,0:0:0:0:
64,192,58131,1,8,0:0:0:0:
448,192,58131,1,0,0:0:0:70:LR_CymbalCCR.wav
192,192,58437,1,2,0:0:0:0:
320,192,58590,1,4,0:0:0:0:
448,192,58743,1,8,0:0:0:0:
64,192,59049,1,2,0:0:0:0:
192,192,59049,1,0,0:0:0:0:
320,192,59355,1,8,0:0:0:0:
64,192,59661,1,2,0:0:0:0:
448,192,59661,1,0,0:0:0:0:
192,192,59814,1,4,0:0:0:0:
320,192,59967,1,8,0:0:0:0:
64,192,60273,1,2,0:0:0:0:
448,192,60273,1,0,0:0:0:0:
192,192,60580,1,8,0:0:0:0:
64,192,60886,1,2,0:0:0:0:
448,192,60886,1,0,0:0:0:0:
320,192,61039,1,4,0:0:0:0:
192,192,61192,1,8,0:0:0:0:
448,192,61498,1,6,0:0:0:0:
64,192,61651,128,8,61957:0:0:0:0:
192,192,61957,128,12,62263:0:0:0:0:
320,192,62263,128,12,62569:0:0:0:0:
448,192,62569,1,12,0:0:0:0:
192,192,62722,1,2,0:0:0:0:
320,192,62875,1,0,0:0:0:0:
64,192,63028,1,0,0:0:0:70:LR_CymbalQST.wav
448,192,63028,1,0,0:0:0:0:
320,192,63335,1,2,0:0:0:0:
192,192,63488,1,12,0:0:0:0:
64,192,63641,1,0,0:0:0:0:
320,192,63947,1,8,0:0:0:0:
448,192,63947,1,2,0:0:0:0:
64,192,64253,1,8,0:0:0:0:
192,192,64253,1,2,0:0:0:0:
448,192,64559,1,10,0:0:0:0:
320,192,64712,1,12,0:0:0:0:
192,192,64865,1,10,0:0:0:0:
64,192,65171,1,2,0:0:0:0:
448,192,65171,1,0,0:0:0:0:
192,192,65477,1,0,0:0:0:0:
320,192,65631,1,12,0:0:0:0:
448,192,65784,1,2,0:0:0:0:
64,192,65937,1,12,0:0:0:0:
192,192,66243,1,12,0:0:0:0:
320,192,66549,1,8,0:0:0:0:
448,192,66549,1,0,0:0:0:70:LR_CymbalQST.wav
64,192,66855,1,8,0:0:0:0:
320,192,67008,1,2,0:0:0:0:
448,192,67314,128,8,67620:0:0:0:0:
320,192,67620,128,8,67926:0:0:0:0:
192,192,67926,128,8,68233:0:0:0:0:
64,192,68233,1,2,0:0:0:0:
320,192,68233,1,4,0:0:0:0:
192,192,68539,1,2,0:0:0:0:
448,192,68539,1,4,0:0:0:0:
64,192,68845,1,2,0:0:0:0:
320,192,68845,1,4,0:0:0:0:
192,192,69151,128,4,69457:0:0:0:0:
320,192,69457,128,6,69763:0:0:0:0:
64,192,69763,128,4,70069:0:0:0:0:
448,192,70069,128,6,70375:0:0:0:0:
192,192,70375,128,8,70682:0:0:0:0:
64,192,70682,1,2,0:0:0:0:
448,192,70682,1,4,0:0:0:0:
192,192,70988,1,2,0:0:0:0:
320,192,70988,1,4,0:0:0:0:
64,192,71294,1,2,0:0:0:0:
448,192,71294,1,4,0:0:0:0:
320,192,71600,128,4,71906:0:0:0:0:
64,192,71906,128,6,72212:0:0:0:0:
192,192,72212,128,10,72518:0:0:0:0:
320,192,72518,128,8,72824:0:0:0:0:
64,192,72824,1,8,0:0:0:0:
448,192,72824,1,0,0:0:0:70:LR_CymbalCCR.wav
192,192,73131,1,6,0:0:0:0:
320,192,73284,1,0,0:0:0:0:
448,192,73437,1,6,0:0:0:0:
192,192,73743,1,2,0:0:0:0:
320,192,73743,1,4,0:0:0:0:
64,192,74049,1,2,0:0:0:0:
448,192,74049,1,4,0:0:0:0:
320,192,74355,1,6,0:0:0:0:
192,192,74508,1,8,0:0:0:0:
64,192,74661,1,6,0:0:0:0:
192,192,74967,1,2,0:0:0:0:
320,192,74967,1,4,0:0:0:0:
64,192,75273,1,2,0:0:0:0:
448,192,75273,1,4,0:0:0:0:
192,192,75580,1,6,0:0:0:0:
320,192,75886,1,6,0:0:0:0:
192,192,76192,1,2,0:0:0:0:
64,192,76345,1,8,0:0:0:0:
320,192,76345,1,0,0:0:0:70:LR_CymbalQST.wav
192,192,77110,1,2,0:0:0:0:
448,192,77110,1,0,0:0:0:0:
320,192,77263,1,2,0:0:0:0:
64,192,77569,1,8,0:0:0:0:
448,192,77569,1,0,0:0:0:70:LR_CymbalQST.wav
192,192,78028,1,2,0:0:0:0:
448,192,78028,1,4,0:0:0:0:
320,192,78335,1,12,0:0:0:0:
64,192,78641,1,2,0:0:0:0:
192,192,78641,1,4,0:0:0:0:
320,192,78947,1,12,0:0:0:0:
192,192,79253,1,2,0:0:0:0:
448,192,79253,1,4,0:0:0:0:
64,192,79559,1,12,0:0:0:0:
192,192,79712,1,8,0:0:0:0:
320,192,79865,1,2,0:0:0:0:
64,192,80018,1,8,0:0:0:0:
448,192,80018,1,0,0:0:0:70:LR_CymbalQST.wav
192,192,80477,1,4,0:0:0:0:
448,192,80477,1,2,0:0:0:0:
64,192,80784,1,12,0:0:0:0:
192,192,81090,1,2,0:0:0:0:
320,192,81090,1,4,0:0:0:0:
64,192,81396,1,2,0:0:0:0:
448,192,81396,1,0,0:0:0:70:LR_CymbalQST.wav
192,192,81702,1,4,0:0:0:0:
320,192,81702,1,8,0:0:0:0:
448,192,82008,1,0,0:0:0:70:LR_Tom Hit 2.wav
320,192,82161,1,0,0:0:0:70:LR_Tom Hit 2.wav
192,192,82314,1,2,0:0:0:0:
64,192,82467,1,8,0:0:0:0:
448,192,82467,1,0,0:0:0:70:LR_CymbalQST.wav
192,192,82926,1,2,0:0:0:0:
448,192,82926,1,4,0:0:0:0:
320,192,83233,1,12,0:0:0:0:
64,192,83539,1,2,0:0:0:0:
448,192,83539,1,4,0:0:0:0:
320,192,83845,1,12,0:0:0:0:
64,192,84151,1,2,0:0:0:0:
192,192,84151,1,4,0:0:0:0:
448,192,84457,1,12,0:0:0:0:
320,192,84610,1,8,0:0:0:0:
192,192,84763,1,2,0:0:0:0:
64,192,84916,1,8,0:0:0:0:
448,192,84916,1,0,0:0:0:70:LR_CymbalQST.wav
192,192,85375,1,2,0:0:0:0:
448,192,85375,1,4,0:0:0:0:
320,192,85682,1,12,0:0:0:0:
192,192,85835,1,2,0:0:0:0:
64,192,85988,1,12,0:0:0:0:
192,192,86294,1,2,0:0:0:0:
320,192,86447,1,12,0:0:0:0:
448,192,86600,1,10,0:0:0:0:
64,192,86906,1,2,0:0:0:0:
192,192,87059,1,2,0:0:0:0:
320,192,87212,1,2,0:0:0:0:
448,192,87365,1,2,0:0:0:0:
64,192,87518,128,0,87824:0:0:0:0:
192,192,87824,128,8,88131:0:0:0:0:
320,192,88131,1,2,0:0:0:0:
448,192,88131,1,0,0:0:0:70:LR_CymbalCCR.wav
64,192,88284,1,8,0:0:0:0:
448,192,88590,128,12,89049:0:0:0:0:
