osu file format v14

[General]
AudioFilename: audio.ogg
AudioLeadIn: 0
PreviewTime: 47422
Countdown: 0
SampleSet: Soft
StackLeniency: 0.7
Mode: 0
LetterboxInBreaks: 0
WidescreenStoryboard: 1

[Editor]
DistanceSpacing: 0.1
BeatDivisor: 4
GridSize: 16
TimelineZoom: 1.6

[Metadata]
Title:Rakuen (TV Size)
TitleUnicode:楽園 (TV Size)
Artist:nonoc
ArtistUnicode:nonoc
Creator:Basensorex
Version:alevi's Insane
Source:スパイ教室
Tags:-aku bad mapper bad_mapper overranked alevi kyoushitsu room 2nd Spy Classroom Season 2 rock pop jrock jpop j-rock j-pop anime opening op female vocals vocalist japanese jp
BeatmapID:4292660
BeatmapSetID:2054615

[Difficulty]
HPDrainRate:5
CircleSize:3.9
OverallDifficulty:8.3
ApproachRate:9
SliderMultiplier:1.6
SliderTickRate:1

[Events]
//Background and Video events
0,0,"nonoc.jpg",0,0
Video,-50,"nonoc.mp4"
//Break Periods
2,10827,15375
2,86950,88081
//Storyboard Layer 0 (Background)
//Storyboard Layer 1 (Fail)
//Storyboard Layer 2 (Pass)
//Storyboard Layer 3 (Foreground)
//Storyboard Layer 4 (Overlay)
//Storyboard Sound Samples

[TimingPoints]
533,321.71581769437,4,2,22,40,1,0
4554,-100,4,2,22,50,0,0
5037,-100,4,2,22,60,0,0
5519,-111.111111111111,4,2,22,70,0,0
10827,-111.111111111111,4,2,22,40,0,0
15975,-111.111111111111,4,2,22,50,0,0
21122,-111.111111111111,4,2,22,60,0,0
29809,-111.111111111111,4,2,22,40,0,0
30130,-111.111111111111,4,2,22,50,0,0
31417,321.71581769437,3,2,22,60,1,0
31417,-100,3,2,22,60,0,0
35277,-100,3,2,22,50,0,0
39138,-100,3,2,22,60,0,0
42998,-100,3,2,22,40,0,0
44607,-100,3,2,22,60,0,0
46859,321.71581769437,4,2,22,40,1,0
47985,-100,4,2,22,70,0,0
48145,321.71581769437,4,2,22,70,1,0
66161,-100,4,2,22,60,0,0
68734,-100,4,2,22,70,0,0
73882,-100,4,2,22,80,0,0
78708,-166.666666666667,4,2,22,80,0,0
79029,-111.111111111111,4,2,22,70,0,0
86750,-111.111111111111,4,2,22,50,0,0
87716,-111.111111111111,4,2,22,60,0,0
88681,-111.111111111111,4,2,22,70,0,0

[Colours]
Combo1 : 51,50,67
Combo2 : 217,205,196
Combo3 : 121,120,130
Combo4 : 153,159,142
Combo5 : 139,147,172

[HitObjects]
173,357,5519,6,0,P|195:300|262:321,1,143.999995605469,6|0,1:2|1:2,0:0:0:0:
323,377,6002,1,10,0:2:0:0:
472,300,6163,2,0,P|475:279|482:255,1,35.9999989013672,0|8,1:2|0:2,0:0:0:0:
408,205,6323,2,0,P|417:165|423:125,1,71.9999978027344,2|0,1:2|1:2,0:0:0:0:
493,88,6645,1,10,0:2:0:0:
283,163,6806,1,0,1:2:0:0:
283,163,6886,1,8,0:2:0:0:
283,163,6967,6,0,P|277:126|268:92,1,71.9999978027344,2|0,1:2|1:2,0:0:0:0:
392,0,7289,2,0,P|374:26|330:38,1,71.9999978027344,10|0,0:2|0:0,0:0:0:0:
208,26,7610,1,2,1:2:0:0:
361,123,7771,1,10,0:2:0:0:
207,208,7932,1,10,0:2:0:0:
271,271,8093,6,0,B|295:347|335:293|354:399,1,143.999995605469,6|0,1:2|1:2,0:0:0:0:
500,253,8575,1,8,0:2:0:0:
427,209,8736,1,4,0:3:0:0:
427,209,8817,1,4,0:3:0:0:
427,209,8897,2,0,P|419:245|410:297,1,71.9999978027344,4|0,0:3|1:2,0:0:0:0:
215,354,9219,1,8,0:2:0:0:
115,312,9380,1,8,0:3:0:0:
115,312,9461,1,8,0:3:0:0:
115,312,9541,6,0,P|123:348|132:400,1,71.9999978027344,10|0,0:3|1:2,0:0:0:0:
273,271,9862,5,10,0:2:0:0:
133,162,10023,1,10,0:2:0:0:
77,228,10184,5,2,0:2:0:0:
248,123,10345,1,2,1:2:0:0:
256,192,15975,12,2,20479,0:2:0:0:
366,246,21122,6,0,P|326:234|277:220,1,71.9999978027344,4|2,1:2|1:2,0:0:0:0:
401,111,21444,1,10,0:2:0:0:
267,64,21605,1,2,1:2:0:0:
217,184,21766,1,2,0:2:0:0:
350,44,21927,1,2,1:2:0:0:
217,184,22087,2,0,P|208:148|198:108,1,71.9999978027344,10|0,0:2|1:2,0:0:0:0:
140,52,22329,1,8,0:2:0:0:
140,52,22409,6,0,B|114:80|114:80|124:124,1,71.9999978027344,2|2,1:2|1:2,0:0:0:0:
218,266,22731,1,10,0:2:0:0:
0,257,22892,2,0,P|57:243|148:221,1,143.999995605469,2|10,0:2|0:2,0:0:0:0:
217,184,23374,1,2,1:2:0:0:
95,323,23535,6,0,B|144:337|144:337|164:364|164:364|235:381,1,143.999995605469,6|2,1:2|1:2,0:0:0:0:
400,215,24018,1,10,0:2:0:0:
320,238,24179,1,2,1:2:0:0:
347,314,24339,2,0,B|352:339|352:339|343:360|352:392,1,71.9999978027344,2|0,0:2|1:2,0:0:0:0:
509,199,24661,2,0,P|502:237|491:284,1,71.9999978027344,10|0,0:2|0:0,0:0:0:0:
344,114,24983,5,2,1:2:0:0:
503,112,25144,2,0,P|466:123|419:136,1,71.9999978027344,0|8,1:2|0:2,0:0:0:0:
245,42,25465,2,0,P|309:48|343:119,1,143.999995605469,2|2,0:2|1:2,0:0:0:0:
236,261,25948,2,0,P|242:228|249:188,1,71.9999978027344,8|2,0:2|0:2,0:0:0:0:
86,55,26270,6,0,B|96:90|96:90|86:122|86:122|95:163,1,107.999996704102,4|0,1:2|0:0,0:0:0:0:
34,209,26591,2,0,P|19:214|-9:222,3,35.9999989013672,10|8|8|8,0:2|0:2|0:2|0:2,0:0:0:0:
121,294,26913,2,0,P|105:281|87:268,3,35.9999989013672,10|8|8|8,0:2|0:2|0:2|0:2,0:0:0:0:
62,384,27235,2,0,P|59:366|55:340,3,35.9999989013672,10|8|8|8,0:2|0:2|0:2|0:2,0:0:0:0:
211,283,27557,5,10,0:2:0:0:
211,283,27637,1,8,0:2:0:0:
211,283,27717,2,0,P|231:289|268:300,1,35.9999989013672,8|8,0:2|0:2,0:0:0:0:
311,356,27878,5,10,0:2:0:0:
311,356,27958,1,8,0:2:0:0:
311,356,28038,2,0,P|331:350|368:339,1,35.9999989013672,8|8,0:2|0:2,0:0:0:0:
448,263,28200,5,10,0:2:0:0:
278,153,28361,1,8,3:0:0:0:
420,105,28522,5,4,3:0:0:0:
362,162,28683,1,6,1:2:0:0:
512,344,31417,6,0,B|507:280|459:310|451:242,1,120,6|0,1:2|0:0,0:0:0:0:
479,165,31738,2,0,P|483:147|488:123,3,40,0|0|0|0,1:2|1:2|1:2|1:2,0:0:0:0:
355,196,32060,2,0,P|374:189|393:184,3,40,10|8|8|8,0:2|0:2|0:2|0:2,0:0:0:0:
451,246,32382,5,10,0:2:0:0:
294,335,32543,2,0,B|278:320|250:322|250:322|200:273|260:228,1,160,8|8,0:2|3:0,0:0:0:0:
352,23,33025,2,0,P|359:61|368:111,1,80,2|4,0:2|3:0,0:0:0:0:
228,145,33347,6,0,B|162:159|162:159|150:188|111:196,1,120,6|0,1:2|0:0,0:0:0:0:
51,156,33669,2,0,P|46:137|39:111,3,40,0|0|0|0,1:2|1:2|1:2|1:2,0:0:0:0:
0,263,33990,2,0,P|5:244|12:218,3,40,10|8|8|8,0:2|0:2|0:2|0:2,0:0:0:0:
61,323,34312,6,0,P|112:330|148:388,1,120,10|0,0:2|0:0,0:0:0:0:
217,344,34634,2,0,P|253:334|304:324,1,80,8|10,3:0|3:0,0:0:0:0:
151,173,34955,2,0,P|189:183|228:191,1,80,8|0,0:2|0:0,0:0:0:0:
366,48,35277,6,0,P|388:119|416:213,1,160,2|0,1:2|1:2,0:0:0:0:
482,365,35760,2,0,B|506:332|506:332|493:292,1,80,10|0,0:2|0:0,0:0:0:0:
512,217,36081,1,0,1:2:0:0:
303,292,36242,6,0,P|341:283|391:270,1,80,10|0,0:2|0:0,0:0:0:0:
330,202,36564,1,0,1:2:0:0:
213,338,36725,1,10,0:2:0:0:
110,227,36886,1,8,0:2:0:0:
192,262,37047,1,2,1:2:0:0:
3,338,37207,6,0,P|15:276|34:176,1,160,2|0,1:2|1:2,0:0:0:0:
117,36,37690,2,0,P|157:33|179:66,1,80,10|0,0:2|0:0,0:0:0:0:
178,62,38012,1,0,1:2:0:0:
1,75,38173,6,0,B|47:85|47:85|65:106|65:106|117:118,1,120,10|0,0:2|0:0,0:0:0:0:
109,116,38494,1,0,1:2:0:0:
249,160,38655,1,10,0:2:0:0:
214,296,38816,1,8,0:2:0:0:
74,252,38977,1,0,1:2:0:0:
250,371,39138,6,0,P|298:369|331:308,1,120,6|0,1:2|0:0,0:0:0:0:
403,279,39459,2,0,P|398:259|392:232,3,40,0|0|0|0,1:2|1:2|1:2|1:2,0:0:0:0:
334,148,39781,2,0,P|329:167|324:186,3,40,10|8|8|8,0:2|0:2|0:2|0:2,0:0:0:0:
426,130,40103,5,10,0:2:0:0:
304,43,40264,2,0,B|388:66|388:66|396:100|438:117,1,160,8|8,0:2|3:0,0:0:0:0:
240,183,40746,2,0,P|200:194|156:206,1,80,10|4,3:0|3:0,0:0:0:0:
81,178,41068,6,0,B|129:208|129:208|108:284,1,120,6|0,1:2|0:0,0:0:0:0:
46,310,41390,2,0,P|24:304|0:296,3,40,0|0|0|0,1:2|1:2|1:2|1:2,0:0:0:0:
151,365,41711,2,0,P|129:371|105:379,3,40,10|8|8|8,0:2|0:2|0:2|0:2,0:0:0:0:
201,295,42033,5,2,1:2:0:0:
368,384,42248,6,0,B|376:331|376:331|409:304|409:304|415:238,1,160,4|4,3:0|3:0,0:0:0:0:
235,384,42998,5,6,1:2:0:0:
330,226,44929,5,2,1:2:0:0:
512,110,45089,2,0,P|446:127|350:152,1,160,12|8,0:2|0:2,0:0:0:0:
231,273,45572,2,0,B|209:241|209:241|225:202,1,80,0|0,1:2|1:2,0:0:0:0:
417,305,45894,2,0,P|407:350|396:400,1,80,8|0,0:2|1:2,0:0:0:0:
487,230,46215,1,0,1:2:0:0:
487,230,46296,1,8,0:2:0:0:
487,230,46376,2,0,P|492:248|499:277,1,40,8|8,0:2|0:2,0:0:0:0:
316,356,46537,1,8,0:2:0:0:
316,356,46618,1,8,0:2:0:0:
316,356,46698,2,0,P|320:334|327:308,2,40,8|8|0,0:2|0:2|1:2,0:0:0:0:
108,43,47502,5,2,0:2:0:0:
38,80,47663,1,10,0:2:0:0:
38,80,47985,6,0,P|109:89|139:171,1,160,6|2,1:2|1:2,0:0:0:0:
334,292,48466,1,10,0:2:0:0:
315,218,48627,1,2,1:2:0:0:
315,218,48708,1,8,0:2:0:0:
315,218,48788,1,2,1:2:0:0:
115,272,48949,2,0,P|153:262|192:252,1,80,2|10,1:2|0:2,0:0:0:0:
415,167,49271,2,0,P|419:147|425:119,1,40,2|8,1:2|0:2,0:0:0:0:
325,39,49431,6,0,P|333:76|342:129,1,80,2|0,1:2|1:2,0:0:0:0:
512,253,49753,2,0,P|504:290|495:343,1,80,10|0,0:2|0:0,0:0:0:0:
319,384,50075,1,2,1:2:0:0:
421,289,50236,2,0,P|386:297|334:308,1,80,10|8,0:2|0:2,0:0:0:0:
145,174,50557,6,0,B|167:188|191:189|191:189|238:249|175:279,1,160,2|0,1:2|1:2,0:0:0:0:
5,377,51040,1,8,0:2:0:0:
81,266,51201,1,0,1:2:0:0:
81,266,51281,1,8,0:2:0:0:
81,266,51362,2,0,P|89:306|98:355,1,80,2|0,1:2|1:2,0:0:0:0:
234,200,51683,2,0,P|241:160|249:121,1,80,8|0,0:2|1:2,0:0:0:0:
1,1,52005,6,0,P|15:41|94:53,1,120,2|0,1:2|0:0,0:0:0:0:
152,94,52327,2,0,P|174:77|177:24,1,80,8|0,0:2|0:0,0:0:0:0:
289,6,52649,1,2,1:2:0:0:
103,172,52809,1,8,0:2:0:0:
103,172,53131,6,0,B|152:185|152:185|170:212|170:212|211:222,1,120,6|0,1:2|0:0,0:0:0:0:
205,220,53453,1,2,0:2:0:0:
63,348,53614,2,0,P|97:339|154:324,1,80,10|0,0:2|1:2,0:0:0:0:
358,190,53935,2,0,P|366:151|374:109,1,80,2|0,0:2|1:2,0:0:0:0:
478,341,54257,1,10,0:2:0:0:
512,221,54418,6,0,P|459:231|427:292,1,120,2|0,0:2|0:0,0:0:0:0:
371,335,54740,2,0,P|335:343|285:355,1,80,2|8,1:2|0:2,0:0:0:0:
258,197,55061,2,0,P|222:189|172:177,1,80,2|0,0:2|1:2,0:0:0:0:
368,57,55383,2,0,P|379:93|397:148,1,80,2|8,1:2|0:2,0:0:0:0:
215,287,55705,6,0,B|146:300|146:300|138:328|105:340,1,120,6|0,1:2|1:2,0:0:0:0:
47,378,56027,2,0,P|44:361|36:337,1,40,0|0,1:2|1:2,0:0:0:0:
90,250,56187,2,0,P|96:231|99:211,3,40,10|8|8|8,0:2|0:2|0:2|0:2,0:0:0:0:
6,152,56509,2,0,P|12:170|15:190,3,40,10|8|8|8,0:2|0:2|0:2|0:2,0:0:0:0:
162,158,56831,1,10,0:2:0:0:
162,158,56911,1,8,0:2:0:0:
162,158,56992,2,0,P|178:154|204:145,1,40,8|8,0:2|0:2,0:0:0:0:
270,191,57153,5,10,0:2:0:0:
93,30,57313,1,0,1:2:0:0:
93,30,57394,1,0,1:2:0:0:
93,30,57474,2,0,P|86:74|77:119,1,80,0|8,1:2|0:2,0:0:0:0:
6,152,57796,1,2,1:2:0:0:
202,59,57957,1,10,0:2:0:0:
202,59,58279,6,0,P|275:45|370:26,1,160,6|2,1:2|1:2,0:0:0:0:
504,141,58761,1,10,0:2:0:0:
434,178,58922,1,2,1:2:0:0:
434,178,59002,1,8,0:2:0:0:
434,178,59083,1,2,1:2:0:0:
378,109,59244,1,2,1:2:0:0:
512,256,59405,2,0,P|506:293|498:339,1,80,10|2,0:2|1:2,0:0:0:0:
422,336,59646,1,8,0:2:0:0:
422,336,59726,6,0,P|383:347|333:359,1,80,2|2,1:2|1:2,0:0:0:0:
209,213,60048,2,0,P|248:224|298:236,1,80,10|2,0:2|0:2,0:0:0:0:
328,172,60370,1,2,1:2:0:0:
107,264,60531,2,0,P|115:224|122:185,1,80,10|8,0:2|0:2,0:0:0:0:
385,107,60852,6,0,B|380:62|380:62|353:37|353:37|346:-8,1,120,6|0,1:2|0:0,0:0:0:0:
347,0,61174,1,2,1:2:0:0:
215,99,61335,1,8,0:2:0:0:
185,10,61496,2,0,P|215:18|269:31,1,80,6|0,1:2|0:0,0:0:0:0:
409,197,61817,2,0,P|439:189|493:176,1,80,2|8,1:2|0:2,0:0:0:0:
363,263,62139,6,0,P|311:275|295:340,1,120,6|0,1:2|0:0,0:0:0:0:
217,346,62461,2,0,P|221:358|228:395,1,40,2|0,1:2|1:2,0:0:0:0:
152,269,62622,2,0,P|148:288|142:307,3,40,0|0|0|0,1:2|1:2|1:2|1:2,0:0:0:0:
64,344,62943,1,8,0:2:0:0:
64,344,63024,1,8,0:2:0:0:
64,344,63104,2,0,P|61:326|55:301,1,40,0|0,1:2|1:2,0:0:0:0:
0,199,63265,2,0,P|35:192|83:180,1,80,10|0,0:2|0:0,0:0:0:0:
269,92,63587,6,0,P|212:83|185:29,1,120,6|0,1:2|0:0,0:0:0:0:
185,31,63909,1,10,0:2:0:0:
348,126,64069,2,0,P|355:162|365:213,1,80,2|0,1:2|0:0,0:0:0:0:
442,249,64391,1,2,1:2:0:0:
313,355,64552,1,8,0:2:0:0:
481,335,64713,6,0,P|441:326|400:316,1,80,2|0,0:2|1:2,0:0:0:0:
185,211,65035,2,0,P|159:185|157:142,1,80,2|8,1:2|0:2,0:0:0:0:
240,305,65356,2,0,P|233:334|221:393,1,80,2|0,0:2|1:2,0:0:0:0:
297,243,65678,1,2,1:2:0:0:
69,313,65839,2,0,P|105:305|158:291,1,80,8|10,0:2|0:2,0:0:0:0:
363,190,66161,6,0,B|418:205|418:205|442:239|442:239|514:259,2,160,6|0|8,1:2|1:2|0:2,0:0:0:0:
166,8,67126,1,10,3:0:0:0:
212,71,67287,1,8,3:0:0:0:
149,116,67447,6,0,B|94:131|94:131|70:165|70:165|-2:185,1,160,2|0,1:2|0:0,0:0:0:0:
184,271,67930,1,8,0:2:0:0:
30,355,68091,1,10,0:2:0:0:
69,287,68252,1,0,1:2:0:0:
265,370,68413,2,0,P|225:362|186:353,1,80,8|2,0:2|0:2,0:0:0:0:
388,262,68734,6,0,P|457:248|487:167,1,160,6|8,1:2|0:2,0:0:0:0:
349,4,69217,2,0,B|291:50|291:50|323:142,1,160,0|0,1:2|1:2,0:0:0:0:
483,87,69699,2,0,P|448:95|402:105,1,80,10|0,0:2|0:0,0:0:0:0:
234,163,70021,6,0,B|249:202|249:202|231:237,1,80,2|0,1:2|1:2,0:0:0:0:
322,383,70343,1,8,0:2:0:0:
158,308,70504,2,0,P|197:317|252:330,1,80,2|0,1:2|1:2,0:0:0:0:
27,182,70825,2,0,P|66:173|121:160,1,80,10|0,0:2|0:0,0:0:0:0:
376,0,71147,6,0,B|372:56|372:56|342:79|342:79|329:154,1,160,6|0,1:2|1:2,0:0:0:0:
487,245,71630,2,0,P|482:209|475:163,1,80,10|0,0:2|0:0,0:0:0:0:
390,307,71951,2,0,P|413:318|469:345,1,80,0|0,1:2|1:2,0:0:0:0:
313,233,72273,2,0,B|278:241|278:241|270:249|270:249|232:258,1,80,10|0,0:2|0:0,0:0:0:0:
118,380,72595,6,0,P|66:374|49:311,1,120,2|0,1:2|0:0,0:0:0:0:
0,254,72917,2,0,P|11:223|59:213,1,80,8|0,0:2|1:2,0:0:0:0:
232,187,73238,2,0,P|240:149|248:106,1,80,2|0,0:2|1:2,0:0:0:0:
68,100,73560,2,0,P|60:62|52:19,1,80,8|2,0:2|0:2,0:0:0:0:
143,159,73882,5,6,1:2:0:0:
143,159,74043,1,0,1:2:0:0:
0,254,74203,5,0,1:2:0:0:
0,254,74364,1,0,1:2:0:0:
77,225,74525,5,0,1:2:0:0:
88,266,74686,1,0,1:2:0:0:
216,194,74847,5,0,1:2:0:0:
184,303,75008,1,0,1:2:0:0:
293,161,75169,5,8,0:2:0:0:
330,325,75329,1,8,0:2:0:0:
460,121,75490,5,8,0:2:0:0:
409,360,75651,1,8,0:2:0:0:
387,187,75812,5,8,0:2:0:0:
512,322,75973,1,8,0:2:0:0:
387,187,76134,2,0,P|414:196|475:214,1,80,12|0,0:2|0:0,0:0:0:0:
433,283,76455,5,2,1:2:0:0:
294,180,76616,2,0,P|299:155|305:126,2,40,10|8|8,0:2|0:2|0:2,0:0:0:0:
371,100,76938,5,2,1:2:0:0:
200,13,77099,1,8,0:0:0:0:
200,13,77179,1,8,0:0:0:0:
200,13,77260,2,0,P|205:38|211:67,1,40,10|8,0:2|0:2,0:0:0:0:
127,63,77421,2,0,P|122:82|119:102,1,40,0|0,1:2|0:0,0:0:0:0:
14,176,77581,6,0,P|76:182|107:245,1,120,6|0,1:2|0:0,0:0:0:0:
105,226,77903,1,2,1:2:0:0:
236,327,78064,1,6,1:2:0:0:
236,327,78708,2,0,P|234:306|228:275,1,47.9999985351563,2|0,1:2|0:0,0:0:0:0:
473,169,79029,5,14,0:2:0:0:
425,228,79190,2,0,P|354:213|284:197,1,143.999995605469,0|0,1:2|1:2,0:0:0:0:
284,197,79834,1,0,1:2:0:0:
76,41,79994,5,12,0:2:0:0:
124,100,80155,2,0,P|194:85|264:69,1,143.999995605469,0|0,1:2|1:2,0:0:0:0:
264,69,80799,1,0,1:2:0:0:
473,27,80960,5,8,0:2:0:0:
351,141,81120,1,8,0:2:0:0:
374,0,81281,2,0,P|380:28|392:84,1,71.9999978027344,2|2,1:2|0:2,0:0:0:0:
504,258,81603,5,12,0:2:0:0:
425,223,81764,2,0,P|372:225|340:302,1,143.999995605469,0|0,1:2|1:2,0:0:0:0:
339,300,82407,1,0,1:2:0:0:
181,328,82568,5,12,0:2:0:0:
128,384,82729,2,0,P|75:382|43:305,1,143.999995605469,0|0,1:2|1:2,0:0:0:0:
42,306,83372,1,0,1:2:0:0:
181,165,83533,5,8,0:2:0:0:
117,264,83694,1,8,0:2:0:0:
0,179,83855,2,0,P|34:187|82:198,1,71.9999978027344,2|2,1:2|0:2,0:0:0:0:
276,263,84177,5,14,0:2:0:0:
202,307,84338,2,0,P|192:243|180:164,1,143.999995605469,2|2,1:2|1:2,0:0:0:0:
180,164,84981,1,2,1:2:0:0:
360,106,85142,5,14,0:2:0:0:
434,150,85303,2,0,P|444:86|456:7,1,143.999995605469,2|0,1:2|1:2,0:0:0:0:
455,7,85946,1,2,1:2:0:0:
226,15,86107,5,8,0:2:0:0:
360,106,86268,1,10,0:2:0:0:
304,30,86429,5,6,1:2:0:0:
179,141,86590,1,2,0:2:0:0:
111,94,86750,5,6,0:2:0:0:
111,94,88681,6,0,P|114:108|123:145,1,35.9999989013672,12|0,0:2|0:0,0:0:0:0:
224,238,88842,1,0,1:2:0:0:
6,154,89002,1,6,1:2:0:0:
