osu file format v14

[General]
AudioFilename: audio.ogg
AudioLeadIn: 0
PreviewTime: 47422
Countdown: 0
SampleSet: Soft
StackLeniency: 0.7
Mode: 0
LetterboxInBreaks: 0
WidescreenStoryboard: 1

[Editor]
DistanceSpacing: 1
BeatDivisor: 4
GridSize: 16
TimelineZoom: 1.3

[Metadata]
Title:Rakuen (TV Size)
TitleUnicode:楽園 (TV Size)
Artist:nonoc
ArtistUnicode:nonoc
Creator:Basensorex
Version:Normal
Source:スパイ教室
Tags:-aku bad mapper bad_mapper overranked alevi kyoushitsu room 2nd Spy Classroom Season 2 rock pop jrock jpop j-rock j-pop anime opening op female vocals vocalist japanese jp
BeatmapID:4292662
BeatmapSetID:2054615

[Difficulty]
HPDrainRate:3
CircleSize:3.5
OverallDifficulty:4
ApproachRate:5.5
SliderMultiplier:0.999999999999999
SliderTickRate:1

[Events]
//Background and Video events
0,0,"nonoc.jpg",0,0
Video,-50,"nonoc.mp4"
//Break Periods
//Storyboard Layer 0 (Background)
//Storyboard Layer 1 (Fail)
//Storyboard Layer 2 (Pass)
//Storyboard Layer 3 (Foreground)
//Storyboard Layer 4 (Overlay)
//Storyboard Sound Samples

[TimingPoints]
533,321.71581769437,4,2,22,40,1,0
4554,-111.111111111111,4,2,22,50,0,0
5037,-111.111111111111,4,2,22,60,0,0
5519,-100,4,2,22,70,0,0
10827,-111.111111111111,4,2,22,40,0,0
15975,-111.111111111111,4,2,22,50,0,0
21122,-100,4,2,22,50,0,0
29809,-100,4,2,22,40,0,0
30130,-100,4,2,22,50,0,0
31417,321.71581769437,3,2,22,60,1,0
35277,-100,3,2,22,50,0,0
39138,-100,3,2,22,60,0,0
42998,-111.111111111111,3,2,22,40,0,0
44607,-111.111111111111,3,2,22,60,0,0
44929,-100,3,2,22,60,0,0
46859,321.71581769437,4,2,22,40,1,0
47985,-90.9090909090909,4,2,22,70,0,1
48145,321.71581769437,4,2,22,70,1,1
48145,-90.9090909090909,4,2,22,70,0,1
66161,-100,4,2,22,60,0,0
68734,-90.9090909090909,4,2,22,70,0,1
73882,-90.9090909090909,4,2,22,80,0,1
79029,-100,4,2,22,70,0,0
86750,-111.111111111111,4,2,22,50,0,0
87716,-111.111111111111,4,2,22,60,0,0
88681,-111.111111111111,4,2,22,70,0,0

[Colours]
Combo1 : 51,50,67
Combo2 : 217,205,196
Combo3 : 121,120,130
Combo4 : 153,159,142
Combo5 : 139,147,172

[HitObjects]
49,48,4554,5,2,0:2:0:0:
49,48,4715,2,0,L|40:95,1,44.999998626709,2|2,0:2|0:2,0:0:0:0:
68,128,5037,1,2,0:2:0:0:
147,83,5358,1,2,0:2:0:0:
147,83,5519,6,0,P|191:60|241:66,1,99.9999999999999,6|0,1:2|1:2,0:0:0:0:
285,88,6002,1,10,0:2:0:0:
379,57,6323,1,2,1:2:0:0:
449,127,6645,1,10,0:2:0:0:
417,221,6967,2,0,L|436:331,1,99.9999999999999,2|10,1:2|0:2,0:0:0:0:
351,375,7610,2,0,L|287:363,1,50,2|10,1:2|0:2,0:0:0:0:
273,331,7932,1,10,0:2:0:0:
273,331,8093,6,0,B|181:320|214:372|113:359,1,150,6|8,1:2|0:2,0:0:0:0:
35,327,8897,2,0,P|12:282|18:232,1,99.9999999999999,4|8,0:3|0:2,0:0:0:0:
76,152,9541,1,10,0:3:0:0:
169,199,9862,1,10,0:2:0:0:
169,199,10023,2,0,L|232:187,1,50,10|2,0:2|0:2,0:0:0:0:
253,154,10345,1,2,1:2:0:0:
355,241,10827,6,0,P|440:235|475:157,1,179.999994506836,6|0,1:2|1:2,0:0:0:0:
506,72,11793,1,2,1:2:0:0:
442,8,12114,2,0,L|331:27,1,89.999997253418,2|0,1:2|1:2,0:0:0:0:
287,85,12758,2,0,L|176:65,1,89.999997253418,2|0,1:2|1:2,0:0:0:0:
169,34,13240,1,2,0:2:0:0:
40,76,13723,2,0,P|19:116|24:162,1,89.999997253418,2|0,1:2|1:2,0:0:0:0:
7,248,14366,1,2,1:2:0:0:
83,295,14688,2,0,L|193:275,1,89.999997253418,2|0,1:2|1:2,0:0:0:0:
227,350,15331,2,0,L|337:369,1,89.999997253418,2|0,1:2|1:2,0:0:0:0:
390,315,15975,6,0,B|438:265|438:265|417:147,1,179.999994506836,2|0,1:2|1:2,0:0:0:0:
452,72,16940,1,2,1:2:0:0:
388,7,17262,2,0,P|343:3|304:23,1,89.999997253418,2|0,1:2|1:2,0:0:0:0:
234,79,17905,2,0,L|253:189,1,89.999997253418,2|0,1:2|1:2,0:0:0:0:
289,189,18388,1,2,0:2:0:0:
272,322,18870,1,2,1:2:0:0:
186,349,19192,2,0,P|141:352|102:332,1,89.999997253418,2|0,1:2|1:2,0:0:0:0:
37,269,19835,2,0,L|64:111,1,134.999995880127,2|0,1:2|0:0,0:0:0:0:
95,107,20479,2,0,L|81:28,2,67.4999979400635,2|2|2,0:2|0:2|0:2,0:0:0:0:
141,125,21122,5,4,1:2:0:0:
210,52,21444,2,0,P|233:44|258:42,1,50,10|2,0:2|1:2,0:0:0:0:
295,76,21766,2,0,P|318:83|343:85,1,50,2|2,0:2|1:2,0:0:0:0:
387,61,22087,1,10,0:2:0:0:
459,130,22409,2,0,L|522:118,2,50,2|2|10,1:2|1:2|0:2,0:0:0:0:
428,169,22892,1,2,0:2:0:0:
470,259,23213,2,0,P|477:282|479:307,1,50,10|2,0:2|1:2,0:0:0:0:
455,351,23534,1,6,1:2:0:0:
359,366,23857,5,2,1:2:0:0:
359,366,24018,2,0,L|295:354,1,50,10|2,0:2|1:2,0:0:0:0:
277,319,24339,1,2,0:2:0:0:
185,359,24661,1,10,0:2:0:0:
107,295,24983,2,0,L|28:308,2,74.9999999999999,2|2|2,1:2|0:2|0:2,0:0:0:0:
155,207,25787,2,0,L|265:226,1,99.9999999999999,2|2,1:2|0:2,0:0:0:0:
297,199,26270,5,4,1:2:0:0:
372,264,26591,1,10,0:2:0:0:
462,221,26913,2,0,P|484:176|478:126,1,99.9999999999999,10|10,0:2|0:2,0:0:0:0:
464,84,27396,1,8,0:2:0:0:
464,84,27557,2,0,L|365:66,1,99.9999999999999,10|10,0:2|0:2,0:0:0:0:
266,50,28200,2,0,P|258:73|256:98,2,50,10|8|4,0:2|3:0|3:0,0:0:0:0:
237,8,28683,1,6,1:2:0:0:
237,8,29809,5,2,0:2:0:0:
206,102,30130,2,0,B|114:91|147:143|46:130,1,150,10|0,0:2|1:2,0:0:0:0:
24,164,30774,2,0,P|2:208|7:258,1,99.9999999999999,10|8,0:2|0:2,0:0:0:0:
40,351,31417,6,0,L|197:323,1,150,6|0,1:2|1:2,0:0:0:0:
227,354,32060,1,10,0:2:0:0:
296,283,32382,2,0,B|359:294|359:294|378:321|378:321|449:334,1,150,10|8,0:2|3:0,0:0:0:0:
472,304,33025,1,2,0:2:0:0:
494,206,33347,2,0,P|489:134|423:105,1,150,6|0,1:2|1:2,0:0:0:0:
385,74,33990,1,10,0:2:0:0:
287,95,34312,2,0,L|267:205,1,99.9999999999999,10|8,0:2|3:0,0:0:0:0:
305,228,34795,2,0,L|324:338,1,99.9999999999999,10|0,3:0|0:0,0:0:0:0:
287,361,35277,6,0,P|242:383|193:378,1,99.9999999999999,2|0,1:2|1:2,0:0:0:0:
149,353,35760,1,10,0:2:0:0:
89,280,36081,1,0,1:2:0:0:
89,280,36242,2,0,L|106:181,1,99.9999999999999,10|0,0:2|1:2,0:0:0:0:
80,138,36725,1,10,0:2:0:0:
133,55,37047,1,2,1:2:0:0:
133,55,37207,6,0,P|178:33|227:38,1,99.9999999999999,2|0,1:2|1:2,0:0:0:0:
272,58,37690,1,10,0:2:0:0:
311,155,38012,1,0,1:2:0:0:
311,155,38173,2,0,P|356:177|405:172,1,99.9999999999999,10|0,0:2|1:2,0:0:0:0:
452,152,38655,1,10,0:2:0:0:
452,152,38816,1,8,0:2:0:0:
505,236,39138,6,0,P|475:300|403:305,1,150,6|0,1:2|1:2,0:0:0:0:
358,283,39781,1,10,0:2:0:0:
261,310,40103,2,0,B|198:321|198:321|170:302|170:302|99:314,1,150,10|8,0:2|3:0,0:0:0:0:
84,347,40746,1,10,3:0:0:0:
5,284,41068,2,0,L|33:127,1,150,6|0,1:2|1:2,0:0:0:0:
6,92,41711,1,10,0:2:0:0:
77,21,42033,2,0,P|122:-1|171:4,1,99.9999999999999,2|0,1:2|0:0,0:0:0:0:
215,25,42516,1,2,0:2:0:0:
284,140,42998,6,0,B|369:129|338:178|432:166,1,134.999995880127,6|2,1:2|0:2,0:0:0:0:
494,275,43963,2,0,B|458:309|458:309|373:294,1,134.999995880127,2|0,0:2|0:0,0:0:0:0:
335,318,44607,1,8,0:2:0:0:
251,272,44929,5,2,1:2:0:0:
251,272,45089,2,0,L|140:291,1,99.9999999999999,12|8,0:2|0:2,0:0:0:0:
117,325,45572,1,0,1:2:0:0:
21,295,45894,2,0,P|-1:250|4:201,1,99.9999999999999,8|0,0:2|1:2,0:0:0:0:
30,161,46376,1,8,0:2:0:0:
30,161,46537,2,0,L|79:152,1,50,8|8,0:2|0:2,0:0:0:0:
112,114,46859,5,0,1:2:0:0:
194,170,47180,1,8,0:2:0:0:
276,112,47502,1,2,0:2:0:0:
276,112,47663,1,10,0:2:0:0:
355,188,47985,6,0,B|408:204|408:204|462:187,1,110.000003356934,6|2,1:2|1:2,0:0:0:0:
508,161,48466,1,10,0:2:0:0:
489,52,48788,2,0,L|410:38,1,55.0000016784668,2|2,1:2|1:2,0:0:0:0:
397,1,49110,2,0,L|318:14,1,55.0000016784668,10|2,0:2|1:2,0:0:0:0:
313,56,49431,1,2,1:2:0:0:
214,7,49753,1,10,0:2:0:0:
121,63,50075,1,2,1:2:0:0:
121,63,50236,2,0,P|113:89|112:118,1,55.0000016784668,10|8,0:2|0:2,0:0:0:0:
132,168,50557,6,0,L|112:278,1,110.000003356934,2|0,1:2|1:2,0:0:0:0:
143,322,51040,1,8,0:2:0:0:
247,286,51362,2,0,B|299:269|299:269|352:285,1,110.000003356934,2|8,1:2|0:2,0:0:0:0:
371,342,51844,1,0,1:2:0:0:
371,342,52005,2,0,B|423:358|423:358|476:342,1,110.000003356934,2|8,1:2|0:2,0:0:0:0:
512,241,52649,1,2,1:2:0:0:
512,241,52809,1,8,0:2:0:0:
437,159,53131,6,0,L|456:48,1,110.000003356934,6|2,1:2|0:2,0:0:0:0:
421,7,53614,1,10,0:2:0:0:
332,71,53935,1,2,0:2:0:0:
235,28,54257,1,10,0:2:0:0:
235,28,54418,2,0,B|182:11|182:11|129:27,1,110.000003356934,2|2,0:2|1:2,0:0:0:0:
54,107,55061,1,2,0:2:0:0:
76,214,55383,1,2,1:2:0:0:
180,250,55705,6,0,L|290:230,1,110.000003356934,6|0,1:2|1:2,0:0:0:0:
321,186,56187,1,10,0:2:0:0:
429,203,56509,2,0,P|436:229|437:258,1,55.0000016784668,10|8,0:2|0:2,0:0:0:0:
484,285,56831,2,0,P|476:311|475:340,1,55.0000016784668,10|8,0:2|0:2,0:0:0:0:
431,371,57153,2,0,B|334:382|368:327|262:341,1,165.0000050354,10|8,0:2|0:2,0:0:0:0:
230,373,57796,1,2,1:2:0:0:
230,373,57957,1,10,0:2:0:0:
121,352,58279,6,0,B|105:299|105:299|121:245,1,110.000003356934,6|2,1:2|1:2,0:0:0:0:
99,196,58760,1,10,0:2:0:0:
120,87,59083,2,0,L|198:73,1,55.0000016784668,2|2,1:2|1:2,0:0:0:0:
212,37,59405,2,0,L|290:50,1,55.0000016784668,10|2,0:2|1:2,0:0:0:0:
320,52,59726,2,0,P|327:25|328:-3,2,55.0000016784668,2|2|10,1:2|1:2|0:2,0:0:0:0:
411,123,60369,1,2,1:2:0:0:
411,123,60531,2,0,L|420:177,1,55.0000016784668,10|8,0:2|0:2,0:0:0:0:
468,204,60852,6,0,B|484:256|484:256|468:309,1,110.000003356934,6|2,1:2|1:2,0:0:0:0:
447,362,61334,1,8,0:2:0:0:
447,362,61496,2,0,L|336:342,1,110.000003356934,6|2,1:2|1:2,0:0:0:0:
245,284,62139,2,0,L|134:303,1,110.000003356934,6|2,1:2|1:2,0:0:0:0:
84,284,62622,2,0,P|76:257|75:228,1,55.0000016784668,0|0,1:2|1:2,0:0:0:0:
31,197,62943,2,0,P|38:170|39:141,1,55.0000016784668,8|0,0:2|1:2,0:0:0:0:
21,90,63265,1,10,0:2:0:0:
115,32,63587,6,0,B|167:15|167:15|220:31,1,110.000003356934,6|10,1:2|0:2,0:0:0:0:
271,52,64069,1,2,1:2:0:0:
372,9,64391,1,2,1:2:0:0:
453,82,64713,2,0,L|433:192,1,110.000003356934,2|2,0:2|1:2,0:0:0:0:
335,240,65356,2,0,L|271:228,1,55.0000016784668,2|0,0:2|1:2,0:2:0:0:
247,186,65678,2,0,L|183:197,1,55.0000016784668,2|8,1:2|0:2,0:2:0:0:
157,239,66000,1,10,0:2:0:0:
157,239,66161,6,0,P|112:217|62:223,1,99.9999999999999,6|0,1:2|1:2,0:0:0:0:
9,306,66804,1,8,0:2:0:0:
83,372,67126,1,10,3:0:0:0:
175,335,67447,2,0,B|267:324|234:376|335:363,1,150,2|8,1:2|0:2,0:0:0:0:
353,328,68091,2,0,L|416:339,1,50,10|0,0:2|1:2,0:0:0:0:
445,310,68413,1,8,0:2:0:0:
503,217,68734,6,0,B|519:164|519:164|502:110,1,110.000003356934,6|8,1:2|0:2,0:0:0:0:
483,60,69217,2,0,L|374:40,1,110.000003356934,0|0,1:2|1:2,0:0:0:0:
328,71,69699,1,10,0:2:0:0:
238,6,70021,2,0,L|129:25,1,110.000003356934,2|8,1:2|0:2,0:0:0:0:
78,3,70504,1,2,1:2:0:0:
1,81,70825,1,10,0:2:0:0:
48,180,71147,6,0,B|101:196|101:196|155:179,1,110.000003356934,6|0,1:2|1:2,0:0:0:0:
204,160,71630,2,0,L|312:179,1,110.000003356934,10|0,0:2|1:2,0:0:0:0:
406,122,72273,1,10,0:2:0:0:
474,207,72595,2,0,B|490:259|490:259|474:312,1,110.000003356934,2|8,1:2|0:2,0:0:0:0:
379,367,73238,2,0,L|270:347,1,110.000003356934,2|8,0:2|0:2,0:0:0:0:
206,264,73882,5,6,1:2:0:0:
206,264,74043,2,0,L|97:283,1,110.000003356934,0|0,1:2|1:2,0:0:0:0:
49,256,74525,1,0,1:2:0:0:
1,156,74847,1,0,1:2:0:0:
63,65,75169,2,0,P|89:57|118:56,1,55.0000016784668,8|8,0:2|0:2,0:0:0:0:
148,100,75490,2,0,P|174:108|203:109,1,55.0000016784668,8|8,0:2|0:2,0:0:0:0:
252,87,75812,2,0,L|263:24,1,55.0000016784668,8|8,0:2|0:2,0:0:0:0:
308,3,76134,1,12,0:2:0:0:
406,62,76455,5,2,1:2:0:0:
406,62,76616,2,0,L|396:116,1,55.0000016784668,10|8,0:2|0:2,0:0:0:0:
431,159,76938,1,2,1:2:0:0:
479,258,77260,1,10,0:2:0:0:
403,338,77581,2,0,L|294:319,1,110.000003356934,6|2,1:2|1:2,0:0:0:0:
251,353,78064,1,6,1:2:0:0:
70,227,78708,1,2,1:2:0:0:
92,132,79029,5,14,0:2:0:0:
92,132,79190,2,0,P|47:110|-3:116,2,99.9999999999999,0|0|0,1:2|1:2|1:2,0:0:0:0:
137,123,79994,1,12,0:2:0:0:
137,123,80155,2,0,L|156:12,2,99.9999999999999,0|0|0,1:2|1:2|1:2,0:0:0:0:
174,156,80960,1,8,0:2:0:0:
259,104,81281,1,2,1:2:0:0:
339,172,81603,5,12,0:2:0:0:
339,172,81764,2,0,L|319:282,2,99.9999999999999,0|0|0,1:2|1:2|1:2,0:0:0:0:
383,146,82568,1,12,0:2:0:0:
383,146,82729,2,0,P|428:124|478:130,2,99.9999999999999,0|0|0,1:2|1:2|1:2,0:0:0:0:
369,97,83534,1,8,0:2:0:0:
296,28,83855,1,2,1:2:0:0:
214,84,84177,5,14,0:2:0:0:
214,84,84338,2,0,L|194:194,2,99.9999999999999,2|2|2,1:2|1:2|1:2,0:0:0:0:
193,44,85142,1,14,0:2:0:0:
193,44,85303,2,0,P|148:22|98:28,2,99.9999999999999,2|0|2,1:2|1:2|1:2,0:0:0:0:
226,6,86108,1,8,0:2:0:0:
315,50,86429,1,6,1:2:0:0:
399,15,86750,5,6,0:2:0:0:
399,15,86911,2,0,L|418:125,1,89.999997253418,2|2,0:2|0:2,0:0:0:0:
449,132,87394,1,2,0:2:0:0:
421,217,87716,2,0,P|381:238|335:233,1,89.999997253418,2|2,0:2|0:2,0:0:0:0:
298,255,88198,2,0,P|258:234|212:239,1,89.999997253418,2|2,0:2|0:2,0:0:0:0:
174,258,88681,2,0,L|162:321,1,44.999998626709,12|0,0:2|1:2,0:0:0:0:
132,332,89002,1,6,1:2:0:0:
