osu file format v14

[General]
AudioFilename: audio.ogg
AudioLeadIn: 0
PreviewTime: 47422
Countdown: 0
SampleSet: Soft
StackLeniency: 0.7
Mode: 0
LetterboxInBreaks: 0
WidescreenStoryboard: 0

[Editor]
DistanceSpacing: 1
BeatDivisor: 4
GridSize: 16
TimelineZoom: 1.2

[Metadata]
Title:Rakuen (TV Size)
TitleUnicode:楽園 (TV Size)
Artist:nonoc
ArtistUnicode:nonoc
Creator:Basensorex
Version:Lamplight
Source:スパイ教室
Tags:-aku bad mapper bad_mapper overranked alevi kyoushitsu room 2nd Spy Classroom Season 2 rock pop jrock jpop j-rock j-pop anime opening op female vocals vocalist japanese jp
BeatmapID:4292661
BeatmapSetID:2054615

[Difficulty]
HPDrainRate:5
CircleSize:4.2
OverallDifficulty:8.8
ApproachRate:9.3
SliderMultiplier:1.8
SliderTickRate:1

[Events]
//Background and Video events
0,0,"nonoc.jpg",0,0
Video,-50,"nonoc.mp4"
//Break Periods
2,11027,15421
//Storyboard Layer 0 (Background)
//Storyboard Layer 1 (Fail)
//Storyboard Layer 2 (Pass)
//Storyboard Layer 3 (Foreground)
//Storyboard Layer 4 (Overlay)
//Storyboard Sound Samples

[TimingPoints]
533,321.71581769437,4,2,22,40,1,0
533,-400,4,2,22,40,0,0
4554,-125,4,2,22,50,0,0
5037,-125,4,2,22,60,0,0
5519,-100,4,2,22,70,0,0
10345,-166.666666666667,4,2,22,70,0,0
10827,-166.666666666667,4,2,22,40,0,0
15975,-166.666666666667,4,2,22,50,0,0
21122,-100,4,2,22,60,0,0
29809,-100,4,2,22,40,0,0
30130,-125,4,2,22,50,0,0
31417,321.71581769437,3,2,22,60,1,0
35277,-125,3,2,22,50,0,0
39138,-100,3,2,22,60,0,0
42998,-100,3,2,22,40,0,0
44607,-100,3,2,22,60,0,0
46859,321.71581769437,4,2,22,40,1,0
46859,-166.666666666667,4,2,22,40,0,0
47985,-83.3333333333333,4,2,22,70,0,1
48145,321.71581769437,4,2,22,70,1,1
48145,-83.3333333333333,4,2,22,70,0,1
57153,-83.3333333333333,4,2,22,70,0,0
58279,-83.3333333333333,4,2,22,70,0,1
66161,-125,4,2,22,60,0,0
67447,-100,4,2,22,60,0,0
68734,-83.3333333333333,4,2,22,70,0,1
73882,-83.3333333333333,4,2,22,80,0,1
78064,-100,4,2,22,80,0,0
79029,-100,4,2,22,70,0,0
86750,-125,4,2,22,50,0,0
87394,-100,4,2,22,50,0,0
87716,-100,4,2,22,60,0,0
88681,-100,4,2,22,70,0,0

[Colours]
Combo1 : 51,50,67
Combo2 : 217,205,196
Combo3 : 121,120,130
Combo4 : 153,159,142
Combo5 : 139,147,172

[HitObjects]
52,207,533,6,0,B|137:60|410:159|257:376|455:350,1,517.5,6|0,0:2|0:0,0:0:0:0:
455,354,4554,5,2,0:2:0:0:
455,354,4715,2,0,L|468:283,1,72,2|2,0:2|0:2,0:0:0:0:
390,178,5037,1,2,0:2:0:0:
362,304,5197,1,2,0:2:0:0:
512,197,5358,1,2,0:2:0:0:
217,138,5519,6,0,B|143:125|143:125|107:143|107:143|43:132,1,180,6|0,1:2|1:2,0:0:0:0:
167,226,6002,1,10,0:2:0:0:
310,88,6163,1,0,1:2:0:0:
310,88,6243,1,8,0:2:0:0:
310,88,6323,2,0,L|293:-6,1,90,2|0,1:2|1:2,0:0:0:0:
512,197,6645,2,0,L|495:291,1,90,10|0,0:2|1:2,0:0:0:0:
496,285,6886,1,8,0:2:0:0:
496,285,6967,5,2,1:2:0:0:
363,163,7128,1,0,1:2:0:0:
329,344,7289,2,0,B|371:358|371:358|414:344,1,90,10|0,0:2|0:0,0:0:0:0:
229,151,7610,1,2,1:2:0:0:
238,384,7771,1,10,0:2:0:0:
420,248,7932,1,10,0:2:0:0:
171,317,8093,6,0,B|74:297|97:371|-9:352,1,180,6|0,1:2|1:2,0:0:0:0:
122,128,8575,1,8,0:2:0:0:
259,272,8736,1,4,0:3:0:0:
259,272,8817,1,4,0:3:0:0:
259,272,8897,2,0,B|273:314|273:314|259:357,1,90,4|0,0:3|1:2,0:0:0:0:
317,85,9219,1,8,0:2:0:0:
152,228,9380,5,8,0:3:0:0:
152,228,9460,1,8,0:3:0:0:
152,228,9541,2,0,L|57:211,1,90,10|0,0:3|1:2,0:0:0:0:
190,0,9862,1,10,0:2:0:0:
348,238,10023,1,10,0:2:0:0:
512,0,10184,1,2,0:2:0:0:
227,131,10345,6,0,L|250:263,1,134.999995880127,2|0,1:2|0:0,0:0:0:0:
250,263,10827,5,6,1:2:0:0:
256,192,15975,12,0,19514,1:2:0:0:
27,307,19835,6,0,B|59:358|59:358|161:341,1,161.999995056153,2|0,1:2|0:0,0:0:0:0:
244,321,20479,6,0,L|248:294,1,26.9999991760254,2|0,0:2|0:0,0:0:0:0:
254,333,20720,6,0,L|258:306,1,26.9999991760254,2|0,0:2|0:0,0:0:0:0:
271,352,20961,5,2,0:2:0:0:
271,352,21042,1,2,0:2:0:0:
271,352,21122,2,0,L|359:336,1,90,4|2,1:2|1:2,0:0:0:0:
504,153,21444,1,10,0:2:0:0:
337,237,21605,1,2,1:2:0:0:
367,137,21766,1,2,0:2:0:0:
433,268,21927,1,2,1:2:0:0:
267,162,22087,2,0,P|262:117|278:76,1,90,10|0,0:2|1:2,0:0:0:0:
278,76,22329,1,8,0:2:0:0:
278,76,22409,5,2,1:2:0:0:
497,0,22570,1,2,1:2:0:0:
367,137,22731,1,10,0:2:0:0:
232,0,22892,2,0,L|99:23,1,135,2|0,0:2|0:0,0:0:0:0:
99,23,23213,1,10,0:2:0:0:
20,203,23374,1,2,1:2:0:0:
285,83,23535,6,0,B|272:157|272:157|290:193|290:193|279:257,1,180,6|2,1:2|1:2,0:0:0:0:
112,337,24018,1,10,0:2:0:0:
173,257,24179,1,2,1:2:0:0:
338,344,24339,2,0,L|249:359,1,90,2|0,0:2|1:2,0:0:0:0:
380,249,24661,2,0,L|468:264,1,90,10|0,0:2|0:0,0:0:0:0:
157,168,24983,6,0,L|172:256,1,90,2|0,1:2|1:2,0:0:0:0:
172,256,25224,1,2,0:2:0:0:
172,256,25305,1,8,0:2:0:0:
261,158,25465,2,0,P|277:116|271:72,1,90,2|0,0:2|1:2,0:0:0:0:
71,117,25787,2,0,P|54:158|60:202,1,90,2|8,1:2|0:2,0:0:0:0:
165,66,26109,1,2,0:2:0:0:
282,263,26270,6,0,L|415:240,1,135,4|0,1:2|0:0,0:0:0:0:
439,264,26591,2,0,L|431:308,3,45,10|8|8|8,0:2|0:2|0:2|0:2,0:0:0:0:
512,200,26913,2,0,L|505:156,3,45,10|8|8|8,0:2|0:2|0:2|0:2,0:0:0:0:
364,135,27235,1,10,0:2:0:0:
364,135,27315,1,8,0:2:0:0:
364,135,27396,2,0,L|427:146,1,45,8|8,0:2|0:2,0:0:0:0:
512,50,27557,1,10,0:2:0:0:
512,50,27637,1,8,0:2:0:0:
512,50,27718,2,0,L|448:61,1,45,8|8,0:2|0:2,0:0:0:0:
275,216,27878,1,10,0:2:0:0:
269,184,27959,1,8,0:2:0:0:
263,152,28039,1,8,0:2:0:0:
258,121,28120,1,8,0:2:0:0:
252,89,28200,5,10,0:2:0:0:
408,142,28361,1,8,3:0:0:0:
169,176,28522,1,4,3:0:0:0:
386,0,28683,1,6,1:2:0:0:
386,0,29809,5,2,0:2:0:0:
169,176,30130,2,0,L|137:170,9,24,10|0|0|0|0|0|0|0|0|0,0:2|1:2|1:2|1:2|1:2|1:2|1:2|1:2|1:2|1:2,0:0:0:0:
234,101,30774,5,10,0:2:0:0:
269,193,30935,1,8,0:2:0:0:
332,117,31096,1,8,0:2:0:0:
169,176,31256,1,8,0:2:0:0:
297,23,31417,6,0,B|362:11|362:11|366:14|366:14|428:3,1,135,6|0,1:2|0:0,0:0:0:0:
451,29,31738,2,0,L|447:51,6,22.5,0|0|0|0|0|0|0,1:2|1:2|1:2|1:2|1:2|1:2|1:2,0:0:0:0:
369,118,32060,1,10,0:2:0:0:
369,118,32140,1,8,0:2:0:0:
369,118,32221,2,0,L|376:162,1,45,8|8,0:2|0:2,0:0:0:0:
490,355,32382,5,10,0:2:0:0:
341,287,32543,2,0,B|390:231|458:263|458:263|429:268|410:303,2,180,8|8|4,0:2|3:0|3:0,0:0:0:0:
212,352,33347,6,0,B|146:340|146:340|142:343|142:343|80:332,1,135,6|0,1:2|0:0,0:0:0:0:
58,358,33668,2,0,L|61:380,6,22.5,0|0|0|0|0|0|0,1:2|1:2|1:2|1:2|1:2|1:2|1:2,0:0:0:0:
161,252,33990,1,10,0:2:0:0:
161,252,34070,1,8,0:2:0:0:
161,252,34151,2,0,L|153:296,1,45,8|8,0:2|0:2,0:0:0:0:
6,219,34312,5,10,0:2:0:0:
505,164,34634,1,8,3:0:0:0:
256,192,34955,5,8,0:2:0:0:
256,192,35277,6,0,L|283:34,1,144,2|0,1:2|1:2,0:0:0:0:
162,152,35760,2,0,B|150:186|150:186|161:220,1,72,10|0,0:2|0:0,0:0:0:0:
161,220,36081,1,0,1:2:0:0:
375,84,36242,2,0,B|386:50|386:50|374:15,1,72,10|0,0:2|0:0,0:0:0:0:
181,61,36564,1,0,1:2:0:0:
356,183,36725,1,10,0:2:0:0:
278,53,36886,1,8,0:2:0:0:
162,152,37047,1,2,1:2:0:0:
84,22,37207,6,0,B|42:61|42:61|57:146,1,144,2|0,1:2|1:2,0:0:0:0:
150,223,37690,2,0,L|162:152,1,72,10|0,0:2|0:0,0:0:0:0:
162,152,38012,1,0,1:2:0:0:
60,320,38173,2,0,L|47:249,1,72,10|0,0:2|0:0,0:0:0:0:
47,249,38494,1,0,1:2:0:0:
246,358,38655,1,10,0:2:0:0:
150,223,38816,1,8,0:2:0:0:
143,384,38977,1,0,1:2:0:0:
253,197,39138,6,0,B|318:209|318:209|322:206|322:206|384:217,1,135,6|0,1:2|0:0,0:0:0:0:
407,191,39459,2,0,L|403:169,6,22.5,0|0|0|0|0|0|0,1:2|1:2|1:2|1:2|1:2|1:2|1:2,0:0:0:0:
481,285,39781,1,10,0:2:0:0:
481,285,39861,1,8,0:2:0:0:
481,285,39942,2,0,L|489:241,1,45,8|8,0:2|0:2,0:0:0:0:
396,72,40103,5,10,0:2:0:0:
484,112,40264,2,0,B|499:68|499:68|484:25,1,90,8|0,0:2|0:0,0:0:0:0:
314,131,40585,1,8,3:0:0:0:
314,131,40666,1,8,3:0:0:0:
314,131,40746,1,10,3:0:0:0:
402,168,40907,1,4,3:0:0:0:
303,28,41068,6,0,B|238:40|238:40|234:37|234:37|172:48,1,135,6|0,1:2|0:0,0:0:0:0:
152,77,41389,2,0,L|148:99,6,22.5,0|0|0|0|0|0|0,1:2|1:2|1:2|1:2|1:2|1:2|1:2,0:0:0:0:
79,7,41711,5,10,0:2:0:0:
130,195,41872,1,8,0:2:0:0:
0,125,42033,6,0,L|59:135,1,60,2|0,1:2|0:0,0:0:0:0:
222,165,42248,2,0,L|399:196,1,180,4|4,3:0|3:0,0:0:0:0:
399,196,42998,5,6,1:2:0:0:
406,203,44607,1,8,0:2:0:0:
406,203,44687,1,8,0:2:0:0:
406,203,44768,2,0,L|413:247,1,45,10|10,0:2|0:2,0:0:0:0:
347,384,44929,5,2,1:2:0:0:
347,384,45089,2,0,B|291:348|291:348|310:237,1,180,12|8,0:2|0:2,0:0:0:0:
338,55,45572,1,0,1:0:0:0:
338,55,45652,1,0,1:0:0:0:
338,55,45733,2,0,L|382:47,1,45,0|0,1:2|1:2,0:0:0:0:
278,134,45894,6,0,L|189:118,1,90,8|0,0:2|1:2,0:0:0:0:
189,118,46135,1,8,0:2:0:0:
189,118,46215,1,0,1:2:0:0:
0,52,46376,1,8,0:2:0:0:
37,45,46457,1,8,0:2:0:0:
75,38,46537,1,8,0:2:0:0:
113,31,46618,1,8,0:2:0:0:
151,25,46698,1,8,0:2:0:0:
90,180,46859,6,0,L|99:126,1,53.9999983520508,0|0,1:2|0:0,0:0:0:0:
0,197,47180,1,8,0:2:0:0:
0,197,47341,1,0,1:2:0:0:
167,240,47502,5,2,0:2:0:0:
16,341,47663,1,10,0:2:0:0:
16,341,47985,6,0,B|101:325|101:325|135:349|135:349|221:334,1,215.999993408203,6|2,1:2|1:2,0:0:0:0:
413,192,48466,1,10,0:2:0:0:
168,139,48627,1,2,1:2:0:0:
168,139,48708,1,8,0:2:0:0:
168,139,48788,2,0,B|150:190|150:190|168:241,1,107.999996704102,2|2,1:2|1:2,0:0:0:0:
402,317,49110,1,10,0:2:0:0:
282,82,49271,5,2,1:2:0:0:
282,82,49352,1,8,0:2:0:0:
282,82,49432,2,0,L|262:192,1,107.999996704102,2|0,1:2|1:2,0:0:0:0:
512,354,49753,2,0,L|492:243,1,107.999996704102,10|0,0:2|0:0,0:0:0:0:
356,12,50075,1,2,1:2:0:0:
305,288,50236,1,10,0:2:0:0:
141,30,50397,1,8,0:2:0:0:
468,145,50557,6,0,B|352:121|379:209|253:186,1,215.999993408203,2|0,1:2|1:2,0:0:0:0:
356,12,51040,1,8,0:2:0:0:
174,131,51201,1,0,1:2:0:0:
174,131,51282,1,8,0:2:0:0:
174,131,51362,2,0,B|156:182|156:182|174:233,1,107.999996704102,2|0,1:2|1:2,0:0:0:0:
11,19,51683,1,8,0:2:0:0:
272,195,51844,5,0,1:2:0:0:
272,195,51925,1,8,0:2:0:0:
272,195,52005,2,0,L|382:175,1,107.999996704102,2|0,1:2|1:2,0:0:0:0:
106,373,52327,2,0,L|-4:353,1,107.999996704102,8|0,0:2|0:0,0:0:0:0:
174,131,52649,1,2,1:2:0:0:
371,384,52809,1,8,0:2:0:0:
371,384,53131,6,0,B|303:341|303:341|326:207,1,215.999993408203,6|2,1:2|0:2,0:0:0:0:
444,12,53614,2,0,L|462:118,1,107.999996704102,10|0,0:2|1:2,0:0:0:0:
224,239,53935,2,0,L|242:132,1,107.999996704102,2|0,0:2|1:2,0:0:0:0:
0,0,54257,1,10,0:2:0:0:
23,244,54418,6,0,B|74:262|74:262|125:244,1,107.999996704102,2|0,0:2|0:0,0:0:0:0:
138,0,54740,2,0,B|96:35|96:35|87:88,1,107.999996704102,2|8,1:2|0:2,0:0:0:0:
293,220,55061,2,0,B|283:166|283:166|242:131,1,107.999996704102,2|0,0:2|1:2,0:0:0:0:
23,244,55383,1,2,1:2:0:0:
236,351,55544,1,8,0:2:0:0:
117,104,55705,6,0,B|101:189|101:189|125:223|125:223|110:309,1,215.999993408203,6|0,1:2|1:2,0:0:0:0:
106,342,56107,1,0,1:2:0:0:
106,342,56187,2,0,L|52:351,1,53.9999983520508,10|8,0:2|0:2,0:0:0:0:
209,244,56348,1,8,0:2:0:0:
209,244,56429,1,8,0:2:0:0:
209,244,56509,2,0,L|155:234,1,53.9999983520508,10|8,0:2|0:2,0:0:0:0:
310,370,56670,1,8,0:2:0:0:
310,370,56751,1,8,0:2:0:0:
310,370,56831,2,0,L|256:379,1,53.9999983520508,10|8,0:2|0:2,0:0:0:0:
364,185,56992,5,8,0:2:0:0:
364,185,57072,1,8,0:2:0:0:
364,185,57153,2,0,L|384:296,1,107.999996704102,10|0,0:2|1:2,0:0:0:0:
383,291,57394,1,0,1:2:0:0:
383,291,57474,1,0,1:2:0:0:
257,149,57635,5,8,0:2:0:0:
470,221,57796,1,2,1:2:0:0:
275,0,57957,1,10,0:2:0:0:
275,0,58279,6,0,B|159:-24|186:64|60:41,1,215.999993408203,6|2,1:2|1:2,0:0:0:0:
15,279,58761,1,10,0:2:0:0:
247,199,58922,1,2,1:2:0:0:
247,199,59003,1,8,0:2:0:0:
247,199,59083,2,0,B|265:148|265:148|247:97,1,107.999996704102,2|2,1:2|1:2,0:0:0:0:
0,176,59405,1,10,0:2:0:0:
209,296,59565,5,2,1:2:0:0:
209,296,59646,1,8,0:2:0:0:
209,296,59726,1,2,1:2:0:0:
95,142,59887,1,2,1:2:0:0:
308,275,60048,1,10,0:2:0:0:
106,317,60209,1,2,0:2:0:0:
247,97,60370,1,2,1:2:0:0:
338,366,60531,1,10,0:2:0:0:
512,111,60691,1,8,0:2:0:0:
210,185,60852,6,0,B|253:253|253:253|387:230,1,215.999993408203,6|2,1:2|1:2,0:0:0:0:
281,9,61335,1,8,0:2:0:0:
100,150,61496,2,0,L|120:261,1,107.999996704102,6|0,1:2|0:0,0:0:0:0:
362,137,61817,2,0,L|382:26,1,107.999996704102,2|8,1:2|0:2,0:0:0:0:
21,277,62139,6,0,P|90:352|191:329,1,215.999993408203,6|2,1:2|1:2,0:0:0:0:
214,306,62541,1,0,1:2:0:0:
214,306,62622,2,0,L|223:252,1,53.9999983520508,0|0,1:2|1:2,0:0:0:0:
110,203,62783,2,0,L|119:257,1,53.9999983520508,0|0,1:2|1:2,0:0:0:0:
304,342,62943,1,8,0:2:0:0:
345,354,63024,1,8,0:2:0:0:
387,347,63104,1,0,1:2:0:0:
415,314,63185,1,0,1:2:0:0:
420,271,63265,6,0,L|391:111,1,161.999995056153,10|0,0:2|0:0,0:0:0:0:
387,79,63587,6,0,B|336:61|336:61|285:79,1,107.999996704102,6|0,1:2|0:0,0:0:0:0:
118,256,63909,1,10,0:2:0:0:
177,43,64069,2,0,L|195:149,1,107.999996704102,2|0,1:2|0:0,0:0:0:0:
0,357,64391,2,0,L|18:250,1,107.999996704102,2|8,1:2|0:2,0:0:0:0:
303,177,64713,6,0,B|388:191|388:191|412:225|412:225|498:240,1,215.999993408203,2|2,0:2|1:2,0:0:0:0:
387,79,65195,1,8,0:2:0:0:
229,244,65356,2,0,B|211:295|211:295|229:346,1,107.999996704102,2|0,0:2|1:2,0:0:0:0:
477,132,65678,2,0,B|495:81|495:81|477:30,1,107.999996704102,2|8,1:2|0:2,0:0:0:0:
92,114,66000,1,10,0:2:0:0:
92,114,66080,1,8,0:2:0:0:
92,114,66161,6,0,L|118:256,2,144,6|0|8,1:2|1:2|0:2,0:0:0:0:
21,361,67126,2,0,L|33:290,1,72,10|8,3:0|3:0,0:0:0:0:
199,159,67447,6,0,B|296:139|273:213|379:194,1,180,2|0,1:2|0:0,0:0:0:0:
501,34,67930,1,8,0:2:0:0:
351,103,68091,1,10,0:2:0:0:
400,13,68252,1,0,1:2:0:0:
473,197,68413,1,8,0:2:0:0:
473,197,68734,6,0,B|387:211|387:211|363:245|363:245|277:260,1,215.999993408203,6|8,1:2|0:2,0:0:0:0:
96,118,69217,2,0,L|114:224,1,107.999996704102,0|0,1:2|0:0,0:0:0:0:
252,362,69539,1,0,1:2:0:0:
305,155,69699,2,0,B|254:137|254:137|203:155,1,107.999996704102,10|0,0:2|0:0,0:0:0:0:
51,374,70021,6,0,B|-17:331|-17:331|6:197,1,215.999993408203,2|8,1:2|0:2,0:0:0:0:
222,48,70504,2,0,L|203:154,1,107.999996704102,2|0,1:2|1:2,0:0:0:0:
352,335,70825,1,10,0:2:0:0:
352,335,71147,6,0,B|236:359|263:271|137:294,1,215.999993408203,6|0,1:2|1:2,0:0:0:0:
440,283,71630,2,0,B|458:334|458:334|440:385,1,107.999996704102,10|0,0:2|0:0,0:0:0:0:
312,130,71951,1,0,1:2:0:0:
507,208,72112,1,0,1:2:0:0:
352,335,72273,2,0,L|333:228,1,107.999996704102,10|0,0:2|0:0,0:0:0:0:
94,8,72595,6,0,P|18:77|41:178,1,215.999993408203,2|8,1:2|0:2,0:0:0:0:
241,301,73077,1,0,1:2:0:0:
362,43,73238,2,0,B|311:25|311:25|260:43,1,107.999996704102,2|0,0:2|1:2,0:0:0:0:
40,283,73560,2,0,B|91:301|91:301|142:283,1,107.999996704102,8|2,0:2|0:2,0:0:0:0:
418,148,73882,5,6,1:2:0:0:
418,148,74043,2,0,L|311:129,1,107.999996704102,0|0,1:2|1:2,0:0:0:0:
159,193,74364,1,0,1:2:0:0:
238,67,74525,1,0,1:2:0:0:
349,235,74686,1,0,1:2:0:0:
138,98,74847,1,0,1:2:0:0:
284,316,75008,1,0,1:2:0:0:
378,37,75169,5,8,0:2:0:0:
184,295,75329,1,8,0:2:0:0:
69,20,75490,1,8,0:2:0:0:
349,235,75651,1,8,0:2:0:0:
33,197,75812,1,8,0:2:0:0:
378,37,75973,1,8,0:2:0:0:
209,383,76134,2,0,L|35:352,1,161.999995056153,12|0,0:2|0:0,0:0:0:0:
49,354,76455,5,2,1:2:0:0:
175,126,76616,1,10,0:2:0:0:
175,126,76697,1,8,0:2:0:0:
175,126,76777,2,0,L|165:179,1,53.9999983520508,8|8,0:2|0:2,0:0:0:0:
284,316,76938,5,2,1:2:0:0:
70,208,77099,1,8,0:2:0:0:
70,208,77180,1,8,0:2:0:0:
70,208,77260,2,0,L|79:261,1,53.9999983520508,10|8,0:2|0:2,0:0:0:0:
266,77,77421,5,0,1:2:0:0:
365,384,77581,2,0,B|433:341|433:341|410:207,1,215.999993408203,6|2,1:2|1:2,0:0:0:0:
69,20,78064,1,6,1:2:0:0:
69,20,78708,2,0,L|85:108,1,90,2|0,1:2|0:0,0:0:0:0:
19,318,79029,5,14,0:2:0:0:
19,318,79190,2,0,B|116:298|93:372|199:353,2,180,0|0|0,1:2|1:2|1:2,0:0:0:0:
341,222,79994,5,12,0:2:0:0:
341,222,80155,2,0,B|244:202|267:276|161:257,2,180,0|0|0,1:2|1:2|1:2,0:0:0:0:
453,370,80960,5,8,0:2:0:0:
482,203,81120,1,8,0:2:0:0:
317,319,81281,1,2,1:2:0:0:
512,292,81442,1,2,0:2:0:0:
352,121,81603,5,12,0:2:0:0:
352,121,81764,2,0,B|365:194|365:194|394:222|394:222|405:286,2,180,0|0|0,1:2|1:2|1:2,0:0:0:0:
221,379,82568,5,12,0:2:0:0:
221,379,82729,2,0,B|207:305|207:305|178:277|178:277|167:213,2,180,0|0|0,1:2|1:2|1:2,0:0:0:0:
72,268,83533,5,8,0:2:0:0:
271,212,83694,1,8,0:2:0:0:
122,371,83855,1,2,1:2:0:0:
20,159,84016,1,2,0:2:0:0:
352,267,84177,5,14,0:2:0:0:
352,267,84338,2,0,B|316:323|316:323|205:304,2,180,2|2|2,1:2|1:2|1:2,0:0:0:0:
354,71,85142,5,14,0:2:0:0:
354,71,85303,2,0,B|389:14|389:14|500:33,2,180,2|0|2,1:2|1:2|1:2,0:0:0:0:
442,211,86107,5,8,0:2:0:0:
257,82,86268,1,10,0:2:0:0:
316,338,86429,1,6,1:2:0:0:
512,144,86590,1,2,0:2:0:0:
337,170,86750,5,6,0:2:0:0:
337,170,86911,2,0,L|349:240,1,72,2|2,0:2|0:2,0:0:0:0:
220,368,87233,5,2,0:2:0:0:
220,368,87394,2,0,L|235:279,1,90,2|2,0:2|0:2,0:0:0:0:
113,71,87716,5,2,0:2:0:0:
160,163,87876,1,2,0:2:0:0:
191,0,88037,1,2,0:2:0:0:
56,161,88198,5,2,0:2:0:0:
226,94,88359,1,2,0:2:0:0:
18,23,88520,1,2,0:2:0:0:
137,261,88681,5,12,0:2:0:0:
294,18,88842,1,0,1:2:0:0:
442,318,89002,5,6,1:2:0:0:
