osu file format v14

[General]
AudioFilename: audio.ogg
AudioLeadIn: 0
PreviewTime: 47422
Countdown: 0
SampleSet: Soft
StackLeniency: 1
Mode: 0
LetterboxInBreaks: 0
WidescreenStoryboard: 1

[Editor]
Bookmarks: 5519,10827,21122,31417,79029,86750
DistanceSpacing: 1
BeatDivisor: 4
GridSize: 32
TimelineZoom: 1.6

[Metadata]
Title:Rakuen (TV Size)
TitleUnicode:楽園 (TV Size)
Artist:nonoc
ArtistUnicode:nonoc
Creator:Basensorex
Version:Aku's Hard
Source:スパイ教室
Tags:-aku bad mapper bad_mapper overranked alevi kyoushitsu room 2nd Spy Classroom Season 2 rock pop jrock jpop j-rock j-pop anime opening op female vocals vocalist japanese jp
BeatmapID:4292659
BeatmapSetID:2054615

[Difficulty]
HPDrainRate:4
CircleSize:3.6
OverallDifficulty:6.2
ApproachRate:8
SliderMultiplier:1.38
SliderTickRate:1

[Events]
//Background and Video events
0,0,"nonoc.jpg",0,0
Video,-50,"nonoc.mp4"
//Break Periods
2,11027,15225
//Storyboard Layer 0 (Background)
//Storyboard Layer 1 (Fail)
//Storyboard Layer 2 (Pass)
//Storyboard Layer 3 (Foreground)
//Storyboard Layer 4 (Overlay)
//Storyboard Sound Samples

[TimingPoints]
533,321.71581769437,4,2,22,40,1,0
4554,-100,4,2,22,50,0,0
5037,-100,4,2,22,60,0,0
5519,-100,4,2,22,70,0,0
10827,-100,4,2,22,40,0,0
15975,-100,4,2,22,50,0,0
21122,-100,4,2,22,60,0,0
29809,-100,4,2,22,40,0,0
30130,-125,4,2,22,50,0,0
31417,321.71581769437,3,2,22,60,1,0
35277,-100,3,2,22,50,0,0
39138,-100,3,2,22,60,0,0
42998,-125,3,2,22,40,0,0
44607,-100,3,2,22,60,0,0
46859,321.71581769437,4,2,22,40,1,0
47985,-100,4,2,22,70,0,0
48145,321.71581769437,4,2,22,70,1,0
66161,-100,4,2,22,60,0,0
68734,-100,4,2,22,70,0,0
73882,-100,4,2,22,80,0,0
79029,-100,4,2,22,70,0,0
86750,-100,4,2,22,50,0,0
87716,-100,4,2,22,60,0,0
88681,-100,4,2,22,70,0,0
89324,-100,4,2,22,5,0,0

[Colours]
Combo1 : 51,50,67
Combo2 : 217,205,196
Combo3 : 121,120,130
Combo4 : 153,159,142
Combo5 : 139,147,172

[HitObjects]
476,351,5519,6,0,P|412:298|343:316,1,138,6|0,1:2|1:2,0:0:0:0:
300,370,6002,1,10,0:2:0:0:
238,304,6163,1,0,1:2:0:0:
238,304,6243,1,8,0:2:0:0:
238,304,6323,2,0,L|246:208,1,69,2|0,1:2|1:2,0:0:0:0:
180,171,6645,2,0,P|140:129|82:132,1,103.5,10|8,0:2|0:2,0:0:0:0:
81,140,6967,6,0,L|72:235,1,69,2|0,1:2|1:2,0:0:0:0:
6,268,7289,2,0,L|14:363,1,69,10|0,0:2|0:0,0:0:0:0:
88,384,7610,1,2,1:2:0:0:
141,313,7771,1,10,0:2:0:0:
141,313,7932,1,10,0:2:0:0:
49,252,8093,6,0,P|1:207|15:126,1,138,6|0,1:2|1:2,0:0:0:0:
65,72,8575,2,0,B|116:77|116:77|138:104|138:104|189:108,1,138,8|4,0:2|0:3,0:0:0:0:
190,108,9058,1,0,1:2:0:0:
248,38,9219,2,0,P|280:18|325:17,1,69,8|8,0:2|0:3,0:0:0:0:
384,66,9541,6,0,L|392:161,1,69,10|0,0:3|1:2,0:0:0:0:
463,186,9862,2,0,L|454:281,1,69,10|10,0:2|0:2,0:0:0:0:
510,328,10184,1,2,0:2:0:0:
405,362,10345,2,0,P|351:369|286:304,1,138,2|0,1:2|0:0,0:0:0:0:
290,318,10827,5,6,1:2:0:0:
256,192,15975,12,2,20479,0:2:0:0:
38,301,21122,6,0,L|24:141,1,138,4|10,1:2|0:2,0:0:0:0:
106,122,21605,1,2,1:2:0:0:
161,192,21766,2,0,L|152:287,1,69,2|2,0:2|1:2,0:0:0:0:
216,326,22087,2,0,P|256:357|291:356,1,69,10|0,0:2|1:2,0:0:0:0:
359,289,22409,6,0,P|405:267|440:270,2,69,2|2|10,1:2|1:2|0:2,0:0:0:0:
285,234,22892,2,0,P|274:164|327:115,1,138,2|10,0:2|0:2,0:0:0:0:
317,118,23374,1,2,1:2:0:0:
228,52,23535,6,0,B|211:37|211:37|94:47,1,138,6|2,1:2|1:2,0:0:0:0:
41,124,24018,1,10,0:2:0:0:
41,124,24179,1,2,1:2:0:0:
100,191,24339,2,0,L|195:199,1,69,2|0,0:2|1:2,0:0:0:0:
246,149,24661,2,0,L|314:142,1,69,10|0,0:2|0:0,0:0:0:0:
399,215,24983,5,2,1:2:0:0:
399,215,25144,2,0,P|423:258|419:292,1,69,0|8,1:2|0:2,0:0:0:0:
371,350,25465,2,0,B|319:354|319:354|293:331|293:331|242:336,1,138,2|2,0:2|1:2,0:0:0:0:
179,271,25948,2,0,L|83:262,1,69,8|2,0:2|0:2,0:0:0:0:
33,185,26270,6,0,P|17:146|74:95,1,103.5,4|0,1:2|0:0,0:0:0:0:
61,82,26591,2,0,L|220:95,1,138,10|10,0:2|0:2,0:0:0:0:
210,111,26994,1,8,0:2:0:0:
221,128,27074,1,8,0:2:0:0:
288,56,27235,2,0,L|383:47,1,69,10|8,0:2|0:2,0:0:0:0:
445,116,27557,6,0,P|480:145|473:213,1,103.5,10|8,0:2|0:2,0:0:0:0:
467,215,27878,1,10,0:2:0:0:
405,279,28039,1,8,0:2:0:0:
405,279,28120,1,8,0:2:0:0:
405,279,28200,2,0,L|309:270,1,69,10|8,0:2|3:0,0:0:0:0:
277,341,28522,1,4,3:0:0:0:
183,283,28683,5,6,1:2:0:0:
183,283,29809,5,2,0:2:0:0:
282,136,30130,6,0,L|473:152,1,165.6,10|0,0:2|1:2,0:0:0:0:
447,149,30774,2,0,L|501:144,2,55.2,10|8|8,0:2|0:2|0:2,0:0:0:0:
285,7,31417,6,0,P|204:26|230:163,1,241.5,6|0,1:2|1:2,0:0:0:0:
228,177,32060,2,0,P|249:220|245:253,1,69,10|8,0:2|0:2,0:0:0:0:
181,329,32382,1,10,0:2:0:0:
181,329,32543,2,0,B|164:344|164:344|49:334,2,138,8|8|4,0:2|3:0|3:0,0:0:0:0:
265,257,33347,6,0,P|339:270|368:330,1,138,6|0,1:2|1:2,0:0:0:0:
477,179,33990,2,0,P|489:127|507:77,1,103.5,10|8,0:2|0:2,0:0:0:0:
491,65,34312,2,0,P|457:17|370:12,1,138,10|8,0:2|3:0,0:0:0:0:
331,81,34795,2,0,P|278:121|190:107,1,138,10|0,3:0|0:0,0:0:0:0:
116,58,35277,6,0,B|97:72|97:72|87:188,1,138,2|0,1:2|1:2,0:0:0:0:
161,239,35760,2,0,L|174:398,1,138,10|0,0:2|1:2,0:0:0:0:
256,342,36242,2,0,L|269:182,1,138,10|0,0:2|1:2,0:0:0:0:
267,204,36725,1,10,0:2:0:0:
195,151,36886,2,0,L|186:55,1,69,8|2,0:2|1:2,0:0:0:0:
267,3,37207,6,0,P|331:-1|376:74,1,138,2|0,1:2|1:2,0:0:0:0:
448,104,37690,2,0,B|444:155|444:155|417:177|417:177|412:235,1,138,10|0,0:2|1:2,0:0:0:0:
464,302,38173,2,0,P|413:349|333:340,1,138,10|0,0:2|1:2,0:0:0:0:
347,347,38655,1,10,0:2:0:0:
293,276,38816,1,8,0:2:0:0:
293,276,38977,1,0,1:2:0:0:
198,220,39138,6,0,P|136:177|38:282,1,241.5,6|0,1:2|1:2,0:0:0:0:
46,295,39781,2,0,L|119:301,1,69,10|8,0:2|0:2,0:0:0:0:
189,384,40103,1,10,0:2:0:0:
189,384,40264,2,0,P|234:354|240:263,1,138,8|8,0:2|3:0,0:0:0:0:
179,215,40746,2,0,P|159:176|165:134,1,69,10|4,3:0|3:0,0:0:0:0:
225,62,41068,6,0,B|279:67|279:67|298:94|298:94|348:98,1,138,6|0,1:2|1:2,0:0:0:0:
435,255,41711,2,0,L|339:263,1,69,10|8,0:2|0:2,0:0:0:0:
290,342,42033,6,0,B|248:338|248:338|242:342|242:342|169:335,1,92,2|4,1:2|3:0,0:0:0:0:
92,193,42569,5,4,3:0:0:0:
316,122,42998,6,0,B|344:113|373:125|389:148|389:148|405:173|435:182|461:174,2,165.6,6|2|2,1:2|0:2|0:2,0:0:0:0:
316,122,44607,6,0,L|323:43,1,69,8|10,0:2|0:2,0:0:0:0:
304,42,44848,1,10,0:2:0:0:
286,30,44929,5,2,1:2:0:0:
226,96,45089,2,0,L|235:191,1,69,12|0,0:2|0:0,0:0:0:0:
302,222,45411,2,0,P|341:274|416:271,1,138,8|0,0:2|1:2,0:0:0:0:
484,192,45894,6,0,L|472:64,1,103.5,8|8,0:2|0:2,0:0:0:0:
455,81,46215,2,0,L|460:17,6,34.5,0|8|8|8|8|8|8,1:2|0:2|0:2|0:2|0:2|0:2|0:2,0:0:0:0:
383,136,46859,1,0,1:2:0:0:
101,19,47502,5,2,0:2:0:0:
101,19,47663,1,10,0:2:0:0:
262,170,47985,6,0,L|248:329,1,138,6|2,1:2|1:2,0:0:0:0:
170,347,48466,2,0,L|161:251,1,69,10|2,0:2|1:2,0:0:0:0:
145,269,48708,1,8,0:2:0:0:
126,259,48788,2,0,L|117:163,1,69,2|2,1:2|1:2,0:0:0:0:
44,140,49110,2,0,L|52:44,1,69,10|2,0:2|1:2,0:0:0:0:
146,17,49431,6,0,P|184:-3|218:2,1,69,2|0,1:2|1:2,0:0:0:0:
259,73,49753,2,0,P|294:88|334:88,1,69,10|0,0:2|0:0,0:0:0:0:
419,41,50075,1,2,1:2:0:0:
488,97,50236,2,0,L|479:190,1,69,10|8,0:2|0:2,0:0:0:0:
377,200,50557,6,0,B|381:251|381:251|358:277|358:277|363:329,1,138,2|0,1:2|1:2,0:0:0:0:
285,375,51040,1,8,0:2:0:0:
232,305,51201,1,0,1:2:0:0:
232,305,51281,1,8,0:2:0:0:
232,305,51362,2,0,P|184:286|151:289,1,69,2|0,1:2|1:2,0:0:0:0:
114,213,51683,2,0,P|64:228|28:233,1,69,8|0,0:2|1:2,0:0:0:0:
96,121,52005,6,0,P|141:134|211:139,1,103.5,2|0,1:2|0:0,0:0:0:0:
207,158,52327,2,0,P|248:148|283:61,1,138,8|2,0:2|1:2,0:0:0:0:
220,4,52809,1,8,0:2:0:0:
105,192,53131,6,0,L|118:352,1,138,6|2,1:2|0:2,0:0:0:0:
199,366,53614,2,0,L|208:270,1,69,10|0,0:2|1:2,0:0:0:0:
274,238,53935,2,0,P|269:186|224:157,1,103.5,2|0,0:2|0:0,0:0:0:0:
214,170,54257,1,10,0:2:0:0:
142,116,54418,6,0,L|47:107,1,69,2|0,0:2|0:0,0:0:0:0:
11,36,54740,2,0,L|107:27,1,69,2|8,1:2|0:2,0:0:0:0:
164,0,55061,2,0,P|217:10|236:39,1,69,2|0,0:2|1:2,0:0:0:0:
265,101,55383,2,0,P|314:98|342:73,1,69,2|8,1:2|0:2,0:0:0:0:
439,108,55705,6,0,B|435:159|435:159|408:181|408:181|403:239,1,138,6|0,1:2|1:2,0:0:0:0:
461,301,56187,1,10,0:2:0:0:
379,358,56348,1,8,0:2:0:0:
379,358,56429,1,8,0:2:0:0:
379,358,56509,2,0,P|346:381|303:381,1,69,10|8,0:2|0:2,0:0:0:0:
262,313,56831,2,0,P|213:293|175:295,1,69,10|8,0:2|0:2,0:0:0:0:
117,216,57153,6,0,L|22:224,2,69,10|0|0,0:2|1:2|1:2,0:0:0:0:
175,147,57635,1,8,0:2:0:0:
94,105,57796,1,2,1:2:0:0:
94,105,57957,1,10,0:2:0:0:
289,0,58279,6,0,P|358:6|400:82,1,138,6|2,1:2|1:2,0:0:0:0:
460,122,58761,2,0,L|452:217,1,69,10|2,0:2|1:2,0:0:0:0:
436,201,59002,1,8,0:2:0:0:
418,211,59083,2,0,L|410:306,1,69,2|2,1:2|1:2,0:0:0:0:
349,343,59405,2,0,P|306:335|274:299,1,69,10|2,0:2|1:2,0:0:0:0:
211,239,59726,6,0,L|203:143,2,69,2|2|10,1:2|1:2|0:2,0:0:0:0:
136,289,60209,1,2,0:2:0:0:
82,218,60370,1,2,1:2:0:0:
82,218,60531,2,0,L|91:122,1,69,10|8,0:2|0:2,0:0:0:0:
36,52,60852,6,0,B|50:38|50:38|187:50,1,138,6|2,1:2|1:2,0:0:0:0:
167,48,61335,1,8,0:2:0:0:
210,129,61496,2,0,P|280:137|337:72,1,138,6|2,1:2|1:2,0:0:0:0:
328,95,61978,1,8,0:2:0:0:
412,30,62139,6,0,B|417:81|417:81|444:103|444:103|448:154,1,138,6|2,1:2|1:2,0:0:0:0:
376,209,62622,2,0,L|371:272,2,34.5,0|0|0,1:2|1:2|1:2,0:0:0:0:
303,157,62943,2,0,L|298:93,2,34.5,8|8|0,0:2|0:2|1:2,0:0:0:0:
231,242,63265,5,10,0:2:0:0:
101,63,63587,6,0,P|48:103|61:183,1,138,6|10,1:2|0:2,0:0:0:0:
117,230,64069,2,0,L|277:216,1,138,2|2,1:2|1:2,0:0:0:0:
311,289,64552,1,8,0:2:0:0:
311,289,64713,2,0,L|407:297,1,69,2|0,0:2|1:2,0:0:0:0:
454,243,65035,2,0,P|479:211|475:174,1,69,2|8,1:2|0:2,0:0:0:0:
387,123,65356,6,0,L|379:27,1,69,2|0,0:2|1:2,0:0:0:0:
302,10,65678,2,0,L|294:105,1,69,2|8,1:2|0:2,0:0:0:0:
221,175,66000,1,10,0:2:0:0:
221,175,66080,1,8,0:2:0:0:
221,175,66161,5,6,1:2:0:0:
363,285,66482,1,0,1:2:0:0:
196,353,66804,2,0,B|79:342|79:342|65:356,1,138,8|10,0:2|3:0,0:0:0:0:
64,356,67287,1,8,3:0:0:0:
0,295,67447,6,0,P|-22:243|79:135,1,207,2|8,1:2|0:2,0:0:0:0:
123,69,68091,2,0,L|219:61,1,69,10|0,0:2|1:2,0:0:0:0:
258,125,68413,2,0,P|312:154|363:145,1,103.5,8|0,0:2|0:0,0:0:0:0:
367,164,68734,6,0,P|430:189|438:271,1,138,6|8,1:2|0:2,0:0:0:0:
399,329,69217,2,0,B|348:334|348:334|326:361|326:361|275:365,1,138,0|0,1:2|1:2,0:0:0:0:
218,295,69699,2,0,L|123:286,1,69,10|0,0:2|0:0,0:0:0:0:
66,215,70021,6,0,P|63:168|152:116,1,138,2|8,1:2|0:2,0:0:0:0:
192,49,70504,2,0,L|288:57,1,69,2|0,1:2|1:2,0:0:0:0:
332,0,70825,1,10,0:2:0:0:
441,192,71147,6,0,L|282:205,1,138,6|0,1:2|1:2,0:0:0:0:
253,278,71630,2,0,L|94:264,1,138,10|0,0:2|1:2,0:0:0:0:
115,265,72112,1,0,1:2:0:0:
48,207,72273,2,0,P|23:170|29:133,1,69,10|0,0:2|0:0,0:0:0:0:
101,67,72595,6,0,B|153:62|153:62|179:85|179:85|231:80,1,138,2|8,1:2|0:2,0:0:0:0:
229,80,73077,1,0,1:2:0:0:
280,155,73238,2,0,P|323:174|374:168,1,69,2|0,0:2|1:2,0:0:0:0:
435,111,73560,2,0,B|447:99|447:99|437:-12,1,103.5,8|0,0:2|0:0,0:0:0:0:
423,0,73882,6,0,L|415:95,1,69,6|0,1:2|1:2,0:0:0:0:
351,128,74203,2,0,L|360:223,1,69,0|0,1:2|1:2,0:0:0:0:
289,255,74525,2,0,L|281:350,2,69,0|0|0,1:2|1:2|1:2,0:0:0:0:
228,188,75008,1,0,1:2:0:0:
157,273,75169,6,0,P|112:300|80:301,2,69,8|8|8,0:2|0:2|0:2,0:0:0:0:
226,331,75651,1,8,0:2:0:0:
306,290,75812,1,8,0:2:0:0:
375,348,75973,1,8,0:2:0:0:
457,274,76134,2,0,P|488:240|492:173,1,103.5,12|0,0:2|0:0,0:0:0:0:
483,168,76455,5,2,1:2:0:0:
405,115,76616,1,10,0:2:0:0:
405,115,76697,1,8,0:2:0:0:
405,115,76777,2,0,L|400:51,2,34.5,8|8|2,0:2|0:2|1:2,0:0:0:0:
330,183,77099,1,8,0:2:0:0:
330,183,77180,1,8,0:2:0:0:
330,183,77260,2,0,L|325:246,2,34.5,10|8|0,0:2|0:2|1:2,0:0:0:0:
270,90,77581,6,0,P|237:31|155:25,1,138,6|2,1:2|1:2,0:0:0:0:
93,62,78064,1,6,1:2:0:0:
0,384,78708,5,2,1:2:0:0:
123,208,79029,5,14,0:2:0:0:
123,208,79190,2,0,B|139:194|139:194|256:204,2,138,0|0|0,1:2|1:2|1:2,0:0:0:0:
48,127,79994,5,12,0:2:0:0:
48,127,80155,2,0,P|-3:71|17:7,2,138,0|0|0,1:2|1:2|1:2,0:0:0:0:
123,76,80960,2,0,L|219:67,1,69,8|8,0:2|0:2,0:0:0:0:
248,6,81281,1,2,1:2:0:0:
248,6,81442,1,2,0:2:0:0:
318,92,81603,5,12,0:2:0:0:
318,92,81764,2,0,P|366:137|442:117,2,138,0|0|0,1:2|1:2|1:2,0:0:0:0:
217,147,82568,5,12,0:2:0:0:
217,147,82729,2,0,L|57:160,2,138,0|0|0,1:2|1:2|1:2,0:0:0:0:
291,198,83533,2,0,P|315:234|311:270,1,69,8|8,0:2|0:2,0:0:0:0:
246,325,83855,1,2,1:2:0:0:
246,325,84016,1,2,0:2:0:0:
157,258,84177,5,14,0:2:0:0:
157,258,84338,2,0,P|103:207|30:220,2,138,2|2|2,1:2|1:2|1:2,0:0:0:0:
216,353,85142,5,14,0:2:0:0:
216,353,85303,2,0,B|267:348|267:348|289:321|289:321|340:317,2,138,2|0|2,1:2|1:2|1:2,0:0:0:0:
145,298,86107,2,0,L|50:289,1,69,8|10,0:2|0:2,0:0:0:0:
12,228,86429,1,6,1:2:0:0:
12,228,86590,1,2,0:2:0:0:
97,159,86750,5,6,0:2:0:0:
256,192,86911,12,12,88681,0:2:0:0:
379,377,89002,6,0,B|408:358|408:358|441:370|441:370|472:352|472:352|503:365,1,138,6|0,1:2|0:0,0:0:0:0:
