osu file format v14

[General]
AudioFilename: audio.mp3
AudioLeadIn: 0
PreviewTime: 61503
Countdown: 0
SampleSet: Soft
StackLeniency: 0.7
Mode: 3
LetterboxInBreaks: 0
SpecialStyle: 0
WidescreenStoryboard: 1

[Editor]
Bookmarks: 16859,31722,41339,46122,77856
DistanceSpacing: 0.6
BeatDivisor: 4
GridSize: 16
TimelineZoom: 1.7

[Metadata]
Title:Memento (TV Size)
TitleUnicode:Memento (TV Size)
Artist:nonoc
ArtistUnicode:nonoc
Creator:secXcscX
Version:6K Hard
Source:Re:ゼロから始める異世界生活
Tags:re:zero kara hajimeru isekai seikatsu rezero 2 starting life in another world different from zero season two anime ending ed japanese pop jpop j-pop rock jrock j-rock Niks arpia97 ZMCZ-14012
BeatmapID:2747204
BeatmapSetID:1230306

[Difficulty]
HPDrainRate:8
CircleSize:6
OverallDifficulty:8
ApproachRate:5
SliderMultiplier:1.4
SliderTickRate:1

[Events]
//Background and Video events
0,0,"BG_HD.jpg",0,0
//Break Periods
//Storyboard Layer 0 (Background)
//Storyboard Layer 1 (Fail)
//Storyboard Layer 2 (Pass)
//Storyboard Layer 3 (Foreground)
//Storyboard Layer 4 (Overlay)
//Storyboard Sound Samples
Sample,10979,0,"LR_Kick Bass strong.wav",70
Sample,15539,0,"LR_Tom Hit 2.wav",70
Sample,15779,0,"LR_Tom Hit 3.wav",70
Sample,16379,0,"LR_Tom Hit 2.wav",70
Sample,33419,0,"B6S.wav",20
Sample,37259,0,"B6S.wav",20
Sample,41099,0,"B6S.wav",20
Sample,43019,0,"B6S.wav",20
Sample,43139,0,"A6S.wav",20
Sample,47099,0,"LR_Kick Bass strong.wav",70
Sample,49979,0,"LR_Kick Bass strong.wav",70
Sample,54779,0,"LR_Kick Bass strong.wav",70
Sample,57659,0,"LR_Kick Bass strong.wav",70
Sample,62459,0,"LR_Kick Bass strong.wav",70
Sample,63419,0,"LR_Kick Bass strong.wav",70
Sample,64139,0,"LR_Kick Bass strong.wav",70
Sample,64619,0,"LR_Ride Med.wav",70
Sample,65099,0,"LR_Kick Bass strong.wav",70
Sample,65339,0,"A5S.wav",40
Sample,68459,0,"LR_Ride Med.wav",70
Sample,70139,0,"LR_Kick Bass strong.wav",70
Sample,70859,0,"LR_Kick Bass strong.wav",70
Sample,71819,0,"LR_Ride Med.wav",70
Sample,72299,0,"LR_Ride Med.wav",70
Sample,73019,0,"C6S.wav",40
Sample,74699,0,"LR_Kick Bass strong.wav",70
Sample,74939,0,"LR_Kick Bass strong.wav",70
Sample,75899,0,"LR_Kick Bass strong.wav",70
Sample,76739,0,"LR_Snare Drum .wav",70
Sample,76979,0,"LR_Tom Drop.wav",70
Sample,77219,0,"LR_Tom Hit 2.wav",70
Sample,77459,0,"LR_Tom Drop.wav",70
Sample,77699,0,"LR_Tom Hit 3.wav",70
Sample,77819,0,"LR_Kick Bass strong.wav",70
Sample,80099,0,"LR_Kick Bass strong.wav",70
Sample,82019,0,"LR_Kick Bass strong.wav",70
Sample,84059,0,"LR_Kick Bass strong.wav",70
Sample,84659,0,"LR_Tom Drop.wav",70
Sample,84899,0,"LR_Tom Hit 2.wav",70
Sample,85139,0,"LR_Tom Drop.wav",70
Sample,85379,0,"LR_Tom Hit 3.wav",70
Sample,85499,0,"LR_CymbalCCR.wav",55

[TimingPoints]
59,480,4,2,1,100,1,0
1019,480,4,2,1,100,1,0
32219,-100,4,2,1,100,0,1
37499,-100,4,2,1,100,0,0
39899,-100,4,2,1,100,0,1
45179,-100,4,2,1,100,0,0
47099,-100,4,2,1,100,0,1
73019,-100,4,2,1,100,0,0

[HitObjects]
384,192,59,5,0,0:0:0:55:C7S.wav
469,192,59,1,0,0:0:0:0:
213,192,299,1,0,0:0:0:55:B6S.wav
298,192,299,1,0,0:0:0:0:
42,192,539,1,0,0:0:0:55:E6S.wav
128,192,539,1,0,0:0:0:0:
213,192,779,1,0,0:0:0:55:G6S.wav
298,192,779,1,0,0:0:0:0:
42,192,1019,1,0,0:0:0:55:E6S.wav
384,192,1019,1,0,0:0:0:55:C6S.wav
469,192,1019,128,0,1499:0:0:0:55:A6S.wav
42,192,1499,1,0,0:0:0:55:E6S.wav
128,192,1499,1,0,0:0:0:0:
213,192,1739,1,0,0:0:0:55:G6S.wav
298,192,1739,1,0,0:0:0:0:
42,192,1979,1,0,0:0:0:55:A6S.wav
384,192,1979,1,0,0:0:0:55:D6S.wav
469,192,1979,128,0,2459:0:0:0:0:
42,192,2459,1,0,0:0:0:55:E6S.wav
128,192,2459,1,0,0:0:0:0:
213,192,2699,1,0,0:0:0:55:G6S.wav
298,192,2699,1,0,0:0:0:0:
384,192,2939,1,0,0:0:0:55:C7S.wav
469,192,2939,1,0,0:0:0:0:
213,192,3179,1,0,0:0:0:55:B6S.wav
298,192,3179,1,0,0:0:0:0:
42,192,3419,1,0,0:0:0:55:E6S.wav
128,192,3419,1,0,0:0:0:0:
213,192,3659,1,0,0:0:0:55:G6S.wav
298,192,3659,1,0,0:0:0:0:
42,192,3899,1,0,0:0:0:55:A6S.wav
384,192,3899,1,0,0:0:0:55:D6S.wav
469,192,3899,128,0,4379:0:0:0:55:F#6S_Gb6S.wav
128,192,4379,1,0,0:0:0:55:E6S.wav
213,192,4379,1,0,0:0:0:0:
298,192,4379,128,0,4619:0:0:0:0:
42,192,4859,128,0,5579:0:0:0:55:D6S.wav
384,192,4859,1,0,0:0:0:55:A5S.wav
469,192,4859,1,0,0:0:0:0:
213,192,5579,1,0,0:0:0:55:E6S.wav
298,192,5579,1,0,0:0:0:0:
469,192,5579,1,0,0:0:0:0:
42,192,5819,1,0,0:0:0:55:G6S.wav
128,192,5819,1,0,0:0:0:55:B5S.wav
384,192,5819,128,0,6299:0:0:0:0:
128,192,6539,1,0,0:0:0:55:E6S.wav
213,192,6539,1,0,0:0:0:0:
298,192,6779,1,0,0:0:0:55:D6S.wav
384,192,6779,1,0,0:0:0:0:
128,192,7019,1,0,0:0:0:55:E6S.wav
213,192,7019,1,0,0:0:0:0:
42,192,7259,1,0,0:0:0:55:B6S.wav
298,192,7259,1,0,0:0:0:0:
469,192,7259,128,0,7739:0:0:0:0:
42,192,7739,128,0,8699:0:0:0:55:A6S.wav
128,192,7739,1,0,0:0:0:0:
384,192,7739,1,0,0:0:0:0:
128,192,8699,1,0,0:0:0:70:LR_CymbalSSF.wav
298,192,8699,1,0,0:0:0:70:LR_Snare Drum .wav
384,192,8699,1,0,0:0:0:70:LR_Kick Bass strong.wav
469,192,8699,1,0,0:0:0:0:
213,192,8939,128,0,9179:0:0:0:0:
298,192,9059,128,0,9179:0:0:0:70:LR_Kick Bass strong.wav
42,192,9179,1,0,0:0:0:70:LR_Snare Drum .wav
384,192,9179,1,0,0:0:0:0:
469,192,9179,1,0,0:0:0:0:
128,192,9419,1,0,0:0:0:70:LR_Snare Drum .wav
213,192,9419,1,0,0:0:0:0:
298,192,9419,1,0,0:0:0:0:
42,192,9659,1,0,0:0:0:40:E7S.wav
384,192,9659,128,0,9899:0:0:0:70:LR_Kick Bass strong.wav
469,192,9659,1,0,0:0:0:0:
298,192,9779,128,0,9899:0:0:0:40:D7S.wav
128,192,9899,128,0,10139:0:0:0:40:C7S.wav
213,192,10019,128,0,10139:0:0:0:40:B6S.wav
42,192,10139,1,0,0:0:0:70:LR_Snare Drum .wav
384,192,10139,1,0,0:0:0:0:
469,192,10139,1,0,0:0:0:0:
213,192,10379,1,0,0:0:0:20:C6S.wav
298,192,10379,1,0,0:0:0:0:
42,192,10619,1,0,0:0:0:25:A5S.wav
384,192,10619,1,0,0:0:0:70:LR_Kick Bass strong.wav
469,192,10619,1,0,0:0:0:0:
213,192,10859,128,0,11099:0:0:0:0:
128,192,10979,128,0,11099:0:0:0:25:A5S.wav
42,192,11099,1,0,0:0:0:25:C6S.wav
298,192,11099,1,0,0:0:0:70:LR_Snare Drum .wav
469,192,11099,1,0,0:0:0:0:
128,192,11339,1,0,0:0:0:70:LR_Snare Drum .wav
213,192,11339,1,0,0:0:0:0:
384,192,11339,1,0,0:0:0:0:
42,192,11579,1,0,0:0:0:40:F7S.wav
298,192,11579,128,0,11819:0:0:0:70:LR_Kick Bass strong.wav
469,192,11579,1,0,0:0:0:0:
213,192,11699,128,0,11819:0:0:0:40:E7S.wav
384,192,11819,128,0,12059:0:0:0:40:G7S.wav
469,192,11939,128,0,12059:0:0:0:40:C7S.wav
42,192,12059,1,0,0:0:0:70:LR_Snare Drum .wav
128,192,12059,1,0,0:0:0:0:
298,192,12059,1,0,0:0:0:0:
213,192,12299,1,0,0:0:0:0:
298,192,12419,1,0,0:0:0:0:
42,192,12539,1,0,0:0:0:40:B6S.wav
128,192,12539,1,0,0:0:0:70:LR_Kick Bass strong.wav
384,192,12539,1,0,0:0:0:0:
213,192,12899,128,0,13259:0:0:0:40:B7S.wav
42,192,13019,1,0,0:0:0:70:LR_Snare Drum .wav
298,192,13019,128,0,13259:0:0:0:0:
469,192,13019,1,0,0:0:0:0:
128,192,13259,1,0,0:0:0:40:B7S.wav
384,192,13259,1,0,0:0:0:70:LR_Kick Bass strong.wav
42,192,13499,1,0,0:0:0:40:G7S.wav
128,192,13499,1,0,0:0:0:70:LR_Kick Bass strong.wav
469,192,13499,128,0,13739:0:0:0:0:
384,192,13619,128,0,13739:0:0:0:40:F7S.wav
128,192,13739,128,0,13979:0:0:0:40:E7S.wav
213,192,13859,128,0,13979:0:0:0:40:B6S.wav
42,192,13979,1,0,0:0:0:70:LR_Snare Drum .wav
384,192,13979,1,0,0:0:0:0:
469,192,13979,1,0,0:0:0:0:
298,192,14219,1,0,0:0:0:0:
213,192,14339,1,0,0:0:0:0:
42,192,14459,1,0,0:0:0:40:A5S.wav
128,192,14459,1,0,0:0:0:70:LR_Kick Bass strong.wav
469,192,14459,1,0,0:0:0:0:
469,192,14819,128,0,15179:0:0:0:40:A5S.wav
42,192,14939,1,0,0:0:0:40:C6S.wav
298,192,14939,1,0,0:0:0:70:LR_Snare Drum .wav
384,192,14939,128,0,15179:0:0:0:0:
42,192,15179,1,0,0:0:0:40:E5S.wav
128,192,15179,1,0,0:0:0:70:LR_Snare Drum .wav
213,192,15299,1,0,0:0:0:70:LR_Tom Drop.wav
298,192,15419,1,0,0:0:0:40:E7S.wav
469,192,15419,1,0,0:0:0:70:LR_Tom Hit 2.wav
213,192,15539,1,0,0:0:0:40:D7S.wav
42,192,15659,1,0,0:0:0:40:G7S.wav
128,192,15659,1,0,0:0:0:70:LR_Tom Hit 3.wav
298,192,15779,1,0,0:0:0:40:C7S.wav
384,192,15899,1,0,0:0:0:40:B6S.wav
469,192,15899,1,0,0:0:0:70:LR_Tom Hit 2.wav
128,192,16019,1,0,0:0:0:40:G6S.wav
213,192,16139,1,0,0:0:0:40:E6S.wav
298,192,16139,1,0,0:0:0:70:LR_Tom Hit 3.wav
384,192,16259,1,0,0:0:0:40:G6S.wav
42,192,16379,1,0,0:0:0:40:C6S.wav
128,192,16379,1,0,0:0:0:40:E6S.wav
213,192,16379,1,0,0:0:0:40:A6S.wav
469,192,16379,1,0,0:0:0:70:LR_CymbalSSF.wav
298,192,16619,1,0,0:0:0:40:E6S.wav
384,192,16619,1,0,0:0:0:0:
128,192,16859,128,0,17099:0:0:0:40:E6S.wav
213,192,16859,128,0,17099:0:0:0:0:
42,192,17099,1,0,0:0:0:40:D6S.wav
298,192,17099,1,0,0:0:0:70:LR_Snare Drum .wav
469,192,17099,1,0,0:0:0:0:
298,192,17339,128,0,17579:0:0:0:40:E6S.wav
384,192,17339,128,0,17579:0:0:0:0:
42,192,17579,1,0,0:0:0:40:D6S.wav
213,192,17579,1,0,0:0:0:70:LR_Kick Bass strong.wav
469,192,17579,1,0,0:0:0:0:
42,192,17819,1,0,0:0:0:40:E6S.wav
128,192,17819,1,0,0:0:0:70:LR_Snare Drum .wav
298,192,17819,1,0,0:0:0:0:
384,192,17939,1,0,0:0:0:70:LR_Kick Bass strong.wav
469,192,17939,1,0,0:0:0:0:
213,192,18059,1,0,0:0:0:40:A6S.wav
42,192,18299,128,0,18659:0:0:0:40:E6S.wav
128,192,18299,1,0,0:0:0:70:LR_Kick Bass strong.wav
469,192,18299,1,0,0:0:0:0:
384,192,18659,1,0,0:0:0:0:
213,192,18779,1,0,0:0:0:0:
298,192,18779,1,0,0:0:0:0:
42,192,19019,1,0,0:0:0:70:LR_Snare Drum .wav
128,192,19019,1,0,0:0:0:0:
469,192,19019,1,0,0:0:0:0:
384,192,19259,1,0,0:0:0:0:
298,192,19379,1,0,0:0:0:0:
128,192,19499,1,0,0:0:0:70:LR_Kick Bass strong.wav
213,192,19499,1,0,0:0:0:0:
469,192,19499,1,0,0:0:0:0:
42,192,19739,1,0,0:0:0:70:LR_Snare Drum .wav
298,192,19739,1,0,0:0:0:0:
384,192,19739,1,0,0:0:0:0:
128,192,19859,1,0,0:0:0:70:LR_Kick Bass strong.wav
213,192,19859,1,0,0:0:0:0:
384,192,19979,1,0,0:0:0:70:LR_Kick Bass strong.wav
469,192,19979,1,0,0:0:0:0:
42,192,20219,1,0,0:0:0:70:LR_Kick Bass strong.wav
213,192,20219,1,0,0:0:0:0:
298,192,20219,1,0,0:0:0:0:
384,192,20459,1,0,0:0:0:40:E6S.wav
469,192,20459,1,0,0:0:0:0:
128,192,20579,1,0,0:0:0:0:
213,192,20699,128,0,20939:0:0:0:40:E6S.wav
298,192,20699,128,0,20939:0:0:0:0:
42,192,20939,1,0,0:0:0:40:D6S.wav
384,192,20939,1,0,0:0:0:70:LR_Snare Drum .wav
469,192,20939,1,0,0:0:0:0:
213,192,21179,128,0,21419:0:0:0:40:E6S.wav
298,192,21179,128,0,21419:0:0:0:0:
384,192,21299,1,0,0:0:0:0:
42,192,21419,1,0,0:0:0:40:D6S.wav
128,192,21419,1,0,0:0:0:70:LR_Kick Bass strong.wav
469,192,21419,1,0,0:0:0:0:
213,192,21659,1,0,0:0:0:40:E6S.wav
298,192,21659,1,0,0:0:0:70:LR_Snare Drum .wav
384,192,21659,1,0,0:0:0:0:
42,192,21779,1,0,0:0:0:70:LR_Kick Bass strong.wav
128,192,21779,1,0,0:0:0:0:
469,192,21899,1,0,0:0:0:40:A6S.wav
42,192,22139,1,0,0:0:0:40:G6S.wav
298,192,22139,1,0,0:0:0:70:LR_Kick Bass strong.wav
384,192,22139,128,0,22499:0:0:0:0:
42,192,22499,1,0,0:0:0:70:LR_Kick Bass strong.wav
128,192,22499,1,0,0:0:0:0:
213,192,22499,1,0,0:0:0:0:
298,192,22619,1,0,0:0:0:40:E6S.wav
42,192,22859,1,0,0:0:0:70:LR_Snare Drum .wav
384,192,22859,1,0,0:0:0:0:
469,192,22859,1,0,0:0:0:0:
128,192,23099,1,0,0:0:0:40:D6S.wav
213,192,23099,1,0,0:0:0:0:
298,192,23219,1,0,0:0:0:0:
42,192,23339,1,0,0:0:0:70:LR_Kick Bass strong.wav
384,192,23339,1,0,0:0:0:0:
469,192,23339,1,0,0:0:0:0:
128,192,23579,1,0,0:0:0:40:E6S.wav
213,192,23579,1,0,0:0:0:70:LR_Snare Drum .wav
298,192,23579,1,0,0:0:0:0:
384,192,23699,1,0,0:0:0:70:LR_Kick Bass strong.wav
469,192,23699,1,0,0:0:0:0:
42,192,23819,1,0,0:0:0:0:
213,192,23939,1,0,0:0:0:0:
128,192,24059,1,0,0:0:0:70:LR_CymbalSSF.wav
298,192,24059,1,0,0:0:0:70:LR_Snare Drum .wav
384,192,24059,1,0,0:0:0:70:LR_Kick Bass strong.wav
469,192,24059,1,0,0:0:0:0:
42,192,24299,1,0,0:0:0:40:E6S.wav
213,192,24299,1,0,0:0:0:0:
384,192,24539,128,0,24779:0:0:0:40:E6S.wav
469,192,24539,128,0,24779:0:0:0:0:
42,192,24779,1,0,0:0:0:40:D6S.wav
213,192,24779,1,0,0:0:0:70:LR_Snare Drum .wav
298,192,24779,1,0,0:0:0:0:
42,192,25019,128,0,25259:0:0:0:40:E6S.wav
128,192,25019,128,0,25259:0:0:0:0:
384,192,25139,1,0,0:0:0:0:
213,192,25259,1,0,0:0:0:40:D6S.wav
298,192,25259,1,0,0:0:0:70:LR_Kick Bass strong.wav
469,192,25259,1,0,0:0:0:0:
128,192,25499,1,0,0:0:0:40:E6S.wav
384,192,25499,1,0,0:0:0:70:LR_Snare Drum .wav
469,192,25499,1,0,0:0:0:0:
213,192,25619,1,0,0:0:0:70:LR_Kick Bass strong.wav
298,192,25619,1,0,0:0:0:0:
42,192,25739,1,0,0:0:0:40:A6S.wav
128,192,25979,1,0,0:0:0:40:E6S.wav
298,192,25979,128,0,26339:0:0:0:70:LR_Kick Bass strong.wav
469,192,25979,1,0,0:0:0:0:
42,192,26339,1,0,0:0:0:70:LR_Kick Bass strong.wav
213,192,26339,1,0,0:0:0:0:
384,192,26339,1,0,0:0:0:0:
128,192,26579,1,0,0:0:0:0:
213,192,26699,1,0,0:0:0:70:LR_Snare Drum .wav
298,192,26699,1,0,0:0:0:0:
469,192,26699,1,0,0:0:0:0:
42,192,26939,1,0,0:0:0:0:
128,192,27059,1,0,0:0:0:0:
213,192,27179,1,0,0:0:0:70:LR_Kick Bass strong.wav
384,192,27179,1,0,0:0:0:0:
469,192,27179,1,0,0:0:0:0:
42,192,27419,1,0,0:0:0:70:LR_Snare Drum .wav
128,192,27419,1,0,0:0:0:0:
298,192,27419,1,0,0:0:0:0:
384,192,27539,1,0,0:0:0:70:LR_Kick Bass strong.wav
469,192,27539,1,0,0:0:0:0:
213,192,27659,1,0,0:0:0:40:C6S.wav
298,192,27779,1,0,0:0:0:40:D6S.wav
42,192,27899,128,0,28259:0:0:0:40:E6S.wav
128,192,27899,1,0,0:0:0:70:LR_Kick Bass strong.wav
384,192,27899,1,0,0:0:0:0:
213,192,28259,1,0,0:0:0:0:
298,192,28379,128,0,28619:0:0:0:0:
384,192,28379,128,0,28619:0:0:0:0:
42,192,28619,1,0,0:0:0:40:D6S.wav
213,192,28619,1,0,0:0:0:70:LR_Snare Drum .wav
469,192,28619,1,0,0:0:0:0:
128,192,28859,128,0,29099:0:0:0:40:B5S.wav
213,192,28859,128,0,29099:0:0:0:0:
42,192,29099,1,0,0:0:0:70:LR_Kick Bass strong.wav
298,192,29099,1,0,0:0:0:0:
469,192,29099,1,0,0:0:0:0:
128,192,29339,1,0,0:0:0:70:LR_Snare Drum .wav
213,192,29339,1,0,0:0:0:0:
384,192,29339,1,0,0:0:0:0:
42,192,29459,1,0,0:0:0:70:LR_Kick Bass strong.wav
469,192,29459,1,0,0:0:0:0:
298,192,29579,1,0,0:0:0:40:G6S.wav
42,192,29819,128,0,30179:0:0:0:40:B5S.wav
213,192,29819,1,0,0:0:0:70:LR_Kick Bass strong.wav
469,192,29819,1,0,0:0:0:0:
128,192,30179,1,0,0:0:0:70:LR_Kick Bass strong.wav
298,192,30179,1,0,0:0:0:0:
469,192,30179,1,0,0:0:0:0:
213,192,30299,1,0,0:0:0:0:
42,192,30539,1,0,0:0:0:70:LR_Snare Drum .wav
384,192,30539,1,0,0:0:0:0:
469,192,30539,1,0,0:0:0:0:
213,192,30779,1,0,0:0:0:70:LR_Tom Drop.wav
298,192,30779,1,0,0:0:0:0:
384,192,30899,1,0,0:0:0:70:LR_Tom Drop.wav
469,192,30899,1,0,0:0:0:0:
42,192,31019,1,0,0:0:0:70:LR_Tom Hit 2.wav
128,192,31019,1,0,0:0:0:0:
213,192,31139,1,0,0:0:0:70:LR_Tom Hit 2.wav
298,192,31259,1,0,0:0:0:70:LR_Tom Hit 3.wav
469,192,31259,1,0,0:0:0:0:
42,192,31499,1,0,0:0:0:70:LR_Tom Hit 2.wav
213,192,31499,1,0,0:0:0:0:
384,192,31739,128,0,32219:0:0:0:0:
213,192,32219,128,0,32699:0:0:0:55:A6S.wav
42,192,32699,128,0,33419:0:0:0:55:E6S.wav
469,192,32699,1,0,0:0:0:20:A6S.wav
469,192,32939,1,0,0:0:0:20:E7S.wav
384,192,33059,1,0,0:0:0:20:D7S.wav
298,192,33179,1,0,0:0:0:20:C7S.wav
213,192,33419,128,0,33659:0:0:0:55:D6S.wav
384,192,33659,128,0,34139:0:0:0:55:E6S.wav
469,192,33659,1,0,0:0:0:0:
128,192,33899,128,0,34139:0:0:0:55:F6S.wav
213,192,34139,128,0,34619:0:0:0:55:E6S.wav
469,192,34379,128,0,34619:0:0:0:55:F6S.wav
42,192,34619,1,0,0:0:0:55:E6S.wav
298,192,34619,128,0,35099:0:0:0:20:A6S.wav
42,192,34859,1,0,0:0:0:20:E7S.wav
128,192,34979,1,0,0:0:0:20:D7S.wav
213,192,35099,1,0,0:0:0:20:C7S.wav
469,192,35219,1,0,0:0:0:20:G7S.wav
298,192,35339,1,0,0:0:0:20:B6S.wav
128,192,35459,1,0,0:0:0:20:A6S.wav
42,192,35579,128,0,36059:0:0:0:30:DB_G7.wav
298,192,35579,128,0,36059:0:0:0:0:
469,192,36059,128,0,37259:0:0:0:55:A6S.wav
42,192,36539,128,0,38459:0:0:0:55:E6S.wav
213,192,36539,1,0,0:0:0:20:A6S.wav
213,192,36779,1,0,0:0:0:20:E7S.wav
298,192,36899,1,0,0:0:0:20:D7S.wav
384,192,37019,1,0,0:0:0:20:C7S.wav
128,192,37259,128,0,38459:0:0:0:55:C6S.wav
213,192,37499,128,0,38459:0:0:0:55:B5S.wav
384,192,37499,1,0,0:0:0:0:
298,192,38459,128,0,38939:0:0:0:0:
128,192,38939,1,0,0:0:0:0:
469,192,39059,1,0,0:0:0:0:
42,192,39179,1,0,0:0:0:0:
213,192,39419,128,0,39899:0:0:0:45:LR_CymbalSSF.wav
384,192,39419,1,0,0:0:0:0:
42,192,39899,128,0,40379:0:0:0:55:A6S.wav
128,192,40379,1,0,0:0:0:55:E6S.wav
469,192,40379,128,0,41099:0:0:0:20:D7S.wav
128,192,40619,1,0,0:0:0:20:E7S.wav
213,192,40739,1,0,0:0:0:20:D7S.wav
298,192,40859,1,0,0:0:0:20:C7S.wav
384,192,41099,128,0,41339:0:0:0:55:D6S.wav
42,192,41339,128,0,41819:0:0:0:55:E6S.wav
128,192,41339,1,0,0:0:0:0:
298,192,41579,128,0,41819:0:0:0:55:F6S.wav
469,192,41819,128,0,42299:0:0:0:55:E6S.wav
213,192,42059,128,0,42299:0:0:0:55:F6S.wav
42,192,42299,128,0,42779:0:0:0:55:E6S.wav
384,192,42299,1,0,0:0:0:20:A6S.wav
384,192,42539,1,0,0:0:0:20:E7S.wav
298,192,42659,1,0,0:0:0:20:D7S.wav
128,192,42779,1,0,0:0:0:20:C7S.wav
213,192,42899,1,0,0:0:0:20:G7S.wav
469,192,43019,1,0,0:0:0:55:A5S.wav
384,192,43139,1,0,0:0:0:55:B5S.wav
42,192,43259,128,0,43499:0:0:0:55:C6S.wav
128,192,43259,128,0,43499:0:0:0:30:DB_G7.wav
298,192,43259,128,0,43499:0:0:0:0:
213,192,43499,1,0,0:0:0:0:
213,192,43739,1,0,0:0:0:0:
298,192,43979,1,0,0:0:0:55:E6S.wav
469,192,43979,1,0,0:0:0:0:
128,192,44099,1,0,0:0:0:55:F6S.wav
42,192,44219,128,0,44459:0:0:0:55:G6S.wav
213,192,44219,128,0,44459:0:0:0:0:
384,192,44219,128,0,44459:0:0:0:0:
469,192,44459,1,0,0:0:0:0:
469,192,44699,1,0,0:0:0:0:
42,192,44939,1,0,0:0:0:55:G6S.wav
213,192,44939,1,0,0:0:0:0:
384,192,45059,1,0,0:0:0:55:A6S.wav
42,192,45179,128,0,45659:0:0:0:55:B6S.wav
128,192,45179,128,0,45659:0:0:0:0:
298,192,45179,128,0,45659:0:0:0:0:
469,192,45179,128,0,45659:0:0:0:0:
42,192,46139,1,0,0:0:0:55:C7S.wav
128,192,46139,1,0,0:0:0:0:
469,192,46139,128,0,46859:0:0:0:0:
213,192,46379,1,0,0:0:0:55:B6S.wav
384,192,46379,128,0,46859:0:0:0:0:
128,192,46619,1,0,0:0:0:55:E6S.wav
298,192,46619,128,0,46859:0:0:0:0:
42,192,46859,1,0,0:0:0:55:G6S.wav
128,192,47099,1,0,0:0:0:40:A6S.wav
213,192,47099,1,0,0:0:0:40:A5S.wav
384,192,47099,1,0,0:0:0:40:C6S.wav
469,192,47099,1,0,0:0:0:70:LR_CymbalSSF.wav
469,192,47339,1,0,0:0:0:0:
128,192,47579,1,0,0:0:0:40:E6S.wav
213,192,47579,1,0,0:0:0:70:LR_Snare Drum .wav
298,192,47579,128,0,48059:0:0:0:0:
384,192,47819,128,0,48059:0:0:0:40:G6S.wav
42,192,48059,1,0,0:0:0:40:A6S.wav
128,192,48059,1,0,0:0:0:40:B5S.wav
469,192,48059,1,0,0:0:0:70:LR_Kick Bass strong.wav
128,192,48299,1,0,0:0:0:0:
42,192,48539,1,0,0:0:0:40:E6S.wav
213,192,48539,1,0,0:0:0:70:LR_Snare Drum .wav
384,192,48539,128,0,49019:0:0:0:0:
298,192,48779,128,0,49019:0:0:0:40:G6S.wav
42,192,49019,1,0,0:0:0:40:C7S.wav
213,192,49019,1,0,0:0:0:70:LR_Kick Bass strong.wav
469,192,49019,1,0,0:0:0:0:
128,192,49259,1,0,0:0:0:40:B6S.wav
42,192,49499,1,0,0:0:0:40:E6S.wav
298,192,49499,1,0,0:0:0:70:LR_Snare Drum .wav
469,192,49499,1,0,0:0:0:0:
213,192,49739,1,0,0:0:0:40:G6S.wav
128,192,49979,1,0,0:0:0:40:A6S.wav
384,192,49979,1,0,0:0:0:40:A5S.wav
469,192,49979,1,0,0:0:0:40:C6S.wav
298,192,50219,1,0,0:0:0:0:
42,192,50459,1,0,0:0:0:40:E6S.wav
128,192,50459,1,0,0:0:0:70:LR_Snare Drum .wav
469,192,50459,1,0,0:0:0:0:
213,192,50699,1,0,0:0:0:0:
42,192,50939,1,0,0:0:0:40:D6S.wav
298,192,50939,1,0,0:0:0:70:LR_Kick Bass strong.wav
384,192,50939,128,0,51419:0:0:0:0:
128,192,51179,1,0,0:0:0:0:
42,192,51419,1,0,0:0:0:70:LR_Snare Drum .wav
298,192,51419,1,0,0:0:0:0:
469,192,51419,1,0,0:0:0:0:
384,192,51659,128,0,51899:0:0:0:40:E6S.wav
128,192,51899,128,0,52379:0:0:0:40:G6S.wav
213,192,51899,1,0,0:0:0:70:LR_Kick Bass strong.wav
469,192,51899,1,0,0:0:0:0:
298,192,52139,1,0,0:0:0:0:
42,192,52379,1,0,0:0:0:70:LR_Snare Drum .wav
384,192,52379,1,0,0:0:0:0:
213,192,52619,128,0,52859:0:0:0:40:E6S.wav
42,192,52859,1,0,0:0:0:40:D6S.wav
384,192,52859,128,0,53099:0:0:0:70:LR_Kick Bass strong.wav
469,192,52859,1,0,0:0:0:0:
128,192,53099,128,0,53339:0:0:0:40:E6S.wav
42,192,53339,1,0,0:0:0:40:B6S.wav
298,192,53339,128,0,53579:0:0:0:70:LR_Snare Drum .wav
469,192,53339,1,0,0:0:0:0:
213,192,53579,1,0,0:0:0:20:E6S.wav
298,192,53699,1,0,0:0:0:20:B6S.wav
42,192,53819,128,0,54539:0:0:0:40:A6S.wav
384,192,53819,1,0,0:0:0:70:LR_Kick Bass strong.wav
469,192,53819,1,0,0:0:0:0:
128,192,54059,128,0,54539:0:0:0:40:B6S.wav
298,192,54059,1,0,0:0:0:0:
213,192,54299,128,0,54539:0:0:0:40:E6S.wav
384,192,54299,1,0,0:0:0:70:LR_Snare Drum .wav
469,192,54539,1,0,0:0:0:40:G6S.wav
42,192,54779,1,0,0:0:0:40:A6S.wav
128,192,54779,1,0,0:0:0:40:A5S.wav
213,192,54779,1,0,0:0:0:40:C6S.wav
298,192,54779,1,0,0:0:0:70:LR_CymbalSSF.wav
298,192,55019,1,0,0:0:0:0:
128,192,55259,128,0,55739:0:0:0:40:E6S.wav
384,192,55259,1,0,0:0:0:70:LR_Snare Drum .wav
469,192,55259,1,0,0:0:0:0:
42,192,55499,128,0,55739:0:0:0:40:G6S.wav
213,192,55739,1,0,0:0:0:40:A6S.wav
298,192,55739,1,0,0:0:0:40:B5S.wav
469,192,55739,1,0,0:0:0:70:LR_Kick Bass strong.wav
213,192,55979,1,0,0:0:0:0:
42,192,56219,128,0,56699:0:0:0:40:E6S.wav
298,192,56219,1,0,0:0:0:70:LR_Snare Drum .wav
469,192,56219,1,0,0:0:0:0:
128,192,56459,128,0,56699:0:0:0:40:G6S.wav
213,192,56699,1,0,0:0:0:40:C7S.wav
384,192,56699,1,0,0:0:0:70:LR_Kick Bass strong.wav
469,192,56699,1,0,0:0:0:0:
298,192,56939,1,0,0:0:0:40:B6S.wav
42,192,57179,1,0,0:0:0:40:E6S.wav
128,192,57179,1,0,0:0:0:70:LR_Snare Drum .wav
213,192,57179,1,0,0:0:0:0:
298,192,57419,1,0,0:0:0:40:G6S.wav
128,192,57659,1,0,0:0:0:40:A5S.wav
384,192,57659,1,0,0:0:0:40:A6S.wav
469,192,57659,1,0,0:0:0:40:C6S.wav
213,192,57899,1,0,0:0:0:0:
42,192,58139,1,0,0:0:0:70:LR_Snare Drum .wav
128,192,58139,1,0,0:0:0:0:
469,192,58139,1,0,0:0:0:0:
298,192,58379,128,0,58619:0:0:0:40:E6S.wav
42,192,58619,1,0,0:0:0:40:G6S.wav
128,192,58619,128,0,59099:0:0:0:70:LR_Kick Bass strong.wav
469,192,58619,1,0,0:0:0:0:
384,192,58859,1,0,0:0:0:0:
42,192,59099,1,0,0:0:0:70:LR_Snare Drum .wav
213,192,59099,1,0,0:0:0:0:
469,192,59099,1,0,0:0:0:0:
298,192,59339,128,0,59579:0:0:0:40:E6S.wav
42,192,59579,1,0,0:0:0:40:D6S.wav
213,192,59579,128,0,60059:0:0:0:70:LR_Kick Bass strong.wav
384,192,59579,1,0,0:0:0:0:
469,192,59819,1,0,0:0:0:0:
42,192,60059,1,0,0:0:0:70:LR_Snare Drum .wav
128,192,60059,1,0,0:0:0:0:
384,192,60059,1,0,0:0:0:0:
298,192,60299,128,0,60539:0:0:0:40:C7S.wav
128,192,60539,1,0,0:0:0:40:B6S.wav
384,192,60539,128,0,61019:0:0:0:70:LR_Kick Bass strong.wav
469,192,60539,1,0,0:0:0:0:
213,192,60779,1,0,0:0:0:0:
42,192,61019,1,0,0:0:0:70:LR_Snare Drum .wav
128,192,61019,1,0,0:0:0:0:
298,192,61019,1,0,0:0:0:0:
384,192,61259,1,0,0:0:0:70:LR_Tom Drop.wav
469,192,61259,1,0,0:0:0:0:
213,192,61379,1,0,0:0:0:70:LR_Tom Drop.wav
298,192,61379,1,0,0:0:0:0:
42,192,61499,1,0,0:0:0:40:C7S.wav
128,192,61499,1,0,0:0:0:70:LR_Tom Hit 2.wav
298,192,61619,1,0,0:0:0:70:LR_Tom Hit 3.wav
128,192,61739,1,0,0:0:0:40:B6S.wav
384,192,61739,1,0,0:0:0:70:LR_Tom Hit 3.wav
42,192,61979,1,0,0:0:0:40:E6S.wav
213,192,61979,1,0,0:0:0:70:LR_Snare Drum .wav
469,192,61979,1,0,0:0:0:0:
298,192,62219,1,0,0:0:0:40:G6S.wav
384,192,62219,1,0,0:0:0:70:LR_Snare Drum .wav
213,192,62339,1,0,0:0:0:70:LR_Snare Drum .wav
42,192,62459,1,0,0:0:0:40:A6S.wav
128,192,62459,1,0,0:0:0:40:A5S.wav
384,192,62459,1,0,0:0:0:40:C6S.wav
469,192,62459,1,0,0:0:0:70:LR_CymbalSSF.wav
128,192,62699,1,0,0:0:0:0:
42,192,62939,1,0,0:0:0:40:E6S.wav
298,192,62939,128,0,63419:0:0:0:70:LR_Snare Drum .wav
469,192,62939,1,0,0:0:0:0:
213,192,63179,128,0,63419:0:0:0:40:G6S.wav
42,192,63419,1,0,0:0:0:40:A6S.wav
128,192,63419,1,0,0:0:0:40:B5S.wav
213,192,63539,1,0,0:0:0:70:LR_Snare Drum .wav
384,192,63539,1,0,0:0:0:0:
469,192,63539,1,0,0:0:0:0:
128,192,63659,1,0,0:0:0:70:LR_Ride Med.wav
42,192,63779,1,0,0:0:0:70:LR_Kick Bass strong.wav
298,192,63779,1,0,0:0:0:0:
213,192,63899,128,0,64379:0:0:0:40:E6S.wav
384,192,63899,1,0,0:0:0:70:LR_Snare Drum .wav
469,192,63899,1,0,0:0:0:0:
128,192,64139,1,0,0:0:0:40:G6S.wav
298,192,64139,128,0,64379:0:0:0:70:LR_Ride Med.wav
42,192,64379,1,0,0:0:0:40:C7S.wav
384,192,64379,1,0,0:0:0:70:LR_Kick Bass strong.wav
469,192,64379,1,0,0:0:0:0:
298,192,64619,1,0,0:0:0:40:B6S.wav
384,192,64739,1,0,0:0:0:70:LR_Kick Bass strong.wav
469,192,64739,1,0,0:0:0:0:
42,192,64859,1,0,0:0:0:40:E6S.wav
128,192,64859,1,0,0:0:0:70:LR_Snare Drum .wav
213,192,64859,1,0,0:0:0:0:
128,192,65099,1,0,0:0:0:40:G6S.wav
298,192,65099,1,0,0:0:0:70:LR_Ride Med.wav
469,192,65099,1,0,0:0:0:70:LR_Snare Drum .wav
213,192,65339,1,0,0:0:0:40:A6S.wav
384,192,65339,1,0,0:0:0:40:C6S.wav
42,192,65459,1,0,0:0:0:70:LR_Snare Drum .wav
128,192,65459,1,0,0:0:0:0:
298,192,65579,1,0,0:0:0:70:LR_Ride Med.wav
384,192,65579,1,0,0:0:0:70:LR_Kick Bass strong.wav
469,192,65579,1,0,0:0:0:0:
42,192,65819,1,0,0:0:0:40:E6S.wav
128,192,65819,1,0,0:0:0:70:LR_Snare Drum .wav
213,192,65819,1,0,0:0:0:0:
384,192,65939,1,0,0:0:0:70:LR_Kick Bass strong.wav
469,192,65939,1,0,0:0:0:0:
298,192,66059,1,0,0:0:0:70:LR_Ride Med.wav
42,192,66299,1,0,0:0:0:40:D6S.wav
213,192,66299,1,0,0:0:0:70:LR_Kick Bass strong.wav
384,192,66299,128,0,66539:0:0:0:0:
469,192,66539,1,0,0:0:0:70:LR_Ride Med.wav
42,192,66659,1,0,0:0:0:70:LR_Kick Bass strong.wav
128,192,66659,1,0,0:0:0:0:
213,192,66779,1,0,0:0:0:70:LR_Snare Drum .wav
298,192,66779,1,0,0:0:0:0:
384,192,66779,1,0,0:0:0:0:
42,192,67019,1,0,0:0:0:40:E6S.wav
128,192,67019,128,0,67259:0:0:0:70:LR_Kick Bass strong.wav
469,192,67019,1,0,0:0:0:0:
213,192,67259,1,0,0:0:0:40:G6S.wav
298,192,67259,1,0,0:0:0:70:LR_Kick Bass strong.wav
42,192,67379,1,0,0:0:0:70:LR_Snare Drum .wav
128,192,67379,1,0,0:0:0:0:
384,192,67499,1,0,0:0:0:70:LR_Ride Med.wav
469,192,67499,1,0,0:0:0:70:LR_Tom Hit 2.wav
213,192,67619,1,0,0:0:0:70:LR_Tom Hit 3.wav
298,192,67619,1,0,0:0:0:0:
42,192,67739,1,0,0:0:0:70:LR_Snare Drum .wav
128,192,67739,1,0,0:0:0:0:
384,192,67739,1,0,0:0:0:0:
213,192,67979,1,0,0:0:0:40:E6S.wav
469,192,67979,128,0,68219:0:0:0:70:LR_Ride Med.wav
298,192,68219,1,0,0:0:0:40:D6S.wav
384,192,68219,1,0,0:0:0:70:LR_Kick Bass strong.wav
42,192,68339,1,0,0:0:0:70:LR_Snare Drum .wav
128,192,68339,1,0,0:0:0:0:
213,192,68339,1,0,0:0:0:0:
384,192,68459,1,0,0:0:0:40:E6S.wav
213,192,68579,1,0,0:0:0:70:LR_Kick Bass strong.wav
469,192,68579,1,0,0:0:0:0:
42,192,68699,1,0,0:0:0:40:B6S.wav
128,192,68699,1,0,0:0:0:70:LR_Snare Drum .wav
298,192,68699,1,0,0:0:0:0:
384,192,68939,1,0,0:0:0:20:E6S.wav
469,192,68939,1,0,0:0:0:70:LR_Kick Bass strong.wav
213,192,69059,1,0,0:0:0:20:B6S.wav
298,192,69059,1,0,0:0:0:70:LR_Snare Drum .wav
42,192,69179,1,0,0:0:0:40:A6S.wav
128,192,69179,1,0,0:0:0:70:LR_Kick Bass strong.wav
469,192,69179,1,0,0:0:0:0:
298,192,69419,1,0,0:0:0:40:B6S.wav
384,192,69419,1,0,0:0:0:70:LR_Tom Drop.wav
213,192,69539,1,0,0:0:0:70:LR_Tom Drop.wav
42,192,69659,1,0,0:0:0:40:E6S.wav
128,192,69659,1,0,0:0:0:50:LR_CymbalCCR.wav
469,192,69659,1,0,0:0:0:70:LR_Tom Hit 2.wav
298,192,69779,1,0,0:0:0:70:LR_Tom Hit 2.wav
128,192,69899,1,0,0:0:0:40:G6S.wav
213,192,69899,1,0,0:0:0:70:LR_Tom Hit 3.wav
384,192,70019,1,0,0:0:0:70:LR_Tom Hit 3.wav
42,192,70139,1,0,0:0:0:40:A6S.wav
213,192,70139,1,0,0:0:0:40:A5S.wav
298,192,70139,1,0,0:0:0:40:C6S.wav
469,192,70139,1,0,0:0:0:70:LR_CymbalSSF.wav
384,192,70379,1,0,0:0:0:0:
42,192,70499,1,0,0:0:0:70:LR_Kick Bass strong.wav
128,192,70499,1,0,0:0:0:0:
213,192,70619,128,0,71099:0:0:0:40:E6S.wav
298,192,70619,1,0,0:0:0:70:LR_Snare Drum .wav
469,192,70619,1,0,0:0:0:0:
128,192,70859,128,0,71099:0:0:0:40:G6S.wav
384,192,71099,1,0,0:0:0:40:A6S.wav
469,192,71099,1,0,0:0:0:40:B5S.wav
42,192,71219,1,0,0:0:0:70:LR_Snare Drum .wav
128,192,71219,1,0,0:0:0:0:
213,192,71219,1,0,0:0:0:0:
298,192,71339,1,0,0:0:0:70:LR_Kick Bass strong.wav
384,192,71339,1,0,0:0:0:0:
42,192,71579,1,0,0:0:0:40:E6S.wav
469,192,71579,1,0,0:0:0:0:
128,192,71579,128,0,72059:0:0:0:70:LR_Snare Drum .wav
384,192,71699,1,0,0:0:0:70:LR_Kick Bass strong.wav
213,192,71819,128,0,72059:0:0:0:40:G6S.wav
42,192,72059,1,0,0:0:0:40:C7S.wav
298,192,72059,1,0,0:0:0:70:LR_Kick Bass strong.wav
469,192,72059,1,0,0:0:0:0:
384,192,72299,1,0,0:0:0:40:B6S.wav
213,192,72419,1,0,0:0:0:70:LR_Kick Bass strong.wav
298,192,72419,1,0,0:0:0:0:
42,192,72539,1,0,0:0:0:40:E6S.wav
128,192,72539,1,0,0:0:0:70:LR_Snare Drum .wav
469,192,72539,1,0,0:0:0:0:
213,192,72779,1,0,0:0:0:40:G6S.wav
298,192,72779,1,0,0:0:0:70:LR_Snare Drum .wav
384,192,72779,1,0,0:0:0:70:LR_Kick Bass strong.wav
42,192,73019,1,0,0:0:0:40:A6S.wav
128,192,73019,1,0,0:0:0:40:A5S.wav
298,192,73139,1,0,0:0:0:70:LR_Snare Drum .wav
384,192,73139,1,0,0:0:0:0:
469,192,73139,1,0,0:0:0:0:
128,192,73259,1,0,0:0:0:70:LR_Kick Bass strong.wav
213,192,73259,1,0,0:0:0:0:
42,192,73499,1,0,0:0:0:70:LR_Snare Drum .wav
384,192,73499,1,0,0:0:0:0:
469,192,73499,1,0,0:0:0:0:
128,192,73619,1,0,0:0:0:70:LR_Kick Bass strong.wav
213,192,73619,1,0,0:0:0:0:
298,192,73739,1,0,0:0:0:70:LR_Ride Med.wav
128,192,73979,1,0,0:0:0:40:E6S.wav
384,192,73979,1,0,0:0:0:40:A5S.wav
469,192,73979,128,0,74939:0:0:0:70:LR_Kick Bass strong.wav
42,192,74219,1,0,0:0:0:70:LR_Ride Med.wav
213,192,74339,1,0,0:0:0:70:LR_Kick Bass strong.wav
298,192,74339,1,0,0:0:0:0:
42,192,74459,1,0,0:0:0:70:LR_Snare Drum .wav
128,192,74459,1,0,0:0:0:0:
298,192,74699,1,0,0:0:0:40:G6S.wav
384,192,74699,1,0,0:0:0:70:LR_Ride Med.wav
213,192,74819,1,0,0:0:0:40:E6S.wav
42,192,74939,128,0,75899:0:0:0:40:D6S.wav
128,192,74939,1,0,0:0:0:40:G5S.wav
298,192,75059,1,0,0:0:0:70:LR_Snare Drum .wav
384,192,75059,1,0,0:0:0:0:
128,192,75299,1,0,0:0:0:70:LR_Kick Bass strong.wav
213,192,75299,1,0,0:0:0:0:
384,192,75419,1,0,0:0:0:70:LR_Snare Drum .wav
469,192,75419,1,0,0:0:0:0:
128,192,75659,1,0,0:0:0:40:C7S.wav
298,192,75659,1,0,0:0:0:70:LR_Snare Drum .wav
384,192,75899,1,0,0:0:0:40:B6S.wav
469,192,75899,1,0,0:0:0:40:D6S.wav
42,192,76019,1,0,0:0:0:70:LR_Snare Drum .wav
128,192,76019,1,0,0:0:0:0:
384,192,76259,1,0,0:0:0:40:A5S.wav
469,192,76259,1,0,0:0:0:70:LR_Kick Bass strong.wav
42,192,76379,1,0,0:0:0:40:D6S.wav
128,192,76379,1,0,0:0:0:70:LR_Snare Drum .wav
213,192,76499,1,0,0:0:0:40:A6S.wav
42,192,76619,1,0,0:0:0:40:D7S.wav
298,192,76619,1,0,0:0:0:70:LR_Snare Drum .wav
384,192,76739,1,0,0:0:0:40:A7S.wav
213,192,76859,1,0,0:0:0:40:E7S.wav
469,192,76859,1,0,0:0:0:70:LR_Tom Drop.wav
298,192,76979,1,0,0:0:0:40:D7S.wav
42,192,77099,1,0,0:0:0:40:C7S.wav
384,192,77099,1,0,0:0:0:70:LR_Tom Hit 2.wav
128,192,77219,1,0,0:0:0:40:B6S.wav
213,192,77339,1,0,0:0:0:40:A6S.wav
469,192,77339,1,0,0:0:0:70:LR_Tom Drop.wav
298,192,77459,1,0,0:0:0:40:E6S.wav
128,192,77579,1,0,0:0:0:40:D6S.wav
384,192,77579,1,0,0:0:0:70:LR_Tom Hit 3.wav
213,192,77699,1,0,0:0:0:40:B5S.wav
42,192,77819,1,0,0:0:0:40:C7S.wav
128,192,77819,1,0,0:0:0:40:E6S.wav
298,192,77819,1,0,0:0:0:40:A6S.wav
469,192,77819,1,0,0:0:0:70:LR_CymbalSSF.wav
213,192,78059,128,0,78299:0:0:0:0:
298,192,78179,128,0,78299:0:0:0:70:LR_Kick Bass strong.wav
42,192,78299,1,0,0:0:0:70:LR_Snare Drum .wav
128,192,78299,1,0,0:0:0:0:
469,192,78299,1,0,0:0:0:0:
213,192,78539,1,0,0:0:0:70:LR_Kick Bass strong.wav
298,192,78539,1,0,0:0:0:0:
42,192,78779,1,0,0:0:0:40:E7S.wav
128,192,78779,1,0,0:0:0:70:LR_Kick Bass strong.wav
384,192,78779,128,0,79019:0:0:0:0:
298,192,78899,128,0,79019:0:0:0:40:D7S.wav
128,192,79019,128,0,79259:0:0:0:40:C7S.wav
213,192,79139,128,0,79259:0:0:0:40:B6S.wav
42,192,79259,1,0,0:0:0:70:LR_Snare Drum .wav
469,192,79259,1,0,0:0:0:0:
128,192,79499,1,0,0:0:0:20:C6S.wav
384,192,79499,1,0,0:0:0:0:
42,192,79739,1,0,0:0:0:25:A5S.wav
213,192,79739,1,0,0:0:0:70:LR_Kick Bass strong.wav
469,192,79739,1,0,0:0:0:0:
298,192,79979,128,0,80219:0:0:0:0:
213,192,80099,128,0,80219:0:0:0:25:A5S.wav
42,192,80219,1,0,0:0:0:25:C6S.wav
384,192,80219,1,0,0:0:0:70:LR_Snare Drum .wav
469,192,80219,1,0,0:0:0:0:
213,192,80459,1,0,0:0:0:0:
298,192,80459,1,0,0:0:0:0:
128,192,80699,128,0,80939:0:0:0:40:F7S.wav
384,192,80699,1,0,0:0:0:70:LR_Kick Bass strong.wav
469,192,80699,1,0,0:0:0:0:
213,192,80819,128,0,80939:0:0:0:40:E7S.wav
384,192,80939,128,0,81179:0:0:0:40:G7S.wav
298,192,81059,128,0,81179:0:0:0:40:C7S.wav
42,192,81179,1,0,0:0:0:70:LR_Snare Drum .wav
469,192,81179,1,0,0:0:0:0:
128,192,81299,1,0,0:0:0:70:LR_Kick Bass strong.wav
213,192,81299,1,0,0:0:0:0:
384,192,81419,1,0,0:0:0:0:
42,192,81659,128,0,82139:0:0:0:40:B6S.wav
298,192,81659,1,0,0:0:0:70:LR_Kick Bass strong.wav
469,192,81659,1,0,0:0:0:0:
128,192,82019,128,0,82139:0:0:0:40:B7S.wav
298,192,82139,1,0,0:0:0:70:LR_Snare Drum .wav
469,192,82139,1,0,0:0:0:0:
298,192,82379,128,0,82619:0:0:0:40:B7S.wav
469,192,82379,128,0,82619:0:0:0:0:
42,192,82619,1,0,0:0:0:40:G7S.wav
128,192,82619,128,0,82859:0:0:0:70:LR_Kick Bass strong.wav
213,192,82739,128,0,82859:0:0:0:40:F7S.wav
384,192,82859,128,0,83099:0:0:0:40:E7S.wav
298,192,82979,128,0,83099:0:0:0:40:B6S.wav
42,192,83099,1,0,0:0:0:70:LR_Snare Drum .wav
469,192,83099,1,0,0:0:0:0:
128,192,83339,1,0,0:0:0:0:
384,192,83339,1,0,0:0:0:0:
42,192,83579,1,0,0:0:0:40:A5S.wav
213,192,83579,1,0,0:0:0:70:LR_Kick Bass strong.wav
469,192,83579,128,0,84059:0:0:0:0:
384,192,83939,128,0,84059:0:0:0:40:A5S.wav
42,192,84059,1,0,0:0:0:20:C6S.wav
213,192,84059,1,0,0:0:0:70:LR_CymbalSSF.wav
298,192,84059,1,0,0:0:0:70:LR_Snare Drum .wav
42,192,84299,128,0,84539:0:0:0:40:E5S.wav
213,192,84299,128,0,84539:0:0:0:70:LR_Kick Bass strong.wav
384,192,84539,1,0,0:0:0:40:F7S.wav
469,192,84539,1,0,0:0:0:70:LR_Tom Drop.wav
298,192,84659,1,0,0:0:0:40:E7S.wav
42,192,84779,1,0,0:0:0:40:G7S.wav
213,192,84779,1,0,0:0:0:70:LR_Tom Hit 2.wav
384,192,84899,1,0,0:0:0:40:C7S.wav
128,192,85019,1,0,0:0:0:40:B6S.wav
298,192,85019,1,0,0:0:0:70:LR_Tom Drop.wav
469,192,85139,1,0,0:0:0:40:G6S.wav
213,192,85259,1,0,0:0:0:40:E6S.wav
384,192,85259,1,0,0:0:0:70:LR_Tom Hit 3.wav
42,192,85379,1,0,0:0:0:40:G6S.wav
128,192,85499,1,0,0:0:0:40:C6S.wav
298,192,85499,1,0,0:0:0:40:E6S.wav
384,192,85499,1,0,0:0:0:40:A6S.wav
469,192,85499,1,0,0:0:0:70:LR_Snare Drum .wav
128,192,85859,1,0,0:0:0:70:LR_Snare Drum .wav
213,192,85859,1,0,0:0:0:55:LR_CymbalCCR.wav
469,192,85859,1,0,0:0:0:0:
42,192,86219,1,0,0:0:0:70:LR_Snare Drum .wav
128,192,86219,1,0,0:0:0:55:LR_CymbalCCR.wav
213,192,86219,1,0,0:0:0:0:
384,192,86219,1,0,0:0:0:0:
42,192,86579,1,0,0:0:0:70:LR_Snare Drum .wav
298,192,86579,1,0,0:0:0:55:LR_CymbalCCR.wav
384,192,86579,1,0,0:0:0:0:
42,192,86939,1,0,0:0:0:70:LR_Snare Drum .wav
213,192,86939,1,0,0:0:0:55:LR_CymbalCCR.wav
298,192,86939,1,0,0:0:0:0:
469,192,86939,1,0,0:0:0:0:
