osu file format v14

[General]
AudioFilename: audio.mp3
AudioLeadIn: 0
PreviewTime: 46023
Countdown: 0
SampleSet: Soft
StackLeniency: 0.4
Mode: 0
LetterboxInBreaks: 0
WidescreenStoryboard: 1

[Editor]
DistanceSpacing: 1.3
BeatDivisor: 4
GridSize: 16
TimelineZoom: 1

[Metadata]
Title:Memento (TV Size)
TitleUnicode:Memento (TV Size)
Artist:nonoc
ArtistUnicode:nonoc
Creator:fieryrage
Version:wanpachi's normal
Source:Re:ゼロから始める異世界生活
Tags:re:zero kara hajimeru isekai seikatsu rezero starting life in another world different from zero season two anime ending ed japanese pop rock flask wanpachi cycopton hooni eiri- ayyri trynna
BeatmapID:2550119
BeatmapSetID:1226315

[Difficulty]
HPDrainRate:4
CircleSize:3.5
OverallDifficulty:4.5
ApproachRate:5
SliderMultiplier:1.3
SliderTickRate:1

[Events]
//Background and Video events
Video,-131,"wheres rem lol.mp4"
0,0,"literally just emilia.jpg",0,0
//Break Periods
//Storyboard Layer 0 (Background)
//Storyboard Layer 1 (Fail)
//Storyboard Layer 2 (Pass)
//Storyboard Layer 3 (Foreground)
//Storyboard Layer 4 (Overlay)
//Storyboard Sound Samples

[TimingPoints]
63,480,4,2,1,50,1,0
63,-100,4,2,1,50,0,0
1013,-100,4,2,1,55,0,0
1023,480,4,2,1,55,1,0
1023,-100,4,2,1,55,0,0
4853,-100,4,2,1,60,0,0
7733,-100,4,2,1,65,0,0
8693,-100,4,2,1,70,0,0
15173,-100,4,2,1,60,0,0
15413,-100,4,2,1,70,0,0
15653,-100,4,2,1,55,0,0
15773,-100,4,2,1,45,0,0
15893,-100,4,2,1,70,0,0
16133,-100,4,2,1,60,0,0
16373,-100,4,2,1,70,0,0
16613,-100,4,2,1,65,0,0
18293,-100,4,2,1,60,0,0
31253,-100,4,2,1,65,0,0
31733,-100,4,2,1,60,0,0
31743,-105.263157894737,4,2,1,60,0,0
31973,-105.263157894737,4,2,1,50,0,0
39413,-105.263157894737,4,2,1,55,0,0
44213,-105.263157894737,4,2,1,60,0,0
44933,-105.263157894737,4,2,1,65,0,0
45173,-105.263157894737,4,2,1,60,0,0
46133,-105.263157894737,4,2,1,55,0,0
46613,-105.263157894737,4,2,1,65,0,0
47093,-105.263157894737,4,2,1,75,0,0
47103,-95.2380952380952,4,2,1,75,0,1
62343,-95.2380952380952,4,2,1,75,0,0
62463,-95.2380952380952,4,2,1,75,0,1
77333,-95.2380952380952,4,2,1,80,0,1
77823,-100,4,2,1,75,0,0
85493,-100,4,2,1,85,0,0

[Colours]
Combo1 : 187,151,202
Combo2 : 159,159,159
Combo3 : 193,167,128
Combo4 : 78,78,78

[HitObjects]
87,99,1023,6,0,P|152:92|215:81,1,130,2|2,0:0|0:0,0:0:0:0:
284,32,1743,1,2,0:0:0:0:
284,32,1983,2,0,P|354:61|381:128,1,130,2|2,0:0|0:0,0:0:0:0:
429,173,2703,1,2,0:0:0:0:
429,173,2943,2,0,P|464:168|503:166,2,65,2|2|2,0:0|0:0|0:0,0:0:0:0:
382,243,3663,1,2,0:0:0:0:
382,243,3903,2,0,P|312:235|241:229,1,130,2|2,0:0|0:0,0:0:0:0:
109,320,4863,6,0,B|94:297|65:270|65:270|94:203|118:153,1,195,2|2,0:0|0:0,0:0:0:0:
105,70,5823,2,0,P|158:36|220:51,1,130,2|0,0:0|0:0,0:0:0:0:
286,103,6543,1,2,0:0:0:0:
286,103,6783,2,0,P|278:137|270:177,2,65,2|2|2,0:0|0:0|0:0,0:0:0:0:
449,60,7743,1,2,0:0:0:0:
212,301,8703,6,0,P|180:224|219:156,1,130,6|8,1:2|1:3,0:0:0:0:
233,108,9423,1,0,0:0:0:0:
233,108,9663,2,0,P|264:112|302:117,2,65,2|2|8,1:2|0:0|1:3,0:0:0:0:
67,74,10623,2,0,P|90:175|88:247,1,130,2|8,1:2|1:3,0:0:0:0:
45,272,11343,1,0,0:0:0:0:
45,272,11583,2,0,B|73:289|106:294|106:294|137:272|174:266,1,130,2|8,1:0|1:3,0:0:0:0:
294,376,12543,6,0,P|358:345|422:326,1,130,2|8,1:2|1:3,0:0:0:0:
451,251,13263,1,2,0:0:0:0:
451,251,13503,2,0,P|483:266|515:276,2,65,2|2|8,1:2|0:0|1:3,0:0:0:0:
425,83,14463,2,0,P|361:71|297:59,1,130,2|8,1:2|1:3,0:0:0:0:
212,55,15183,1,10,0:3:0:0:
212,55,15423,2,0,P|198:94|190:133,1,65,0|8,1:0|0:3,0:0:0:0:
246,181,15903,1,0,1:0:0:0:
182,337,16383,5,6,1:2:0:0:
182,337,16623,2,0,B|159:355|120:350|120:350|95:328|60:320,1,130,2|10,0:0|0:0,0:0:0:0:
18,248,17343,2,0,P|21:214|26:174,1,65,2|0,0:0|1:0,0:0:0:0:
15,99,17823,1,10,0:0:0:0:
164,20,18303,2,0,P|228:52|233:121,1,130,2|4,1:2|0:3,0:0:0:0:
224,188,19023,2,0,P|293:175|372:165,1,130,8|4,0:0|1:3,0:0:0:0:
435,154,19743,1,8,0:0:0:0:
359,305,20223,5,0,1:0:0:0:
359,305,20463,2,0,P|369:339|375:371,2,65,2|6|10,0:0|0:3|0:0,0:0:0:0:
279,276,21183,2,0,P|211:282|169:337,1,130,2|10,0:0|0:0,0:0:0:0:
97,287,21903,1,2,0:0:0:0:
97,287,22143,1,2,1:2:0:0:
14,139,22623,1,2,0:0:0:0:
143,30,23103,2,0,P|208:38|278:44,1,130,2|10,0:0|0:0,0:0:0:0:
423,119,24063,5,6,1:2:0:0:
423,119,24303,2,0,P|443:184|401:240,1,130,2|10,0:0|0:0,0:0:0:0:
332,262,25023,2,0,P|301:245|260:238,1,65,2|0,0:0|1:0,0:0:0:0:
189,258,25503,1,10,0:0:0:0:
37,182,25983,2,0,P|54:114|66:46,1,130,2|0,1:2|0:0,0:0:0:0:
134,7,26703,2,0,P|186:50|277:25,1,130,8|0,0:0|1:0,0:0:0:0:
321,9,27423,1,8,0:0:0:0:
424,142,27903,6,0,P|445:209|403:268,1,130,2|4,1:2|0:3,0:0:0:0:
342,296,28623,1,10,0:0:0:0:
342,296,28863,2,0,B|311:303|277:305|277:305|243:285|183:274,1,130,2|8,0:0|0:0,0:0:0:0:
132,277,29583,1,2,0:0:0:0:
132,277,29823,2,0,P|122:217|113:147,1,130,2|0,1:2|0:0,0:0:0:0:
255,55,30783,2,0,P|286:47|318:44,1,65,8|0,0:3|0:0,0:0:0:0:
391,1,31263,2,0,P|423:3|454:11,1,65,8|8,1:3|0:3,0:0:0:0:
497,84,31743,5,2,0:0:0:0:
390,203,32223,1,2,0:0:0:0:
473,340,32703,2,0,P|388:308|304:306,1,123.499996702194,2|0,0:0|0:0,0:0:0:0:
277,322,33423,1,2,0:0:0:0:
277,322,33663,2,0,P|269:280|262:253,2,61.7499983510972,2|2|2,0:0|0:0|0:0,0:0:0:0:
212,369,34383,1,2,0:0:0:0:
212,369,34623,2,0,B|138:375|174:331|93:336,1,123.499996702194,2|0,0:0|0:0,0:0:0:0:
4,214,35583,5,2,0:0:0:0:
81,73,36063,1,2,0:0:0:0:
237,106,36543,2,0,P|301:70|379:57,1,123.499996702194,2|0,0:0|0:0,0:0:0:0:
416,101,37263,1,2,0:0:0:0:
416,101,37503,2,0,B|458:151|474:209|474:209|438:259|434:333,1,246.999993404389,2|2,0:0|0:0,0:0:0:0:
118,267,39423,5,6,0:3:0:0:
202,130,39903,1,2,0:0:0:0:
349,193,40383,2,0,P|430:192|458:108,1,123.499996702194,2|0,0:0|0:0,0:0:0:0:
452,83,41103,1,2,1:2:0:0:
452,83,41343,2,0,P|488:74|516:64,2,61.7499983510972,2|2|2,1:2|0:0|0:0,0:0:0:0:
380,46,42063,1,2,0:0:0:0:
380,46,42303,2,0,P|308:28|252:8,1,123.499996702194,2|0,0:0|0:0,0:0:0:0:
114,78,43263,6,0,P|144:141|91:210,1,123.499996702194,2|0,1:2|0:0,0:0:0:0:
98,263,43983,1,2,0:0:0:0:
98,263,44223,2,0,P|160:273|238:287,1,123.499996702194,2|0,0:0|0:0,0:0:0:0:
288,325,44943,1,2,1:0:0:0:
288,325,45183,1,6,0:3:0:0:
438,42,46143,2,0,P|404:37|374:34,1,61.7499983510972,2|0,0:0|0:0,0:0:0:0:
302,3,46623,1,2,0:0:0:0:
302,3,46863,1,2,0:0:0:0:
228,52,47103,6,0,L|250:192,1,136.499995834351,6|10,1:2|1:3,0:0:0:0:
227,272,47823,1,2,0:0:0:0:
227,272,48063,2,0,P|165:308|90:285,1,136.499995834351,2|10,1:2|1:3,0:0:0:0:
39,235,48783,1,2,0:0:0:0:
39,235,49023,2,0,P|60:197|72:171,1,68.2499979171754,2|2,1:2|0:0,0:0:0:0:
135,113,49503,2,0,P|173:134|199:146,1,68.2499979171754,10|2,1:3|0:0,0:0:0:0:
276,109,49983,2,0,P|343:71|359:11,1,136.499995834351,2|10,1:2|1:3,0:0:0:0:
489,138,50943,6,0,P|470:205|455:277,1,136.499995834351,2|8,1:2|1:3,0:0:0:0:
385,324,51663,1,2,0:0:0:0:
385,324,51903,2,0,P|322:298|247:319,1,136.499995834351,2|8,1:2|1:3,0:0:0:0:
168,314,52623,1,2,0:0:0:0:
168,314,52863,2,0,P|173:351|176:399,2,68.2499979171754,2|2|10,1:2|0:0|1:3,0:0:0:0:
63,170,53823,2,0,P|65:135|70:102,1,68.2499979171754,2|2,1:2|0:0,0:0:0:0:
133,39,54303,2,0,P|167:36|200:31,1,68.2499979171754,10|2,1:3|0:0,0:0:0:0:
263,94,54783,6,0,B|343:111|304:60|401:81,1,136.499995834351,6|10,1:2|1:3,0:0:0:0:
457,142,55503,1,2,0:0:0:0:
457,142,55743,2,0,P|490:206|459:261,1,136.499995834351,2|10,1:2|1:3,0:0:0:0:
396,317,56463,1,2,0:0:0:0:
396,317,56703,2,0,P|362:307|320:295,1,68.2499979171754,2|2,1:2|0:0,0:0:0:0:
287,220,57183,2,0,P|321:210|363:198,1,68.2499979171754,10|2,1:3|0:0,0:0:0:0:
313,121,57663,2,0,P|245:101|161:77,1,136.499995834351,2|8,1:2|1:3,0:0:0:0:
15,142,58623,6,0,P|52:194|54:273,1,136.499995834351,2|8,1:2|1:3,0:0:0:0:
19,345,59343,1,2,0:0:0:0:
19,345,59583,2,0,P|86:356|175:368,1,136.499995834351,2|8,1:2|1:3,0:0:0:0:
227,316,60303,1,2,0:0:0:0:
227,316,60543,2,0,B|262:305|291:308|291:308|319:337|355:348,1,136.499995834351,2|8,1:2|1:3,0:0:0:0:
436,191,61503,2,0,P|447:154|460:118,1,68.2499979171754,2|10,1:2|0:3,0:0:0:0:
491,43,61983,1,10,1:3:0:0:
491,43,62223,1,10,0:3:0:0:
406,16,62463,6,0,P|353:64|270:64,1,136.499995834351,6|8,1:2|0:2,0:0:0:0:
205,46,63183,1,2,0:0:0:0:
205,46,63423,2,0,P|139:53|45:60,1,136.499995834351,2|10,1:2|0:0,0:0:0:0:
42,143,64143,1,2,1:2:0:0:
42,143,64383,2,0,P|55:191|72:239,1,68.2499979171754,2|2,1:2|0:0,0:0:0:0:
145,236,64863,2,0,P|193:223|241:206,1,68.2499979171754,10|2,0:0|1:2,0:0:0:0:
284,266,65343,2,0,B|309:285|348:294|348:294|381:278|430:273,1,136.499995834351,2|10,1:2|0:0,0:0:0:0:
509,129,66303,6,0,P|440:125|372:120,1,136.499995834351,2|8,1:2|0:0,0:0:0:0:
296,74,67023,1,2,1:2:0:0:
296,74,67263,2,0,P|232:49|154:84,1,136.499995834351,2|8,1:2|0:0,0:0:0:0:
117,141,67983,1,6,0:3:0:0:
117,141,68223,2,0,P|72:130|7:122,2,68.2499979171754,2|2|10,1:2|0:0|0:0,0:0:0:0:
191,302,69183,2,0,P|224:295|257:287,1,68.2499979171754,2|10,1:2|1:3,0:0:0:0:
339,321,69663,2,0,P|372:329|405:335,1,68.2499979171754,14|6,0:0|0:3,0:0:0:0:
470,274,70143,6,0,P|485:207|454:136,1,136.499995834351,6|10,1:2|0:0,0:0:0:0:
385,100,70863,1,2,1:2:0:0:
385,100,71103,2,0,P|268:111|226:116,1,136.499995834351,2|10,0:0|0:0,0:0:0:0:
186,50,71823,1,6,0:3:0:0:
186,50,72063,2,0,P|151:47|118:43,1,68.2499979171754,2|2,1:2|0:0,0:0:0:0:
55,106,72543,2,0,P|52:140|48:173,1,68.2499979171754,10|2,0:0|1:2,0:0:0:0:
111,236,73023,2,0,P|116:304|123:371,1,136.499995834351,2|8,0:0|0:0,0:0:0:0:
294,321,73983,6,0,P|349:279|425:282,1,136.499995834351,2|8,1:2|0:0,0:0:0:0:
462,203,74703,1,2,1:2:0:0:
462,203,74943,2,0,P|454:126|446:58,1,136.499995834351,2|8,1:2|0:0,0:0:0:0:
364,34,75663,1,14,0:3:0:0:
364,34,75903,2,0,B|274:26|318:58|226:53,1,136.499995834351,2|12,1:2|0:0,0:0:0:0:
92,163,76863,2,0,P|63:157|0:150,2,68.2499979171754,0|8|14,1:0|0:3|1:3,0:0:0:0:
151,229,77583,1,8,1:3:0:0:
151,229,77823,6,0,P|211:189|291:188,1,130,6|8,1:2|1:3,0:0:0:0:
347,208,78543,1,0,0:0:0:0:
347,208,78783,2,0,P|351:239|356:277,2,65,2|2|8,1:2|0:0|1:3,0:0:0:0:
299,45,79743,2,0,B|276:24|237:22|237:22|214:45|173:52,1,130,2|8,1:2|1:3,0:0:0:0:
116,103,80463,1,0,0:0:0:0:
116,103,80703,2,0,P|131:166|145:251,1,130,2|8,1:2|1:3,0:0:0:0:
288,315,81663,6,0,P|343:300|365:225,1,130,2|8,1:2|1:3,0:0:0:0:
411,164,82383,1,2,0:0:0:0:
411,164,82623,2,0,P|441:175|475:189,2,65,2|2|8,1:2|0:0|1:3,0:0:0:0:
316,23,83583,2,0,B|227:7|271:41|180:28,1,130,2|14,1:2|1:2,0:0:0:0:
133,93,84303,1,0,0:0:0:0:
133,93,84543,2,0,P|149:131|155:170,1,65,10|2,1:3|0:0,0:0:0:0:
225,198,85023,1,8,1:3:0:0:
388,154,85503,6,0,B|409:109|409:109|394:60,2,97.5,6|6|6,1:3|1:3|1:3,0:0:0:0:
455,261,86583,1,6,1:3:0:0:
364,350,86943,1,6,1:3:0:0:
