osu file format v14

[General]
AudioFilename: audio.mp3
AudioLeadIn: 0
PreviewTime: 46023
Countdown: 0
SampleSet: Soft
StackLeniency: 0.4
Mode: 0
LetterboxInBreaks: 0
WidescreenStoryboard: 1

[Editor]
DistanceSpacing: 1.2
BeatDivisor: 4
GridSize: 4
TimelineZoom: 2.2

[Metadata]
Title:Memento (TV Size)
TitleUnicode:Memento (TV Size)
Artist:nonoc
ArtistUnicode:nonoc
Creator:fieryrage
Version:flask's hard
Source:Re:ゼロから始める異世界生活
Tags:re:zero kara hajimeru isekai seikatsu rezero starting life in another world different from zero season two anime ending ed japanese pop rock flask wanpachi cycopton hooni eiri- ayyri trynna
BeatmapID:2550117
BeatmapSetID:1226315

[Difficulty]
HPDrainRate:4.5
CircleSize:3.5
OverallDifficulty:6
ApproachRate:7.5
SliderMultiplier:1.6
SliderTickRate:1

[Events]
//Background and Video events
Video,-131,"wheres rem lol.mp4"
0,0,"literally just emilia.jpg",0,0
//Break Periods
//Storyboard Layer 0 (Background)
//Storyboard Layer 1 (Fail)
//Storyboard Layer 2 (Pass)
//Storyboard Layer 3 (Foreground)
//Storyboard Layer 4 (Overlay)
//Storyboard Sound Samples

[TimingPoints]
63,480,4,2,1,50,1,0
63,-133.333333333333,4,2,1,50,0,0
1023,480,4,2,1,55,1,0
1023,-133.333333333333,4,2,1,55,0,0
4863,-133.333333333333,4,2,1,60,0,0
7743,-133.333333333333,4,2,1,65,0,0
8703,-100,4,2,1,70,0,0
15183,-100,4,2,1,60,0,0
15423,-100,4,2,1,70,0,0
15663,-100,4,2,1,55,0,0
15783,-100,4,2,1,45,0,0
15903,-100,4,2,1,70,0,0
16143,-100,4,2,1,60,0,0
16383,-100,4,2,1,70,0,0
16623,-100,4,2,1,65,0,0
18303,-100,4,2,1,60,0,0
31263,-100,4,2,1,65,0,0
31743,-133.333333333333,4,2,1,60,0,0
31983,-133.333333333333,4,2,1,50,0,0
39423,-100,4,2,1,55,0,0
44223,-100,4,2,1,60,0,0
44943,-100,4,2,1,65,0,0
45183,-100,4,2,1,60,0,0
45663,-100,4,2,1,40,0,0
45783,-100,4,2,2,5,0,0
46143,-100,4,2,1,55,0,0
46263,-100,4,2,2,5,0,0
46623,-100,4,2,1,65,0,0
47103,-83.3333333333333,4,2,1,75,0,1
62343,-83.3333333333333,4,2,1,75,0,0
62463,-83.3333333333333,4,2,1,75,0,1
77343,-83.3333333333333,4,2,1,80,0,1
77823,-100,4,2,1,75,0,0
85503,-100,4,2,1,85,0,0

[Colours]
Combo1 : 187,151,202
Combo2 : 159,159,159
Combo3 : 193,167,128
Combo4 : 78,78,78

[HitObjects]
73,52,63,6,0,L|57:127,1,60.0000022888184,2|2,0:0|0:0,0:0:0:0:
69,188,543,2,0,P|108:199|148:186,1,60.0000022888184,2|2,0:0|0:0,0:0:0:0:
194,156,1023,1,2,0:0:0:0:
251,301,1503,2,0,L|238:372,2,60.0000022888184,2|2|2,0:0|0:0|0:0,0:0:0:0:
399,253,2463,5,2,0:0:0:0:
336,206,2703,1,2,0:0:0:0:
372,137,2943,2,0,L|370:63,1,60.0000022888184,2|2,0:0|0:0,0:0:0:0:
308,29,3423,1,2,0:0:0:0:
233,51,3663,1,2,0:0:0:0:
159,76,3903,1,2,0:0:0:0:
159,76,4383,6,0,L|152:153,1,60.0000022888184,2|0,0:0|0:0,0:0:0:0:
163,213,4863,2,0,P|226:226|292:193,1,120.000004577637,2|0,0:0|0:0,0:0:0:0:
322,143,5583,1,2,0:0:0:0:
396,165,5823,2,0,P|426:229|419:294,1,120.000004577637,2|0,0:0|0:0,0:0:0:0:
370,332,6543,2,0,L|297:325,2,60.0000022888184,2|2|2,0:0|0:0|0:0,0:0:0:0:
434,375,7263,1,2,0:0:0:0:
301,220,7743,6,0,B|183:213|239:280|119:273,1,180.000006866455,2|0,0:0|0:0,0:0:0:0:
61,204,8703,6,0,L|50:124,1,80,6|0,1:2|0:0,0:0:0:0:
48,84,9063,1,0,0:0:0:0:
60,46,9183,2,0,P|96:25|155:37,1,80,8|0,1:3|0:0,0:0:0:0:
199,117,9663,1,2,1:2:0:0:
235,132,9783,1,0,0:0:0:0:
271,114,9903,2,0,L|324:109,1,40,2|2,0:0|0:0,0:0:0:0:
380,66,10143,2,0,L|395:147,1,80,8|0,1:3|0:0,0:0:0:0:
441,227,10623,6,0,P|417:253|370:255,1,80,2|0,1:2|0:0,0:0:0:0:
337,240,10983,1,0,0:0:0:0:
305,214,11103,2,0,L|208:205,1,80,8|0,1:3|0:0,0:0:0:0:
137,276,11583,1,2,1:0:0:0:
114,308,11703,1,0,0:0:0:0:
74,316,11823,2,0,L|54:278,1,40,2|2,0:0|0:0,0:0:0:0:
12,218,12063,2,0,L|25:126,1,80,8|0,1:3|0:0,0:0:0:0:
131,110,12543,6,0,B|211:113|155:151|262:145,1,120,2|2,1:2|0:0,0:0:0:0:
236,185,13023,2,0,L|326:173,1,80,8|2,1:3|0:0,0:0:0:0:
394,254,13503,1,2,1:2:0:0:
433,258,13623,1,0,0:0:0:0:
472,260,13743,2,0,L|525:265,2,40,2|2|8,0:0|0:0|1:3,0:0:0:0:
433,165,14223,1,0,0:0:0:0:
433,165,14343,1,0,0:0:0:0:
433,165,14463,6,0,P|451:113|409:62,1,120,2|2,1:2|0:0,0:0:0:0:
383,56,14943,1,8,1:3:0:0:
280,109,15183,2,0,L|231:101,1,40,10|8,0:3|0:3,0:0:0:0:
192,38,15423,5,0,1:0:0:0:
168,70,15543,1,8,0:3:0:0:
161,109,15663,1,8,0:3:0:0:
174,146,15783,1,8,0:3:0:0:
206,169,15903,2,0,L|177:302,1,120,0|0,1:0|0:0,0:0:0:0:
144,354,16383,6,0,B|98:324|107:270|107:270|64:287|37:270,1,160,6|2,1:2|0:0,0:0:0:0:
74,182,17103,2,0,L|101:20,1,160,10|0,0:0|1:0,0:0:0:0:
189,72,17823,1,10,0:0:0:0:
189,72,17943,2,0,P|234:79|276:67,1,80,0|0,1:0|0:0,0:0:0:0:
304,41,18303,6,0,L|272:208,1,160,2|4,1:2|0:3,0:0:0:0:
336,260,19023,1,8,0:0:0:0:
416,220,19263,2,0,L|462:224,2,40,0|4|4,0:0|0:3|1:3,0:0:0:0:
312,355,19743,1,8,0:0:0:0:
312,355,19863,1,0,1:0:0:0:
312,355,19983,1,0,1:0:0:0:
179,272,20223,6,0,L|164:112,1,160,0|6,1:0|0:3,0:0:0:0:
76,80,20943,1,10,0:0:0:0:
28,160,21183,2,0,L|-20:172,2,40,2|4|2,0:0|0:3|1:2,0:0:0:0:
40,264,21663,1,10,0:0:0:0:
40,264,21783,1,0,1:0:0:0:
40,264,21903,5,2,0:0:0:0:
112,328,22143,6,0,L|241:318,1,120,2|0,1:2|1:0,0:0:0:0:
259,334,22623,2,0,P|275:293|270:252,1,80,2|8,0:0|0:0,0:0:0:0:
196,200,23103,2,0,L|156:193,2,40,2|4|0,0:0|0:3|1:3,0:0:0:0:
316,104,23583,2,0,L|356:96,3,40,10|0|0|0,0:0|1:0|0:0|0:0,0:0:0:0:
386,90,24063,6,0,B|425:119|425:119|400:236,1,160,6|2,1:2|0:0,0:0:0:0:
322,273,24783,1,10,0:0:0:0:
373,354,25023,2,0,L|414:363,2,40,2|0|0,0:0|0:0|1:0,0:0:0:0:
322,273,25503,1,10,0:0:0:0:
322,273,25623,2,0,P|280:274|252:300,1,80,0|0,1:0|0:0,0:0:0:0:
232,341,25983,6,0,L|198:215,2,120,2|0|8,1:2|1:0|0:0,0:0:0:0:
136,328,26943,2,0,L|84:320,2,40,0|0|0,0:0|0:0|1:0,0:0:0:0:
116,240,27423,1,8,0:0:0:0:
116,240,27543,2,0,P|127:195|113:156,1,80,0|2,1:0|0:0,0:0:0:0:
72,156,27903,6,0,B|132:120|80:104|156:60,1,120,2|4,1:2|0:3,0:0:0:0:
192,60,28383,1,4,0:3:0:0:
225,151,28623,1,10,0:0:0:0:
216,181,28743,1,2,0:0:0:0:
205,211,28863,2,0,P|212:256|236:288,1,80,2|0,0:0|1:0,0:0:0:0:
300,216,29343,1,8,0:0:0:0:
330,228,29463,2,0,L|412:212,1,80,0|0,1:0|0:0,0:0:0:0:
445,243,29823,6,0,B|449:162|418:191|434:117,2,120,2|0|8,1:2|1:0|0:0,0:0:0:0:
368,296,30783,1,8,0:3:0:0:
368,296,30903,2,0,L|278:305,1,80,8|8,0:3|0:3,0:0:0:0:
258,317,31263,2,0,L|243:365,1,40,8|4,1:3|0:3,0:0:0:0:
166,345,31503,2,0,L|151:393,1,40,8|4,0:3|0:3,0:0:0:0:
98,295,31743,5,2,0:0:0:0:
44,230,32223,2,0,P|15:179|28:122,2,120.000004577637,2|2|0,0:0|0:0|0:0,0:0:0:0:
92,166,33423,1,2,0:0:0:0:
147,220,33663,2,0,L|215:212,1,60.0000022888184,2|2,0:0|0:0,0:0:0:0:
266,263,34143,2,0,P|284:229|284:197,1,60.0000022888184,2|2,0:0|0:0,0:0:0:0:
245,140,34623,2,0,P|252:80|320:60,1,120.000004577637,2|0,0:0|0:0,0:0:0:0:
353,114,35343,1,0,0:0:0:0:
431,125,35583,5,2,0:0:0:0:
431,125,36063,2,0,P|412:177|445:240,2,120.000004577637,2|2|0,0:0|0:0|0:0,0:0:0:0:
489,176,37263,1,2,0:0:0:0:
475,252,37503,6,0,B|410:226|306:248|401:329|257:354|205:311,1,300.000011444092,2|0,0:0|0:0,0:0:0:0:
134,341,38943,2,0,P|129:308|144:267,1,60.0000022888184,4|0,0:3|0:0,0:0:0:0:
198,236,39423,6,0,P|210:185|203:118,1,120,6|0,0:3|1:0,0:0:0:0:
185,91,39903,2,0,P|148:102|106:94,1,80,2|0,0:0|0:0,0:0:0:0:
30,150,40383,1,2,0:0:0:0:
24,253,40623,2,0,P|57:277|101:277,1,80,0|0,1:0|0:0,0:0:0:0:
166,206,41103,1,2,1:2:0:0:
224,282,41343,6,0,L|307:272,2,80,2|2|2,1:2|0:0|0:0,0:0:0:0:
160,354,42063,1,2,0:0:0:0:
67,327,42303,1,2,0:0:0:0:
46,233,42543,2,0,L|4:248,2,40,0|0|0,1:0|0:0|0:0,0:0:0:0:
109,160,43023,1,2,1:2:0:0:
109,160,43143,1,2,0:0:0:0:
109,160,43263,6,0,B|168:153|168:153|192:166|192:166|270:155,1,160,2|0,1:2|0:0,0:0:0:0:
333,88,43983,1,2,0:0:0:0:
333,88,44103,1,2,0:0:0:0:
333,88,44223,2,0,P|361:148|322:234,1,160,2|0,0:0|0:0,0:0:0:0:
287,318,44943,1,2,1:0:0:0:
256,308,45063,1,2,0:0:0:0:
224,313,45183,5,6,0:3:0:0:
224,313,45663,6,0,P|200:284|228:312,1,120,0|0,0:0|0:0,0:0:0:0:
166,373,46143,6,0,P|132:333|128:261,1,120,2|0,0:0|0:0,0:0:0:0:
136,238,46623,1,2,0:0:0:0:
68,127,46863,1,2,0:0:0:0:
186,62,47103,6,0,B|277:60|225:103|334:102,1,143.999995605469,6|0,1:2|0:0,0:0:0:0:
358,97,47583,1,10,1:3:0:0:
304,199,47823,1,2,0:0:0:0:
389,275,48063,2,0,P|322:240|245:271,1,143.999995605469,2|0,1:2|0:0,0:0:0:0:
231,283,48543,1,10,1:3:0:0:
137,215,48783,1,2,0:0:0:0:
67,306,49023,6,0,P|27:263|22:222,1,95.9999970703126,2|2,1:2|0:0,0:0:0:0:
80,128,49503,2,0,P|97:71|130:47,1,95.9999970703126,10|2,1:3|0:0,0:0:0:0:
239,63,49983,2,0,L|220:230,1,143.999995605469,2|0,1:2|0:0,0:0:0:0:
214,243,50463,1,10,1:3:0:0:
283,334,50703,1,0,0:0:0:0:
283,334,50823,1,0,0:0:0:0:
283,334,50943,6,0,L|382:327,1,95.9999970703126,2|0,1:2|0:0,0:0:0:0:
412,346,51303,1,0,0:0:0:0:
447,360,51423,2,0,P|466:315|456:261,1,95.9999970703126,8|2,1:3|0:0,0:0:0:0:
425,159,51903,1,2,1:2:0:0:
324,215,52143,2,0,L|334:271,2,47.9999985351563,0|0|8,0:0|0:0|1:3,0:0:0:0:
222,160,52623,2,0,L|230:113,1,47.9999985351563,2|0,0:0|0:0,0:0:0:0:
239,73,52863,5,2,1:2:0:0:
397,37,53103,1,2,0:0:0:0:
347,192,53343,2,0,L|329:95,1,95.9999970703126,10|0,1:3|0:0,0:0:0:0:
329,97,53703,1,0,0:0:0:0:
329,97,53823,5,2,1:2:0:0:
450,175,54063,1,2,0:0:0:0:
413,313,54303,1,10,1:3:0:0:
270,321,54543,1,2,0:0:0:0:
218,187,54783,6,0,P|170:176|90:232,1,143.999995605469,6|0,1:2|0:0,0:0:0:0:
74,257,55263,1,10,1:3:0:0:
168,323,55503,1,2,0:0:0:0:
61,366,55743,2,0,L|36:210,1,143.999995605469,2|0,1:2|0:0,0:0:0:0:
33,185,56223,1,10,1:3:0:0:
92,86,56463,1,2,0:0:0:0:
189,147,56703,6,0,P|238:142|268:101,1,95.9999970703126,2|2,1:2|0:0,0:0:0:0:
169,46,57183,2,0,P|120:51|90:92,1,95.9999970703126,10|2,1:3|0:0,0:0:0:0:
87,126,57543,1,0,0:0:0:0:
87,126,57663,2,0,B|84:220|112:183|116:266,1,143.999995605469,2|0,1:2|0:0,0:0:0:0:
106,302,58143,1,8,1:3:0:0:
208,354,58383,1,2,0:0:0:0:
208,354,58503,1,0,0:0:0:0:
208,354,58623,6,0,B|248:329|299:350|299:350|290:294|331:255,1,191.999994140625,2|8,1:2|1:3,0:0:0:0:
439,278,59343,1,2,0:0:0:0:
439,278,59463,1,0,0:0:0:0:
439,278,59583,2,0,P|415:188|328:151,1,191.999994140625,2|8,1:2|1:3,0:0:0:0:
257,61,60303,1,2,0:0:0:0:
212,204,60543,6,0,L|107:184,1,95.9999970703126,2|0,1:2|0:0,0:0:0:0:
80,296,61023,1,8,1:3:0:0:
184,368,61263,1,8,0:3:0:0:
184,368,61383,1,8,0:3:0:0:
184,368,61503,2,0,L|247:359,1,47.9999985351563,2|8,1:2|0:3,0:0:0:0:
309,337,61743,5,10,0:3:0:0:
388,226,61983,1,10,1:3:0:0:
486,320,62223,1,10,0:3:0:0:
472,355,62343,1,8,0:3:0:0:
434,362,62463,6,0,B|336:358|390:313|273:304,1,143.999995605469,6|0,1:2|0:0,0:0:0:0:
266,307,62943,1,8,0:2:0:0:
261,191,63183,1,2,0:0:0:0:
155,236,63423,6,0,P|132:185|132:91,1,143.999995605469,2|0,1:2|1:0,0:0:0:0:
143,61,63903,1,10,0:0:0:0:
249,104,64143,1,2,1:2:0:0:
249,104,64263,1,0,0:0:0:0:
249,104,64383,6,0,B|297:95|297:95|347:114,1,95.9999970703126,2|2,1:2|0:0,0:0:0:0:
348,226,64863,2,0,B|401:235|401:235|446:216,1,95.9999970703126,10|2,0:0|1:2,0:0:0:0:
474,108,65343,2,0,L|492:61,2,47.9999985351563,2|8|0,1:2|0:0|1:0,0:0:0:0:
365,67,65823,2,0,L|265:46,1,95.9999970703126,10|4,0:0|0:3,0:0:0:0:
233,38,66183,1,0,0:0:0:0:
200,58,66303,6,0,P|179:97|190:156,1,95.9999970703126,2|0,1:2|0:0,0:0:0:0:
205,179,66663,1,0,1:0:0:0:
239,195,66783,1,8,0:0:0:0:
168,286,67023,1,2,1:2:0:0:
261,353,67263,1,2,1:2:0:0:
298,360,67383,1,8,0:0:0:0:
337,359,67503,2,0,P|360:346|375:326,2,47.9999985351563,0|0|8,0:0|1:0|0:0,0:0:0:0:
308,246,67983,1,6,0:3:0:0:
308,246,68103,1,0,0:0:0:0:
308,246,68223,5,2,1:2:0:0:
163,321,68463,1,2,0:0:0:0:
71,186,68703,2,0,L|99:37,1,143.999995605469,10|8,0:0|0:0,0:0:0:0:
106,7,69183,5,2,1:2:0:0:
228,73,69423,1,10,1:3:0:0:
228,73,69543,1,0,1:0:0:0:
228,73,69663,1,14,0:0:0:0:
167,191,69903,2,0,L|183:255,1,47.9999985351563,6|0,0:3|0:0,0:0:0:0:
163,273,70143,6,0,P|213:286|298:240,1,143.999995605469,6|0,1:2|1:0,0:0:0:0:
320,220,70623,1,10,0:0:0:0:
399,306,70863,1,2,1:2:0:0:
467,213,71103,2,0,L|515:236,2,47.9999985351563,2|8|0,0:0|0:0|1:0,0:0:0:0:
410,111,71583,2,0,L|301:121,1,95.9999970703126,10|6,0:0|0:3,0:0:0:0:
285,145,71943,1,0,0:0:0:0:
246,148,72063,6,0,P|215:111|218:60,1,95.9999970703126,2|2,1:2|0:0,0:0:0:0:
318,12,72543,1,10,0:0:0:0:
395,96,72783,1,2,1:2:0:0:
342,198,73023,1,2,0:0:0:0:
342,198,73143,1,8,0:0:0:0:
342,198,73263,2,0,L|359:249,1,47.9999985351563,0|0,1:0|1:0,0:0:0:0:
396,285,73503,2,0,P|348:329|269:327,1,143.999995605469,8|0,0:0|0:0,0:0:0:0:
218,348,73983,6,0,L|232:250,1,95.9999970703126,2|0,1:2|0:0,0:0:0:0:
231,252,74343,1,0,1:0:0:0:
231,252,74463,1,8,0:0:0:0:
157,164,74703,1,2,1:2:0:0:
151,125,74823,1,2,0:0:0:0:
122,99,74943,2,0,L|73:93,2,47.9999985351563,2|8|0,1:2|0:0|0:0,0:0:0:0:
237,95,75423,2,0,P|281:89|313:44,1,95.9999970703126,8|14,0:0|0:3,0:0:0:0:
424,16,75903,5,2,1:2:0:0:
424,16,76023,2,0,P|456:56|455:115,1,95.9999970703126,8|0,0:0|1:0,0:0:0:0:
444,136,76383,1,12,0:0:0:0:
504,236,76623,2,0,P|500:260|484:280,1,47.9999985351563,8|8,0:0|0:0,0:0:0:0:
408,288,76863,1,0,1:0:0:0:
370,281,76983,1,8,0:3:0:0:
333,291,77103,1,8,0:3:0:0:
315,325,77223,1,8,0:3:0:0:
319,363,77343,2,0,L|261:356,3,47.9999985351563,14|0|8|0,1:3|1:0|1:3|1:0,0:0:0:0:
224,364,77823,6,0,P|172:338|153:276,1,120,6|0,1:2|0:0,0:0:0:0:
184,244,78303,2,0,L|197:195,2,40,8|0|0,1:3|0:0|0:0,0:0:0:0:
100,200,78783,1,2,1:2:0:0:
98,168,78903,1,0,0:0:0:0:
73,146,79023,2,0,L|66:97,1,40,2|2,0:0|0:0,0:0:0:0:
84,61,79263,2,0,L|77:12,2,40,8|0|0,1:3|0:0|0:0,0:0:0:0:
172,100,79743,6,0,B|225:93|225:93|248:106|248:106|305:96,1,120,2|0,1:2|0:0,0:0:0:0:
318,111,80223,2,0,B|330:69|330:69|312:20,1,80,8|0,1:3|0:0,0:0:0:0:
265,184,80703,1,2,1:2:0:0:
257,215,80823,1,0,0:0:0:0:
264,246,80943,2,0,P|279:269|296:277,1,40,2|2,0:0|0:0,0:0:0:0:
337,268,81183,2,0,L|394:261,3,40,8|0|0|0,1:3|0:0|0:0|0:0,0:0:0:0:
415,291,81663,6,0,L|428:206,1,80,2|0,1:2|0:0,0:0:0:0:
452,192,82023,1,2,0:0:0:0:
471,166,82143,2,0,P|476:121|454:86,1,80,8|2,1:3|0:0,0:0:0:0:
375,45,82623,1,2,1:2:0:0:
348,63,82743,1,0,0:0:0:0:
316,70,82863,2,0,P|291:64|270:44,1,40,2|2,0:0|0:0,0:0:0:0:
204,32,83103,2,0,L|102:51,1,80,8|0,1:3|0:0,0:0:0:0:
103,138,83583,6,0,B|128:181|128:181|109:259,1,120,2|0,1:2|0:0,0:0:0:0:
89,292,84063,2,0,B|154:288|154:288|212:331,1,120,14|0,1:2|0:0,0:0:0:0:
242,342,84543,1,10,1:3:0:0:
273,338,84663,1,0,0:0:0:0:
304,333,84783,1,2,0:0:0:0:
335,329,84903,1,0,0:0:0:0:
366,322,85023,2,0,P|395:289|398:240,1,80,8|0,1:3|0:0,0:0:0:0:
380,160,85503,5,6,1:3:0:0:
262,242,85863,1,6,1:3:0:0:
147,155,86223,1,6,1:3:0:0:
194,19,86583,1,6,1:3:0:0:
338,22,86943,1,6,1:3:0:0:
