osu file format v14

[General]
AudioFilename: audio.mp3
AudioLeadIn: 0
PreviewTime: 46134
Countdown: 0
SampleSet: Soft
StackLeniency: 0.7
Mode: 2
LetterboxInBreaks: 0
WidescreenStoryboard: 1

[Editor]
DistanceSpacing: 0.4
BeatDivisor: 4
GridSize: 8
TimelineZoom: 1.7

[Metadata]
Title:Memento (TV Size)
TitleUnicode:Memento (TV Size)
Artist:nonoc
ArtistUnicode:nonoc
Creator:Verti
Version:Salad
Source:Re:ゼロから始める異世界生活
Tags:re:zero rezero kara hajimeru isekai seikatsu starting life in another world different from re zero season 2 two ending ed japanese anime jpop pop rock j-pop j-rock jrock rem emilia subaru sylas
BeatmapID:2924464
BeatmapSetID:1417543

[Difficulty]
HPDrainRate:3
CircleSize:3
OverallDifficulty:7
ApproachRate:7
SliderMultiplier:1.8
SliderTickRate:1

[Events]
//Background and Video events
0,0,"i love emilia.jpg",0,0
//Break Periods
//Storyboard Layer 0 (Background)
//Storyboard Layer 1 (Fail)
//Storyboard Layer 2 (Pass)
//Storyboard Layer 3 (Foreground)
//Storyboard Layer 4 (Overlay)
//Storyboard Sound Samples

[TimingPoints]
46,480,4,2,1,40,1,0
1014,480,4,2,1,40,1,0
8688,480,4,2,1,60,1,0
16366,480,4,2,1,50,1,0
29810,480,4,2,1,50,1,0
31742,480,4,2,1,50,1,0
35574,480,4,2,1,50,1,0
39420,-100,4,2,1,40,0,0
43974,-100,4,2,1,45,0,0
46134,-100,4,2,1,50,0,0
47082,480,4,2,1,70,1,1
54764,480,4,2,1,70,1,1
60518,480,4,2,1,70,1,1
62444,480,4,2,1,70,1,1
70134,480,4,2,1,70,1,1
73964,480,4,2,1,70,1,1
77810,480,4,2,1,60,1,0
81646,480,4,2,1,60,1,0
83562,480,4,2,1,60,1,0
85490,480,4,2,1,60,1,0
86190,480,4,2,1,60,1,0

[Colours]
Combo1 : 100,200,250
Combo2 : 30,100,175
Combo3 : 200,210,230
Combo4 : 90,30,240

[HitObjects]
240,304,46,6,0,L|240:200,1,90,2|2,0:2|0:2,0:0:0:0:
120,192,526,2,0,L|120:80,1,90,2|2,0:2|0:2,0:0:0:0:
320,192,1014,6,0,P|384:128|320:80,1,180,6|2,0:2|0:2,0:0:0:0:
240,88,1734,1,2,0:2:0:0:
128,192,1974,1,2,0:2:0:0:
128,192,2454,1,2,0:2:0:0:
224,64,2694,1,2,0:2:0:0:
448,184,2934,6,0,L|448:88,1,90,2|2,0:2|0:2,0:0:0:0:
328,64,3414,2,0,L|432:64,1,90,2|2,0:2|0:2,0:0:0:0:
320,184,3894,1,2,0:2:0:0:
208,184,4374,1,2,0:2:0:0:
392,128,4854,6,0,P|456:184|384:248,1,180,2|0,0:2|0:2,0:0:0:0:
307,136,5574,1,2,0:2:0:0:
208,129,5814,2,0,P|288:89|384:129,1,180,2|0,0:2|0:2,0:0:0:0:
265,185,6534,1,2,0:2:0:0:
160,192,6774,6,0,L|160:64,1,90,2|2,0:2|0:2,0:0:0:0:
265,185,7254,2,0,L|369:185,1,90,2|0,0:2|0:2,0:0:0:0:
136,312,7734,2,0,P|64:240|136:184,1,180,2|0,0:2|0:0,0:0:0:0:
416,208,8688,6,0,P|480:144|416:88,1,180,6|10,1:2|0:2,0:0:0:0:
312,88,9408,1,0,1:2:0:0:
192,80,9648,2,0,L|80:80,2,90,2|2|10,1:2|0:2|0:2,0:0:0:0:
296,80,10368,1,2,0:2:0:0:
88,304,10608,6,0,P|48:216|104:136,1,180,2|10,1:2|0:2,0:0:0:0:
200,168,11328,1,0,0:0:0:0:
312,168,11568,2,0,L|408:168,2,90,2|2|10,1:2|0:2|0:2,0:0:0:0:
128,192,12528,6,0,L|16:80,2,135,2|2|2,1:2|0:2|0:2,0:0:0:0:
256,192,13488,2,0,L|360:192,2,90,2|2|10,1:2|0:2|0:2,0:0:0:0:
176,72,14208,1,0,0:0:0:0:
392,184,14448,6,0,P|456:120|392:72,1,180,2|8,1:2|1:2,0:0:0:0:
296,56,15168,1,2,1:2:0:0:
184,64,15408,2,0,L|88:64,2,90,2|2|10,1:2|1:2|0:2,0:0:0:0:
274,64,16128,1,0,1:2:0:0:
64,303,16366,6,0,P|64:199|160:191,1,180,4|0,0:0|0:0,0:0:0:0:
224,128,17086,1,8,0:2:0:0:
104,192,17566,2,0,L|216:192,2,90,0|8|0,1:2|0:2|0:0,0:0:0:0:
320,184,18286,6,0,P|384:128|320:80,1,180,0|0,0:0|0:0,0:0:0:0:
224,168,19006,1,8,0:0:0:0:
256,96,19486,2,0,L|360:96,2,90,0|8|0,1:2|0:2|0:0,0:0:0:0:
40,320,20206,6,0,P|40:216|128:208,1,180,0|0,1:2|0:2,0:0:0:0:
200,192,20926,1,8,0:2:0:0:
200,136,21406,2,0,L|104:136,2,90,0|8|0,1:2|0:2|0:0,0:0:0:0:
416,312,22126,6,0,L|416:200,1,90,0|0,1:2|0:0,0:0:0:0:
304,184,22606,2,0,L|304:80,1,90,0|8,1:2|0:2,0:0:0:0:
416,312,23086,2,0,L|312:312,1,90,0|0,0:2|1:2,0:0:0:0:
216,304,23566,2,0,L|216:208,1,90,8|0,0:2|0:0,0:0:0:0:
432,216,24046,6,0,P|432:128|336:120,1,180,4|0,0:0|0:0,0:0:0:0:
248,168,24766,1,8,0:0:0:0:
272,96,25246,2,0,L|376:96,2,90,0|8|0,1:2|0:2|0:0,0:0:0:0:
56,320,25966,6,0,P|56:216|104:200,1,135,0|0,1:2|1:0,0:0:0:0:
216,184,26686,1,8,0:2:0:0:
200,128,27166,2,0,L|96:128,2,90,0|8|0,1:2|0:2|0:0,0:0:0:0:
416,312,27886,6,0,P|480:248|416:192,1,180,0|0,1:2|0:2,0:0:0:0:
320,192,28606,1,8,0:2:0:0:
208,184,28846,2,0,P|136:120|208:64,1,180,0|8,0:0|0:2,0:0:0:0:
288,184,29566,1,0,0:0:0:0:
504,184,29810,6,0,P|496:96|424:96,1,135,2|0,1:2|1:0,0:0:0:0:
312,112,30530,1,8,0:2:0:0:
208,184,30770,2,0,P|144:184|144:64,1,180,0|10,1:2|0:2,0:0:0:0:
208,88,31490,1,2,1:2:0:0:
424,192,31742,5,6,0:2:0:0:
280,192,32222,2,0,L|432:32,2,180,2|2|0,0:0|0:0|0:0,0:0:0:0:
368,200,33422,1,2,0:0:0:0:
448,184,33662,6,0,L|448:80,1,90,2|2,0:0|0:0,0:0:0:0:
336,192,34142,2,0,L|440:192,1,90,2|2,0:0|0:0,0:0:0:0:
320,128,34622,1,2,0:0:0:0:
216,128,34862,2,0,L|120:128,2,90,0|0|0,0:0|0:0|0:0,0:0:0:0:
408,192,35574,5,6,0:0:0:0:
256,184,36054,2,0,P|192:128|256:80,1,180,2|2,0:0|0:0,0:0:0:0:
184,184,37254,1,2,0:0:0:0:
296,192,37494,6,0,P|128:224|104:128,1,270,2|0,0:0|0:0,0:0:0:0:
200,192,38454,2,0,P|264:136|200:88,1,180,2|0,0:0|0:0,0:0:0:0:
96,88,39174,1,0,0:0:0:0:
312,192,39414,6,0,P|368:120|312:72,1,180,2|2,0:2|0:2,0:0:0:0:
216,80,40134,1,0,0:0:0:0:
112,80,40374,1,2,0:0:0:0:
208,72,41094,1,2,0:2:0:0:
320,184,41334,6,0,L|320:88,1,90,2|2,0:2|0:2,0:0:0:0:
208,72,41814,2,0,L|208:168,1,90,2|2,0:2|0:2,0:0:0:0:
320,184,42294,2,0,P|224:184|216:96,1,180,2|0,0:2|0:0,0:0:0:0:
312,88,43014,1,2,0:2:0:0:
432,88,43254,6,0,P|424:184|320:192,1,180,2|0,0:2|0:2,0:0:0:0:
240,80,43974,1,2,0:2:0:0:
128,80,44214,2,0,P|64:144|128:200,1,180,2|0,0:2|0:0,0:0:0:0:
216,80,44934,1,2,0:2:0:0:
432,176,45174,6,0,P|360:240|312:184,1,180,2|0,0:2|0:0,0:0:0:0:
144,288,46134,6,0,L|144:192,1,90,2|0,0:2|0:0,0:0:0:0:
272,104,46614,2,0,L|168:104,1,90,2|2,0:2|0:2,0:0:0:0:
384,208,47082,6,0,P|448:144|384:88,1,180,6|10,1:2|0:2,0:0:0:0:
296,96,47802,2,0,L|176:96,2,90,2|2|0,0:2|1:2|0:2,0:0:0:0:
176,176,48522,2,0,L|171:63,1,90,10|2,0:2|0:2,0:0:0:0:
384,184,49002,6,0,L|384:80,1,90,2|2,1:2|0:2,0:0:0:0:
280,56,49482,2,0,L|384:56,1,90,10|2,0:2|0:2,0:0:0:0:
248,160,49962,1,2,1:2:0:0:
366,175,50442,2,0,L|254:175,1,90,10|0,0:2|0:2,0:0:0:0:
64,200,50922,6,0,P|64:88|144:80,1,180,2|8,1:2|0:2,0:0:0:0:
208,192,51642,1,2,0:2:0:0:
320,192,51882,2,0,P|392:136|320:80,1,180,2|8,1:2|0:2,0:0:0:0:
256,144,52602,1,2,0:2:0:0:
160,144,52842,6,0,L|160:40,1,90,2|2,1:2|0:2,0:0:0:0:
280,48,53322,1,10,0:2:0:0:
152,72,53802,2,0,L|248:72,1,90,2|2,1:2|0:2,0:0:0:0:
360,64,54282,2,0,L|360:160,1,90,10|2,0:2|0:2,0:0:0:0:
144,184,54764,6,0,P|80:112|144:64,1,180,6|10,1:2|0:2,0:0:0:0:
232,64,55484,2,0,L|344:64,2,90,2|2|0,0:2|1:2|0:0,0:0:0:0:
360,184,56204,2,0,L|448:112,1,90,10|2,0:2|0:2,0:0:0:0:
216,280,56684,6,0,L|216:168,1,90,2|2,1:2|0:2,0:0:0:0:
328,112,57164,2,0,L|224:112,1,90,10|2,0:2|0:2,0:0:0:0:
120,112,57644,2,0,P|120:32|232:32,1,180,2|8,1:2|0:2,0:0:0:0:
304,24,58364,1,2,0:2:0:0:
88,312,58604,6,0,P|96:208|176:208,1,180,2|8,1:2|0:2,0:0:0:0:
256,200,59324,1,2,0:2:0:0:
360,192,59564,2,0,P|432:128|360:80,1,180,2|8,1:2|0:2,0:0:0:0:
288,56,60284,1,2,0:2:0:0:
184,48,60518,6,0,P|264:112|320:64,1,180,2|8,1:2|0:2,0:0:0:0:
208,176,61238,2,0,L|136:176,2,45,8|8|2,1:2|1:2|1:2,0:0:0:0:
312,184,61718,1,8,1:2:0:0:
192,176,61958,2,0,L|96:176,1,90,10|10,0:2|0:2,0:0:0:0:
320,184,62444,6,0,P|384:128|320:64,1,180,6|10,1:2|0:2,0:0:0:0:
232,72,63164,2,0,L|128:72,2,90,2|2|0,0:2|1:2|0:2,0:0:0:0:
352,192,63884,1,10,0:2:0:0:
168,200,64364,6,0,L|168:96,1,90,2|2,1:2|0:2,0:0:0:0:
280,80,64844,2,0,L|280:176,1,90,10|2,0:2|1:2,0:0:0:0:
168,200,65324,1,2,1:2:0:0:
344,80,65804,2,0,L|240:80,1,90,10|0,0:2|0:0,0:0:0:0:
456,192,66284,6,0,P|448:96|360:88,1,180,2|8,1:2|0:2,0:0:0:0:
288,192,67004,1,2,1:2:0:0:
176,192,67244,2,0,P|112:128|176:72,1,180,2|8,1:2|0:2,0:0:0:0:
264,72,67964,1,2,0:2:0:0:
48,72,68204,6,0,L|48:168,1,90,2|2,1:2|0:2,0:0:0:0:
152,72,68684,2,0,L|56:72,1,90,10|0,0:2|1:2,0:0:0:0:
184,192,69164,1,2,1:2:0:0:
304,200,69404,2,0,L|376:200,2,45,2|0|10,1:2|1:2|0:2,0:0:0:0:
184,192,69884,1,2,1:2:0:0:
408,192,70134,6,0,P|408:88|328:80,1,180,6|10,1:2|0:2,0:0:0:0:
240,80,70854,2,0,L|136:80,2,90,2|2|0,1:2|1:2|1:2,0:0:0:0:
120,184,71574,1,10,0:2:0:0:
264,160,72054,6,0,L|360:160,1,90,2|2,1:2|0:2,0:0:0:0:
240,104,72534,2,0,L|240:216,1,90,10|2,0:2|1:2,0:0:0:0:
330,104,73014,1,2,1:2:0:0:
232,104,73494,2,0,L|336:104,1,90,8|0,0:2|0:0,0:0:0:0:
120,192,73964,6,0,P|56:144|120:88,1,180,2|8,1:2|0:2,0:0:0:0:
208,80,74684,1,2,1:2:0:0:
312,88,74924,2,0,P|312:184|224:192,1,180,2|8,1:2|0:2,0:0:0:0:
328,96,75644,1,10,0:0:0:0:
424,96,75884,6,0,P|480:160|424:224,1,180,0|8,1:2|1:2,0:0:0:0:
320,96,76604,2,0,L|248:96,2,45,8|8|2,0:2|0:2|1:2,0:0:0:0:
432,96,77084,1,2,1:2:0:0:
327,96,77324,1,10,0:2:0:0:
371,97,77444,1,0,0:0:0:0:
416,96,77564,1,8,0:2:0:0:
208,184,77810,6,0,P|144:128|208:80,1,180,6|10,1:2|0:2,0:0:0:0:
288,88,78530,1,0,1:2:0:0:
376,112,78770,2,0,L|472:112,2,90,2|2|10,1:2|0:2|0:2,0:0:0:0:
272,176,79490,1,2,0:2:0:0:
64,304,79730,6,0,P|64:200|144:192,1,180,2|10,1:2|0:2,0:0:0:0:
232,184,80450,1,0,0:2:0:0:
112,160,80690,2,0,L|16:160,2,90,2|2|10,1:2|0:2|0:2,0:0:0:0:
208,192,81410,1,0,0:2:0:0:
400,192,81646,6,0,L|280:304,2,135,2|0|2,1:2|1:2|1:2,0:0:0:0:
192,144,82606,2,0,L|64:144,2,90,2|2|10,1:2|0:2|0:2,0:0:0:0:
272,184,83326,1,2,0:2:0:0:
72,192,83562,6,0,L|184:192,1,90,2|0,1:2|0:0,0:0:0:0:
256,64,84042,2,0,L|256:168,1,90,12|2,0:2|1:2,0:0:0:0:
152,146,84522,2,0,L|56:146,2,90,2|2|10,1:2|1:2|0:2,0:0:0:0:
264,144,85242,1,0,1:2:0:0:
48,192,85490,6,0,L|48:48,1,135,4|4,1:2|1:2,0:0:0:0:
200,48,86190,2,0,L|336:48,1,135,4|4,1:2|1:2,0:0:0:0:
48,192,86910,1,4,1:2:0:0:
