osu file format v14

[General]
AudioFilename: audio.mp3
AudioLeadIn: 0
PreviewTime: 46140
Countdown: 0
SampleSet: Soft
StackLeniency: 0.7
Mode: 0
LetterboxInBreaks: 0
WidescreenStoryboard: 1

[Editor]
Bookmarks: 31740,39420
DistanceSpacing: 1.2
BeatDivisor: 4
GridSize: 8
TimelineZoom: 0.6999999

[Metadata]
Title:Memento (TV Size)
TitleUnicode:Memento (TV Size)
Artist:nonoc
ArtistUnicode:nonoc
Creator:Sylas
Version:Hard
Source:Re:ゼロから始める異世界生活
Tags:re:zero rezero kara hajimeru isekai seikatsu starting life in another world different from re zero season 2 two ending ed japanese anime jpop pop rock j-pop j-rock jrock rem emilia subaru
BeatmapID:2550066
BeatmapSetID:1226293

[Difficulty]
HPDrainRate:4
CircleSize:4
OverallDifficulty:6
ApproachRate:7.5
SliderMultiplier:1.4
SliderTickRate:1

[Events]
//Background and Video events
0,0,"re-zero-kara-hajimeru-isekai-seikatsu-emilia-dress-white-hair.jpg",0,0
//Break Periods
2,31940,39075
//Storyboard Layer 0 (Background)
//Storyboard Layer 1 (Fail)
//Storyboard Layer 2 (Pass)
//Storyboard Layer 3 (Foreground)
//Storyboard Layer 4 (Overlay)
//Storyboard Sound Samples

[TimingPoints]
1020,480,4,2,1,40,1,0
8700,-90.9090909090909,4,2,1,60,0,0
16380,-100,4,2,1,50,0,0
39420,-111.111111111111,4,2,1,40,0,0
43980,-111.111111111111,4,2,1,45,0,0
46140,-111.111111111111,4,2,1,50,0,0
47100,-86.9565217391304,4,2,1,70,0,1
62340,-86.9565217391304,4,2,1,70,0,0
62460,-86.9565217391304,4,2,1,70,0,1
70140,-83.3333333333333,4,2,1,70,0,1
75900,-80,4,2,1,70,0,1
77820,-90.9090909090909,4,2,1,60,0,0
85500,-83.3333333333333,4,2,1,60,0,0

[Colours]
Combo1 : 122,176,205
Combo2 : 154,92,169
Combo3 : 82,102,163

[HitObjects]
148,353,60,6,0,P|142:303|154:266,1,70,2|2,0:0|0:0,0:0:0:0:
194,215,540,2,0,P|200:165|188:128,1,70,2|2,0:0|0:0,0:0:0:0:
140,83,1020,6,0,P|186:61|265:100,1,140,6|2,0:0|0:0,0:0:0:0:
298,171,1740,1,2,0:0:0:0:
346,239,1980,2,0,P|392:261|471:222,1,140,2|2,0:0|0:0,0:0:0:0:
478,142,2700,1,2,0:0:0:0:
478,142,2940,6,0,L|464:65,1,70,2|2,0:0|0:0,0:0:0:0:
387,39,3420,2,0,L|373:116,1,70,2|2,0:0|0:0,0:0:0:0:
297,143,3900,1,2,0:0:0:0:
160,45,4380,1,2,0:0:0:0:
49,171,4860,6,0,P|53:239|93:295,1,140,2|0,0:0|0:0,0:0:0:0:
174,320,5580,1,2,0:0:0:0:
251,287,5820,2,0,B|324:273|302:344|388:321,1,140,2|0,0:0|0:0,0:0:0:0:
455,288,6540,1,2,0:0:0:0:
455,288,6780,6,0,P|468:230|464:206,1,70,2|2,0:0|0:0,0:0:0:0:
430,144,7260,1,2,0:0:0:0:
278,71,7740,2,0,P|222:67|113:180,1,210,2|0,0:0|0:0,0:0:0:0:
101,256,8700,6,0,L|192:274,1,77.0000023498536,6|0,1:2|0:0,0:0:0:0:
226,348,9180,2,0,L|317:330,1,77.0000023498536,10|0,0:0|1:2,0:0:0:0:
392,312,9660,1,2,1:2:0:0:
490,336,9900,1,2,0:0:0:0:
490,336,10020,1,2,0:0:0:0:
490,336,10140,2,0,P|491:282|472:253,1,77.0000023498536,10|2,0:0|0:0,0:0:0:0:
412,199,10620,6,0,P|411:145|430:116,1,77.0000023498536,2|0,1:2|0:0,0:0:0:0:
482,56,11100,2,0,P|416:90|324:96,1,154.000004699707,10|2,0:0|1:2,0:0:0:0:
279,32,11820,1,2,0:0:0:0:
279,32,12060,1,10,0:0:0:0:
106,98,12540,6,0,P|45:71|-4:27,2,115.50000352478,2|2|2,1:2|0:0|0:0,0:0:0:0:
198,142,13500,1,2,1:2:0:0:
198,142,13620,1,2,0:0:0:0:
198,142,13740,1,2,0:0:0:0:
140,214,13980,1,10,0:0:0:0:
75,280,14220,1,2,0:0:0:0:
164,302,14460,6,0,P|201:293|236:278,1,77.0000023498536,2|0,1:2|0:0,0:0:0:0:
300,211,14940,1,8,0:0:0:0:
392,217,15180,1,2,1:2:0:0:
465,289,15420,1,2,1:2:0:0:
465,289,15540,1,2,1:2:0:0:
465,289,15660,1,2,1:2:0:0:
390,343,15900,2,0,L|387:399,2,38.5000011749268,10|0|0,0:0|1:2|1:2,0:0:0:0:
320,288,16380,5,4,1:2:0:0:
320,288,17100,2,0,L|168:311,1,140,8|0,0:0|1:2,0:0:0:0:
99,293,17820,1,8,0:0:0:0:
99,293,17940,2,0,L|85:201,1,70,0|0,1:2|0:0,0:0:0:0:
82,182,18300,6,0,L|62:56,2,105,0|0|8,1:2|1:2|0:0,0:0:0:0:
250,182,19500,1,0,1:2:0:0:
238,98,19740,2,0,L|229:38,1,35,8|0,0:0|1:2,0:0:0:0:
353,26,20220,6,0,L|505:49,1,140,0|0,1:2|0:0,0:0:0:0:
503,134,20940,1,8,0:0:0:0:
503,134,21180,2,0,L|404:119,1,70,0|0,0:0|1:2,0:0:0:0:
350,135,21660,1,8,0:0:0:0:
401,201,21900,1,0,0:0:0:0:
338,256,22140,6,0,L|318:382,2,105,0|0|8,1:2|1:2|0:0,0:0:0:0:
208,148,23340,1,0,1:2:0:0:
167,221,23580,2,0,L|172:255,1,35,8|0,0:0|1:2,0:0:0:0:
71,331,24060,6,0,L|48:179,1,140,4|0,1:2|0:0,0:0:0:0:
104,128,24780,2,0,L|256:151,1,140,8|0,0:0|1:2,0:0:0:0:
322,122,25500,1,8,0:0:0:0:
322,122,25620,2,0,L|421:137,1,70,0|0,1:2|0:0,0:0:0:0:
430,117,25980,6,0,L|410:-9,2,105,0|0|8,1:2|1:2|0:0,0:0:0:0:
461,281,27180,1,0,1:2:0:0:
395,236,27420,1,8,0:0:0:0:
395,236,27540,2,0,P|350:265|338:300,1,70,0|0,1:2|0:0,0:0:0:0:
323,315,27900,6,0,L|184:335,1,140,0|0,1:2|0:0,0:0:0:0:
122,277,28620,1,8,0:0:0:0:
189,227,28860,2,0,L|199:157,1,70,0|0,0:0|1:2,0:0:0:0:
153,87,29340,1,8,0:0:0:0:
236,74,29580,1,0,0:0:0:0:
312,38,29820,6,0,L|415:54,2,105,0|0|8,1:2|1:2|0:0,0:0:0:0:
308,122,30780,1,0,1:2:0:0:
308,122,30900,1,0,1:2:0:0:
346,202,31140,1,0,1:2:0:0:
346,202,31260,1,10,0:0:0:0:
311,278,31500,2,0,L|318:326,2,35,2|0|2,1:2|1:2|0:0,0:0:0:0:
119,142,39900,5,2,0:0:0:0:
119,142,40380,2,0,P|171:112|253:125,1,125.999996154785,2|0,0:0|0:0,0:0:0:0:
279,183,41100,1,2,0:0:0:0:
279,183,41340,2,0,L|270:266,1,62.9999980773926,2|2,0:0|0:0,0:0:0:0:
198,261,41820,2,0,L|207:344,1,62.9999980773926,2|2,0:0|0:0,0:0:0:0:
271,359,42300,1,2,0:0:0:0:
417,185,43020,6,0,L|456:188,2,31.4999990386963,2|2|2,0:0|0:0|0:0,0:0:0:0:
235,48,43980,2,0,L|232:9,2,31.4999990386963,2|2|2,0:0|0:0|0:0,0:0:0:0:
95,227,44940,1,2,0:0:0:0:
95,227,45060,1,2,0:0:0:0:
95,227,45180,1,2,0:0:0:0:
361,83,46140,6,0,P|350:129|363:229,1,125.999996154785,2|2,0:0|0:0,0:0:0:0:
393,272,46860,1,2,0:0:0:0:
318,339,47100,6,0,P|266:345|208:331,1,80.5000015354157,6|0,1:2|0:0,0:0:0:0:
161,282,47580,1,10,0:0:0:0:
75,327,47820,1,2,0:0:0:0:
21,246,48060,2,0,P|0:163|10:82,1,161.000003070831,2|10,1:2|0:0,0:0:0:0:
74,19,48780,1,2,0:0:0:0:
134,94,49020,5,2,1:2:0:0:
217,46,49260,1,2,0:0:0:0:
304,86,49500,2,0,L|416:104,1,80.5000015354157,10|2,0:0|0:0,0:0:0:0:
470,57,49980,1,2,1:2:0:0:
347,206,50460,2,0,P|335:237|346:303,1,80.5000015354157,10|0,0:0|0:0,0:0:0:0:
396,361,50940,6,0,P|345:327|216:320,1,161.000003070831,2|8,1:2|0:0,0:0:0:0:
162,359,51660,1,2,0:0:0:0:
79,309,51900,2,0,L|62:123,1,161.000003070831,2|8,1:2|0:0,0:0:0:0:
44,53,52620,1,2,0:0:0:0:
143,66,52860,5,2,1:2:0:0:
143,66,53100,1,2,0:0:0:0:
169,158,53340,2,0,L|179:270,1,80.5000015354157,10|0,0:0|0:0,0:0:0:0:
215,274,53700,1,2,0:0:0:0:
215,274,53820,1,2,1:2:0:0:
300,228,54060,1,2,0:0:0:0:
389,276,54300,1,10,0:0:0:0:
389,276,54540,1,2,0:0:0:0:
461,212,54780,6,0,P|471:142|461:110,1,80.5000015354157,6|0,1:2|0:0,0:0:0:0:
402,63,55260,1,10,0:0:0:0:
308,88,55500,1,2,0:0:0:0:
229,32,55740,2,0,L|55:48,1,161.000003070831,2|10,1:2|0:0,0:0:0:0:
9,123,56460,1,2,0:0:0:0:
97,161,56700,5,2,1:2:0:0:
17,216,56940,1,2,0:0:0:0:
48,307,57180,1,10,0:0:0:0:
144,308,57420,1,2,0:0:0:0:
179,218,57660,2,0,P|247:194|346:216,1,161.000003070831,2|8,1:2|0:0,0:0:0:0:
424,263,58380,1,2,0:0:0:0:
424,263,58500,1,2,0:0:0:0:
424,263,58620,6,0,B|458:165|382:198|424:82,1,161.000003070831,2|8,1:2|0:0,0:0:0:0:
397,12,59340,1,2,0:0:0:0:
329,80,59580,2,0,P|255:107|166:96,1,161.000003070831,2|8,1:2|0:0,0:0:0:0:
90,51,60300,1,2,0:0:0:0:
47,137,60540,6,0,P|53:208|75:248,1,80.5000015354157,2|0,1:2|0:0,0:0:0:0:
131,278,61020,1,8,0:0:0:0:
207,219,61260,1,0,1:2:0:0:
207,219,61380,1,0,1:2:0:0:
207,219,61500,2,0,L|211:164,2,40.2500007677078,2|0|0,1:2|1:2|1:2,0:0:0:0:
263,297,61980,1,10,0:0:0:0:
346,248,62220,1,10,0:0:0:0:
346,248,62340,1,8,0:0:0:0:
346,248,62460,6,0,L|444:256,1,80.5000015354157,6|0,1:2|0:0,0:0:0:0:
503,196,62940,1,10,0:0:0:0:
458,110,63180,1,2,0:0:0:0:
365,81,63420,2,0,L|204:94,1,161.000003070831,2|10,1:2|0:0,0:0:0:0:
125,37,64140,1,2,0:0:0:0:
45,91,64380,5,2,1:2:0:0:
122,148,64620,1,2,0:0:0:0:
48,210,64860,2,0,P|37:267|52:311,1,80.5000015354157,10|2,0:0|1:2,0:0:0:0:
126,334,65340,1,2,1:2:0:0:
126,334,65460,1,0,1:2:0:0:
126,334,65580,1,0,1:2:0:0:
208,284,65820,1,10,0:0:0:0:
388,353,66300,6,0,P|363:284|363:189,1,161.000003070831,2|8,1:2|0:0,0:0:0:0:
427,126,67020,1,2,1:2:0:0:
395,39,67260,1,2,1:2:0:0:
395,39,67380,2,0,L|314:47,1,80.5000015354157,8|0,0:0|1:2,0:0:0:0:
296,50,67740,1,8,0:0:0:0:
199,58,67980,1,2,0:0:0:0:
109,94,68220,6,0,P|116:138|131:178,1,80.5000015354157,2|2,1:2|0:0,0:0:0:0:
201,234,68700,1,10,0:0:0:0:
256,155,68940,1,0,1:2:0:0:
256,155,69060,1,0,1:2:0:0:
256,155,69180,1,2,1:2:0:0:
323,224,69420,1,2,1:2:0:0:
267,303,69660,2,0,P|213:330|165:323,1,80.5000015354157,10|2,0:0|1:2,0:0:0:0:
93,317,70140,6,0,L|74:207,1,83.9999974365235,6|0,1:2|0:0,0:0:0:0:
61,134,70620,1,10,0:0:0:0:
124,55,70860,1,2,1:2:0:0:
207,111,71100,2,0,P|270:124|303:115,1,83.9999974365235,2|0,1:2|1:2,0:0:0:0:
371,63,71580,1,10,0:0:0:0:
371,63,71820,1,2,0:0:0:0:
470,48,72060,5,2,1:2:0:0:
442,145,72300,1,2,0:0:0:0:
489,234,72540,1,10,0:0:0:0:
444,324,72780,1,2,1:2:0:0:
355,301,73020,1,2,1:2:0:0:
355,301,73140,1,0,1:2:0:0:
355,301,73260,2,0,L|264:311,2,83.9999974365235,0|8|0,1:2|0:0|0:0,0:0:0:0:
335,202,73980,6,0,P|270:172|162:185,1,167.999994873047,2|8,1:2|0:0,0:0:0:0:
100,245,74700,1,2,1:2:0:0:
100,245,74820,1,2,0:0:0:0:
100,245,74940,2,0,L|108:310,2,41.9999987182618,2|8|0,1:2|0:0|0:0,0:0:0:0:
46,158,75420,1,8,0:0:0:0:
92,72,75660,1,10,1:2:0:0:
92,72,75780,1,2,0:0:0:0:
92,72,75900,6,0,P|142:58|214:62,1,87.5,2|0,1:2|0:0,0:0:0:0:
273,121,76380,1,8,0:0:0:0:
372,53,76620,1,8,0:0:0:0:
372,53,76740,1,8,0:0:0:0:
372,53,76860,2,0,L|377:2,2,43.75,2|2|2,1:2|1:2|1:2,0:0:0:0:
423,168,77340,1,10,0:0:0:0:
420,189,77460,1,0,1:2:0:0:
418,212,77580,1,8,0:0:0:0:
415,235,77700,1,8,0:0:0:0:
412,258,77820,6,0,P|364:278|320:276,1,77.0000023498536,6|0,1:2|0:0,0:0:0:0:
263,218,78300,2,0,P|215:198|171:200,1,77.0000023498536,10|0,0:0|1:2,0:0:0:0:
135,271,78780,1,2,1:2:0:0:
46,244,79020,1,2,0:0:0:0:
46,244,79140,1,2,0:0:0:0:
46,244,79260,2,0,L|31:135,1,77.0000023498536,10|2,0:0|0:0,0:0:0:0:
119,129,79740,6,0,L|134:20,1,77.0000023498536,2|0,1:2|0:0,0:0:0:0:
218,29,80220,2,0,B|300:15|273:89|368:67,1,154.000004699707,10|2,0:0|1:2,0:0:0:0:
447,41,80940,1,2,0:0:0:0:
447,41,81180,1,10,0:0:0:0:
423,224,81660,6,0,P|428:297|449:356,2,115.50000352478,2|2|2,1:2|0:0|0:0,0:0:0:0:
414,140,82620,1,2,1:2:0:0:
414,140,82740,1,2,0:0:0:0:
414,140,82860,1,2,0:0:0:0:
333,185,83100,1,10,0:0:0:0:
246,153,83340,1,2,0:0:0:0:
257,244,83580,6,0,L|268:320,1,77.0000023498536,2|0,1:2|0:0,0:0:0:0:
193,374,84060,1,12,0:0:0:0:
121,312,84300,1,2,1:2:0:0:
30,324,84540,1,2,1:2:0:0:
30,324,84660,1,2,1:2:0:0:
30,324,84780,1,2,1:2:0:0:
54,234,85020,2,0,L|39:185,2,38.5000011749268,10|0|0,0:0|1:2|1:2,0:0:0:0:
144,240,85500,5,4,1:2:0:0:
116,80,85860,5,4,1:2:0:0:
256,161,86220,5,4,1:2:0:0:
395,80,86580,5,4,1:2:0:0:
367,240,86940,5,4,1:2:0:0:
