osu file format v14

[General]
AudioFilename: audio.mp3
AudioLeadIn: 0
PreviewTime: 46023
Countdown: 0
SampleSet: Soft
StackLeniency: 0.5
Mode: 0
LetterboxInBreaks: 0
WidescreenStoryboard: 1

[Editor]
DistanceSpacing: 0.4
BeatDivisor: 4
GridSize: 4
TimelineZoom: 1.5

[Metadata]
Title:Memento (TV Size)
TitleUnicode:Memento (TV Size)
Artist:nonoc
ArtistUnicode:nonoc
Creator:Kuki1537
Version:PikA's Insane
Source:Re:ゼロから始める異世界生活
Tags:re:zero kara hajimeru isekai seikatsu rezero starting life in another world different from zero season two anime ending ed japanese pop rock pikaqours my angel ram my_angel_ram jpop j-pop j-rock jrock
BeatmapID:2589223
BeatmapSetID:1242807

[Difficulty]
HPDrainRate:5
CircleSize:3.8
OverallDifficulty:8
ApproachRate:8.8
SliderMultiplier:2.6
SliderTickRate:1

[Events]
//Background and Video events
0,0,"bg.jpg"
Video,-131,"video.mp4"
//Break Periods
//Storyboard Layer 0 (Background)
//Storyboard Layer 1 (Fail)
//Storyboard Layer 2 (Pass)
//Storyboard Layer 3 (Foreground)
//Storyboard Layer 4 (Overlay)
//Storyboard Sound Samples

[TimingPoints]
63,480,4,2,22,52,1,0
1023,480,4,2,22,52,1,0
1023,-142.857142857143,4,2,22,52,0,0
4863,-200,4,2,22,52,0,0
5823,-166.666666666667,4,2,22,52,0,0
7263,-142.857142857143,4,2,22,52,0,0
7743,-200,4,2,22,52,0,0
8703,-100,4,2,22,72,0,0
16383,-142.857142857143,4,2,22,62,0,0
18183,-142.857142857143,4,2,22,5,0,0
18303,-142.857142857143,4,2,22,62,0,0
31743,-200,4,2,22,42,0,0
37503,-166.666666666667,4,2,22,42,0,0
39423,-142.857142857143,4,2,22,52,0,0
44223,-117.647058823529,4,2,22,62,0,0
45183,-100,4,2,22,72,0,0
46143,-142.857142857143,4,2,22,62,0,0
47103,-90.9090909090909,4,2,22,82,0,1
61023,-90.9090909090909,4,2,22,72,0,0
62463,-90.9090909090909,4,2,22,82,0,1
77823,-100,4,2,22,72,0,0
85503,-66.6666666666667,4,2,22,72,0,0
85623,-66.6666666666667,4,2,22,5,0,0
85863,-66.6666666666667,4,2,22,72,0,0
85983,-66.6666666666667,4,2,22,5,0,0
86223,-66.6666666666667,4,2,22,72,0,0
86343,-66.6666666666667,4,2,22,5,0,0
86583,-66.6666666666667,4,2,22,72,0,0
86703,-66.6666666666667,4,2,22,5,0,0
86943,-66.6666666666667,4,2,22,72,0,0
87063,-66.6666666666667,4,2,22,5,0,0

[Colours]
Combo1 : 227,198,168
Combo2 : 60,133,255
Combo3 : 194,205,211
Combo4 : 91,98,113

[HitObjects]
69,97,63,5,2,0:2:0:0:
96,189,303,1,2,0:2:0:0:
161,70,543,1,2,0:2:0:0:
188,162,783,1,2,0:2:0:0:
253,43,1023,6,0,L|353:78,1,90.9999972229005,2|0,0:2|0:2,0:2:0:0:
433,114,1503,1,2,0:2:0:0:
433,114,1743,1,2,0:2:0:0:
344,170,1983,2,0,L|310:265,1,90.9999972229005,2|0,0:2|0:2,0:2:0:0:
277,347,2463,1,2,0:2:0:0:
277,347,2703,1,2,0:2:0:0:
181,297,2943,5,2,0:2:0:0:
313,255,3183,1,2,0:2:0:0:
149,207,3423,1,2,0:2:0:0:
281,165,3663,1,2,0:2:0:0:
125,119,3903,2,0,L|153:223,1,90.9999972229005,2|0,0:2|0:2,0:2:0:0:
281,165,4383,2,0,L|249:52,1,90.9999972229005,2|0,0:2|0:2,0:2:0:0:
47,69,4863,6,0,B|20:114|20:114|43:201,1,130,2|0,0:2|0:2,0:2:0:0:
66,289,5583,1,2,0:2:0:0:
163,207,5823,2,0,P|255:196|318:254,1,155.999995239258,2|0,0:2|0:2,0:2:0:0:
334,337,6543,1,2,0:2:0:0:
221,286,6783,1,2,0:2:0:0:
376,245,7023,1,2,0:2:0:0:
246,373,7263,2,0,L|218:277,1,90.9999972229005,2|0,0:2|0:2,0:2:0:0:
139,171,7743,6,0,B|100:231|100:231|137:369,1,195,2|0,0:2|0:2,0:2:0:0:
246,373,8703,6,0,P|303:336|396:362,1,130,6|0,1:2|3:2,0:2:0:0:
465,359,9063,1,10,1:3:0:0:
465,359,9183,2,0,L|447:296,1,65,10|0,0:2|0:2,0:2:0:0:
387,218,9423,2,0,L|404:155,1,65,10|0,1:3|0:2,0:2:0:0:
415,52,9663,5,2,1:2:0:0:
390,59,9783,1,2,0:2:0:0:
365,68,9903,1,2,3:2:0:0:
340,77,10023,1,10,1:3:0:0:
316,88,10143,1,10,0:2:0:0:
238,195,10383,2,0,P|278:192|322:173,1,65,10|0,1:3|0:2,0:0:0:0:
154,143,10623,6,0,P|142:216|189:285,1,130,2|0,1:2|3:2,0:2:0:0:
149,359,10983,1,10,1:3:0:0:
149,359,11103,2,0,P|191:356|223:339,1,65,8|0,0:2|0:2,0:2:0:0:
303,309,11343,2,0,P|334:296|366:296,1,65,6|0,1:3|0:2,0:2:0:0:
454,360,11583,5,2,1:2:0:0:
466,335,11703,1,2,3:2:0:0:
472,309,11823,1,2,3:2:0:0:
472,281,11943,1,6,1:3:0:0:
468,253,12063,1,10,0:2:0:0:
366,134,12303,2,0,L|387:72,1,65,2|0,3:2|3:2,0:0:0:0:
285,3,12543,6,0,B|246:11|246:11|202:-2|202:-2|160:11,1,130,2|0,1:2|3:2,0:2:0:0:
103,86,12903,1,10,1:3:0:0:
103,86,13023,2,0,L|127:157,1,65,10|0,0:2|0:2,0:2:0:0:
122,249,13263,2,0,L|193:225,1,65,10|0,1:3|0:2,0:2:0:0:
271,166,13503,5,2,1:2:0:0:
276,191,13623,1,2,0:2:0:0:
280,216,13743,1,2,3:2:0:0:
285,241,13863,1,10,1:3:0:0:
292,265,13983,1,10,0:2:0:0:
432,351,14223,2,0,P|415:317|410:277,1,65,0|0,3:2|3:2,0:0:0:0:
439,198,14463,6,0,B|467:151|467:151|432:60,1,130,2|0,1:2|3:2,0:2:0:0:
362,15,14823,1,8,1:3:0:0:
362,15,14943,2,0,L|293:38,1,65,10|0,0:2|0:2,0:2:0:0:
230,103,15183,2,0,L|168:82,1,65,8|8,0:2|0:3,0:0:0:0:
77,111,15423,1,2,1:2:0:0:
77,111,15543,2,0,L|56:44,2,65,10|10|6,0:3|3:3|1:3,0:0:0:0:
132,196,15903,5,8,0:2:0:0:
174,211,16023,1,8,0:3:0:0:
216,226,16143,1,8,1:3:0:0:
259,239,16263,1,4,3:3:0:0:
287,264,16383,6,0,B|331:71,1,181.999994445801,4|2,1:2|3:2,0:2:0:0:
458,61,17103,2,0,L|432:169,1,90.9999972229005,10|2,0:2|0:2,0:2:0:0:
408,257,17583,1,10,1:3:0:0:
313,329,17823,1,10,0:2:0:0:
313,329,17943,2,0,L|216:303,1,90.9999972229005,8|0,0:3|0:2,0:2:0:0:
136,332,18303,6,0,P|133:283|160:240,1,90.9999972229005,6|0,1:3|0:2,0:2:0:0:
184,227,18663,1,0,3:2:0:0:
184,227,18783,1,0,3:2:0:0:
77,45,19023,1,8,0:2:0:0:
69,179,19263,1,0,3:2:0:0:
69,179,19383,1,0,3:2:0:0:
69,179,19503,1,0,1:2:0:0:
204,23,19743,1,8,0:2:0:0:
209,44,19863,1,0,1:3:0:0:
215,65,19983,1,0,3:3:0:0:
354,185,20223,6,0,L|372:95,1,90.9999972229005,4|2,1:3|0:2,0:2:0:0:
381,71,20583,1,0,3:2:0:0:
381,71,20703,1,2,3:2:0:0:
447,231,20943,1,10,0:2:0:0:
345,171,21183,1,2,3:2:0:0:
345,171,21303,1,0,3:2:0:0:
345,171,21423,1,2,1:2:0:0:
317,318,21663,1,10,0:2:0:0:
338,312,21783,1,0,1:2:0:0:
360,307,21903,1,2,3:2:0:0:
218,259,22143,6,0,L|115:287,1,90.9999972229005,2|0,1:2|0:2,0:2:0:0:
99,299,22503,2,0,L|86:253,1,45.4999986114502,8|2,0:3|3:2,0:2:0:0:
81,227,22743,1,0,3:2:0:0:
81,227,22863,1,8,0:2:0:0:
172,152,23103,1,2,3:2:0:0:
172,152,23223,1,0,3:2:0:0:
172,152,23343,1,0,1:2:0:0:
24,65,23583,1,10,0:2:0:0:
29,86,23703,1,0,1:2:0:0:
35,107,23823,1,0,3:2:0:0:
160,204,24063,6,0,B|224:218|224:218|277:192|277:192|341:208,1,181.999994445801,4|2,1:2|3:2,0:2:0:0:
444,349,24783,1,10,0:2:0:0:
292,296,25023,1,2,3:2:0:0:
292,296,25143,1,0,3:2:0:0:
292,296,25263,1,10,1:3:0:0:
477,214,25503,1,10,0:2:0:0:
471,235,25623,1,0,1:2:0:0:
465,256,25743,1,2,3:2:0:0:
297,167,25983,6,0,P|339:142|403:146,1,90.9999972229005,2|0,1:3|0:2,0:2:0:0:
419,151,26343,2,0,L|430:103,1,45.4999986114502,4|0,0:3|3:2,0:2:0:0:
463,89,26583,1,0,3:2:0:0:
463,89,26703,1,8,0:2:0:0:
343,22,26943,1,0,3:2:0:0:
343,22,27063,1,0,3:2:0:0:
343,22,27183,1,0,1:2:0:0:
297,167,27423,1,8,0:2:0:0:
275,161,27543,1,0,1:2:0:0:
253,155,27663,1,10,3:3:0:0:
170,26,27903,6,0,P|124:28|84:49,1,90.9999972229005,6|0,1:3|0:2,0:2:0:0:
61,81,28263,1,0,3:2:0:0:
61,81,28383,1,0,3:2:0:0:
48,214,28623,1,10,0:2:0:0:
69,206,28743,1,2,3:2:0:0:
90,199,28863,1,2,3:2:0:0:
111,191,28983,1,0,3:2:0:0:
132,183,29103,1,0,1:2:0:0:
176,306,29343,1,8,0:2:0:0:
154,298,29463,1,0,3:2:0:0:
132,289,29583,2,0,L|111:346,1,45.4999986114502,2|0,3:2|3:2,0:2:0:0:
244,374,29823,6,0,L|353:349,1,90.9999972229005,6|0,1:3|0:2,0:2:0:0:
367,350,30183,1,0,1:2:0:0:
367,350,30303,1,0,3:2:0:0:
334,190,30543,1,8,0:2:0:0:
460,312,30783,1,8,0:3:0:0:
471,295,30903,1,8,0:3:0:0:
340,169,31143,1,4,0:3:0:0:
334,190,31263,2,0,L|352:248,1,45.4999986114502,4|0,0:3|3:2,0:0:0:0:
434,184,31503,2,0,L|447:140,1,45.4999986114502,4|0,1:3|3:2,0:0:0:0:
359,77,31743,5,6,1:2:0:0:
359,77,32223,1,2,0:2:0:0:
359,77,32703,2,0,P|285:71|228:125,1,130,2|0,0:2|0:2,0:2:0:0:
197,186,33423,5,2,0:2:0:0:
85,65,33663,1,2,3:2:0:0:
245,29,33903,1,2,0:2:0:0:
104,157,34143,1,2,0:2:0:0:
152,0,34383,1,2,0:2:0:0:
268,124,34623,2,0,P|301:118|332:105,1,65,2|2,0:2|0:2,0:2:0:0:
361,89,34983,1,2,0:2:0:0:
361,89,35103,2,0,L|376:140,1,32.5,2|2,0:2|0:2,0:0:0:0:
432,183,35343,2,0,L|417:234,1,32.5,2|2,0:2|0:2,0:0:0:0:
350,270,35583,5,2,3:2:0:0:
350,270,36063,1,2,0:2:0:0:
350,270,36543,2,0,B|307:260|307:260|265:283|265:283|221:273,1,130,2|0,0:2|0:2,0:2:0:0:
135,253,37263,1,2,0:2:0:0:
203,188,37503,6,0,B|235:125|235:125|191:11|191:11|210:60|182:107,1,272.999991668701,2|0,3:2|0:0,0:2:0:0:
169,111,38463,2,0,P|86:107|62:40,1,155.999995239258,2|0,0:2|3:2,0:2:0:0:
72,13,39063,1,0,3:2:0:0:
72,13,39183,1,0,3:2:0:0:
169,111,39423,6,0,L|274:138,1,90.9999972229005,0|0,3:2|0:2,0:2:0:0:
346,115,39783,1,0,1:2:0:0:
346,115,39903,2,0,P|344:173|320:208,1,90.9999972229005,2|0,0:2|0:2,0:2:0:0:
277,321,40383,1,2,0:2:0:0:
277,321,40503,1,0,0:2:0:0:
277,321,40623,2,0,P|328:293|370:297,1,90.9999972229005,0|0,1:2|0:2,0:2:0:0:
506,331,41103,5,2,1:2:0:0:
470,177,41343,1,2,1:3:0:0:
359,300,41583,1,2,0:2:0:0:
323,146,41823,1,2,0:2:0:0:
506,23,42063,1,2,3:2:0:0:
470,177,42303,1,2,0:2:0:0:
399,0,42543,2,0,L|355:8,1,45.4999986114502,0|0,1:2|0:2,0:2:0:0:
281,60,42783,2,0,L|232:46,1,45.4999986114502,0|0,0:2|0:2,0:2:0:0:
157,4,43023,1,2,1:2:0:0:
157,4,43143,1,2,0:2:0:0:
157,4,43263,6,0,P|116:66|146:176,1,181.999994445801,2|0,3:2|0:2,0:2:0:0:
259,282,43983,1,2,0:2:0:0:
280,287,44103,1,2,0:2:0:0:
306,294,44223,6,0,P|359:211|269:209,1,221.000004215241,2|0,0:2|3:2,0:2:0:0:
139,235,44943,1,2,0:2:0:0:
126,288,45063,1,2,0:2:0:0:
112,344,45183,6,0,B|192:307|252:339|226:357|271:403|357:366,1,260,2|2,0:2|0:2,0:2:0:0:
332,151,46143,2,0,L|308:285,1,136.499995834351,2|0,0:2|0:2,0:2:0:0:
402,261,46623,2,0,L|411:210,1,45.4999986114502,2|0,0:2|0:2,0:2:0:0:
482,156,46863,2,0,L|473:105,1,45.4999986114502,2|0,0:2|0:2,0:2:0:0:
355,28,47103,6,0,B|276:11|276:11|220:39|220:39|108:17,1,214.500006546021,6|8,1:2|3:3,0:2:0:0:
88,132,47583,2,0,P|128:132|157:118,1,71.5000021820069,10|0,0:2|0:2,0:2:0:0:
43,0,47823,2,0,P|23:34|20:66,1,71.5000021820069,2|0,0:2|0:2,0:2:0:0:
66,253,48063,2,0,B|108:215|108:215|86:124,1,143.000004364014,2|0,1:2|3:2,0:0:0:0:
154,61,48423,1,0,3:2:0:0:
154,61,48543,1,10,0:2:0:0:
313,180,48783,2,0,L|293:111,1,71.5000021820069,2|0,3:2|0:2,0:2:0:0:
254,260,49023,6,0,P|292:282|333:288,1,71.5000021820069,2|0,1:2|0:2,0:2:0:0:
467,252,49263,2,0,P|429:230|388:224,1,71.5000021820069,2|0,3:3|0:2,0:2:0:0:
378,359,49503,1,8,0:2:0:0:
402,373,49623,1,8,0:3:0:0:
428,384,49743,2,0,L|404:309,1,71.5000021820069,2|0,3:2|3:2,0:0:0:0:
467,252,49983,1,6,1:3:0:0:
431,52,50223,1,0,3:2:0:0:
406,66,50343,1,8,3:3:0:0:
378,73,50463,2,0,P|326:46|235:67,1,143.000004364014,10|0,0:2|3:2,0:2:0:0:
151,78,50823,1,0,3:2:0:0:
151,78,50943,6,0,B|121:128|121:128|154:234,1,143.000004364014,2|0,1:2|3:2,0:2:0:0:
59,275,51303,1,8,0:3:0:0:
59,275,51423,2,0,L|35:201,1,71.5000021820069,8|0,3:2|0:2,0:2:0:0:
141,310,51663,1,10,3:3:0:0:
311,360,51903,2,0,L|274:210,1,143.000004364014,2|0,1:2|3:2,0:2:0:0:
218,148,52263,1,0,0:2:0:0:
218,148,52383,2,0,P|254:131|292:131,1,71.5000021820069,8|0,0:2|0:2,0:2:0:0:
377,195,52623,1,10,3:3:0:0:
403,184,52743,1,4,3:3:0:0:
430,176,52863,6,0,P|430:214|400:260,1,71.5000021820069,2|0,1:3|0:2,0:2:0:0:
267,298,53103,2,0,P|299:279|354:281,1,71.5000021820069,2|0,3:2|0:2,0:2:0:0:
460,375,53343,2,0,B|404:359|404:359|369:379|369:379|327:369,1,143.000004364014,10|0,0:2|3:2,0:2:0:0:
267,298,53703,1,0,3:2:0:0:
267,298,53823,2,0,L|187:276,1,71.5000021820069,2|0,1:2|0:2,0:2:0:0:
57,233,54063,2,0,L|137:211,1,71.5000021820069,10|0,3:3|0:2,0:2:0:0:
263,168,54303,2,0,L|183:146,1,71.5000021820069,10|0,0:2|0:2,0:2:0:0:
88,99,54543,1,2,3:2:0:0:
64,83,54663,1,0,3:2:0:0:
44,61,54783,6,0,B|96:92|160:43|135:21|179:-13|245:14,1,214.500006546021,6|8,1:2|3:3,0:2:0:0:
288,93,55263,2,0,P|319:115|360:117,1,71.5000021820069,10|0,0:2|0:2,0:2:0:0:
482,17,55503,2,0,P|447:32|425:67,1,71.5000021820069,2|0,3:2|0:2,0:2:0:0:
372,219,55743,2,0,B|419:190|419:190|502:218,1,143.000004364014,6|2,1:3|3:2,0:0:0:0:
292,266,56223,2,0,P|275:298|271:333,1,71.5000021820069,10|0,0:2|0:2,0:2:0:0:
419,381,56463,2,0,P|396:347|353:323,1,71.5000021820069,2|0,3:2|0:2,0:2:0:0:
292,267,56703,6,0,L|222:284,1,71.5000021820069,2|0,1:2|0:2,0:2:0:0:
146,168,56943,2,0,L|216:186,1,71.5000021820069,2|0,3:2|3:2,0:2:0:0:
118,317,57183,1,10,0:2:0:0:
84,303,57303,1,8,0:3:0:0:
52,285,57423,2,0,P|56:237|93:195,1,71.5000021820069,2|0,3:2|3:2,0:0:0:0:
67,60,57663,6,0,L|237:102,1,143.000004364014,2|0,1:2|3:2,0:2:0:0:
395,54,58143,2,0,P|389:103|373:128,1,71.5000021820069,8|0,0:2|0:2,0:2:0:0:
227,178,58383,2,0,P|258:161|294:159,1,71.5000021820069,2|0,3:2|3:2,0:2:0:0:
439,219,58623,6,0,B|465:251|465:251|369:219,1,143.000004364014,2|0,1:2|3:2,0:2:0:0:
354,310,58983,1,8,0:3:0:0:
354,310,59103,2,0,L|438:338,1,71.5000021820069,8|0,0:2|0:2,0:2:0:0:
277,245,59343,1,2,3:2:0:0:
138,348,59583,6,0,B|105:256|105:256|131:213,1,143.000004364014,2|0,1:2|3:2,0:2:0:0:
200,154,59943,1,8,3:3:0:0:
200,154,60063,2,0,P|166:130|131:123,1,71.5000021820069,8|0,0:2|0:2,0:2:0:0:
62,65,60303,2,0,P|96:41|131:34,1,71.5000021820069,2|0,3:2|0:2,0:2:0:0:
261,4,60543,6,8,B|327:-23|382:15|356:31|398:72|456:44,1,214.500006546021,2|8,1:3|0:3,0:3:0:0:
497,161,61023,2,0,L|406:178,1,71.5000021820069,8|0,0:2|0:2,0:2:0:0:
301,100,61263,1,8,3:2:0:0:
245,97,61383,1,8,0:2:0:0:
202,132,61503,1,10,1:3:0:0:
168,174,61623,1,8,0:2:0:0:
114,185,61743,2,0,L|99:114,1,71.5000021820069,10|0,0:2|0:2,0:2:0:0:
255,209,61983,1,2,1:2:0:0:
71,384,62223,1,10,0:2:0:0:
61,357,62343,1,8,0:2:0:0:
50,322,62463,6,0,B|180:359|180:359|208:313|261:313,1,214.500006546021,6|8,1:2|1:3,0:2:0:0:
406,295,62943,2,0,L|320:267,1,71.5000021820069,10|0,0:2|0:2,0:2:0:0:
254,187,63183,2,0,L|321:164,1,71.5000021820069,2|0,3:2|3:2,0:2:0:0:
421,85,63423,2,0,P|338:35|266:52,1,143.000004364014,8|0,1:3|3:2,0:0:0:0:
224,99,63783,1,8,0:3:0:0:
224,99,63903,2,0,L|151:124,1,71.5000021820069,10|0,0:2|0:2,0:2:0:0:
80,3,64143,2,0,L|153:28,1,71.5000021820069,6|0,1:3|0:2,0:2:0:0:
80,183,64383,6,0,P|63:151|57:116,1,71.5000021820069,2|0,1:2|0:2,0:2:0:0:
170,222,64623,2,0,P|151:252|123:274,1,71.5000021820069,2|8,3:2|1:3,0:0:0:0:
26,267,64863,1,10,0:2:0:0:
183,384,65103,2,0,L|251:365,1,71.5000021820069,2|0,3:2|0:2,0:2:0:0:
355,352,65343,1,2,1:2:0:0:
343,325,65463,1,8,0:2:0:0:
333,298,65583,2,0,L|352:230,1,71.5000021820069,8|0,3:3|0:2,0:2:0:0:
272,160,65823,1,10,0:2:0:0:
300,138,65943,1,8,1:3:0:0:
334,126,66063,1,0,3:2:0:0:
369,126,66183,1,0,3:2:0:0:
405,140,66303,6,0,P|446:210|419:283,1,143.000004364014,2|0,1:2|3:2,0:2:0:0:
342,297,66663,1,8,0:3:0:0:
342,297,66783,2,0,P|297:301|260:328,1,71.5000021820069,8|0,0:2|0:2,0:2:0:0:
208,383,67023,1,2,3:2:0:0:
185,161,67263,2,0,B|152:205|152:205|175:299,1,143.000004364014,10|0,1:3|3:2,0:0:0:0:
91,360,67623,1,8,1:3:0:0:
91,360,67743,2,0,L|68:270,1,71.5000021820069,8|0,3:2|0:2,0:2:0:0:
0,218,67983,1,2,3:2:0:0:
19,179,68103,1,0,3:2:0:0:
44,144,68223,6,0,P|83:126|137:130,1,71.5000021820069,6|8,1:3|0:2,0:2:0:0:
177,191,68463,2,0,L|197:114,1,71.5000021820069,2|8,3:2|0:3,0:2:0:0:
289,101,68703,2,0,L|252:253,1,143.000004364014,10|8,0:2|3:3,0:2:0:0:
198,303,69063,1,8,0:2:0:0:
198,303,69183,2,0,P|236:327|276:325,1,71.5000021820069,10|0,1:3|0:2,0:2:0:0:
358,344,69423,2,0,L|339:276,1,71.5000021820069,2|0,1:2|0:2,0:2:0:0:
422,150,69663,2,0,B|463:163|484:194|484:194|415:229|338:168,1,214.500006546021,14|0,0:2|0:2,0:2:0:0:
268,37,70143,6,0,P|194:31|139:83,1,143.000004364014,6|0,1:2|0:2,0:2:0:0:
195,171,70503,1,8,0:3:0:0:
195,171,70623,2,0,L|285:150,1,71.5000021820069,10|0,0:2|0:2,0:2:0:0:
337,53,70863,2,0,L|267:36,1,71.5000021820069,2|0,3:2|0:2,0:2:0:0:
450,19,71103,1,10,0:3:0:0:
437,60,71223,1,8,0:2:0:0:
424,100,71343,2,0,L|399:178,1,71.5000021820069,8|0,1:3|0:2,0:2:0:0:
459,251,71583,1,10,0:2:0:0:
417,262,71703,1,0,1:2:0:0:
375,273,71823,1,2,3:2:0:0:
236,160,72063,6,0,P|197:158|161:175,1,71.5000021820069,2|0,1:2|0:2,0:2:0:0:
191,322,72303,2,0,P|212:289|215:249,1,71.5000021820069,2|8,0:2|0:3,0:0:0:0:
57,284,72543,2,0,L|126:265,1,71.5000021820069,10|0,0:2|0:2,0:2:0:0:
75,172,72783,2,0,L|5:154,1,71.5000021820069,10|0,3:3|0:2,0:2:0:0:
34,43,73023,1,2,1:2:0:0:
74,57,73143,1,8,0:2:0:0:
115,69,73263,6,0,P|145:48|179:38,1,71.5000021820069,8|4,3:3|0:3,0:2:0:0:
287,4,73503,1,8,0:2:0:0:
270,45,73623,1,8,1:3:0:0:
254,84,73743,1,0,3:2:0:0:
470,183,73983,6,0,P|397:176|351:226,1,143.000004364014,2|0,1:2|3:0,0:2:0:0:
292,308,74343,1,8,0:3:0:0:
292,308,74463,2,0,L|368:330,1,71.5000021820069,8|0,0:2|0:2,0:2:0:0:
229,230,74703,1,2,3:2:0:0:
202,253,74823,1,10,0:3:0:0:
189,286,74943,1,2,1:2:0:0:
189,323,75063,1,8,0:2:0:0:
46,265,75303,1,8,1:3:0:0:
46,265,75423,2,0,L|20:198,1,71.5000021820069,8|0,0:2|3:2,0:2:0:0:
28,110,75663,1,10,0:2:0:0:
185,94,75903,5,10,0:3:0:0:
221,58,76023,2,0,P|260:37|295:37,1,71.5000021820069,8|0,0:2|3:2,0:2:0:0:
330,168,76263,1,4,1:3:0:0:
302,198,76383,2,0,L|280:122,1,71.5000021820069,12|8,0:2|0:2,0:0:0:0:
401,0,76623,1,10,0:2:0:0:
422,37,76743,1,10,0:2:0:0:
463,65,76863,5,6,1:3:0:0:
448,112,76983,1,10,1:3:0:0:
429,158,77103,1,10,1:3:0:0:
405,201,77223,1,10,1:3:0:0:
384,246,77343,2,0,L|409:329,1,71.5000021820069,10|10,1:2|1:3,0:0:0:0:
512,348,77583,2,0,L|491:279,1,71.5000021820069,10|10,1:3|1:3,0:0:0:0:
338,350,77823,6,0,P|279:377|216:370,1,130,6|0,1:2|3:2,0:2:0:0:
138,324,78183,1,10,1:3:0:0:
138,324,78303,2,0,L|156:243,1,65,10|0,0:2|0:2,0:2:0:0:
53,281,78543,2,0,L|36:344,1,65,10|0,1:3|0:2,0:2:0:0:
0,200,78783,5,2,1:2:0:0:
11,179,78903,1,2,0:2:0:0:
23,156,79023,1,2,3:2:0:0:
33,132,79143,1,10,1:3:0:0:
46,108,79263,1,10,0:2:0:0:
227,89,79503,2,0,P|187:60|173:27,1,65,10|0,1:3|0:2,0:0:0:0:
263,6,79743,6,0,B|339:-12|339:-12|358:14|389:21,1,130,2|0,1:2|3:2,0:2:0:0:
486,17,80103,1,10,1:3:0:0:
486,17,80223,2,0,L|461:92,1,65,8|0,0:2|0:2,0:2:0:0:
389,169,80463,2,0,L|368:108,1,65,6|0,1:3|0:2,0:2:0:0:
475,224,80703,5,2,1:2:0:0:
468,247,80823,1,2,3:2:0:0:
462,272,80943,1,2,3:2:0:0:
455,297,81063,1,6,1:3:0:0:
445,321,81183,1,10,0:2:0:0:
268,291,81423,2,0,P|288:325|291:368,1,65,2|0,3:2|3:2,0:0:0:0:
165,379,81663,6,0,B|137:328|137:328|167:239,1,130,2|0,1:2|3:2,0:2:0:0:
110,172,82023,1,10,1:3:0:0:
110,172,82143,2,0,P|144:168|171:151,1,65,10|0,0:2|0:2,0:2:0:0:
137,57,82383,2,0,P|103:61|75:77,1,65,10|0,1:3|0:2,0:2:0:0:
232,74,82623,5,2,1:2:0:0:
256,66,82743,1,2,0:2:0:0:
281,59,82863,1,2,3:2:0:0:
305,51,82983,1,10,1:3:0:0:
329,43,83103,1,10,0:2:0:0:
403,181,83343,2,0,P|384:212|379:252,1,65,0|0,3:2|3:2,0:0:0:0:
507,287,83583,6,0,B|457:298|457:298|433:328|433:328|370:346,1,130,2|0,1:2|3:2,0:2:0:0:
294,346,83943,1,8,1:3:0:0:
294,346,84063,2,0,L|312:283,1,65,14|0,0:2|0:2,0:2:0:0:
214,256,84303,2,0,L|197:318,1,65,8|8,0:2|0:3,0:0:0:0:
100,338,84543,1,2,1:2:0:0:
100,338,84663,2,0,P|67:333|40:317,2,65,10|10|6,0:3|3:3|1:3,0:0:0:0:
98,244,85023,5,8,0:2:0:0:
114,208,85143,1,8,0:3:0:0:
129,172,85263,1,8,1:3:0:0:
144,136,85383,1,4,3:3:0:0:
170,113,85503,6,0,P|222:116|256:143,1,97.50000371933,10|0,1:3|0:2,0:2:0:0:
287,57,85863,6,0,P|283:109|256:143,1,97.50000371933,6|0,1:3|0:2,0:2:0:0:
373,87,86223,6,0,P|320:83|286:56,1,97.50000371933,6|0,1:3|0:2,0:2:0:0:
403,0,86583,6,0,P|401:48|373:86,1,97.50000371933,6|0,1:3|0:2,0:2:0:0:
490,29,86943,6,0,P|440:27|402:-1,1,97.50000371933,6|0,1:3|0:2,0:2:0:0:
