osu file format v14

[General]
AudioFilename: audio.mp3
AudioLeadIn: 0
PreviewTime: 46023
Countdown: 0
SampleSet: Soft
StackLeniency: 0.7
Mode: 0
LetterboxInBreaks: 0
WidescreenStoryboard: 1

[Editor]
DistanceSpacing: 1
BeatDivisor: 4
GridSize: 4
TimelineZoom: 1.5

[Metadata]
Title:Memento (TV Size)
TitleUnicode:Memento (TV Size)
Artist:nonoc
ArtistUnicode:nonoc
Creator:Kuki1537
Version:Normal
Source:Re:ゼロから始める異世界生活
Tags:re:zero kara hajimeru isekai seikatsu rezero starting life in another world different from zero season two anime ending ed japanese pop rock pikaqours my angel ram my_angel_ram jpop j-pop j-rock jrock
BeatmapID:2586639
BeatmapSetID:1242807

[Difficulty]
HPDrainRate:4
CircleSize:3.6
OverallDifficulty:4
ApproachRate:5
SliderMultiplier:1.3
SliderTickRate:1

[Events]
//Background and Video events
0,0,"bg.jpg"
Video,-131,"video.mp4"
//Break Periods
2,31943,36303
//Storyboard Layer 0 (Background)
//Storyboard Layer 1 (Fail)
//Storyboard Layer 2 (Pass)
//Storyboard Layer 3 (Foreground)
//Storyboard Layer 4 (Overlay)
//Storyboard Sound Samples

[TimingPoints]
63,480,4,2,22,52,1,0
1023,480,4,2,22,52,1,0
1023,-125,4,2,22,52,0,0
8703,-100,4,2,22,72,0,0
16383,-125,4,2,22,62,0,0
18183,-125,4,2,22,5,0,0
18303,-125,4,2,22,62,0,0
31743,-125,4,2,22,42,0,0
39423,-125,4,2,22,52,0,0
44223,-125,4,2,22,62,0,0
45183,-125,4,2,22,72,0,0
46143,-125,4,2,22,62,0,0
47103,-100,4,2,22,82,0,1
61023,-100,4,2,22,72,0,0
62463,-100,4,2,22,82,0,1
77823,-100,4,2,22,72,0,0
85623,-100,4,2,22,5,0,0
85863,-100,4,2,22,72,0,0
85983,-100,4,2,22,5,0,0
86223,-100,4,2,22,72,0,0
86343,-100,4,2,22,5,0,0
86583,-100,4,2,22,72,0,0
86703,-100,4,2,22,5,0,0
86943,-100,4,2,22,72,0,0
87063,-100,4,2,22,5,0,0

[Colours]
Combo1 : 227,198,168
Combo2 : 60,133,255
Combo3 : 194,205,211
Combo4 : 91,98,113

[HitObjects]
41,284,1023,6,0,P|70:310|145:301,1,104,2|2,0:2|0:2,0:2:0:0:
166,285,1743,1,2,0:2:0:0:
166,285,1983,2,0,L|185:179,1,104,2|2,0:2|0:2,0:2:0:0:
198,100,2943,2,0,L|263:83,1,52,2|2,0:2|0:2,0:0:0:0:
282,110,3423,2,0,L|332:123,1,52,2|2,0:2|0:2,0:0:0:0:
365,97,3903,2,0,P|409:74|480:95,1,104,2|2,0:2|0:2,0:2:0:0:
500,155,4863,6,0,L|480:266,1,104,2|0,0:2|0:2,0:2:0:0:
476,298,5583,1,2,0:2:0:0:
476,298,5823,2,0,P|442:325|370:313,1,104,2|0,0:2|0:2,0:2:0:0:
308,286,6783,2,0,L|244:298,1,52,2|2,0:2|0:2,0:0:0:0:
215,301,7263,1,2,0:2:0:0:
158,361,7743,2,0,P|137:328|181:226,1,156,2|0,0:2|0:2,0:2:0:0:
227,198,8703,6,0,L|240:132,1,64.9999999999999,6|0,1:2|3:2,0:2:0:0:
251,77,9183,1,10,0:2:0:0:
337,155,9663,1,2,1:2:0:0:
389,180,9903,1,2,3:2:0:0:
444,161,10143,2,0,L|457:92,1,65,10|10,0:2|1:3,0:2:0:0:
430,44,10623,2,0,P|393:28|355:34,1,65,2|0,1:2|3:2,0:2:0:0:
316,54,11103,1,8,0:2:0:0:
229,133,11583,2,0,L|241:196,2,65,2|2|10,1:2|3:2|0:2,0:0:0:0:
184,94,12303,1,2,3:2:0:0:
184,94,12543,6,0,L|203:-5,2,97.5,2|10|10,1:2|1:3|1:3,0:2:0:0:
128,111,13503,2,0,P|104:146|102:175,1,65,2|2,1:2|3:2,0:0:0:0:
111,225,13983,1,10,0:2:0:0:
150,335,14463,2,0,P|193:308|270:336,1,130,2|10,1:2|0:2,0:2:0:0:
306,371,15183,1,8,0:2:0:0:
356,341,15423,2,0,L|342:274,1,65,2|10,1:2|3:3,0:0:0:0:
376,229,15903,2,0,L|390:162,1,65,8|8,0:2|1:3,0:0:0:0:
397,119,16383,6,0,P|360:77|254:104,1,156,4|10,1:2|0:2,0:2:0:0:
238,165,17583,1,10,1:3:0:0:
238,165,17823,2,0,L|179:151,1,52,10|2,0:2|0:2,0:0:0:0:
151,174,18303,2,0,B|50:198|50:198|6:165,1,156,6|8,1:3|0:2,0:2:0:0:
4,83,19503,1,0,1:2:0:0:
4,83,19743,2,0,L|74:67,1,52,8|0,0:2|3:3,0:0:0:0:
85,43,20223,6,0,P|112:77|224:59,1,156,4|10,1:3|0:2,0:2:0:0:
290,34,21423,1,2,1:2:0:0:
290,34,21663,2,0,L|355:44,1,52,10|2,0:2|3:2,0:0:0:0:
380,27,22143,2,0,L|359:140,1,104,2|2,1:2|3:2,0:2:0:0:
377,167,22863,1,8,0:2:0:0:
377,167,23103,2,0,P|340:153|272:186,1,104,2|10,3:2|0:2,0:0:0:0:
286,257,24063,6,0,B|202:228|217:300|132:269,1,156,4|10,1:2|0:2,0:2:0:0:
104,347,25263,1,10,1:3:0:0:
104,347,25503,2,0,L|161:360,1,52,10|2,0:2|3:2,0:0:0:0:
196,362,25983,2,0,B|256:356|256:356|293:376|293:376|355:369,1,156,2|8,1:3|0:2,0:2:0:0:
412,319,27183,2,0,L|473:307,1,52,0|8,1:2|0:2,0:0:0:0:
493,280,27663,1,10,3:3:0:0:
493,280,27903,6,0,L|515:162,1,104,6|0,1:3|3:2,0:2:0:0:
491,141,28623,1,10,0:2:0:0:
491,141,28863,2,0,P|459:157|385:138,1,104,2|8,3:2|0:2,0:0:0:0:
351,73,29823,2,0,B|305:109|305:109|327:228,1,156,6|8,1:3|0:2,0:2:0:0:
303,241,30783,2,0,L|249:253,1,52,8|0,0:3|0:0,0:0:0:0:
221,280,31263,1,4,0:3:0:0:
221,280,31503,2,0,L|167:268,1,52,4|6,1:3|1:2,0:0:0:0:
15,241,37503,6,0,B|86:193|190:226|136:272|236:312|313:268,1,312,2|0,3:2|3:2,0:2:0:0:
369,219,39423,5,0,3:2:0:0:
407,145,39903,2,0,L|510:127,2,104,2|2|0,0:2|0:2|0:2,0:2:0:0:
382,111,41103,1,2,1:2:0:0:
382,111,41343,2,0,P|357:95|325:93,1,52,2|2,1:3|0:2,0:0:0:0:
305,121,41823,2,0,P|279:125|258:140,1,52,2|2,0:2|3:2,0:0:0:0:
252,180,42303,1,2,0:2:0:0:
229,302,43023,1,2,1:2:0:0:
229,302,43263,6,0,L|109:323,1,104,2|0,3:2|0:2,0:2:0:0:
85,327,43983,1,2,0:2:0:0:
85,327,44223,2,0,P|48:291|46:230,1,104,2|0,0:2|3:2,0:2:0:0:
54,201,44943,1,2,0:2:0:0:
40,161,45183,1,2,0:2:0:0:
0,53,47103,6,0,P|32:24|124:39,1,130,6|10,1:2|0:2,0:2:0:0:
166,69,47823,1,2,0:2:0:0:
225,43,48063,1,2,1:2:0:0:
354,52,48543,1,10,0:2:0:0:
414,25,48783,1,2,3:2:0:0:
466,63,49023,2,0,P|477:100|465:145,1,65,2|2,1:2|3:3,0:2:0:0:
433,176,49503,2,0,P|421:213|433:258,1,65,8|2,0:2|3:2,0:0:0:0:
450,297,49983,2,0,B|412:320|412:320|317:303,1,130,6|10,1:3|0:2,0:2:0:0:
203,342,50943,6,0,L|227:214,1,130,2|8,1:2|3:2,0:2:0:0:
239,150,51663,1,10,3:3:0:0:
204,94,51903,2,0,P|142:83|84:130,1,130,2|8,1:2|0:2,0:2:0:0:
40,161,52623,1,10,3:3:0:0:
68,219,52863,2,0,L|85:304,1,65,2|2,1:3|3:2,0:2:0:0:
56,343,53343,1,10,0:2:0:0:
181,378,53823,2,0,L|195:309,1,65,2|10,1:2|3:3,0:2:0:0:
231,261,54303,1,10,0:2:0:0:
216,197,54543,1,2,3:2:0:0:
253,144,54783,6,0,P|297:111|383:132,1,130,6|10,1:2|0:2,0:2:0:0:
419,160,55503,1,2,3:2:0:0:
432,223,55743,1,6,1:3:0:0:
413,351,56223,1,10,0:2:0:0:
350,368,56463,1,2,3:2:0:0:
296,335,56703,2,0,P|254:320|229:324,1,65,2|2,1:2|3:2,0:2:0:0:
181,359,57183,2,0,P|139:374|114:370,1,65,10|2,0:2|3:2,0:0:0:0:
59,345,57663,2,0,L|39:210,1,130,2|8,1:2|0:2,0:2:0:0:
0,92,58623,6,0,B|74:73|59:125|134:107,1,130,2|8,1:2|0:2,0:2:0:0:
172,65,59343,1,2,3:2:0:0:
235,80,59583,2,0,B|268:117|268:117|241:217,1,130,2|8,1:2|0:2,0:2:0:0:
233,258,60303,1,2,3:2:0:0:
267,313,60543,2,8,P|306:347|389:331,1,130,2|8,1:3|0:2,0:3:0:0:
432,300,61263,1,8,3:2:0:0:
415,237,61503,1,10,1:3:0:0:
367,116,61983,1,2,1:2:0:0:
325,66,62223,1,10,0:2:0:0:
262,82,62463,6,0,L|236:226,1,130,6|10,1:2|0:2,0:2:0:0:
272,265,63183,1,2,3:2:0:0:
264,329,63423,2,0,P|227:361|137:351,1,130,8|10,1:3|0:2,0:0:0:0:
84,365,64143,1,6,1:3:0:0:
26,334,64383,1,2,1:2:0:0:
10,204,64863,1,10,0:2:0:0:
63,167,65103,1,2,3:2:0:0:
124,186,65343,2,0,L|191:200,1,65,2|8,1:2|3:3,0:0:0:0:
244,168,65823,1,10,0:2:0:0:
345,86,66303,6,0,P|377:122|365:209,1,130,2|8,1:2|0:2,0:2:0:0:
342,257,67023,1,2,3:2:0:0:
365,317,67263,2,0,L|430:332,2,65,10|0|8,1:3|3:2|3:2,0:0:0:0:
314,357,67983,1,2,3:2:0:0:
254,382,68223,2,0,L|180:367,1,65,6|2,1:3|3:2,0:2:0:0:
144,322,68703,1,10,0:2:0:0:
180,197,69183,1,10,1:3:0:0:
211,140,69423,1,2,1:2:0:0:
187,79,69663,2,0,L|123:66,1,65,14|2,0:2|3:2,0:2:0:0:
59,52,70143,6,0,B|21:86|21:86|41:177,1,130,6|10,1:2|0:2,0:2:0:0:
21,226,70863,1,2,3:2:0:0:
49,284,71103,1,10,0:3:0:0:
178,292,71583,1,10,0:2:0:0:
214,237,71823,1,2,3:2:0:0:
277,248,72063,2,0,L|350:262,1,65,2|2,1:2|0:2,0:2:0:0:
404,244,72543,2,0,L|418:171,1,65,10|10,0:2|3:3,0:2:0:0:
427,115,73023,2,0,P|397:89|301:99,1,130,2|8,1:2|0:2,0:0:0:0:
202,19,73983,6,0,L|182:154,1,130,2|8,1:2|0:2,0:2:0:0:
145,200,74703,1,2,3:2:0:0:
164,262,74943,1,2,1:2:0:0:
212,382,75423,1,8,0:2:0:0:
276,376,75663,1,10,0:2:0:0:
306,318,75903,2,0,P|338:272|418:275,1,130,10|12,0:3|0:2,0:0:0:0:
460,305,76623,1,10,0:2:0:0:
507,260,76863,2,0,L|492:177,1,65,6|10,1:3|1:3,0:0:0:0:
481,132,77343,1,10,1:2:0:0:
399,31,77823,6,0,L|329:47,1,65,6|0,1:2|3:2,0:2:0:0:
272,62,78303,1,10,0:2:0:0:
149,17,78783,1,2,1:2:0:0:
119,74,79023,1,2,3:2:0:0:
146,132,79263,2,0,L|164:205,1,65,10|10,0:2|1:3,0:2:0:0:
141,256,79743,2,0,P|173:246|213:253,1,65,2|0,1:2|3:2,0:2:0:0:
259,283,80223,1,8,0:2:0:0:
369,213,80703,2,0,L|460:228,2,65,2|2|10,1:2|3:2|0:2,0:0:0:0:
330,167,81423,1,2,3:2:0:0:
330,167,81663,6,0,L|235:188,2,97.5,2|10|10,1:2|1:3|1:3,0:2:0:0:
371,115,82623,2,0,P|385:74|382:49,1,65,2|2,1:2|3:2,0:0:0:0:
342,1,83103,1,10,0:2:0:0:
212,3,83583,2,0,L|141:16,1,65,2|0,1:2|3:2,0:2:0:0:
96,53,84063,1,14,0:2:0:0:
116,181,84543,2,0,L|105:247,2,65,2|10|8,1:2|3:3|0:2,0:0:0:0:
164,136,85263,1,8,1:3:0:0:
212,179,85503,6,0,B|259:198|259:198|321:187,1,97.5,10|6,1:3|1:3,0:2:0:0:
386,244,86223,2,0,B|405:197|405:197|394:135,1,97.5,6|6,1:3|1:3,0:2:0:0:
379,55,86943,1,6,1:3:0:0:
