osu file format v14

[General]
AudioFilename: audio.mp3
AudioLeadIn: 0
PreviewTime: 46023
Countdown: 0
SampleSet: Soft
StackLeniency: 0.7
Mode: 0
LetterboxInBreaks: 0
WidescreenStoryboard: 1

[Editor]
DistanceSpacing: 0.86
BeatDivisor: 4
GridSize: 4
TimelineZoom: 1.5

[Metadata]
Title:Memento (TV Size)
TitleUnicode:Memento (TV Size)
Artist:nonoc
ArtistUnicode:nonoc
Creator:Kuki1537
Version:Insane
Source:Re:ゼロから始める異世界生活
Tags:re:zero kara hajimeru isekai seikatsu rezero starting life in another world different from zero season two anime ending ed japanese pop rock pikaqours my angel ram my_angel_ram jpop j-pop j-rock jrock
BeatmapID:2589385
BeatmapSetID:1242807

[Difficulty]
HPDrainRate:5
CircleSize:4.2
OverallDifficulty:8.2
ApproachRate:9
SliderMultiplier:2.4
SliderTickRate:1

[Events]
//Background and Video events
0,0,"bg.jpg"
Video,-131,"video.mp4"
//Break Periods
//Storyboard Layer 0 (Background)
//Storyboard Layer 1 (Fail)
//Storyboard Layer 2 (Pass)
//Storyboard Layer 3 (Foreground)
//Storyboard Layer 4 (Overlay)
//Storyboard Sound Samples

[TimingPoints]
63,480,4,2,22,52,1,0
63,-142.857142857143,4,2,22,52,0,0
1023,480,4,2,22,52,1,0
1023,-142.857142857143,4,2,22,52,0,0
4863,-200,4,2,22,52,0,0
6783,-142.857142857143,4,2,22,52,0,0
7743,-200,4,2,22,52,0,0
8703,-100,4,2,22,72,0,0
16383,-142.857142857143,4,2,22,62,0,0
18183,-142.857142857143,4,2,22,5,0,0
18303,-142.857142857143,4,2,22,62,0,0
31743,-200,4,2,22,42,0,0
39423,-142.857142857143,4,2,22,52,0,0
44223,-117.647058823529,4,2,22,62,0,0
45183,-100,4,2,22,72,0,0
46143,-142.857142857143,4,2,22,62,0,0
47103,-90.9090909090909,4,2,22,82,0,1
61023,-90.9090909090909,4,2,22,72,0,0
62463,-83.3333333333333,4,2,22,82,0,1
77823,-100,4,2,22,72,0,0
85503,-66.6666666666667,4,2,22,72,0,0
85623,-66.6666666666667,4,2,22,5,0,0
85863,-66.6666666666667,4,2,22,72,0,0
85983,-66.6666666666667,4,2,22,5,0,0
86223,-66.6666666666667,4,2,22,72,0,0
86343,-66.6666666666667,4,2,22,5,0,0
86583,-66.6666666666667,4,2,22,72,0,0
86703,-66.6666666666667,4,2,22,5,0,0
86943,-66.6666666666667,4,2,22,72,0,0
87063,-66.6666666666667,4,2,22,5,0,0

[Colours]
Combo1 : 227,198,168
Combo2 : 60,133,255
Combo3 : 194,205,211
Combo4 : 91,98,113

[HitObjects]
17,305,63,6,0,L|104:285,1,83.9999974365235,2|2,0:2|0:2,0:0:0:0:
148,197,543,2,0,L|229:215,1,83.9999974365235,2|2,0:2|0:2,0:0:0:0:
281,309,1023,6,0,P|332:245|323:163,1,167.999994873047,2|2,0:2|0:2,0:2:0:0:
278,68,1743,1,2,0:2:0:0:
278,68,1983,2,0,B|341:60|341:60|376:77|376:77|459:67,1,167.999994873047,2|2,0:2|0:2,0:2:0:0:
512,152,2703,1,2,0:2:0:0:
512,152,2943,6,0,L|494:240,1,83.9999974365235,2|2,0:2|0:2,0:0:0:0:
431,369,3423,2,0,L|414:286,1,83.9999974365235,2|2,0:2|0:2,0:0:0:0:
323,163,3903,2,0,P|325:212|220:260,1,167.999994873047,2|2,0:2|0:2,0:2:0:0:
27,96,4863,6,0,B|123:56|104:142|203:103,1,180,2|2,0:2|0:2,0:2:0:0:
267,31,5823,2,0,B|221:67|221:67|250:196,1,180,2|2,0:2|0:2,0:2:0:0:
276,291,6783,6,0,P|239:281|192:290,1,83.9999974365235,2|2,0:2|0:2,0:0:0:0:
115,351,7263,1,2,0:2:0:0:
102,365,7743,6,0,B|80:247|80:247|118:191,1,180,2|0,0:2|0:2,0:2:0:0:
167,119,8703,6,0,P|213:158|275:156,1,120,6|0,1:2|3:2,0:2:0:0:
349,113,9063,1,10,1:3:0:0:
349,113,9183,2,0,P|357:151|380:182,1,60,10|0,0:2|0:2,0:2:0:0:
512,227,9423,2,0,P|473:235|443:258,1,60,10|0,1:3|0:2,0:2:0:0:
407,356,9663,5,2,1:2:0:0:
373,313,9783,1,2,0:2:0:0:
320,299,9903,1,2,3:2:0:0:
270,318,10023,1,10,1:3:0:0:
202,384,10143,2,0,L|185:309,1,60,10|0,0:2|0:2,0:2:0:0:
113,192,10383,2,0,L|99:250,1,60,10|0,1:3|0:2,0:0:0:0:
0,326,10623,6,0,B|68:302|48:357|124:333,1,120,2|0,1:2|3:2,0:2:0:0:
188,244,10983,1,10,1:3:0:0:
188,244,11103,2,0,L|201:185,1,60,8|0,0:2|0:2,0:2:0:0:
91,96,11343,2,0,P|126:108|160:104,1,60,6|0,1:3|0:2,0:2:0:0:
270,0,11583,5,2,1:2:0:0:
272,17,11703,1,2,3:2:0:0:
274,34,11823,1,2,3:2:0:0:
277,51,11943,1,6,1:3:0:0:
229,111,12063,2,0,B|261:133|261:133|347:116,1,120,10|2,0:2|3:2,0:2:0:0:
413,44,12423,1,0,3:2:0:0:
413,44,12543,6,0,P|445:99|430:167,1,120,2|0,1:2|3:2,0:2:0:0:
279,283,12903,2,0,P|310:227|377:206,1,120,10|0,1:3|0:2,0:0:0:0:
450,243,13263,1,10,1:3:0:0:
284,371,13503,5,2,1:2:0:0:
266,366,13623,1,2,0:2:0:0:
248,361,13743,1,2,3:2:0:0:
230,356,13863,1,10,1:3:0:0:
149,384,13983,2,0,B|140:343|140:343|153:309|153:309|145:265,1,120,10|0,0:2|3:2,0:2:0:0:
52,214,14343,1,0,3:2:0:0:
52,214,14463,6,0,P|8:159|20:98,1,120,2|0,1:2|3:2,0:2:0:0:
58,16,14823,1,8,1:3:0:0:
58,16,14943,2,0,L|128:29,1,60,10|0,0:2|0:2,0:2:0:0:
213,90,15183,1,8,0:2:0:0:
257,72,15303,1,8,0:3:0:0:
301,54,15423,5,2,1:2:0:0:
296,77,15543,1,10,0:3:0:0:
292,100,15663,1,10,3:3:0:0:
288,123,15783,1,6,1:3:0:0:
283,146,15903,5,8,0:2:0:0:
313,209,16023,1,8,0:3:0:0:
378,236,16143,1,8,1:3:0:0:
444,211,16263,1,4,3:3:0:0:
476,148,16383,6,0,L|446:315,1,167.999994873047,4|2,1:2|3:2,0:2:0:0:
315,384,17103,2,0,P|301:343|305:296,1,83.9999974365235,10|2,0:2|0:2,0:2:0:0:
382,145,17583,1,10,1:3:0:0:
273,190,17823,1,10,0:2:0:0:
273,190,17943,2,0,P|232:212|184:201,1,83.9999974365235,8|0,0:3|0:2,0:2:0:0:
167,189,18303,6,0,B|188:76|188:76|156:26,1,167.999994873047,6|0,1:3|3:2,0:2:0:0:
3,9,19023,2,0,L|21:98,1,83.9999974365235,8|0,0:2|3:2,0:0:0:0:
30,132,19383,1,0,3:2:0:0:
30,132,19503,1,0,1:2:0:0:
2,243,19743,2,0,L|53:231,3,41.9999987182618,8|0|0|0,0:2|1:3|3:3|3:3,0:0:0:0:
78,205,20223,6,0,P|90:276|159:310,1,125.999996154785,4|0,1:3|3:2,0:2:0:0:
168,313,20703,1,2,3:2:0:0:
248,235,20943,2,0,L|335:214,1,83.9999974365235,10|2,0:2|3:2,0:0:0:0:
367,205,21303,1,0,3:2:0:0:
367,205,21423,1,2,1:2:0:0:
451,258,21663,1,10,0:2:0:0:
451,258,21783,2,0,P|468:210|454:158,1,83.9999974365235,0|0,1:2|3:2,0:0:0:0:
448,143,22143,6,0,L|322:111,1,125.999996154785,2|8,1:2|0:3,0:2:0:0:
286,100,22623,1,2,3:2:0:0:
169,13,22863,2,0,P|185:58|178:98,1,83.9999974365235,8|2,0:2|3:2,0:0:0:0:
161,131,23223,1,0,3:2:0:0:
161,131,23343,1,0,1:2:0:0:
59,200,23583,2,0,L|70:253,1,41.9999987182618,10|0,0:2|1:2,0:0:0:0:
77,284,23823,1,0,3:2:0:0:
77,284,23943,1,0,3:2:0:0:
77,284,24063,6,0,B|168:259|144:334|246:305,1,167.999994873047,4|2,1:2|3:2,0:2:0:0:
309,227,24783,2,0,P|332:257|342:312,1,83.9999974365235,10|2,0:2|3:2,0:0:0:0:
334,343,25143,1,0,3:2:0:0:
334,343,25263,1,10,1:3:0:0:
442,382,25503,1,10,0:2:0:0:
442,382,25623,2,0,L|460:295,1,83.9999974365235,0|0,1:2|3:2,0:0:0:0:
489,271,25983,6,0,L|468:169,1,83.9999974365235,2|0,1:3|0:2,0:2:0:0:
487,146,26343,2,0,P|434:143|397:117,1,83.9999974365235,4|0,0:3|3:2,0:2:0:0:
380,93,26703,1,8,0:2:0:0:
302,4,26943,1,0,3:2:0:0:
302,4,27063,1,0,3:2:0:0:
302,4,27183,1,0,1:2:0:0:
220,86,27423,2,0,L|232:134,1,41.9999987182618,8|0,0:2|1:2,0:0:0:0:
258,159,27663,1,10,3:3:0:0:
251,192,27783,1,2,3:2:0:0:
244,225,27903,6,0,B|155:201|171:276|77:249,1,167.999994873047,6|0,1:3|3:2,0:2:0:0:
32,372,28623,1,10,0:2:0:0:
32,372,28743,1,2,3:2:0:0:
32,372,28863,2,0,L|118:355,1,83.9999974365235,2|0,3:2|1:2,0:0:0:0:
219,305,29343,1,8,0:2:0:0:
219,305,29463,2,0,P|253:335|317:330,1,83.9999974365235,0|0,3:2|3:2,0:0:0:0:
330,330,29823,6,0,L|348:244,1,83.9999974365235,6|0,1:3|0:2,0:2:0:0:
378,223,30183,2,0,L|360:137,1,83.9999974365235,0|0,1:2|0:0,0:0:0:0:
330,111,30543,1,8,0:2:0:0:
227,41,30783,1,8,0:3:0:0:
221,59,30903,1,8,0:3:0:0:
142,127,31143,1,4,0:3:0:0:
148,145,31263,2,0,L|164:207,1,41.9999987182618,4|0,0:3|3:2,0:0:0:0:
236,221,31503,2,0,L|220:283,1,41.9999987182618,4|0,1:3|3:2,0:0:0:0:
203,344,31743,5,6,1:2:0:0:
391,239,32223,1,2,0:2:0:0:
334,384,32703,2,0,L|309:261,1,120,2|0,0:2|0:2,0:2:0:0:
243,151,33423,1,2,0:2:0:0:
231,233,33663,5,2,3:2:0:0:
160,163,33903,1,2,0:2:0:0:
202,76,34143,1,2,0:2:0:0:
300,90,34383,1,2,0:2:0:0:
316,185,34623,2,0,P|347:198|381:196,1,60,2|2,0:2|0:2,0:2:0:0:
434,149,34983,1,2,0:2:0:0:
442,139,35103,2,0,L|435:106,3,30,2|2|2|2,0:2|0:2|0:2|0:2,0:0:0:0:
419,36,35583,5,2,3:2:0:0:
512,217,36063,1,2,0:2:0:0:
350,114,36543,2,0,B|288:96|300:144|234:129,1,120,2|0,0:2|0:2,0:2:0:0:
173,49,37263,1,2,0:2:0:0:
173,49,37503,6,0,B|123:94|123:94|153:217,1,180,2|0,3:2|0:2,0:2:0:0:
216,257,38463,2,0,P|159:237|123:333,1,180,2|0,0:2|3:2,0:2:0:0:
229,357,39423,6,0,L|317:334,1,83.9999974365235,0|0,3:2|0:2,0:2:0:0:
336,304,39783,1,0,1:2:0:0:
336,304,39903,2,0,P|379:324|426:310,1,83.9999974365235,2|0,0:2|0:2,0:2:0:0:
487,254,40383,1,2,0:2:0:0:
487,254,40503,1,0,0:2:0:0:
487,254,40623,2,0,L|468:171,1,83.9999974365235,0|0,1:2|0:2,0:2:0:0:
484,72,41103,1,2,1:2:0:0:
376,27,41343,6,0,P|398:66|392:109,1,83.9999974365235,2|2,1:3|0:2,0:0:0:0:
283,128,41823,2,0,P|261:89|267:45,1,83.9999974365235,2|2,0:2|3:2,0:0:0:0:
353,178,42303,2,0,L|364:225,3,41.9999987182618,2|0|0|0,0:2|0:2|1:2|0:2,0:0:0:0:
373,259,42783,1,0,0:2:0:0:
267,343,43023,1,2,1:2:0:0:
234,350,43143,1,2,0:2:0:0:
201,357,43263,6,0,L|235:189,1,167.999994873047,2|0,3:2|0:2,0:2:0:0:
154,86,43983,1,2,0:2:0:0:
113,74,44103,1,2,0:2:0:0:
72,62,44223,6,0,L|116:262,1,204.000003890991,2|0,0:2|3:2,0:2:0:0:
315,281,44943,1,2,0:2:0:0:
368,296,45063,1,2,0:2:0:0:
421,311,45183,6,0,B|462:257|424:180|410:222|370:145|418:77|418:77|398:137|439:193,1,360,2|0,0:2|0:0,0:2:0:0:
469,5,46143,6,0,P|414:-12|332:43,1,125.999996154785,2|0,0:2|0:2,0:2:0:0:
297,100,46623,2,0,L|285:153,1,41.9999987182618,2|0,0:2|0:2,0:2:0:0:
185,169,46863,2,0,L|194:128,1,41.9999987182618,2|0,0:2|0:2,0:2:0:0:
133,0,47103,6,0,L|88:200,1,198.000006042481,6|8,1:2|3:3,0:2:0:0:
6,303,47583,2,0,P|42:282|92:286,1,66.0000020141602,10|0,0:2|0:2,0:2:0:0:
203,365,47823,2,0,P|170:359|143:341,1,66.0000020141602,2|0,0:2|0:2,0:2:0:0:
176,197,48063,2,0,B|223:168|223:168|321:192,1,132.00000402832,2|0,1:2|3:2,0:0:0:0:
376,135,48423,1,0,3:2:0:0:
376,135,48543,2,0,P|393:178|391:211,1,66.0000020141602,10|0,0:2|0:2,0:2:0:0:
316,336,48783,2,0,P|318:303|333:273,1,66.0000020141602,2|0,3:2|0:2,0:2:0:0:
495,272,49023,6,0,L|430:287,1,66.0000020141602,2|0,1:2|0:2,0:2:0:0:
233,170,49263,2,0,L|303:187,1,66.0000020141602,2|0,3:3|0:2,0:2:0:0:
457,82,49503,1,8,0:2:0:0:
418,45,49623,1,8,0:3:0:0:
365,41,49743,2,0,L|294:59,1,66.0000020141602,2|0,3:2|3:2,0:0:0:0:
196,0,49983,2,0,P|209:49|166:112,1,132.00000402832,6|0,1:3|3:2,0:2:0:0:
24,72,50343,1,8,3:3:0:0:
24,72,50463,2,0,B|66:111|66:111|41:267,1,198.000006042481,10|0,0:2|3:2,0:2:0:0:
13,340,50943,6,0,B|64:346|64:346|100:329|100:329|162:337,1,132.00000402832,2|0,1:2|3:2,0:2:0:0:
239,345,51303,1,8,0:3:0:0:
239,345,51423,2,0,L|224:273,1,66.0000020141602,8|0,3:2|0:2,0:2:0:0:
150,175,51663,2,0,L|136:239,1,66.0000020141602,10|0,3:3|0:2,0:2:0:0:
320,289,51903,2,0,P|382:272|397:178,1,132.00000402832,2|0,1:2|3:2,0:2:0:0:
396,117,52263,1,0,0:2:0:0:
396,117,52383,2,0,P|353:130|330:158,1,66.0000020141602,8|0,0:2|0:2,0:2:0:0:
481,154,52623,2,0,P|491:110|478:76,1,66.0000020141602,10|4,3:3|3:3,0:0:0:0:
282,0,52863,6,0,L|300:79,1,66.0000020141602,2|0,1:3|0:2,0:2:0:0:
204,199,53103,2,0,L|218:134,1,66.0000020141602,2|0,3:2|0:2,0:2:0:0:
116,14,53343,2,0,L|134:93,1,66.0000020141602,10|0,0:2|0:2,0:2:0:0:
60,243,53583,1,0,3:2:0:0:
46,191,53703,1,0,3:2:0:0:
32,139,53823,2,0,L|16:207,1,66.0000020141602,2|0,1:2|0:2,0:2:0:0:
141,256,54063,2,0,L|156:320,1,66.0000020141602,10|0,3:3|0:2,0:2:0:0:
193,125,54303,1,10,0:2:0:0:
255,88,54423,1,0,0:2:0:0:
324,109,54543,1,2,3:2:0:0:
356,173,54663,1,0,3:2:0:0:
330,241,54783,6,0,B|224:209|239:294|136:254,1,198.000006042481,6|8,1:2|3:3,0:2:0:0:
164,115,55263,2,0,P|177:142|181:186,1,66.0000020141602,10|0,0:2|0:2,0:2:0:0:
79,78,55503,2,0,P|95:53|131:27,1,66.0000020141602,2|0,3:2|0:2,0:2:0:0:
270,5,55743,2,0,L|411:37,1,132.00000402832,6|2,1:3|3:2,0:0:0:0:
497,59,56103,1,0,0:2:0:0:
497,59,56223,2,0,L|517:137,1,66.0000020141602,10|0,0:2|0:2,0:2:0:0:
409,242,56463,2,0,L|425:178,1,66.0000020141602,2|0,3:2|0:2,0:2:0:0:
331,109,56703,6,0,P|284:109|257:123,1,66.0000020141602,2|0,1:2|0:2,0:2:0:0:
287,259,56943,2,0,P|310:218|311:187,1,66.0000020141602,2|0,3:2|3:2,0:2:0:0:
201,64,57183,1,10,0:2:0:0:
182,113,57303,1,8,0:3:0:0:
166,163,57423,2,0,L|187:248,1,66.0000020141602,2|0,3:2|3:2,0:0:0:0:
219,371,57663,2,0,P|157:322|92:331,1,132.00000402832,2|0,1:2|3:2,0:2:0:0:
41,378,58023,1,0,0:2:0:0:
41,378,58143,1,8,0:2:0:0:
40,112,58383,1,2,3:2:0:0:
28,163,58503,1,0,3:2:0:0:
18,214,58623,6,0,L|175:183,1,132.00000402832,2|0,1:2|3:2,0:2:0:0:
246,168,58983,1,8,0:3:0:0:
246,168,59103,1,8,0:2:0:0:
226,319,59343,2,0,L|207:241,1,66.0000020141602,2|0,3:2|0:2,0:2:0:0:
325,127,59583,2,0,P|333:197|289:252,1,132.00000402832,2|0,1:2|3:2,0:2:0:0:
226,319,59943,1,8,3:3:0:0:
226,319,60063,2,0,L|321:340,1,66.0000020141602,8|0,0:2|0:2,0:2:0:0:
409,384,60303,2,0,L|394:319,1,66.0000020141602,2|0,3:2|0:2,0:2:0:0:
447,223,60543,6,8,L|475:86,1,132.00000402832,2|0,1:3|3:0,0:3:0:0:
461,0,60903,1,8,0:3:0:0:
434,10,61023,1,8,0:2:0:0:
295,92,61263,1,8,3:2:0:0:
349,167,61383,1,8,0:2:0:0:
295,243,61503,1,10,1:3:0:0:
205,215,61623,1,8,0:2:0:0:
205,120,61743,2,0,P|181:91|129:73,1,66.0000020141602,10|0,0:2|0:2,0:2:0:0:
17,68,61983,2,0,L|38:144,1,66.0000020141602,2|0,1:2|0:2,0:2:0:0:
116,213,62223,1,10,0:2:0:0:
94,289,62343,1,8,0:2:0:0:
72,365,62463,6,0,B|153:355|153:355|192:378|192:378|286:363,1,215.999993408203,6|8,1:2|1:3,0:2:0:0:
237,209,62943,2,0,P|218:259|224:290,1,71.9999978027344,10|0,0:2|0:2,0:2:0:0:
370,318,63183,2,0,P|389:268|383:237,1,71.9999978027344,2|0,3:2|3:2,0:2:0:0:
338,117,63423,1,8,1:3:0:0:
323,188,63543,2,0,L|341:108,1,71.9999978027344,8|0,0:2|3:2,0:2:0:0:
490,59,63783,1,8,0:3:0:0:
505,130,63903,2,0,L|426:151,1,71.9999978027344,10|0,0:2|0:2,0:2:0:0:
320,16,64143,2,0,L|399:37,1,71.9999978027344,6|0,1:3|0:2,0:2:0:0:
249,135,64383,6,0,P|216:120|188:83,1,71.9999978027344,2|0,1:2|0:2,0:2:0:0:
104,0,64623,2,0,P|107:36|89:78,1,71.9999978027344,2|8,3:2|1:3,0:0:0:0:
60,194,64863,2,0,P|89:172|135:167,1,71.9999978027344,10|0,0:2|0:2,0:2:0:0:
286,212,65103,2,0,P|251:222|209:210,1,71.9999978027344,2|0,3:2|0:2,0:2:0:0:
65,280,65343,1,2,1:2:0:0:
164,291,65463,1,8,0:2:0:0:
82,349,65583,2,0,L|62:269,1,71.9999978027344,8|0,3:3|0:2,0:2:0:0:
217,215,65823,1,10,0:2:0:0:
217,215,65943,2,0,P|253:269|233:351,1,143.999995605469,8|0,1:3|3:2,0:0:0:0:
373,384,66303,6,0,P|357:315|395:255,1,143.999995605469,2|0,1:2|3:2,0:2:0:0:
504,187,66663,1,8,0:3:0:0:
504,187,66783,2,0,L|421:167,1,71.9999978027344,8|0,0:2|0:2,0:2:0:0:
272,118,67023,2,0,L|355:98,1,71.9999978027344,2|0,3:2|0:2,0:2:0:0:
512,13,67263,1,10,1:3:0:0:
411,23,67383,1,8,0:2:0:0:
495,83,67503,2,0,L|512:13,1,71.9999978027344,0|8,3:2|1:3,0:0:0:0:
317,11,67743,2,0,L|334:80,1,71.9999978027344,8|0,3:2|0:2,0:2:0:0:
309,203,67983,1,2,3:2:0:0:
238,219,68103,1,0,3:2:0:0:
167,234,68223,6,0,L|182:157,1,71.9999978027344,6|8,1:3|0:2,0:2:0:0:
50,61,68463,2,0,L|63:131,1,71.9999978027344,2|8,3:2|0:3,0:2:0:0:
259,138,68703,2,0,P|205:85|129:99,1,143.999995605469,10|8,0:2|3:3,0:2:0:0:
48,158,69063,1,8,0:2:0:0:
48,158,69183,2,0,L|32:240,1,71.9999978027344,10|0,1:3|0:2,0:2:0:0:
140,373,69423,2,0,L|126:302,1,71.9999978027344,2|0,1:2|0:2,0:2:0:0:
180,163,69663,2,0,B|300:136|269:227|390:202,1,215.999993408203,14|0,0:2|0:2,0:2:0:0:
444,355,70143,6,0,P|400:307|306:317,1,143.999995605469,6|0,1:2|0:2,0:2:0:0:
239,384,70503,1,8,0:3:0:0:
239,384,70623,2,0,L|225:313,1,71.9999978027344,10|0,0:2|0:2,0:2:0:0:
106,197,70863,2,0,P|128:229|196:243,1,71.9999978027344,2|0,3:2|0:2,0:2:0:0:
362,146,71103,1,10,0:3:0:0:
261,155,71223,1,8,0:2:0:0:
345,215,71343,2,0,L|362:145,1,71.9999978027344,8|0,1:3|0:2,0:2:0:0:
266,0,71583,1,10,0:2:0:0:
266,0,71703,2,0,L|283:70,1,71.9999978027344,0|2,1:2|3:2,0:0:0:0:
163,105,71943,1,0,3:2:0:0:
163,105,72063,6,0,P|128:102|96:85,1,71.9999978027344,2|0,1:2|0:2,0:2:0:0:
0,166,72303,2,0,P|35:169|67:186,1,71.9999978027344,2|8,0:2|0:3,0:0:0:0:
129,301,72543,2,0,L|144:230,1,71.9999978027344,10|0,0:2|0:2,0:2:0:0:
246,150,72783,2,0,L|261:220,1,71.9999978027344,10|0,3:3|0:2,0:2:0:0:
269,367,73023,1,2,1:2:0:0:
215,299,73143,1,8,0:2:0:0:
200,384,73263,2,0,L|270:367,1,71.9999978027344,8|4,3:3|0:3,0:2:0:0:
363,283,73503,1,8,0:2:0:0:
363,283,73623,2,0,P|434:338|487:323,1,143.999995605469,8|0,1:3|0:2,0:0:0:0:
512,243,73983,6,0,L|483:102,1,143.999995605469,2|0,1:2|3:0,0:2:0:0:
463,14,74343,1,8,0:3:0:0:
463,14,74463,1,8,0:2:0:0:
363,163,74703,1,2,3:2:0:0:
292,176,74823,1,10,0:3:0:0:
221,190,74943,1,2,1:2:0:0:
232,118,75063,2,0,L|218:202,1,71.9999978027344,8|0,0:2|3:2,0:2:0:0:
112,300,75303,1,8,1:3:0:0:
100,228,75423,2,0,L|88:156,1,71.9999978027344,8|0,0:2|3:2,0:2:0:0:
7,18,75663,1,10,0:2:0:0:
77,30,75783,1,2,3:2:0:0:
147,42,75903,5,10,0:3:0:0:
147,42,76023,2,0,P|197:99|291:79,1,143.999995605469,8|4,0:2|1:3,0:2:0:0:
479,18,76383,5,12,0:2:0:0:
388,0,76503,1,8,0:2:0:0:
346,79,76623,1,10,0:2:0:0:
407,146,76743,1,10,0:2:0:0:
490,107,76863,5,6,1:3:0:0:
432,85,76983,1,10,1:3:0:0:
379,115,77103,1,10,1:3:0:0:
369,176,77223,1,10,1:3:0:0:
406,225,77343,6,0,P|444:235|485:275,1,71.9999978027344,10|10,1:2|1:3,0:0:0:0:
409,384,77583,2,0,P|399:345|412:290,1,71.9999978027344,10|10,1:3|1:3,0:0:0:0:
285,272,77823,6,0,L|152:300,1,120,6|0,1:2|3:2,0:2:0:0:
78,310,78183,1,10,1:3:0:0:
78,310,78303,2,0,P|81:266|101:231,1,60,10|0,0:2|0:2,0:2:0:0:
202,167,78543,2,0,P|162:186|122:186,1,60,10|0,1:3|0:2,0:2:0:0:
0,88,78783,5,2,1:2:0:0:
41,121,78903,1,2,0:2:0:0:
94,123,79023,1,2,3:2:0:0:
138,92,79143,1,10,1:3:0:0:
156,11,79263,2,0,P|188:23|240:20,1,60,10|0,0:2|0:2,0:2:0:0:
326,12,79503,1,10,1:3:0:0:
326,12,79623,1,0,0:2:0:0:
326,12,79743,6,0,P|301:73|318:128,1,120,2|0,1:2|3:2,0:2:0:0:
398,197,80103,1,10,1:3:0:0:
398,197,80223,2,0,L|313:216,1,60,8|0,0:2|0:2,0:2:0:0:
240,283,80463,2,0,L|325:302,1,60,6|0,1:3|0:2,0:2:0:0:
417,357,80703,5,2,1:2:0:0:
420,340,80823,1,2,3:2:0:0:
422,323,80943,1,2,3:2:0:0:
424,306,81063,1,6,1:3:0:0:
480,244,81183,2,0,P|490:187|463:131,1,120,10|2,0:2|3:2,0:2:0:0:
380,77,81543,1,0,3:2:0:0:
380,77,81663,6,0,L|254:102,1,120,2|0,1:2|3:2,0:2:0:0:
119,24,82023,2,0,B|164:2|164:2|250:29,1,120,10|0,1:3|0:2,0:0:0:0:
171,97,82383,1,10,1:3:0:0:
38,161,82623,5,2,1:2:0:0:
40,178,82743,1,2,0:2:0:0:
42,195,82863,1,2,3:2:0:0:
45,212,82983,1,10,1:3:0:0:
15,290,83103,2,0,P|50:298|80:290,1,60,10|0,0:2|0:2,0:2:0:0:
140,226,83343,2,0,P|175:218|205:226,1,60,0|0,3:2|3:2,0:0:0:0:
281,332,83583,6,0,B|297:207|297:207|300:240|327:268,1,180,2|8,1:2|1:3,0:2:0:0:
491,248,84063,2,0,P|441:201|368:213,1,120,14|8,0:2|0:2,0:2:0:0:
231,115,84543,5,2,1:2:0:0:
248,112,84663,1,10,0:3:0:0:
265,110,84783,1,10,3:3:0:0:
282,108,84903,1,6,1:3:0:0:
315,89,85023,5,8,0:2:0:0:
306,148,85143,1,8,0:3:0:0:
297,207,85263,1,8,1:3:0:0:
288,266,85383,1,4,3:3:0:0:
279,325,85503,6,0,L|180:347,1,90.0000034332277,10|0,1:3|0:2,0:2:0:0:
27,249,85863,6,0,L|126:271,1,90.0000034332277,6|0,1:3|0:2,0:2:0:0:
279,173,86223,6,0,L|180:195,1,90.0000034332277,6|0,1:3|0:2,0:2:0:0:
27,97,86583,6,0,L|126:119,1,90.0000034332277,6|0,1:3|0:2,0:2:0:0:
279,21,86943,6,0,L|180:43,1,90.0000034332277,6|0,1:3|0:2,0:2:0:0:
