osu file format v14

[General]
AudioFilename: audio.mp3
AudioLeadIn: 0
PreviewTime: 46023
Countdown: 0
SampleSet: Soft
StackLeniency: 0.7
Mode: 0
LetterboxInBreaks: 0
WidescreenStoryboard: 1

[Editor]
DistanceSpacing: 1.3
BeatDivisor: 4
GridSize: 4
TimelineZoom: 1.5

[Metadata]
Title:Memento (TV Size)
TitleUnicode:Memento (TV Size)
Artist:nonoc
ArtistUnicode:nonoc
Creator:Kuki1537
Version:Hard
Source:Re:ゼロから始める異世界生活
Tags:re:zero kara hajimeru isekai seikatsu rezero starting life in another world different from zero season two anime ending ed japanese pop rock pikaqours my angel ram my_angel_ram jpop j-pop j-rock jrock
BeatmapID:2586752
BeatmapSetID:1242807

[Difficulty]
HPDrainRate:4.5
CircleSize:3.8
OverallDifficulty:6
ApproachRate:7
SliderMultiplier:1.65
SliderTickRate:1

[Events]
//Background and Video events
0,0,"bg.jpg"
Video,-131,"video.mp4"
//Break Periods
2,31943,36603
//Storyboard Layer 0 (Background)
//Storyboard Layer 1 (Fail)
//Storyboard Layer 2 (Pass)
//Storyboard Layer 3 (Foreground)
//Storyboard Layer 4 (Overlay)
//Storyboard Sound Samples

[TimingPoints]
63,480,4,2,22,52,1,0
63,-125,4,2,22,52,0,0
1023,480,4,2,22,52,1,0
1023,-125,4,2,22,52,0,0
8703,-100,4,2,22,72,0,0
16383,-125,4,2,22,62,0,0
18183,-125,4,2,22,5,0,0
18303,-125,4,2,22,62,0,0
31743,-125,4,2,22,42,0,0
37503,-166.666666666667,4,2,22,42,0,0
39423,-125,4,2,22,52,0,0
44223,-111.111111111111,4,2,22,62,0,0
45183,-111.111111111111,4,2,22,72,0,0
46143,-111.111111111111,4,2,22,62,0,0
47103,-90.9090909090909,4,2,22,82,0,1
61023,-90.9090909090909,4,2,22,72,0,0
62463,-90.9090909090909,4,2,22,82,0,1
77823,-100,4,2,22,72,0,0
85623,-100,4,2,22,5,0,0
85863,-100,4,2,22,72,0,0
85983,-100,4,2,22,5,0,0
86223,-100,4,2,22,72,0,0
86343,-100,4,2,22,5,0,0
86583,-100,4,2,22,72,0,0
86703,-100,4,2,22,5,0,0
86943,-100,4,2,22,72,0,0
87063,-100,4,2,22,5,0,0

[Colours]
Combo1 : 227,198,168
Combo2 : 60,133,255
Combo3 : 194,205,211
Combo4 : 91,98,113

[HitObjects]
105,30,63,6,0,L|91:106,1,66,2|2,0:2|0:2,0:0:0:0:
30,154,543,2,0,L|44:230,1,66,2|2,0:2|0:2,0:0:0:0:
47,304,1023,6,0,P|96:287|170:330,1,132,2|2,0:2|0:2,0:2:0:0:
227,379,1743,1,2,0:2:0:0:
293,325,1983,2,0,L|271:191,1,132,2|2,0:2|0:2,0:2:0:0:
209,136,2703,1,2,0:2:0:0:
253,62,2943,6,0,P|295:46|327:48,1,66,2|2,0:2|0:2,0:0:0:0:
380,103,3423,2,0,P|422:119|454:117,1,66,2|2,0:2|0:2,0:0:0:0:
503,58,3903,2,0,B|537:97|537:97|518:197,1,132,2|2,0:2|0:2,0:2:0:0:
486,344,4863,6,0,P|453:311|357:328,1,132,2|0,0:2|0:2,0:2:0:0:
310,374,5583,1,2,0:2:0:0:
245,316,5823,2,0,L|222:183,1,132,2|0,0:2|0:2,0:2:0:0:
242,102,6543,1,2,0:2:0:0:
180,42,6783,5,2,0:2:0:0:
95,56,7023,1,2,0:2:0:0:
44,125,7263,2,0,P|28:172|38:211,1,66,2|0,0:2|0:2,0:2:0:0:
24,273,7743,2,0,B|75:243|138:271|104:286|167:314|222:277,1,198,2|0,0:2|0:2,0:2:0:0:
296,217,8703,6,0,B|278:132|278:132|299:93,1,123.75,6|10,1:2|1:3,0:2:0:0:
325,55,9183,2,0,P|371:41|419:56,1,82.5,10|10,0:2|1:3,0:2:0:0:
484,118,9663,1,2,1:2:0:0:
484,118,9783,1,2,0:2:0:0:
484,118,9903,2,0,L|472:173,1,41.25,2|10,3:2|1:3,0:0:0:0:
437,196,10143,2,0,L|456:297,1,82.5,10|10,0:2|1:3,0:2:0:0:
377,355,10623,6,0,P|338:342|290:350,1,82.5,2|0,1:2|3:2,0:2:0:0:
252,376,10983,1,10,1:3:0:0:
252,376,11103,2,0,L|237:285,1,82.5,8|6,0:2|1:3,0:2:0:0:
305,210,11583,2,0,L|315:163,3,41.25,2|2|2|6,1:2|3:2|3:2|1:3,0:0:0:0:
293,119,12063,2,0,P|254:98|206:104,1,82.5,10|2,0:2|3:2,0:2:0:0:
167,121,12423,1,0,3:2:0:0:
167,121,12543,6,0,L|143:-1,2,123.75,2|10|10,1:2|1:3|1:3,0:2:0:0:
106,209,13503,2,0,L|94:270,3,41.25,2|2|2|10,1:2|0:2|3:2|1:3,0:0:0:0:
76,298,13983,2,0,L|162:281,1,82.5,10|0,0:2|3:2,0:2:0:0:
203,256,14343,1,0,3:2:0:0:
203,256,14463,6,0,L|289:273,1,82.5,2|0,1:2|3:2,0:2:0:0:
336,283,14823,1,8,1:3:0:0:
336,283,14943,1,10,0:2:0:0:
418,214,15183,1,8,0:2:0:0:
418,214,15303,1,8,0:3:0:0:
418,214,15423,2,0,L|408:167,3,41.25,2|10|10|6,1:2|0:3|3:3|1:3,0:0:0:0:
439,133,15903,1,8,0:2:0:0:
443,112,16023,1,8,0:3:0:0:
447,91,16143,1,8,1:3:0:0:
451,70,16263,1,4,3:3:0:0:
435,40,16383,6,0,P|395:17|306:32,1,132,4|2,1:2|3:2,0:2:0:0:
260,92,17103,1,10,0:2:0:0:
114,155,17583,2,0,L|37:142,1,66,10|10,1:3|0:2,0:0:0:0:
14,162,17943,1,8,0:3:0:0:
40,277,18303,6,0,B|93:270|93:270|120:285|120:285|176:277,1,132,6|0,1:3|3:2,0:2:0:0:
235,236,19023,1,8,0:2:0:0:
291,291,19263,2,0,L|283:333,2,33,0|0|0,3:2|3:2|1:2,0:0:0:0:
361,254,19743,1,8,0:2:0:0:
361,254,19863,1,0,1:3:0:0:
361,254,19983,1,0,3:3:0:0:
430,292,20223,6,0,P|472:284|489:192,1,132,4|2,1:3|3:2,0:2:0:0:
453,141,20943,1,10,0:2:0:0:
325,47,21423,2,0,L|233:64,1,66,2|10,1:2|0:2,0:0:0:0:
234,89,21783,1,0,1:2:0:0:
125,40,22143,6,0,P|110:85|130:153,1,99,2|8,1:2|0:3,0:2:0:0:
147,162,22623,2,0,L|133:232,1,66,2|8,3:2|0:2,0:0:0:0:
98,297,23103,2,0,L|54:306,2,33,2|0|0,3:2|3:2|1:2,0:0:0:0:
177,340,23583,1,10,0:2:0:0:
177,340,23703,1,0,1:2:0:0:
177,340,23823,1,0,3:2:0:0:
241,293,24063,6,0,B|234:240|234:240|250:208|250:208|245:157,1,132,4|2,1:2|3:2,0:2:0:0:
237,86,24783,1,10,0:2:0:0:
372,3,25263,2,0,L|447:19,1,66,10|10,1:3|0:2,0:0:0:0:
466,43,25623,1,0,1:2:0:0:
415,150,25983,6,0,B|386:176|386:176|406:274,1,132,2|0,1:3|3:2,0:2:0:0:
394,346,26703,1,8,0:2:0:0:
316,353,26943,2,0,L|308:387,2,33,0|0|0,3:2|3:2|1:2,0:0:0:0:
274,285,27423,1,8,0:2:0:0:
196,300,27663,1,10,3:3:0:0:
196,300,27783,1,2,3:2:0:0:
196,300,27903,6,0,P|152:334|57:312,1,132,6|0,1:3|3:2,0:2:0:0:
24,270,28623,1,10,0:2:0:0:
24,270,28743,1,2,3:2:0:0:
24,270,28863,2,0,L|55:124,1,132,2|8,3:2|0:2,0:0:0:0:
37,62,29583,1,2,3:2:0:0:
101,16,29823,6,0,P|132:50|218:36,1,132,6|0,1:3|3:2,0:2:0:0:
285,71,30543,1,8,0:2:0:0:
358,39,30783,1,8,0:3:0:0:
358,39,30903,2,0,P|391:28|448:49,1,66,8|4,0:3|0:3,0:0:0:0:
453,55,31263,2,0,L|463:100,1,33,4|0,0:3|3:2,0:0:0:0:
487,116,31503,2,0,L|477:161,1,33,4|0,1:3|3:2,0:0:0:0:
470,186,31743,5,6,1:2:0:0:
432,328,37503,6,0,B|475:329|505:284|476:226|422:225|363:251|391:281|340:329|261:297,1,296.99999093628,2|0,3:2|3:2,0:2:0:0:
131,237,39423,5,0,3:2:0:0:
191,91,39903,2,0,P|236:114|279:106,1,66,2|0,0:2|0:2,0:2:0:0:
319,75,40383,2,0,P|352:46|440:53,1,132,2|0,0:2|0:2,0:0:0:0:
495,102,41103,1,2,1:2:0:0:
454,170,41343,6,0,L|440:242,1,66,2|2,1:3|0:2,0:0:0:0:
464,310,41823,2,0,L|394:322,1,66,2|2,0:2|3:2,0:0:0:0:
332,364,42303,2,0,P|302:333|220:342,1,132,2|0,0:2|0:2,0:0:0:0:
145,370,43023,1,2,1:2:0:0:
145,370,43143,1,2,0:2:0:0:
145,370,43263,6,0,L|121:241,1,132,2|0,3:2|0:2,0:2:0:0:
195,175,43983,1,2,0:2:0:0:
209,182,44103,1,2,0:2:0:0:
223,189,44223,6,0,B|237:92|237:92|198:47,1,148.49999546814,2|0,0:2|3:2,0:2:0:0:
105,1,44943,1,2,0:2:0:0:
76,9,45063,1,2,0:2:0:0:
47,18,45183,5,2,0:2:0:0:
45,80,47103,6,0,P|106:45|173:55,1,136.125004154205,6|8,1:2|3:3,0:2:0:0:
213,84,47583,1,10,0:2:0:0:
268,177,47823,1,2,0:2:0:0:
268,177,47943,1,0,0:2:0:0:
268,177,48063,2,0,L|250:271,1,90.7500027694703,2|0,1:2|3:2,0:0:0:0:
316,353,48543,1,10,0:2:0:0:
414,306,48783,1,2,3:2:0:0:
398,198,49023,5,2,1:2:0:0:
493,145,49263,1,2,3:3:0:0:
463,40,49503,1,8,0:2:0:0:
463,40,49623,1,8,0:3:0:0:
463,40,49743,2,0,L|408:50,1,45.3750013847352,2|0,3:2|3:2,0:0:0:0:
370,74,49983,2,0,L|282:55,1,90.7500027694703,6|0,1:3|3:2,0:2:0:0:
183,6,50463,2,0,P|173:58|197:116,1,90.7500027694703,10|0,0:2|3:2,0:2:0:0:
216,137,50823,1,0,3:2:0:0:
216,137,50943,6,0,B|251:175|251:175|232:287,1,136.125004154205,2|8,1:2|0:3,0:2:0:0:
228,312,51423,1,8,3:2:0:0:
137,372,51663,1,10,3:3:0:0:
137,372,51783,1,0,0:2:0:0:
137,372,51903,2,0,P|86:382|37:355,1,90.7500027694703,2|0,1:2|3:2,0:2:0:0:
4,269,52383,1,8,0:2:0:0:
67,180,52623,2,0,L|78:129,1,45.3750013847352,10|4,3:3|3:3,0:0:0:0:
50,87,52863,6,0,P|99:99|161:70,1,90.7500027694703,2|2,1:3|3:2,0:2:0:0:
173,47,53223,1,0,0:2:0:0:
173,47,53343,1,10,0:2:0:0:
248,143,53583,1,0,3:2:0:0:
248,143,53703,1,0,3:2:0:0:
248,143,53823,2,0,L|300:154,1,45.3750013847352,2|0,1:2|0:2,0:2:0:0:
335,117,54063,2,0,L|379:107,1,45.3750013847352,10|0,3:3|0:2,0:2:0:0:
412,64,54303,1,10,0:2:0:0:
490,139,54543,1,2,3:2:0:0:
490,139,54663,1,0,3:2:0:0:
490,139,54783,6,0,P|508:191|430:246,1,136.125004154205,6|8,1:2|3:3,0:2:0:0:
403,244,55263,1,10,0:2:0:0:
331,325,55503,1,2,3:2:0:0:
331,325,55623,1,0,0:2:0:0:
331,325,55743,2,0,L|238:343,1,90.7500027694703,6|2,1:3|3:2,0:0:0:0:
198,376,56103,1,0,0:2:0:0:
198,376,56223,1,10,0:2:0:0:
94,342,56463,1,2,3:2:0:0:
107,233,56703,5,2,1:2:0:0:
212,205,56943,1,2,3:2:0:0:
212,205,57063,1,0,3:2:0:0:
212,205,57183,1,10,0:2:0:0:
252,104,57423,1,2,3:2:0:0:
172,29,57663,2,0,L|78:47,1,90.7500027694703,2|0,1:2|3:2,0:2:0:0:
44,85,58023,1,0,0:2:0:0:
44,85,58143,1,8,0:2:0:0:
13,189,58383,2,0,L|24:242,1,45.3750013847352,2|0,3:2|3:2,0:2:0:0:
20,288,58623,6,0,P|71:269|109:278,1,90.7500027694703,2|0,1:2|3:2,0:2:0:0:
150,307,58983,1,8,0:3:0:0:
150,307,59103,1,8,0:2:0:0:
232,378,59343,1,2,3:2:0:0:
317,310,59583,2,0,P|353:278|421:287,1,90.7500027694703,2|0,1:2|3:2,0:2:0:0:
442,298,59943,1,8,3:3:0:0:
442,298,60063,1,8,0:2:0:0:
501,207,60303,1,2,3:2:0:0:
501,207,60423,1,0,0:2:0:0:
501,207,60543,6,8,L|482:116,1,90.7500027694703,2|0,1:3|3:0,0:3:0:0:
498,65,60903,1,8,0:3:0:0:
498,65,61023,1,8,0:2:0:0:
404,8,61263,1,8,3:2:0:0:
372,5,61383,1,8,0:2:0:0:
343,16,61503,1,10,1:3:0:0:
322,39,61623,1,8,0:2:0:0:
313,69,61743,1,10,0:2:0:0:
283,173,61983,1,2,1:2:0:0:
185,125,62223,1,10,0:2:0:0:
178,151,62343,1,8,0:2:0:0:
171,177,62463,6,0,B|189:270|189:270|170:320,1,136.125004154205,6|8,1:2|1:3,0:2:0:0:
146,360,62943,1,10,0:2:0:0:
28,367,63183,1,2,3:2:0:0:
3,251,63423,1,8,1:3:0:0:
3,251,63543,2,0,P|21:198|14:150,1,90.7500027694703,8|8,0:2|0:3,0:2:0:0:
0,107,63903,1,10,0:2:0:0:
77,18,64143,1,6,1:3:0:0:
173,86,64383,6,0,P|230:103|276:85,1,90.7500027694703,2|2,1:2|3:2,0:2:0:0:
307,61,64743,1,8,1:3:0:0:
307,61,64863,1,10,0:2:0:0:
418,22,65103,1,2,3:2:0:0:
495,110,65343,1,2,1:2:0:0:
495,110,65463,1,8,0:2:0:0:
495,110,65583,1,8,3:3:0:0:
443,216,65823,1,10,0:2:0:0:
443,216,65943,2,0,P|385:196|338:208,1,90.7500027694703,8|0,1:3|3:2,0:0:0:0:
301,221,66303,6,0,L|284:314,1,90.7500027694703,2|0,1:2|3:2,0:2:0:0:
239,348,66663,1,8,0:3:0:0:
239,348,66783,1,8,0:2:0:0:
131,300,67023,1,2,3:2:0:0:
29,360,67263,1,10,1:3:0:0:
29,360,67383,2,0,P|17:310|28:263,1,90.7500027694703,8|8,0:2|1:3,0:2:0:0:
55,221,67743,1,8,3:2:0:0:
128,128,67983,1,2,3:2:0:0:
128,128,68103,1,0,3:2:0:0:
128,128,68223,6,0,L|187:139,1,45.3750013847352,6|8,1:3|0:2,0:2:0:0:
216,175,68463,2,0,L|275:164,1,45.3750013847352,2|8,3:2|0:3,0:2:0:0:
305,127,68703,2,0,P|331:84|323:36,1,90.7500027694703,10|8,0:2|3:3,0:2:0:0:
284,3,69063,1,8,0:2:0:0:
284,3,69183,1,10,1:3:0:0:
176,50,69423,1,2,1:2:0:0:
66,6,69663,2,0,P|57:67|94:137,1,136.125004154205,14|0,0:2|0:2,0:2:0:0:
141,160,70143,6,0,L|114:296,1,136.125004154205,6|8,1:2|0:3,0:2:0:0:
135,349,70623,1,10,0:2:0:0:
236,289,70863,1,2,3:2:0:0:
340,343,71103,1,10,0:3:0:0:
340,343,71223,1,8,0:2:0:0:
340,343,71343,1,8,1:3:0:0:
414,251,71583,2,0,L|426:200,1,45.3750013847352,10|0,0:2|1:2,0:0:0:0:
466,165,71823,2,0,L|478:114,1,45.3750013847352,2|0,3:2|3:2,0:0:0:0:
453,66,72063,6,0,P|406:43|365:51,1,90.7500027694703,2|2,1:2|0:2,0:2:0:0:
329,92,72423,1,8,0:3:0:0:
329,92,72543,1,10,0:2:0:0:
213,118,72783,1,10,3:3:0:0:
144,21,73023,1,2,1:2:0:0:
144,21,73143,1,8,0:2:0:0:
144,21,73263,2,0,P|98:12|49:30,1,90.7500027694703,8|8,3:3|0:2,0:2:0:0:
22,73,73623,2,0,L|41:165,1,90.7500027694703,8|0,1:3|0:2,0:0:0:0:
24,219,73983,6,0,B|76:212|76:212|107:227|107:227|169:219,1,136.125004154205,2|8,1:2|0:3,0:2:0:0:
213,206,74463,1,8,0:2:0:0:
304,131,74703,1,2,3:2:0:0:
304,131,74823,1,10,0:3:0:0:
304,131,74943,2,0,B|396:111|396:111|456:147,1,136.125004154205,2|8,1:2|1:3,0:0:0:0:
481,165,75423,1,8,0:2:0:0:
498,281,75663,1,10,0:2:0:0:
498,281,75783,1,2,3:2:0:0:
498,281,75903,6,0,B|427:259|445:321|370:304,1,136.125004154205,10|4,0:3|1:3,0:0:0:0:
335,256,76383,1,12,0:2:0:0:
312,251,76503,1,8,0:2:0:0:
289,246,76623,1,10,0:2:0:0:
266,241,76743,1,10,0:2:0:0:
235,207,76863,2,0,L|185:220,3,45.3750013847352,6|10|10|10,1:3|1:3|1:3|1:3,0:0:0:0:
153,264,77343,2,0,L|103:251,3,45.3750013847352,10|10|10|10,1:2|1:3|1:3|1:3,0:0:0:0:
60,229,77823,6,0,P|44:288|83:354,1,123.75,6|10,1:2|1:3,0:2:0:0:
107,376,78303,2,0,L|200:358,1,82.5,10|10,0:2|1:3,0:2:0:0:
268,302,78783,1,2,1:2:0:0:
268,302,78903,1,2,0:2:0:0:
268,302,79023,2,0,L|327:313,1,41.25,2|10,3:2|1:3,0:0:0:0:
346,340,79263,2,0,P|376:311|423:306,1,82.5,10|10,0:2|1:3,0:2:0:0:
510,275,79743,6,0,L|494:188,1,82.5,2|0,1:2|3:2,0:2:0:0:
506,145,80103,1,10,1:3:0:0:
506,145,80223,2,0,L|424:132,1,82.5,8|6,0:2|1:3,0:2:0:0:
350,65,80703,2,0,L|295:76,3,41.25,2|2|2|6,1:2|3:2|3:2|1:3,0:0:0:0:
279,113,81183,2,0,L|192:99,1,82.5,10|2,0:2|3:2,0:2:0:0:
154,124,81543,1,0,3:2:0:0:
154,124,81663,6,0,P|145:61|91:19,2,123.75,2|10|10,1:2|1:3|1:3,0:2:0:0:
79,189,82623,2,0,L|90:241,3,41.25,2|2|2|10,1:2|0:2|3:2|1:3,0:0:0:0:
68,275,83103,1,10,0:2:0:0:
118,360,83343,1,0,3:2:0:0:
214,339,83583,6,0,P|259:318|310:328,1,82.5,2|0,1:2|3:2,0:2:0:0:
332,347,83943,1,8,1:3:0:0:
332,347,84063,2,0,L|351:244,1,82.5,14|8,0:2|0:2,0:2:0:0:
426,207,84543,2,0,L|417:155,3,41.25,2|10|10|6,1:2|0:3|3:3|1:3,0:0:0:0:
444,123,85023,1,8,0:2:0:0:
449,103,85143,1,8,0:3:0:0:
454,83,85263,1,8,1:3:0:0:
459,63,85383,1,4,3:3:0:0:
444,33,85503,5,10,1:3:0:0:
346,51,85863,5,6,1:3:0:0:
248,69,86223,5,6,1:3:0:0:
150,87,86583,5,6,1:3:0:0:
52,105,86943,5,6,1:3:0:0:
